osu file format v14

[General]
AudioFilename: audio.mp3
AudioLeadIn: 0
PreviewTime: 92266
Countdown: 0
SampleSet: Soft
StackLeniency: 0.7
Mode: 3
LetterboxInBreaks: 0
SpecialStyle: 0
WidescreenStoryboard: 1

[Editor]
DistanceSpacing: 1.4
BeatDivisor: 16
GridSize: 4
TimelineZoom: 1

[Metadata]
Title:Nanamori (iMeiden Remix)
TitleUnicode:Nanamori (iMeiden Remix)
Artist:Kotori
ArtistUnicode:Kotori
Creator:Hamakaze_poi
Version:MD Space toner
Source:
Tags:iMeiden Remix
BeatmapID:1378776
BeatmapSetID:650684

[Difficulty]
HPDrainRate:6
CircleSize:4
OverallDifficulty:6
ApproachRate:5
SliderMultiplier:1.3
SliderTickRate:1

[Events]
//Background and Video events
0,0,"screenshot0004.png",0,0
//Break Periods
//Storyboard Layer 0 (Background)
//Storyboard Layer 1 (Fail)
//Storyboard Layer 2 (Pass)
//Storyboard Layer 3 (Foreground)
//Storyboard Sound Samples

[TimingPoints]
1714,631.578947368421,4,2,0,26,1,0
1714,-111.111111111111,4,2,0,26,0,0
19399,-100000000000,4,2,0,26,0,0
20661,-133.333333333333,4,2,0,26,0,0
21924,-100,4,2,0,26,0,0
32029,-100,4,2,0,26,0,0
42134,-100,4,2,0,26,0,0
82556,-100,4,2,0,26,0,1
92029,-100,4,2,0,26,0,0
92661,-100,4,2,0,26,0,1
100240,-100,4,2,0,26,0,0
102292,-66.6666666666667,4,2,0,26,0,0
102766,-100,4,2,0,26,0,1
112240,-200,4,2,0,26,0,0
112871,-100,4,2,0,26,0,1
122977,-100,4,2,0,26,0,0
140660,-125,4,2,0,26,0,0
141924,-200,4,2,0,26,0,0
143187,-100,4,2,0,26,0,0
203502,-57.1428571428571,4,2,0,26,0,0
203819,-100,4,2,0,26,0,1
213292,-100,4,2,0,26,0,0
213924,-100,4,2,0,26,0,1
221503,-100,4,2,0,26,0,0
223714,-57.1428571428571,4,2,0,26,0,0
224029,-100,4,2,0,26,0,1
233503,-250,4,2,0,26,0,0
234135,-100,4,2,0,26,0,1
244240,-100,4,2,0,26,0,0

[HitObjects]
320,192,1714,5,0,0:0:0:0:
448,192,1714,1,0,0:0:0:0:
320,192,2029,1,0,0:0:0:0:
192,192,2345,1,0,0:0:0:0:
448,192,2503,1,0,0:0:0:0:
192,192,2661,1,0,0:0:0:0:
448,192,2819,1,0,0:0:0:0:
320,192,2977,1,0,0:0:0:0:
192,192,3292,1,0,0:0:0:0:
320,192,3608,1,0,0:0:0:0:
64,192,3766,1,0,0:0:0:0:
320,192,3924,1,0,0:0:0:0:
64,192,4082,1,0,0:0:0:0:
448,192,4240,1,0,0:0:0:0:
64,192,4556,1,0,0:0:0:0:
320,192,4871,1,0,0:0:0:0:
448,192,5029,1,0,0:0:0:0:
320,192,5187,1,0,0:0:0:0:
192,192,5345,1,0,0:0:0:0:
64,192,5503,1,0,0:0:0:0:
448,192,5819,1,0,0:0:0:0:
192,192,6135,1,0,0:0:0:0:
448,192,6450,1,0,0:0:0:0:
448,192,6766,1,0,0:0:0:0:
64,192,7082,1,0,0:0:0:0:
448,192,7398,1,0,0:0:0:0:
192,192,7556,1,0,0:0:0:0:
448,192,7714,1,0,0:0:0:0:
192,192,7871,1,0,0:0:0:0:
448,192,8029,1,0,0:0:0:0:
192,192,8345,1,0,0:0:0:0:
448,192,8661,1,0,0:0:0:0:
320,192,8819,1,0,0:0:0:0:
64,192,8977,1,0,0:0:0:0:
192,192,9135,1,0,0:0:0:0:
320,192,9292,1,0,0:0:0:0:
448,192,9292,1,0,0:0:0:0:
192,192,9608,1,0,0:0:0:0:
448,192,9924,1,0,0:0:0:0:
64,192,10082,1,0,0:0:0:0:
192,192,10240,1,0,0:0:0:0:
448,192,10398,1,0,0:0:0:0:
192,192,10556,1,0,0:0:0:0:
64,192,10871,1,0,0:0:0:0:
192,192,11187,1,0,0:0:0:0:
320,192,11503,1,0,0:0:0:0:
320,192,11819,1,0,0:0:0:0:
448,192,11819,1,0,0:0:0:0:
192,192,12135,1,0,0:0:0:0:
320,192,12450,1,0,0:0:0:0:
64,192,12608,1,0,0:0:0:0:
320,192,12766,1,0,0:0:0:0:
64,192,12924,1,0,0:0:0:0:
448,192,13082,1,0,0:0:0:0:
192,192,13398,1,0,0:0:0:0:
448,192,13714,1,0,0:0:0:0:
64,192,14029,1,0,0:0:0:0:
320,192,14345,1,0,0:0:0:0:
448,192,14345,1,0,0:0:0:0:
64,192,14661,1,0,0:0:0:0:
192,192,14977,1,0,0:0:0:0:
448,192,15135,1,0,0:0:0:0:
192,192,15292,1,0,0:0:0:0:
448,192,15450,1,0,0:0:0:0:
320,192,15608,1,0,0:0:0:0:
192,192,15924,1,0,0:0:0:0:
64,192,16240,1,0,0:0:0:0:
320,192,16556,1,0,0:0:0:0:
448,192,16871,1,0,0:0:0:0:
64,192,16871,1,0,0:0:0:0:
320,192,17187,1,0,0:0:0:0:
192,192,17503,1,0,0:0:0:0:
448,192,17661,1,0,0:0:0:0:
64,192,17819,1,0,0:0:0:0:
448,192,17977,1,0,0:0:0:0:
192,192,18135,1,0,0:0:0:0:
64,192,18450,1,0,0:0:0:0:
192,192,18766,1,0,0:0:0:0:
448,192,19082,1,0,0:0:0:0:
192,192,19398,1,0,0:0:0:0:
64,192,19398,1,0,0:0:0:0:
448,192,21924,1,0,0:0:0:0:
320,192,21924,1,0,0:0:0:0:
192,192,22240,1,0,0:0:0:0:
448,192,22556,1,0,0:0:0:0:
192,192,22871,1,0,0:0:0:0:
448,192,23029,1,0,0:0:0:0:
320,192,23345,1,0,0:0:0:0:
192,192,23503,1,0,0:0:0:0:
64,192,23661,1,0,0:0:0:0:
448,192,23819,1,0,0:0:0:0:
320,192,24135,1,0,0:0:0:0:
192,192,24450,1,0,0:0:0:0:
448,192,24450,1,0,0:0:0:0:
64,192,24766,1,0,0:0:0:0:
320,192,25082,1,0,0:0:0:0:
64,192,25398,1,0,0:0:0:0:
448,192,25556,1,0,0:0:0:0:
192,192,25871,1,0,0:0:0:0:
448,192,26029,1,0,0:0:0:0:
64,192,26187,1,0,0:0:0:0:
448,192,26345,1,0,0:0:0:0:
64,192,26661,1,0,0:0:0:0:
448,192,26977,1,0,0:0:0:0:
192,192,26977,1,0,0:0:0:0:
320,192,27292,1,0,0:0:0:0:
192,192,27608,1,0,0:0:0:0:
448,192,27924,1,0,0:0:0:0:
320,192,28082,1,0,0:0:0:0:
64,192,28398,1,0,0:0:0:0:
448,192,28556,1,0,0:0:0:0:
192,192,28714,1,0,0:0:0:0:
64,192,28871,1,0,0:0:0:0:
448,192,29187,1,0,0:0:0:0:
320,192,29503,1,0,0:0:0:0:
64,192,29503,1,0,0:0:0:0:
192,192,29819,1,0,0:0:0:0:
448,192,30135,1,0,0:0:0:0:
192,192,30450,1,0,0:0:0:0:
320,192,30608,1,0,0:0:0:0:
320,192,31082,1,0,0:0:0:0:
64,192,31398,1,0,0:0:0:0:
320,192,31714,1,0,0:0:0:0:
192,192,32029,128,0,34556:0:0:0:0:
448,192,32029,1,0,0:0:0:0:
64,192,32345,1,0,0:0:0:0:
448,192,32661,1,0,0:0:0:0:
64,192,32977,1,0,0:0:0:0:
448,192,33292,1,0,0:0:0:0:
64,192,33608,1,0,0:0:0:0:
448,192,33924,1,0,0:0:0:0:
64,192,34240,1,0,0:0:0:0:
320,192,34556,128,0,37082:0:0:0:0:
448,192,34556,1,0,0:0:0:0:
64,192,34871,1,0,0:0:0:0:
448,192,35187,1,0,0:0:0:0:
64,192,35503,1,0,0:0:0:0:
192,192,35819,1,0,0:0:0:0:
448,192,36135,1,0,0:0:0:0:
192,192,36450,1,0,0:0:0:0:
64,192,36766,1,0,0:0:0:0:
192,192,37082,128,0,39608:0:0:0:0:
448,192,37082,1,0,0:0:0:0:
64,192,37398,1,0,0:0:0:0:
320,192,37714,1,0,0:0:0:0:
64,192,38029,1,0,0:0:0:0:
320,192,38345,1,0,0:0:0:0:
64,192,38661,1,0,0:0:0:0:
320,192,38977,1,0,0:0:0:0:
448,192,39292,1,0,0:0:0:0:
64,192,39608,128,0,42135:0:0:0:0:
320,192,39608,1,0,0:0:0:0:
192,192,39924,1,0,0:0:0:0:
448,192,40240,1,0,0:0:0:0:
192,192,40556,1,0,0:0:0:0:
320,192,40871,1,0,0:0:0:0:
448,192,41187,1,0,0:0:0:0:
320,192,41503,1,0,0:0:0:0:
192,192,41819,1,0,0:0:0:0:
320,192,42135,1,0,0:0:0:0:
448,192,42135,1,0,0:0:0:0:
192,192,42450,1,0,0:0:0:0:
192,192,42766,1,0,0:0:0:0:
448,192,42766,1,0,0:0:0:0:
64,192,43082,1,0,0:0:0:0:
192,192,43398,1,0,0:0:0:0:
320,192,43398,1,0,0:0:0:0:
448,192,43714,1,0,0:0:0:0:
64,192,44029,1,0,0:0:0:0:
192,192,44029,1,0,0:0:0:0:
448,192,44345,1,0,0:0:0:0:
320,192,44661,1,0,0:0:0:0:
64,192,44661,1,0,0:0:0:0:
192,192,44977,1,0,0:0:0:0:
192,192,45292,1,0,0:0:0:0:
64,192,45292,1,0,0:0:0:0:
64,192,45608,1,0,0:0:0:0:
192,192,45924,1,0,0:0:0:0:
448,192,45924,1,0,0:0:0:0:
320,192,46240,1,0,0:0:0:0:
64,192,46556,1,0,0:0:0:0:
320,192,46556,1,0,0:0:0:0:
192,192,46871,1,0,0:0:0:0:
192,192,47187,1,0,0:0:0:0:
448,192,47187,1,0,0:0:0:0:
192,192,47503,1,0,0:0:0:0:
64,192,47819,1,0,0:0:0:0:
192,192,47819,1,0,0:0:0:0:
448,192,48135,1,0,0:0:0:0:
320,192,48450,1,0,0:0:0:0:
64,192,48450,1,0,0:0:0:0:
192,192,48766,1,0,0:0:0:0:
64,192,49082,1,0,0:0:0:0:
448,192,49082,1,0,0:0:0:0:
192,192,49398,1,0,0:0:0:0:
192,192,49714,1,0,0:0:0:0:
448,192,49714,1,0,0:0:0:0:
320,192,50029,1,0,0:0:0:0:
448,192,50345,1,0,0:0:0:0:
320,192,50345,1,0,0:0:0:0:
448,192,50661,1,0,0:0:0:0:
448,192,50977,1,0,0:0:0:0:
192,192,50977,1,0,0:0:0:0:
320,192,51292,1,0,0:0:0:0:
320,192,51608,1,0,0:0:0:0:
64,192,51608,1,0,0:0:0:0:
192,192,51924,1,0,0:0:0:0:
64,192,52240,1,0,0:0:0:0:
448,192,52240,1,0,0:0:0:0:
192,192,52714,1,0,0:0:0:0:
320,192,52714,1,0,0:0:0:0:
192,192,53187,1,0,0:0:0:0:
320,192,53187,1,0,0:0:0:0:
192,192,53503,1,0,0:0:0:0:
448,192,53503,1,0,0:0:0:0:
64,192,53977,1,0,0:0:0:0:
320,192,53977,1,0,0:0:0:0:
448,192,54135,1,0,0:0:0:0:
192,192,54450,1,0,0:0:0:0:
320,192,54450,1,0,0:0:0:0:
64,192,54766,1,0,0:0:0:0:
320,192,54766,1,0,0:0:0:0:
192,192,55240,1,0,0:0:0:0:
448,192,55240,1,0,0:0:0:0:
320,192,55714,1,0,0:0:0:0:
64,192,55714,1,0,0:0:0:0:
320,192,56029,1,0,0:0:0:0:
448,192,56029,1,0,0:0:0:0:
64,192,56503,1,0,0:0:0:0:
320,192,56503,1,0,0:0:0:0:
448,192,56661,1,0,0:0:0:0:
64,192,56977,1,0,0:0:0:0:
320,192,56977,1,0,0:0:0:0:
320,192,57292,1,0,0:0:0:0:
192,192,57292,1,0,0:0:0:0:
320,192,57766,1,0,0:0:0:0:
448,192,57766,1,0,0:0:0:0:
192,192,58240,1,0,0:0:0:0:
320,192,58240,1,0,0:0:0:0:
64,192,58556,1,0,0:0:0:0:
192,192,58556,1,0,0:0:0:0:
320,192,59029,1,0,0:0:0:0:
448,192,59029,1,0,0:0:0:0:
64,192,59345,1,0,0:0:0:0:
192,192,59503,1,0,0:0:0:0:
448,192,59503,1,0,0:0:0:0:
64,192,59819,1,0,0:0:0:0:
192,192,59819,1,0,0:0:0:0:
448,192,59819,1,0,0:0:0:0:
192,192,60292,1,0,0:0:0:0:
320,192,60292,1,0,0:0:0:0:
448,192,60766,1,0,0:0:0:0:
320,192,60766,1,0,0:0:0:0:
64,192,61082,1,0,0:0:0:0:
192,192,61082,1,0,0:0:0:0:
320,192,61556,1,0,0:0:0:0:
448,192,61556,1,0,0:0:0:0:
64,192,62029,1,0,0:0:0:0:
192,192,62187,1,0,0:0:0:0:
320,192,62345,1,0,0:0:0:0:
448,192,62345,1,0,0:0:0:0:
320,192,62661,1,0,0:0:0:0:
64,192,62977,1,0,0:0:0:0:
320,192,63292,1,0,0:0:0:0:
64,192,63608,1,0,0:0:0:0:
448,192,63924,1,0,0:0:0:0:
64,192,64240,1,0,0:0:0:0:
320,192,64398,1,0,0:0:0:0:
320,192,64714,1,0,0:0:0:0:
64,192,64871,1,0,0:0:0:0:
192,192,64871,1,0,0:0:0:0:
64,192,65187,1,0,0:0:0:0:
448,192,65503,1,0,0:0:0:0:
320,192,65819,1,0,0:0:0:0:
64,192,66135,1,0,0:0:0:0:
448,192,66450,1,0,0:0:0:0:
192,192,66608,1,0,0:0:0:0:
64,192,66766,1,0,0:0:0:0:
448,192,67082,1,0,0:0:0:0:
192,192,67398,1,0,0:0:0:0:
448,192,67398,1,0,0:0:0:0:
320,192,67714,1,0,0:0:0:0:
64,192,68029,1,0,0:0:0:0:
320,192,68345,1,0,0:0:0:0:
192,192,68661,1,0,0:0:0:0:
448,192,68977,1,0,0:0:0:0:
320,192,69292,1,0,0:0:0:0:
64,192,69450,1,0,0:0:0:0:
64,192,69766,1,0,0:0:0:0:
448,192,69924,1,0,0:0:0:0:
192,192,69924,1,0,0:0:0:0:
192,192,70240,1,0,0:0:0:0:
448,192,70556,1,0,0:0:0:0:
320,192,70871,1,0,0:0:0:0:
64,192,71187,1,0,0:0:0:0:
320,192,71503,1,0,0:0:0:0:
64,192,71819,1,0,0:0:0:0:
192,192,72135,1,0,0:0:0:0:
448,192,72135,1,0,0:0:0:0:
320,192,72292,1,0,0:0:0:0:
192,192,72450,1,0,0:0:0:0:
448,192,72608,1,0,0:0:0:0:
64,192,72766,1,0,0:0:0:0:
448,192,72924,1,0,0:0:0:0:
64,192,73082,1,0,0:0:0:0:
448,192,73240,1,0,0:0:0:0:
64,192,73398,1,0,0:0:0:0:
320,192,73556,1,0,0:0:0:0:
192,192,73714,1,0,0:0:0:0:
320,192,73871,1,0,0:0:0:0:
448,192,74029,1,0,0:0:0:0:
320,192,74187,1,0,0:0:0:0:
192,192,74345,1,0,0:0:0:0:
64,192,74503,1,0,0:0:0:0:
448,192,74661,1,0,0:0:0:0:
192,192,74819,1,0,0:0:0:0:
64,192,74977,1,0,0:0:0:0:
192,192,75135,1,0,0:0:0:0:
320,192,75292,1,0,0:0:0:0:
448,192,75450,1,0,0:0:0:0:
320,192,75608,1,0,0:0:0:0:
64,192,75766,1,0,0:0:0:0:
320,192,75924,1,0,0:0:0:0:
64,192,76082,1,0,0:0:0:0:
320,192,76240,1,0,0:0:0:0:
64,192,76398,1,0,0:0:0:0:
320,192,76556,1,0,0:0:0:0:
192,192,76714,1,0,0:0:0:0:
320,192,76871,1,0,0:0:0:0:
448,192,77029,1,0,0:0:0:0:
64,192,77187,1,0,0:0:0:0:
192,192,77345,1,0,0:0:0:0:
320,192,77503,1,0,0:0:0:0:
448,192,77503,128,0,80029:0:0:0:0:
192,192,77661,1,0,0:0:0:0:
64,192,77819,1,0,0:0:0:0:
192,192,77977,1,0,0:0:0:0:
320,192,78135,1,0,0:0:0:0:
192,192,78292,1,0,0:0:0:0:
64,192,78450,1,0,0:0:0:0:
192,192,78608,1,0,0:0:0:0:
320,192,78766,1,0,0:0:0:0:
192,192,78924,1,0,0:0:0:0:
64,192,79082,1,0,0:0:0:0:
192,192,79240,1,0,0:0:0:0:
320,192,79398,1,0,0:0:0:0:
64,192,79556,1,0,0:0:0:0:
192,192,79714,1,0,0:0:0:0:
320,192,79871,1,0,0:0:0:0:
64,192,80029,1,0,0:0:0:0:
192,192,80187,1,0,0:0:0:0:
320,192,80345,1,0,0:0:0:0:
448,192,80503,1,0,0:0:0:0:
320,192,80661,1,0,0:0:0:0:
192,192,80819,1,0,0:0:0:0:
64,192,80977,1,0,0:0:0:0:
320,192,81135,1,0,0:0:0:0:
448,192,81292,1,0,0:0:0:0:
320,192,81371,1,0,0:0:0:0:
64,192,81450,1,0,0:0:0:0:
320,192,81608,1,0,0:0:0:0:
192,192,81766,1,0,0:0:0:0:
320,192,82556,1,0,0:0:0:0:
64,192,82556,1,0,0:0:0:0:
192,192,82871,1,0,0:0:0:0:
448,192,83187,1,0,0:0:0:0:
64,192,83187,1,0,0:0:0:0:
320,192,83503,1,0,0:0:0:0:
320,192,83819,1,0,0:0:0:0:
448,192,83819,1,0,0:0:0:0:
320,192,84135,1,0,0:0:0:0:
320,192,84450,1,0,0:0:0:0:
64,192,84450,1,0,0:0:0:0:
192,192,84766,1,0,0:0:0:0:
64,192,85082,1,0,0:0:0:0:
192,192,85082,1,0,0:0:0:0:
448,192,85398,1,0,0:0:0:0:
320,192,85714,1,0,0:0:0:0:
448,192,85714,1,0,0:0:0:0:
64,192,86029,1,0,0:0:0:0:
192,192,86345,1,0,0:0:0:0:
64,192,86345,1,0,0:0:0:0:
448,192,86661,1,0,0:0:0:0:
64,192,86977,1,0,0:0:0:0:
192,192,86977,1,0,0:0:0:0:
448,192,87292,1,0,0:0:0:0:
448,192,87608,1,0,0:0:0:0:
192,192,87608,1,0,0:0:0:0:
320,192,87924,1,0,0:0:0:0:
64,192,88240,1,0,0:0:0:0:
448,192,88240,1,0,0:0:0:0:
192,192,88556,1,0,0:0:0:0:
64,192,88871,1,0,0:0:0:0:
320,192,88871,1,0,0:0:0:0:
448,192,89187,1,0,0:0:0:0:
64,192,89503,1,0,0:0:0:0:
320,192,89503,1,0,0:0:0:0:
192,192,89819,1,0,0:0:0:0:
64,192,90135,1,0,0:0:0:0:
448,192,90135,1,0,0:0:0:0:
192,192,90450,1,0,0:0:0:0:
192,192,90766,1,0,0:0:0:0:
448,192,90766,1,0,0:0:0:0:
320,192,91082,1,0,0:0:0:0:
192,192,91398,1,0,0:0:0:0:
64,192,91398,1,0,0:0:0:0:
320,192,91714,1,0,0:0:0:0:
64,192,92029,1,0,0:0:0:0:
192,192,92108,1,0,0:0:0:0:
320,192,92187,1,0,0:0:0:0:
64,192,92661,1,0,0:0:0:0:
192,192,92661,1,0,0:0:0:0:
192,192,92977,1,0,0:0:0:0:
320,192,93292,1,0,0:0:0:0:
448,192,93292,1,0,0:0:0:0:
64,192,93608,1,0,0:0:0:0:
192,192,93924,1,0,0:0:0:0:
448,192,93924,1,0,0:0:0:0:
448,192,94240,1,0,0:0:0:0:
64,192,94556,1,0,0:0:0:0:
192,192,94556,1,0,0:0:0:0:
192,192,94871,1,0,0:0:0:0:
320,192,95187,1,0,0:0:0:0:
448,192,95187,1,0,0:0:0:0:
64,192,95503,1,0,0:0:0:0:
192,192,95819,1,0,0:0:0:0:
320,192,95819,1,0,0:0:0:0:
448,192,96135,1,0,0:0:0:0:
64,192,96450,1,0,0:0:0:0:
192,192,96450,1,0,0:0:0:0:
192,192,96766,1,0,0:0:0:0:
320,192,97082,1,0,0:0:0:0:
448,192,97082,1,0,0:0:0:0:
64,192,97398,1,0,0:0:0:0:
192,192,97714,1,0,0:0:0:0:
448,192,97714,1,0,0:0:0:0:
192,192,98029,1,0,0:0:0:0:
320,192,98345,1,0,0:0:0:0:
64,192,98345,1,0,0:0:0:0:
448,192,98661,1,0,0:0:0:0:
192,192,98977,1,0,0:0:0:0:
320,192,98977,1,0,0:0:0:0:
64,192,99292,1,0,0:0:0:0:
192,192,99608,1,0,0:0:0:0:
448,192,99608,1,0,0:0:0:0:
448,192,99924,1,0,0:0:0:0:
64,192,100240,1,0,0:0:0:0:
320,192,100398,1,0,0:0:0:0:
64,192,100556,1,0,0:0:0:0:
192,192,100714,1,0,0:0:0:0:
320,192,100871,1,0,0:0:0:0:
448,192,101029,1,0,0:0:0:0:
192,192,101187,1,0,0:0:0:0:
64,192,101345,1,0,0:0:0:0:
320,192,101503,1,0,0:0:0:0:
64,192,101661,1,0,0:0:0:0:
320,192,101819,1,0,0:0:0:0:
64,192,101977,1,0,0:0:0:0:
320,192,102135,1,0,0:0:0:0:
448,192,102766,1,0,0:0:0:0:
64,192,102766,1,0,0:0:0:0:
320,192,103082,1,0,0:0:0:0:
192,192,103398,1,0,0:0:0:0:
320,192,103398,1,0,0:0:0:0:
192,192,103714,1,0,0:0:0:0:
64,192,104029,1,0,0:0:0:0:
448,192,104029,1,0,0:0:0:0:
320,192,104345,1,0,0:0:0:0:
64,192,104661,1,0,0:0:0:0:
192,192,104661,1,0,0:0:0:0:
448,192,104977,1,0,0:0:0:0:
192,192,105292,1,0,0:0:0:0:
448,192,105292,1,0,0:0:0:0:
320,192,105608,1,0,0:0:0:0:
64,192,105924,1,0,0:0:0:0:
448,192,105924,1,0,0:0:0:0:
192,192,106240,1,0,0:0:0:0:
64,192,106556,1,0,0:0:0:0:
192,192,106556,1,0,0:0:0:0:
448,192,106871,1,0,0:0:0:0:
64,192,107187,1,0,0:0:0:0:
192,192,107187,1,0,0:0:0:0:
320,192,107503,1,0,0:0:0:0:
192,192,107819,1,0,0:0:0:0:
448,192,107819,1,0,0:0:0:0:
320,192,108135,1,0,0:0:0:0:
64,192,108450,1,0,0:0:0:0:
320,192,108450,1,0,0:0:0:0:
192,192,108766,1,0,0:0:0:0:
192,192,109082,1,0,0:0:0:0:
320,192,109082,1,0,0:0:0:0:
320,192,109398,1,0,0:0:0:0:
64,192,109714,1,0,0:0:0:0:
320,192,109714,1,0,0:0:0:0:
192,192,110029,1,0,0:0:0:0:
320,192,110345,1,0,0:0:0:0:
448,192,110345,1,0,0:0:0:0:
320,192,110661,1,0,0:0:0:0:
192,192,110977,1,0,0:0:0:0:
448,192,110977,1,0,0:0:0:0:
320,192,111292,1,0,0:0:0:0:
320,192,111608,1,0,0:0:0:0:
448,192,111608,1,0,0:0:0:0:
192,192,111924,1,0,0:0:0:0:
320,192,112240,1,0,0:0:0:0:
64,192,112240,1,0,0:0:0:0:
192,192,112871,1,0,0:0:0:0:
448,192,112871,1,0,0:0:0:0:
192,192,113187,1,0,0:0:0:0:
64,192,113503,1,0,0:0:0:0:
192,192,113503,1,0,0:0:0:0:
192,192,113819,1,0,0:0:0:0:
64,192,114135,1,0,0:0:0:0:
448,192,114135,1,0,0:0:0:0:
320,192,114450,1,0,0:0:0:0:
192,192,114766,1,0,0:0:0:0:
320,192,114766,1,0,0:0:0:0:
448,192,115082,1,0,0:0:0:0:
64,192,115398,1,0,0:0:0:0:
320,192,115398,1,0,0:0:0:0:
192,192,115714,1,0,0:0:0:0:
64,192,116029,1,0,0:0:0:0:
448,192,116029,1,0,0:0:0:0:
192,192,116345,1,0,0:0:0:0:
64,192,116661,1,0,0:0:0:0:
320,192,116661,1,0,0:0:0:0:
448,192,116977,1,0,0:0:0:0:
64,192,117292,1,0,0:0:0:0:
320,192,117292,1,0,0:0:0:0:
448,192,117608,1,0,0:0:0:0:
64,192,117924,1,0,0:0:0:0:
448,192,117924,1,0,0:0:0:0:
448,192,118240,1,0,0:0:0:0:
64,192,118556,1,0,0:0:0:0:
192,192,118556,1,0,0:0:0:0:
192,192,118871,1,0,0:0:0:0:
320,192,119187,1,0,0:0:0:0:
448,192,119187,1,0,0:0:0:0:
192,192,119503,1,0,0:0:0:0:
64,192,119819,1,0,0:0:0:0:
192,192,119819,1,0,0:0:0:0:
192,192,120135,1,0,0:0:0:0:
448,192,120450,1,0,0:0:0:0:
192,192,120766,1,0,0:0:0:0:
448,192,121082,1,0,0:0:0:0:
64,192,121398,1,0,0:0:0:0:
192,192,121714,1,0,0:0:0:0:
448,192,122029,1,0,0:0:0:0:
192,192,122345,1,0,0:0:0:0:
320,192,122661,1,0,0:0:0:0:
192,192,122977,128,0,125503:0:0:0:0:
64,192,122977,1,0,0:0:0:0:
448,192,123292,1,0,0:0:0:0:
320,192,123608,1,0,0:0:0:0:
64,192,123924,1,0,0:0:0:0:
320,192,124240,1,0,0:0:0:0:
448,192,124556,1,0,0:0:0:0:
320,192,124871,1,0,0:0:0:0:
64,192,125187,1,0,0:0:0:0:
320,192,125503,128,0,128029:0:0:0:0:
448,192,125503,1,0,0:0:0:0:
64,192,125819,1,0,0:0:0:0:
192,192,126135,1,0,0:0:0:0:
448,192,126450,1,0,0:0:0:0:
64,192,126766,1,0,0:0:0:0:
192,192,127082,1,0,0:0:0:0:
448,192,127398,1,0,0:0:0:0:
192,192,127714,1,0,0:0:0:0:
192,192,128029,128,0,130556:0:0:0:0:
64,192,128029,1,0,0:0:0:0:
448,192,128345,1,0,0:0:0:0:
320,192,128661,1,0,0:0:0:0:
64,192,128977,1,0,0:0:0:0:
320,192,129292,1,0,0:0:0:0:
64,192,129608,1,0,0:0:0:0:
320,192,129924,1,0,0:0:0:0:
448,192,130240,1,0,0:0:0:0:
448,192,130556,128,0,133082:0:0:0:0:
64,192,130556,1,0,0:0:0:0:
320,192,130871,128,0,131029:0:0:0:0:
64,192,131187,128,0,131345:0:0:0:0:
320,192,131503,128,0,131661:0:0:0:0:
64,192,131661,128,0,131819:0:0:0:0:
320,192,132135,128,0,132292:0:0:0:0:
192,192,132450,128,0,132608:0:0:0:0:
64,192,132766,128,0,133082:0:0:0:0:
320,192,133082,128,0,135608:0:0:0:0:
192,192,133082,128,0,135608:0:0:0:0:
448,192,135608,128,0,138135:0:0:0:0:
64,192,135608,128,0,138135:0:0:0:0:
320,192,138135,128,0,140661:0:0:0:0:
192,192,138135,128,0,140661:0:0:0:0:
64,192,140661,128,0,143187:0:0:0:0:
320,192,143187,1,0,0:0:0:0:
192,192,143503,1,0,0:0:0:0:
320,192,143819,1,0,0:0:0:0:
448,192,144135,1,0,0:0:0:0:
192,192,144135,1,0,0:0:0:0:
320,192,144292,1,0,0:0:0:0:
64,192,144608,1,0,0:0:0:0:
192,192,144766,1,0,0:0:0:0:
448,192,145082,1,0,0:0:0:0:
320,192,145082,1,0,0:0:0:0:
192,192,145398,1,0,0:0:0:0:
320,192,145556,1,0,0:0:0:0:
64,192,145714,1,0,0:0:0:0:
192,192,145714,1,0,0:0:0:0:
320,192,146029,1,0,0:0:0:0:
64,192,146345,1,0,0:0:0:0:
320,192,146661,1,0,0:0:0:0:
64,192,146819,1,0,0:0:0:0:
192,192,147135,1,0,0:0:0:0:
64,192,147292,1,0,0:0:0:0:
448,192,147450,1,0,0:0:0:0:
192,192,147608,1,0,0:0:0:0:
448,192,147924,1,0,0:0:0:0:
64,192,148240,1,0,0:0:0:0:
320,192,148240,1,0,0:0:0:0:
448,192,148556,1,0,0:0:0:0:
320,192,148871,1,0,0:0:0:0:
64,192,149187,1,0,0:0:0:0:
320,192,149345,1,0,0:0:0:0:
192,192,149661,1,0,0:0:0:0:
320,192,149819,1,0,0:0:0:0:
320,192,150135,1,0,0:0:0:0:
448,192,150135,1,0,0:0:0:0:
64,192,150450,1,0,0:0:0:0:
192,192,150450,1,0,0:0:0:0:
320,192,150766,1,0,0:0:0:0:
448,192,150766,1,0,0:0:0:0:
192,192,151082,1,0,0:0:0:0:
320,192,151398,1,0,0:0:0:0:
448,192,151714,1,0,0:0:0:0:
320,192,151871,1,0,0:0:0:0:
192,192,152187,1,0,0:0:0:0:
320,192,152345,1,0,0:0:0:0:
448,192,152661,1,0,0:0:0:0:
64,192,152819,1,0,0:0:0:0:
448,192,153135,1,0,0:0:0:0:
64,192,153292,1,0,0:0:0:0:
192,192,153292,1,0,0:0:0:0:
320,192,153608,1,0,0:0:0:0:
192,192,153924,1,0,0:0:0:0:
448,192,154240,1,0,0:0:0:0:
320,192,154240,1,0,0:0:0:0:
192,192,154398,1,0,0:0:0:0:
448,192,154714,1,0,0:0:0:0:
320,192,154871,1,0,0:0:0:0:
64,192,155187,1,0,0:0:0:0:
192,192,155187,1,0,0:0:0:0:
448,192,155503,1,0,0:0:0:0:
320,192,155503,1,0,0:0:0:0:
192,192,155819,1,0,0:0:0:0:
448,192,155819,1,0,0:0:0:0:
320,192,156135,1,0,0:0:0:0:
192,192,156450,1,0,0:0:0:0:
320,192,156766,1,0,0:0:0:0:
448,192,156766,1,0,0:0:0:0:
192,192,156924,1,0,0:0:0:0:
64,192,157240,1,0,0:0:0:0:
192,192,157398,1,0,0:0:0:0:
448,192,157714,1,0,0:0:0:0:
320,192,158029,1,0,0:0:0:0:
64,192,158187,1,0,0:0:0:0:
320,192,158345,1,0,0:0:0:0:
448,192,158345,1,0,0:0:0:0:
192,192,158661,1,0,0:0:0:0:
448,192,158977,1,0,0:0:0:0:
64,192,159292,1,0,0:0:0:0:
192,192,159292,1,0,0:0:0:0:
448,192,159450,1,0,0:0:0:0:
320,192,159766,1,0,0:0:0:0:
192,192,159924,1,0,0:0:0:0:
320,192,160240,1,0,0:0:0:0:
448,192,160240,1,0,0:0:0:0:
192,192,160556,1,0,0:0:0:0:
320,192,160556,1,0,0:0:0:0:
64,192,160871,1,0,0:0:0:0:
192,192,160871,1,0,0:0:0:0:
320,192,161187,1,0,0:0:0:0:
192,192,161503,1,0,0:0:0:0:
192,192,161819,1,0,0:0:0:0:
320,192,161819,1,0,0:0:0:0:
64,192,161977,1,0,0:0:0:0:
192,192,162292,1,0,0:0:0:0:
448,192,162450,1,0,0:0:0:0:
320,192,162766,1,0,0:0:0:0:
448,192,162766,1,0,0:0:0:0:
192,192,163082,1,0,0:0:0:0:
64,192,163398,1,0,0:0:0:0:
192,192,163398,1,0,0:0:0:0:
320,192,163714,1,0,0:0:0:0:
448,192,164029,1,0,0:0:0:0:
192,192,164029,1,0,0:0:0:0:
192,192,164345,1,0,0:0:0:0:
64,192,164661,1,0,0:0:0:0:
448,192,164661,1,0,0:0:0:0:
192,192,164977,1,0,0:0:0:0:
64,192,165292,1,0,0:0:0:0:
320,192,165292,1,0,0:0:0:0:
448,192,165608,1,0,0:0:0:0:
64,192,165924,1,0,0:0:0:0:
448,192,165924,1,0,0:0:0:0:
320,192,166240,1,0,0:0:0:0:
64,192,166556,1,0,0:0:0:0:
192,192,166556,1,0,0:0:0:0:
448,192,166871,1,0,0:0:0:0:
64,192,167187,1,0,0:0:0:0:
192,192,167187,1,0,0:0:0:0:
320,192,167503,1,0,0:0:0:0:
448,192,167819,1,0,0:0:0:0:
64,192,167819,1,0,0:0:0:0:
320,192,168135,1,0,0:0:0:0:
64,192,168450,1,0,0:0:0:0:
448,192,168450,1,0,0:0:0:0:
192,192,168766,1,0,0:0:0:0:
320,192,169082,1,0,0:0:0:0:
448,192,169082,1,0,0:0:0:0:
320,192,169398,1,0,0:0:0:0:
64,192,169714,1,0,0:0:0:0:
192,192,169714,1,0,0:0:0:0:
192,192,170029,1,0,0:0:0:0:
448,192,170345,1,0,0:0:0:0:
64,192,170345,1,0,0:0:0:0:
320,192,170661,1,0,0:0:0:0:
64,192,170977,1,0,0:0:0:0:
448,192,170977,1,0,0:0:0:0:
320,192,171292,1,0,0:0:0:0:
64,192,171608,1,0,0:0:0:0:
448,192,171608,1,0,0:0:0:0:
320,192,171924,1,0,0:0:0:0:
64,192,172240,1,0,0:0:0:0:
192,192,172240,1,0,0:0:0:0:
320,192,172556,1,0,0:0:0:0:
192,192,172871,1,0,0:0:0:0:
64,192,172871,1,0,0:0:0:0:
192,192,173187,1,0,0:0:0:0:
192,192,173503,1,0,0:0:0:0:
448,192,173503,1,0,0:0:0:0:
448,192,173819,1,0,0:0:0:0:
320,192,173977,1,0,0:0:0:0:
64,192,174135,1,0,0:0:0:0:
192,192,174135,1,0,0:0:0:0:
320,192,174450,1,0,0:0:0:0:
320,192,174766,1,0,0:0:0:0:
64,192,174766,1,0,0:0:0:0:
64,192,175082,1,0,0:0:0:0:
192,192,175240,1,0,0:0:0:0:
320,192,175398,1,0,0:0:0:0:
448,192,175398,1,0,0:0:0:0:
64,192,175714,1,0,0:0:0:0:
320,192,175714,1,0,0:0:0:0:
192,192,176029,1,0,0:0:0:0:
320,192,176029,1,0,0:0:0:0:
448,192,176345,1,0,0:0:0:0:
320,192,176503,1,0,0:0:0:0:
192,192,176661,1,0,0:0:0:0:
64,192,176661,1,0,0:0:0:0:
320,192,176977,1,0,0:0:0:0:
320,192,177292,1,0,0:0:0:0:
448,192,177292,1,0,0:0:0:0:
64,192,177608,1,0,0:0:0:0:
192,192,177766,1,0,0:0:0:0:
448,192,177924,1,0,0:0:0:0:
320,192,177924,1,0,0:0:0:0:
448,192,178240,1,0,0:0:0:0:
192,192,178556,1,0,0:0:0:0:
448,192,178556,1,0,0:0:0:0:
64,192,178871,1,0,0:0:0:0:
320,192,179029,1,0,0:0:0:0:
64,192,179187,1,0,0:0:0:0:
192,192,179187,1,0,0:0:0:0:
192,192,179503,1,0,0:0:0:0:
64,192,179819,1,0,0:0:0:0:
192,192,179819,1,0,0:0:0:0:
64,192,180135,1,0,0:0:0:0:
320,192,180292,1,0,0:0:0:0:
64,192,180450,1,0,0:0:0:0:
192,192,180450,1,0,0:0:0:0:
320,192,180766,1,0,0:0:0:0:
64,192,181082,1,0,0:0:0:0:
448,192,181082,1,0,0:0:0:0:
448,192,181398,1,0,0:0:0:0:
64,192,181556,1,0,0:0:0:0:
320,192,181714,1,0,0:0:0:0:
448,192,181714,1,0,0:0:0:0:
192,192,182029,1,0,0:0:0:0:
64,192,182345,1,0,0:0:0:0:
320,192,182345,1,0,0:0:0:0:
320,192,182661,1,0,0:0:0:0:
64,192,182977,1,0,0:0:0:0:
320,192,183292,1,0,0:0:0:0:
448,192,183450,1,0,0:0:0:0:
320,192,183608,1,0,0:0:0:0:
192,192,183924,1,0,0:0:0:0:
64,192,184240,1,0,0:0:0:0:
320,192,184240,1,0,0:0:0:0:
448,192,184556,1,0,0:0:0:0:
64,192,184871,1,0,0:0:0:0:
320,192,184871,1,0,0:0:0:0:
320,192,185187,1,0,0:0:0:0:
64,192,185503,1,0,0:0:0:0:
192,192,185661,1,0,0:0:0:0:
320,192,185661,1,0,0:0:0:0:
320,192,185977,1,0,0:0:0:0:
64,192,186135,1,0,0:0:0:0:
192,192,186135,1,0,0:0:0:0:
448,192,186450,1,0,0:0:0:0:
64,192,186766,1,0,0:0:0:0:
192,192,186766,1,0,0:0:0:0:
448,192,187082,1,0,0:0:0:0:
64,192,187398,1,0,0:0:0:0:
192,192,187398,1,0,0:0:0:0:
448,192,187714,1,0,0:0:0:0:
320,192,187871,1,0,0:0:0:0:
64,192,188029,1,0,0:0:0:0:
192,192,188029,1,0,0:0:0:0:
448,192,188345,1,0,0:0:0:0:
64,192,188661,1,0,0:0:0:0:
192,192,188661,1,0,0:0:0:0:
320,192,188977,1,0,0:0:0:0:
192,192,189292,1,0,0:0:0:0:
320,192,189292,1,0,0:0:0:0:
64,192,189608,1,0,0:0:0:0:
192,192,189924,1,0,0:0:0:0:
320,192,189924,1,0,0:0:0:0:
320,192,190240,1,0,0:0:0:0:
64,192,190556,1,0,0:0:0:0:
192,192,190714,1,0,0:0:0:0:
320,192,190714,1,0,0:0:0:0:
64,192,191029,1,0,0:0:0:0:
192,192,191187,1,0,0:0:0:0:
320,192,191187,1,0,0:0:0:0:
320,192,191503,1,0,0:0:0:0:
448,192,191503,1,0,0:0:0:0:
64,192,191819,1,0,0:0:0:0:
320,192,192135,1,0,0:0:0:0:
192,192,192135,1,0,0:0:0:0:
448,192,192450,1,0,0:0:0:0:
192,192,192766,1,0,0:0:0:0:
448,192,192766,1,0,0:0:0:0:
64,192,193082,1,0,0:0:0:0:
192,192,193398,1,0,0:0:0:0:
320,192,193556,1,0,0:0:0:0:
192,192,193714,1,0,0:0:0:0:
448,192,193714,1,0,0:0:0:0:
320,192,194029,1,0,0:0:0:0:
64,192,194345,1,0,0:0:0:0:
320,192,194661,1,0,0:0:0:0:
448,192,194977,1,0,0:0:0:0:
64,192,195292,1,0,0:0:0:0:
448,192,195608,1,0,0:0:0:0:
192,192,195924,1,0,0:0:0:0:
64,192,196082,1,0,0:0:0:0:
320,192,196240,1,0,0:0:0:0:
192,192,196398,1,0,0:0:0:0:
448,192,196556,1,0,0:0:0:0:
64,192,196714,1,0,0:0:0:0:
448,192,196871,1,0,0:0:0:0:
320,192,197029,1,0,0:0:0:0:
192,192,197187,1,0,0:0:0:0:
64,192,197345,1,0,0:0:0:0:
448,192,197503,1,0,0:0:0:0:
320,192,197661,1,0,0:0:0:0:
192,192,197819,1,0,0:0:0:0:
64,192,197977,1,0,0:0:0:0:
192,192,198135,1,0,0:0:0:0:
320,192,198292,1,0,0:0:0:0:
448,192,198450,1,0,0:0:0:0:
64,192,198608,1,0,0:0:0:0:
192,192,198766,1,0,0:0:0:0:
320,192,198766,128,0,201292:0:0:0:0:
64,192,199082,1,0,0:0:0:0:
192,192,199240,1,0,0:0:0:0:
448,192,199398,1,0,0:0:0:0:
64,192,199556,1,0,0:0:0:0:
192,192,199714,1,0,0:0:0:0:
448,192,199871,1,0,0:0:0:0:
64,192,200029,1,0,0:0:0:0:
192,192,200187,1,0,0:0:0:0:
448,192,200345,1,0,0:0:0:0:
64,192,200503,1,0,0:0:0:0:
192,192,200661,1,0,0:0:0:0:
448,192,200819,1,0,0:0:0:0:
192,192,200977,1,0,0:0:0:0:
64,192,201135,1,0,0:0:0:0:
192,192,201292,1,0,0:0:0:0:
448,192,201450,1,0,0:0:0:0:
320,192,201608,1,0,0:0:0:0:
192,192,201766,1,0,0:0:0:0:
320,192,201924,1,0,0:0:0:0:
448,192,201924,1,0,0:0:0:0:
192,192,202082,1,0,0:0:0:0:
64,192,202240,1,0,0:0:0:0:
448,192,202398,1,0,0:0:0:0:
192,192,202556,1,0,0:0:0:0:
448,192,202714,1,0,0:0:0:0:
320,192,202792,1,0,0:0:0:0:
64,192,202950,1,0,0:0:0:0:
320,192,203819,1,0,0:0:0:0:
64,192,203819,1,0,0:0:0:0:
192,192,204135,1,0,0:0:0:0:
64,192,204450,1,0,0:0:0:0:
448,192,204450,1,0,0:0:0:0:
320,192,204766,1,0,0:0:0:0:
192,192,205082,1,0,0:0:0:0:
64,192,205082,1,0,0:0:0:0:
320,192,205398,1,0,0:0:0:0:
64,192,205714,1,0,0:0:0:0:
448,192,205714,1,0,0:0:0:0:
192,192,206029,1,0,0:0:0:0:
192,192,206345,1,0,0:0:0:0:
448,192,206345,1,0,0:0:0:0:
320,192,206661,1,0,0:0:0:0:
448,192,206977,1,0,0:0:0:0:
320,192,206977,1,0,0:0:0:0:
64,192,207292,1,0,0:0:0:0:
192,192,207608,1,0,0:0:0:0:
448,192,207608,1,0,0:0:0:0:
320,192,207924,1,0,0:0:0:0:
64,192,208240,1,0,0:0:0:0:
192,192,208240,1,0,0:0:0:0:
192,192,208556,1,0,0:0:0:0:
64,192,208871,1,0,0:0:0:0:
320,192,208871,1,0,0:0:0:0:
192,192,209187,1,0,0:0:0:0:
320,192,209503,1,0,0:0:0:0:
448,192,209503,1,0,0:0:0:0:
448,192,209819,1,0,0:0:0:0:
192,192,210135,1,0,0:0:0:0:
448,192,210135,1,0,0:0:0:0:
320,192,210450,1,0,0:0:0:0:
64,192,210766,1,0,0:0:0:0:
320,192,210766,1,0,0:0:0:0:
320,192,211082,1,0,0:0:0:0:
64,192,211398,1,0,0:0:0:0:
320,192,211398,1,0,0:0:0:0:
448,192,211714,1,0,0:0:0:0:
64,192,212029,1,0,0:0:0:0:
192,192,212029,1,0,0:0:0:0:
320,192,212345,1,0,0:0:0:0:
192,192,212661,1,0,0:0:0:0:
320,192,212661,1,0,0:0:0:0:
64,192,212977,1,0,0:0:0:0:
320,192,213292,128,0,213608:0:0:0:0:
448,192,213608,128,0,213924:0:0:0:0:
192,192,213924,1,0,0:0:0:0:
64,192,214240,1,0,0:0:0:0:
320,192,214556,1,0,0:0:0:0:
448,192,214556,1,0,0:0:0:0:
192,192,214871,1,0,0:0:0:0:
64,192,215187,1,0,0:0:0:0:
320,192,215187,1,0,0:0:0:0:
192,192,215503,1,0,0:0:0:0:
448,192,215819,1,0,0:0:0:0:
320,192,215819,1,0,0:0:0:0:
192,192,216135,1,0,0:0:0:0:
64,192,216450,1,0,0:0:0:0:
320,192,216450,1,0,0:0:0:0:
192,192,216766,1,0,0:0:0:0:
320,192,217082,1,0,0:0:0:0:
448,192,217082,1,0,0:0:0:0:
192,192,217398,1,0,0:0:0:0:
448,192,217714,1,0,0:0:0:0:
64,192,217714,1,0,0:0:0:0:
192,192,218029,1,0,0:0:0:0:
64,192,218345,1,0,0:0:0:0:
320,192,218345,1,0,0:0:0:0:
192,192,218661,1,0,0:0:0:0:
64,192,218977,1,0,0:0:0:0:
448,192,218977,1,0,0:0:0:0:
192,192,219292,1,0,0:0:0:0:
64,192,219608,1,0,0:0:0:0:
320,192,219608,1,0,0:0:0:0:
192,192,219924,1,0,0:0:0:0:
320,192,220240,1,0,0:0:0:0:
448,192,220240,1,0,0:0:0:0:
320,192,220556,1,0,0:0:0:0:
64,192,220871,1,0,0:0:0:0:
448,192,220871,1,0,0:0:0:0:
320,192,221187,1,0,0:0:0:0:
192,192,221503,1,0,0:0:0:0:
64,192,221661,1,0,0:0:0:0:
192,192,221819,1,0,0:0:0:0:
320,192,221977,1,0,0:0:0:0:
448,192,222135,1,0,0:0:0:0:
320,192,222292,1,0,0:0:0:0:
64,192,222450,1,0,0:0:0:0:
192,192,222608,1,0,0:0:0:0:
448,192,222766,128,0,223398:0:0:0:0:
320,192,222766,128,0,223398:0:0:0:0:
448,192,224029,1,0,0:0:0:0:
64,192,224029,1,0,0:0:0:0:
320,192,224345,1,0,0:0:0:0:
64,192,224661,1,0,0:0:0:0:
192,192,224661,1,0,0:0:0:0:
448,192,224977,1,0,0:0:0:0:
64,192,225292,1,0,0:0:0:0:
320,192,225292,1,0,0:0:0:0:
192,192,225608,1,0,0:0:0:0:
64,192,225924,1,0,0:0:0:0:
192,192,225924,1,0,0:0:0:0:
448,192,226240,1,0,0:0:0:0:
64,192,226556,1,0,0:0:0:0:
192,192,226556,1,0,0:0:0:0:
320,192,226871,1,0,0:0:0:0:
192,192,227187,1,0,0:0:0:0:
448,192,227187,1,0,0:0:0:0:
64,192,227503,1,0,0:0:0:0:
64,192,227819,1,0,0:0:0:0:
192,192,227819,1,0,0:0:0:0:
320,192,228135,1,0,0:0:0:0:
448,192,228450,1,0,0:0:0:0:
192,192,228450,1,0,0:0:0:0:
320,192,228766,1,0,0:0:0:0:
64,192,229082,1,0,0:0:0:0:
320,192,229082,1,0,0:0:0:0:
192,192,229398,1,0,0:0:0:0:
320,192,229714,1,0,0:0:0:0:
448,192,229714,1,0,0:0:0:0:
64,192,230029,1,0,0:0:0:0:
64,192,230345,1,0,0:0:0:0:
320,192,230345,1,0,0:0:0:0:
192,192,230661,1,0,0:0:0:0:
64,192,230977,1,0,0:0:0:0:
320,192,230977,1,0,0:0:0:0:
320,192,231292,1,0,0:0:0:0:
448,192,231608,1,0,0:0:0:0:
64,192,231608,1,0,0:0:0:0:
192,192,231924,1,0,0:0:0:0:
320,192,232240,1,0,0:0:0:0:
448,192,232240,1,0,0:0:0:0:
192,192,232556,1,0,0:0:0:0:
64,192,232871,1,0,0:0:0:0:
192,192,232871,1,0,0:0:0:0:
192,192,233187,1,0,0:0:0:0:
320,192,233503,1,0,0:0:0:0:
448,192,233503,1,0,0:0:0:0:
64,192,234135,1,0,0:0:0:0:
448,192,234135,1,0,0:0:0:0:
192,192,234450,1,0,0:0:0:0:
192,192,234766,1,0,0:0:0:0:
448,192,234766,1,0,0:0:0:0:
320,192,235082,1,0,0:0:0:0:
192,192,235398,1,0,0:0:0:0:
448,192,235398,1,0,0:0:0:0:
320,192,235714,1,0,0:0:0:0:
448,192,236029,1,0,0:0:0:0:
192,192,236029,1,0,0:0:0:0:
64,192,236345,1,0,0:0:0:0:
192,192,236661,1,0,0:0:0:0:
448,192,236661,1,0,0:0:0:0:
192,192,236977,1,0,0:0:0:0:
448,192,237292,1,0,0:0:0:0:
64,192,237292,1,0,0:0:0:0:
320,192,237608,1,0,0:0:0:0:
448,192,237924,1,0,0:0:0:0:
64,192,237924,1,0,0:0:0:0:
192,192,238240,1,0,0:0:0:0:
64,192,238556,1,0,0:0:0:0:
448,192,238556,1,0,0:0:0:0:
448,192,238871,1,0,0:0:0:0:
64,192,239029,1,0,0:0:0:0:
192,192,239187,1,0,0:0:0:0:
320,192,239187,1,0,0:0:0:0:
64,192,239503,1,0,0:0:0:0:
64,192,239819,1,0,0:0:0:0:
192,192,239819,1,0,0:0:0:0:
64,192,240135,1,0,0:0:0:0:
192,192,240450,1,0,0:0:0:0:
448,192,240450,1,0,0:0:0:0:
64,192,240766,1,0,0:0:0:0:
192,192,241082,1,0,0:0:0:0:
64,192,241082,1,0,0:0:0:0:
448,192,241398,1,0,0:0:0:0:
64,192,241714,1,0,0:0:0:0:
320,192,241871,1,0,0:0:0:0:
448,192,242029,1,0,0:0:0:0:
64,192,242187,1,0,0:0:0:0:
448,192,242345,1,0,0:0:0:0:
320,192,242503,1,0,0:0:0:0:
192,192,242661,1,0,0:0:0:0:
448,192,242819,1,0,0:0:0:0:
64,192,242977,1,0,0:0:0:0:
192,192,243135,1,0,0:0:0:0:
448,192,243292,1,0,0:0:0:0:
320,192,243450,1,0,0:0:0:0:
192,192,243608,1,0,0:0:0:0:
448,192,243766,1,0,0:0:0:0:
64,192,243924,1,0,0:0:0:0:
192,192,244082,1,0,0:0:0:0:
448,192,244240,128,0,246766:0:0:0:0:
320,192,244240,1,0,0:0:0:0:
192,192,244556,1,0,0:0:0:0:
64,192,244871,1,0,0:0:0:0:
192,192,245029,1,0,0:0:0:0:
320,192,245187,1,0,0:0:0:0:
192,192,245345,1,0,0:0:0:0:
64,192,245503,1,0,0:0:0:0:
192,192,245819,1,0,0:0:0:0:
192,192,246135,1,0,0:0:0:0:
320,192,246292,1,0,0:0:0:0:
64,192,246450,1,0,0:0:0:0:
192,192,246608,1,0,0:0:0:0:
320,192,246766,128,0,249292:0:0:0:0:
192,192,247082,1,0,0:0:0:0:
64,192,247398,1,0,0:0:0:0:
192,192,247556,1,0,0:0:0:0:
448,192,247714,1,0,0:0:0:0:
192,192,247871,1,0,0:0:0:0:
64,192,248029,1,0,0:0:0:0:
448,192,248345,1,0,0:0:0:0:
192,192,248661,1,0,0:0:0:0:
64,192,248819,1,0,0:0:0:0:
192,192,248977,1,0,0:0:0:0:
64,192,249135,1,0,0:0:0:0:
448,192,249292,128,0,251819:0:0:0:0:
320,192,249608,1,0,0:0:0:0:
192,192,249924,1,0,0:0:0:0:
64,192,250082,1,0,0:0:0:0:
320,192,250240,1,0,0:0:0:0:
64,192,250398,1,0,0:0:0:0:
192,192,250556,1,0,0:0:0:0:
64,192,250871,1,0,0:0:0:0:
320,192,251187,1,0,0:0:0:0:
192,192,251345,1,0,0:0:0:0:
64,192,251503,1,0,0:0:0:0:
320,192,251661,1,0,0:0:0:0:
192,192,251819,128,0,254345:0:0:0:0:
320,192,252135,1,0,0:0:0:0:
448,192,252450,1,0,0:0:0:0:
64,192,252608,1,0,0:0:0:0:
64,192,252924,1,0,0:0:0:0:
320,192,253082,1,0,0:0:0:0:
64,192,253398,1,0,0:0:0:0:
448,192,253714,1,0,0:0:0:0:
320,192,253871,1,0,0:0:0:0:
448,192,254029,1,0,0:0:0:0:
64,192,254187,1,0,0:0:0:0:
320,192,254345,128,0,256871:0:0:0:0:
192,192,254661,1,0,0:0:0:0:
448,192,254977,1,0,0:0:0:0:
64,192,255135,1,0,0:0:0:0:
192,192,255292,1,0,0:0:0:0:
448,192,255450,1,0,0:0:0:0:
192,192,255608,1,0,0:0:0:0:
64,192,255924,1,0,0:0:0:0:
448,192,256240,1,0,0:0:0:0:
192,192,256398,1,0,0:0:0:0:
448,192,256556,1,0,0:0:0:0:
64,192,256714,1,0,0:0:0:0:
192,192,256871,128,0,259398:0:0:0:0:
320,192,257187,1,0,0:0:0:0:
64,192,257503,1,0,0:0:0:0:
448,192,257661,1,0,0:0:0:0:
320,192,257819,1,0,0:0:0:0:
448,192,257977,1,0,0:0:0:0:
320,192,258135,1,0,0:0:0:0:
64,192,258450,1,0,0:0:0:0:
448,192,258766,1,0,0:0:0:0:
320,192,258924,1,0,0:0:0:0:
448,192,259082,1,0,0:0:0:0:
320,192,259240,1,0,0:0:0:0:
448,192,259398,128,0,261924:0:0:0:0:
64,192,259398,128,0,261924:0:0:0:0:
192,192,260029,1,0,0:0:0:0:
320,192,260661,1,0,0:0:0:0:
192,192,261292,1,0,0:0:0:0:
320,192,261924,128,0,264450:0:0:0:0:
192,192,261924,128,0,264450:0:0:0:0:
