osu file format v14

[General]
AudioFilename: audio.mp3
AudioLeadIn: 0
PreviewTime: 92266
Countdown: 0
SampleSet: Soft
StackLeniency: 0.7
Mode: 3
LetterboxInBreaks: 0
SpecialStyle: 0
WidescreenStoryboard: 0

[Editor]
DistanceSpacing: 1.4
BeatDivisor: 4
GridSize: 4
TimelineZoom: 2.5

[Metadata]
Title:Nanamori (iMeiden Remix)
TitleUnicode:Nanamori (iMeiden Remix)
Artist:Kotori
ArtistUnicode:Kotori
Creator:Hamakaze_poi
Version:HD EXtelia
Source:
Tags:iMeiden Remix
BeatmapID:1378775
BeatmapSetID:650684

[Difficulty]
HPDrainRate:7
CircleSize:4
OverallDifficulty:8
ApproachRate:5
SliderMultiplier:1.3
SliderTickRate:1

[Events]
//Background and Video events
0,0,"screenshot0004.png",0,0
//Break Periods
//Storyboard Layer 0 (Background)
//Storyboard Layer 1 (Fail)
//Storyboard Layer 2 (Pass)
//Storyboard Layer 3 (Foreground)
//Storyboard Sound Samples

[TimingPoints]
1714,631.578947368421,4,2,0,26,1,0
1714,-111.111111111111,4,2,0,26,0,0
19399,-100000000000,4,2,0,26,0,0
20661,-133.333333333333,4,2,0,26,0,0
21924,-100,4,2,0,26,0,0
32029,-100,4,2,0,26,0,0
42134,-100,4,2,0,26,0,0
82556,-100,4,2,0,26,0,1
92029,-100,4,2,0,26,0,0
92661,-100,4,2,0,26,0,1
100240,-100,4,2,0,26,0,0
102292,-66.6666666666667,4,2,0,26,0,0
102766,-100,4,2,0,26,0,1
112240,-200,4,2,0,26,0,0
112871,-100,4,2,0,26,0,1
122977,-100,4,2,0,26,0,0
140660,-125,4,2,0,26,0,0
141924,-200,4,2,0,26,0,0
143187,-50,4,2,0,26,0,0
143266,-100,4,2,0,26,0,0
144135,-50,4,2,0,26,0,0
144214,-100,4,2,0,26,0,0
145082,-50,4,2,0,26,0,0
145161,-100,4,2,0,26,0,0
145398,-50,4,2,0,26,0,0
145477,-100,4,2,0,26,0,0
145714,-50,4,2,0,26,0,0
145792,-100,4,2,0,26,0,0
146661,-50,4,2,0,26,0,0
146740,-100,4,2,0,26,0,0
147608,-50,4,2,0,26,0,0
147687,-100,4,2,0,26,0,0
147924,-50,4,2,0,26,0,0
147964,-133.333333333333,4,2,0,26,0,0
148003,-50,4,2,0,26,0,0
148042,-133.333333333333,4,2,0,26,0,0
148082,-50,4,2,0,26,0,0
148121,-133.333333333333,4,2,0,26,0,0
148161,-50,4,2,0,26,0,0
148200,-133.333333333333,4,2,0,26,0,0
148240,-50,4,2,0,26,0,0
148319,-100,4,2,0,26,0,0
149187,-50,4,2,0,26,0,0
149266,-100,4,2,0,26,0,0
150135,-50,4,2,0,26,0,0
150214,-100,4,2,0,26,0,0
150450,-50,4,2,0,26,0,0
150529,-100,4,2,0,26,0,0
150766,-50,4,2,0,26,0,0
150845,-100,4,2,0,26,0,0
203502,-57.1428571428571,4,2,0,26,0,0
203819,-100,4,2,0,26,0,1
213292,-100,4,2,0,26,0,0
213924,-100,4,2,0,26,0,1
221503,-100,4,2,0,26,0,0
223714,-57.1428571428571,4,2,0,26,0,0
224029,-100,4,2,0,26,0,1
233503,-250,4,2,0,26,0,0
234135,-100,4,2,0,26,0,1
244240,-100,4,2,0,26,0,0

[HitObjects]
320,192,1714,5,4,0:0:0:0:
448,192,1714,128,0,2029:0:0:0:0:
320,192,2029,128,0,2345:0:0:0:0:
192,192,2345,128,0,2503:0:0:0:0:
448,192,2503,128,0,2661:0:0:0:0:
192,192,2661,128,0,2819:0:0:0:0:
448,192,2819,128,0,2977:0:0:0:0:
320,192,2977,128,0,3292:0:0:0:0:
192,192,3292,128,0,3608:0:0:0:0:
320,192,3608,128,0,3766:0:0:0:0:
64,192,3766,128,0,3924:0:0:0:0:
320,192,3924,128,0,4082:0:0:0:0:
64,192,4082,128,0,4240:0:0:0:0:
320,192,4240,128,4,4556:0:0:0:0:
448,192,4240,128,4,4556:0:0:0:0:
192,192,4556,128,0,4871:0:0:0:0:
320,192,4871,128,0,5029:0:0:0:0:
64,192,5029,128,0,5187:0:0:0:0:
192,192,5187,128,0,5345:0:0:0:0:
64,192,5345,128,0,5503:0:0:0:0:
448,192,5503,128,0,5819:0:0:0:0:
320,192,5819,128,0,6135:0:0:0:0:
192,192,6135,128,0,6292:0:0:0:0:
320,192,6292,128,0,6450:0:0:0:0:
64,192,6450,128,0,6766:0:0:0:0:
320,192,6766,128,4,7082:0:0:0:0:
192,192,6766,128,4,7082:0:0:0:0:
64,192,7082,128,0,7398:0:0:0:0:
448,192,7398,128,0,7556:0:0:0:0:
192,192,7556,128,0,7714:0:0:0:0:
448,192,7714,128,0,7871:0:0:0:0:
192,192,7871,128,0,8029:0:0:0:0:
448,192,8029,128,0,8345:0:0:0:0:
192,192,8345,128,0,8661:0:0:0:0:
320,192,8661,128,0,8819:0:0:0:0:
448,192,8819,128,0,8977:0:0:0:0:
64,192,8977,128,0,9135:0:0:0:0:
192,192,9135,128,0,9292:0:0:0:0:
320,192,9292,128,4,9608:0:0:0:0:
448,192,9292,128,4,9608:0:0:0:0:
192,192,9608,128,0,9924:0:0:0:0:
320,192,9924,128,0,10082:0:0:0:0:
64,192,10082,128,0,10240:0:0:0:0:
192,192,10240,128,0,10398:0:0:0:0:
448,192,10398,128,0,10556:0:0:0:0:
320,192,10556,128,0,10871:0:0:0:0:
192,192,10871,128,0,11187:0:0:0:0:
64,192,11187,128,0,11503:0:0:0:0:
320,192,11503,128,0,11819:0:0:0:0:
448,192,11819,128,4,12135:0:0:0:0:
192,192,11819,128,4,12135:0:0:0:0:
320,192,12135,128,0,12450:0:0:0:0:
192,192,12450,128,0,12608:0:0:0:0:
64,192,12608,128,0,12766:0:0:0:0:
192,192,12766,128,0,12924:0:0:0:0:
64,192,12924,128,0,13082:0:0:0:0:
320,192,13082,128,0,13398:0:0:0:0:
192,192,13398,128,0,13714:0:0:0:0:
448,192,13714,128,0,14029:0:0:0:0:
64,192,14029,128,0,14345:0:0:0:0:
320,192,14345,128,4,14661:0:0:0:0:
448,192,14345,128,4,14661:0:0:0:0:
64,192,14661,128,0,14977:0:0:0:0:
192,192,14977,128,0,15135:0:0:0:0:
448,192,15135,128,0,15292:0:0:0:0:
192,192,15292,128,0,15450:0:0:0:0:
448,192,15450,128,0,15608:0:0:0:0:
320,192,15608,128,0,15924:0:0:0:0:
192,192,15924,128,0,16240:0:0:0:0:
64,192,16240,128,0,16556:0:0:0:0:
192,192,16556,128,0,16871:0:0:0:0:
64,192,16871,128,4,17187:0:0:0:0:
448,192,16871,128,4,17187:0:0:0:0:
320,192,17187,128,0,17503:0:0:0:0:
192,192,17503,128,0,17661:0:0:0:0:
448,192,17661,128,0,17819:0:0:0:0:
64,192,17819,128,0,17977:0:0:0:0:
320,192,17977,128,0,18135:0:0:0:0:
192,192,18135,128,0,18450:0:0:0:0:
64,192,18450,128,0,18766:0:0:0:0:
320,192,18766,128,0,19082:0:0:0:0:
448,192,19082,128,0,19398:0:0:0:0:
192,192,19398,128,6,21924:0:0:0:0:
64,192,19398,128,6,21924:0:0:0:0:
448,192,21885,128,0,22200:0:0:0:0:
192,192,22240,128,0,22556:0:0:0:0:
448,192,22556,128,0,22871:0:0:0:0:
192,192,22871,128,0,23029:0:0:0:0:
448,192,23029,128,0,23345:0:0:0:0:
320,192,23345,128,0,23503:0:0:0:0:
192,192,23503,128,0,23661:0:0:0:0:
448,192,23661,128,0,23819:0:0:0:0:
320,192,23819,128,0,24135:0:0:0:0:
192,192,24135,128,0,24450:0:0:0:0:
320,192,24450,128,0,24766:0:0:0:0:
448,192,24450,128,0,24766:0:0:0:0:
64,192,24766,128,0,25082:0:0:0:0:
320,192,25082,128,0,25398:0:0:0:0:
192,192,25398,128,0,25556:0:0:0:0:
320,192,25556,128,0,25871:0:0:0:0:
192,192,25871,128,0,26029:0:0:0:0:
448,192,26029,128,0,26187:0:0:0:0:
64,192,26187,128,0,26345:0:0:0:0:
320,192,26345,128,0,26661:0:0:0:0:
192,192,26661,128,0,26977:0:0:0:0:
320,192,26977,128,0,27292:0:0:0:0:
448,192,26977,128,0,27292:0:0:0:0:
64,192,26977,128,0,27292:0:0:0:0:
192,192,27292,128,0,27608:0:0:0:0:
320,192,27608,128,0,27924:0:0:0:0:
192,192,27924,128,0,28082:0:0:0:0:
320,192,28082,128,0,28398:0:0:0:0:
192,192,28398,128,0,28556:0:0:0:0:
448,192,28556,128,0,28714:0:0:0:0:
64,192,28714,128,0,28871:0:0:0:0:
320,192,28871,128,0,29187:0:0:0:0:
448,192,29187,128,0,29503:0:0:0:0:
320,192,29503,128,0,29819:0:0:0:0:
64,192,29503,128,0,29819:0:0:0:0:
192,192,29819,128,0,30135:0:0:0:0:
320,192,30135,128,0,30450:0:0:0:0:
192,192,30450,128,0,30608:0:0:0:0:
320,192,30608,128,0,30924:0:0:0:0:
192,192,30924,128,0,31082:0:0:0:0:
64,192,31082,128,0,31240:0:0:0:0:
448,192,31240,128,0,31398:0:0:0:0:
192,192,31398,128,0,31714:0:0:0:0:
320,192,31714,128,0,32029:0:0:0:0:
192,192,32029,128,0,34556:0:0:0:0:
448,192,32029,128,0,32187:0:0:0:0:
320,192,32187,128,0,32345:0:0:0:0:
64,192,32345,128,0,32503:0:0:0:0:
448,192,32503,128,0,32661:0:0:0:0:
64,192,32661,128,0,32819:0:0:0:0:
320,192,32819,128,0,32977:0:0:0:0:
448,192,32977,128,0,33135:0:0:0:0:
64,192,33135,128,0,33450:0:0:0:0:
448,192,33450,128,0,33608:0:0:0:0:
64,192,33608,128,0,33766:0:0:0:0:
320,192,33766,128,0,33924:0:0:0:0:
448,192,33924,128,0,34082:0:0:0:0:
64,192,34082,128,0,34240:0:0:0:0:
448,192,34240,128,0,34398:0:0:0:0:
64,192,34398,128,0,34556:0:0:0:0:
320,192,34556,128,0,37082:0:0:0:0:
448,192,34556,128,0,34714:0:0:0:0:
64,192,34714,128,0,34871:0:0:0:0:
192,192,34871,128,0,35029:0:0:0:0:
64,192,35029,128,0,35187:0:0:0:0:
448,192,35187,128,0,35345:0:0:0:0:
192,192,35345,128,0,35503:0:0:0:0:
64,192,35503,128,0,35661:0:0:0:0:
448,192,35661,128,0,35977:0:0:0:0:
64,192,35977,128,0,36135:0:0:0:0:
448,192,36135,128,0,36292:0:0:0:0:
192,192,36292,128,0,36450:0:0:0:0:
448,192,36450,128,0,36608:0:0:0:0:
192,192,36608,128,0,36766:0:0:0:0:
64,192,36766,128,0,36924:0:0:0:0:
448,192,36924,128,0,37082:0:0:0:0:
192,192,37082,128,0,39608:0:0:0:0:
64,192,37082,128,0,37240:0:0:0:0:
320,192,37240,128,0,37398:0:0:0:0:
448,192,37398,128,0,37556:0:0:0:0:
320,192,37556,128,0,37714:0:0:0:0:
64,192,37714,128,0,37871:0:0:0:0:
448,192,37871,128,0,38029:0:0:0:0:
320,192,38029,128,0,38187:0:0:0:0:
64,192,38187,128,0,38503:0:0:0:0:
320,192,38503,128,0,38661:0:0:0:0:
448,192,38661,128,0,38819:0:0:0:0:
64,192,38819,128,0,38977:0:0:0:0:
320,192,38977,128,0,39135:0:0:0:0:
448,192,39135,128,0,39292:0:0:0:0:
320,192,39292,128,0,39450:0:0:0:0:
448,192,39450,128,0,39608:0:0:0:0:
64,192,39608,128,0,42135:0:0:0:0:
320,192,39608,128,0,39766:0:0:0:0:
192,192,39766,128,0,39924:0:0:0:0:
448,192,39924,128,0,40082:0:0:0:0:
320,192,40082,128,0,40240:0:0:0:0:
192,192,40240,128,0,40556:0:0:0:0:
320,192,40556,128,0,40714:0:0:0:0:
448,192,40714,128,0,41029:0:0:0:0:
320,192,41029,128,0,41187:0:0:0:0:
192,192,41187,128,0,41345:0:0:0:0:
448,192,41345,128,0,41503:0:0:0:0:
192,192,41503,128,0,41661:0:0:0:0:
320,192,41661,128,0,41819:0:0:0:0:
448,192,41819,128,0,41977:0:0:0:0:
192,192,41977,128,0,42135:0:0:0:0:
320,192,42135,128,0,42450:0:0:0:0:
448,192,42135,128,0,42450:0:0:0:0:
192,192,42450,128,0,42608:0:0:0:0:
320,192,42608,128,0,42766:0:0:0:0:
64,192,42766,1,0,0:0:0:0:
192,192,42766,1,0,0:0:0:0:
448,192,42766,1,0,0:0:0:0:
192,192,42924,1,0,0:0:0:0:
320,192,43082,128,0,43240:0:0:0:0:
448,192,43240,128,0,43398:0:0:0:0:
192,192,43398,1,0,0:0:0:0:
320,192,43398,1,0,0:0:0:0:
320,192,43556,1,0,0:0:0:0:
64,192,43714,128,0,43871:0:0:0:0:
448,192,43871,128,0,44029:0:0:0:0:
64,192,44029,1,0,0:0:0:0:
192,192,44029,1,0,0:0:0:0:
320,192,44187,1,0,0:0:0:0:
320,192,44345,128,0,44503:0:0:0:0:
192,192,44503,128,0,44661:0:0:0:0:
320,192,44661,1,0,0:0:0:0:
448,192,44661,1,0,0:0:0:0:
64,192,44661,1,0,0:0:0:0:
192,192,44819,1,0,0:0:0:0:
448,192,44977,128,0,45135:0:0:0:0:
320,192,45135,128,0,45292:0:0:0:0:
192,192,45292,1,0,0:0:0:0:
64,192,45292,1,0,0:0:0:0:
448,192,45450,1,0,0:0:0:0:
320,192,45608,128,0,45766:0:0:0:0:
448,192,45608,128,0,45766:0:0:0:0:
64,192,45766,128,0,45924:0:0:0:0:
192,192,45924,1,0,0:0:0:0:
448,192,45924,1,0,0:0:0:0:
320,192,46082,1,0,0:0:0:0:
320,192,46240,128,0,46398:0:0:0:0:
448,192,46398,128,0,46556:0:0:0:0:
64,192,46556,1,0,0:0:0:0:
320,192,46556,1,0,0:0:0:0:
192,192,46714,1,0,0:0:0:0:
448,192,46871,128,0,47029:0:0:0:0:
64,192,47029,128,0,47187:0:0:0:0:
192,192,47187,1,0,0:0:0:0:
448,192,47187,1,0,0:0:0:0:
320,192,47187,1,0,0:0:0:0:
320,192,47345,1,0,0:0:0:0:
192,192,47503,128,0,47661:0:0:0:0:
448,192,47661,128,0,47819:0:0:0:0:
64,192,47819,1,0,0:0:0:0:
192,192,47819,1,0,0:0:0:0:
448,192,47977,1,0,0:0:0:0:
320,192,48135,128,0,48292:0:0:0:0:
448,192,48135,128,0,48292:0:0:0:0:
192,192,48292,128,0,48450:0:0:0:0:
320,192,48450,1,0,0:0:0:0:
64,192,48450,1,0,0:0:0:0:
448,192,48608,1,0,0:0:0:0:
192,192,48766,128,0,48924:0:0:0:0:
320,192,48924,128,0,49082:0:0:0:0:
64,192,49082,1,0,0:0:0:0:
448,192,49082,1,0,0:0:0:0:
192,192,49240,1,0,0:0:0:0:
192,192,49398,128,0,49556:0:0:0:0:
320,192,49556,128,0,49714:0:0:0:0:
192,192,49714,1,0,0:0:0:0:
448,192,49714,1,0,0:0:0:0:
64,192,49714,1,0,0:0:0:0:
320,192,49871,1,0,0:0:0:0:
448,192,50029,128,0,50187:0:0:0:0:
64,192,50187,128,0,50345:0:0:0:0:
192,192,50345,1,0,0:0:0:0:
448,192,50345,1,0,0:0:0:0:
320,192,50503,128,0,50661:0:0:0:0:
64,192,50661,1,0,0:0:0:0:
192,192,50661,1,0,0:0:0:0:
448,192,50661,1,0,0:0:0:0:
192,192,50819,128,0,50977:0:0:0:0:
320,192,50977,1,0,0:0:0:0:
64,192,50977,1,0,0:0:0:0:
320,192,51135,1,0,0:0:0:0:
64,192,51292,128,0,51450:0:0:0:0:
448,192,51450,128,0,51608:0:0:0:0:
192,192,51608,1,0,0:0:0:0:
320,192,51608,1,0,0:0:0:0:
192,192,51766,128,0,51924:0:0:0:0:
448,192,51924,1,0,0:0:0:0:
320,192,52082,128,0,52240:0:0:0:0:
64,192,52240,1,0,0:0:0:0:
448,192,52240,1,0,0:0:0:0:
192,192,52240,128,0,52398:0:0:0:0:
320,192,52398,128,0,52556:0:0:0:0:
448,192,52556,128,0,52714:0:0:0:0:
192,192,52714,1,0,0:0:0:0:
64,192,52714,128,0,52871:0:0:0:0:
448,192,52871,128,0,53029:0:0:0:0:
64,192,53029,128,0,53187:0:0:0:0:
320,192,53187,1,0,0:0:0:0:
448,192,53187,128,0,53345:0:0:0:0:
320,192,53345,128,0,53503:0:0:0:0:
192,192,53503,1,0,0:0:0:0:
64,192,53503,128,0,53661:0:0:0:0:
320,192,53661,128,0,53819:0:0:0:0:
448,192,53819,128,0,53977:0:0:0:0:
64,192,53977,1,0,0:0:0:0:
320,192,53977,128,0,54135:0:0:0:0:
192,192,54135,1,0,0:0:0:0:
64,192,54135,128,0,54292:0:0:0:0:
448,192,54292,128,0,54450:0:0:0:0:
320,192,54450,1,0,0:0:0:0:
64,192,54450,128,0,54608:0:0:0:0:
192,192,54608,128,0,54766:0:0:0:0:
64,192,54766,1,0,0:0:0:0:
320,192,54766,1,0,0:0:0:0:
448,192,54766,128,0,54924:0:0:0:0:
320,192,54924,128,0,55082:0:0:0:0:
64,192,55082,128,0,55240:0:0:0:0:
192,192,55240,1,0,0:0:0:0:
448,192,55240,1,0,0:0:0:0:
320,192,55240,128,0,55398:0:0:0:0:
448,192,55398,128,0,55556:0:0:0:0:
192,192,55556,128,0,55714:0:0:0:0:
320,192,55714,1,0,0:0:0:0:
64,192,55714,1,0,0:0:0:0:
448,192,55714,128,0,55871:0:0:0:0:
192,192,55871,128,0,56029:0:0:0:0:
320,192,56029,1,0,0:0:0:0:
448,192,56029,1,0,0:0:0:0:
64,192,56029,128,0,56187:0:0:0:0:
192,192,56187,128,0,56345:0:0:0:0:
448,192,56345,128,0,56503:0:0:0:0:
64,192,56503,1,0,0:0:0:0:
320,192,56503,1,0,0:0:0:0:
192,192,56503,128,0,56661:0:0:0:0:
448,192,56661,1,0,0:0:0:0:
320,192,56661,128,0,56819:0:0:0:0:
192,192,56819,128,0,56977:0:0:0:0:
64,192,56977,1,0,0:0:0:0:
320,192,56977,1,0,0:0:0:0:
448,192,56977,128,0,57135:0:0:0:0:
320,192,57292,1,0,0:0:0:0:
192,192,57292,1,0,0:0:0:0:
448,192,57292,128,0,57450:0:0:0:0:
320,192,57450,128,0,57608:0:0:0:0:
192,192,57608,128,0,57766:0:0:0:0:
64,192,57766,128,0,57924:0:0:0:0:
320,192,57766,1,0,0:0:0:0:
448,192,57766,1,0,0:0:0:0:
448,192,57924,128,0,58082:0:0:0:0:
64,192,58082,128,0,58240:0:0:0:0:
320,192,58240,1,0,0:0:0:0:
448,192,58240,128,0,58398:0:0:0:0:
192,192,58240,1,0,0:0:0:0:
320,192,58398,128,0,58556:0:0:0:0:
64,192,58556,1,0,0:0:0:0:
192,192,58556,1,0,0:0:0:0:
448,192,58556,128,0,58714:0:0:0:0:
64,192,58714,128,0,58871:0:0:0:0:
192,192,58871,128,0,59029:0:0:0:0:
320,192,59029,1,0,0:0:0:0:
448,192,59029,1,0,0:0:0:0:
64,192,59029,128,0,59187:0:0:0:0:
448,192,59187,128,0,59345:0:0:0:0:
320,192,59345,128,0,59503:0:0:0:0:
192,192,59503,1,0,0:0:0:0:
448,192,59503,1,0,0:0:0:0:
64,192,59503,128,0,59661:0:0:0:0:
320,192,59661,128,0,59819:0:0:0:0:
64,192,59819,1,0,0:0:0:0:
192,192,59819,1,0,0:0:0:0:
448,192,59819,1,0,0:0:0:0:
320,192,59977,128,0,60135:0:0:0:0:
64,192,60135,128,0,60292:0:0:0:0:
192,192,60292,1,0,0:0:0:0:
320,192,60292,1,0,0:0:0:0:
448,192,60450,1,0,0:0:0:0:
320,192,60450,128,0,60608:0:0:0:0:
192,192,60608,128,0,60766:0:0:0:0:
448,192,60766,1,0,0:0:0:0:
320,192,60766,1,0,0:0:0:0:
64,192,60766,128,0,60924:0:0:0:0:
320,192,60924,128,0,61082:0:0:0:0:
64,192,61082,1,0,0:0:0:0:
192,192,61082,1,0,0:0:0:0:
448,192,61082,128,0,61240:0:0:0:0:
192,192,61240,128,0,61398:0:0:0:0:
64,192,61398,128,0,61556:0:0:0:0:
320,192,61556,1,0,0:0:0:0:
448,192,61556,1,0,0:0:0:0:
192,192,61556,128,0,61714:0:0:0:0:
320,192,61714,128,0,61871:0:0:0:0:
448,192,61871,128,0,62029:0:0:0:0:
64,192,62029,1,0,0:0:0:0:
192,192,62029,1,0,0:0:0:0:
192,192,62187,1,0,0:0:0:0:
320,192,62187,1,0,0:0:0:0:
320,192,62345,1,0,0:0:0:0:
448,192,62345,1,0,0:0:0:0:
64,192,62345,1,0,0:0:0:0:
192,192,62503,1,0,0:0:0:0:
320,192,62661,1,0,0:0:0:0:
448,192,62661,1,0,0:0:0:0:
320,192,62819,1,0,0:0:0:0:
64,192,62977,1,0,0:0:0:0:
192,192,62977,1,0,0:0:0:0:
448,192,63135,1,0,0:0:0:0:
192,192,63292,1,0,0:0:0:0:
320,192,63292,1,0,0:0:0:0:
448,192,63450,1,0,0:0:0:0:
64,192,63608,1,0,0:0:0:0:
192,192,63608,1,0,0:0:0:0:
320,192,63766,1,0,0:0:0:0:
448,192,63924,1,0,0:0:0:0:
192,192,63924,1,0,0:0:0:0:
320,192,64082,1,0,0:0:0:0:
64,192,64240,1,0,0:0:0:0:
192,192,64240,1,0,0:0:0:0:
320,192,64398,1,0,0:0:0:0:
448,192,64398,1,0,0:0:0:0:
320,192,64714,1,0,0:0:0:0:
448,192,64714,1,0,0:0:0:0:
64,192,64871,1,0,0:0:0:0:
192,192,64871,1,0,0:0:0:0:
320,192,64871,1,0,0:0:0:0:
192,192,65029,1,0,0:0:0:0:
320,192,65187,1,0,0:0:0:0:
64,192,65187,1,0,0:0:0:0:
192,192,65345,1,0,0:0:0:0:
448,192,65503,1,0,0:0:0:0:
320,192,65503,1,0,0:0:0:0:
192,192,65661,1,0,0:0:0:0:
64,192,65819,1,0,0:0:0:0:
320,192,65819,1,0,0:0:0:0:
192,192,65977,1,0,0:0:0:0:
64,192,66135,1,0,0:0:0:0:
448,192,66135,1,0,0:0:0:0:
320,192,66292,1,0,0:0:0:0:
192,192,66450,1,0,0:0:0:0:
448,192,66450,1,0,0:0:0:0:
192,192,66608,1,0,0:0:0:0:
320,192,66608,1,0,0:0:0:0:
64,192,66766,1,0,0:0:0:0:
320,192,66766,1,0,0:0:0:0:
192,192,67082,1,0,0:0:0:0:
448,192,67082,1,0,0:0:0:0:
320,192,67082,1,0,0:0:0:0:
64,192,67398,1,0,0:0:0:0:
192,192,67398,1,0,0:0:0:0:
448,192,67398,1,0,0:0:0:0:
192,192,67556,1,0,0:0:0:0:
320,192,67714,1,0,0:0:0:0:
448,192,67714,1,0,0:0:0:0:
320,192,67871,1,0,0:0:0:0:
64,192,68029,1,0,0:0:0:0:
192,192,68029,1,0,0:0:0:0:
448,192,68187,1,0,0:0:0:0:
192,192,68345,1,0,0:0:0:0:
320,192,68345,1,0,0:0:0:0:
64,192,68503,1,0,0:0:0:0:
192,192,68661,1,0,0:0:0:0:
448,192,68661,1,0,0:0:0:0:
320,192,68819,1,0,0:0:0:0:
64,192,68977,1,0,0:0:0:0:
192,192,68977,1,0,0:0:0:0:
320,192,69135,1,0,0:0:0:0:
320,192,69292,1,0,0:0:0:0:
448,192,69292,1,0,0:0:0:0:
64,192,69450,1,0,0:0:0:0:
320,192,69450,1,0,0:0:0:0:
448,192,69608,1,0,0:0:0:0:
192,192,69766,1,0,0:0:0:0:
320,192,69766,1,0,0:0:0:0:
64,192,69924,1,0,0:0:0:0:
448,192,69924,1,0,0:0:0:0:
192,192,69924,1,0,0:0:0:0:
448,192,70082,1,0,0:0:0:0:
192,192,70240,1,0,0:0:0:0:
320,192,70240,1,0,0:0:0:0:
64,192,70398,1,0,0:0:0:0:
64,192,70556,1,0,0:0:0:0:
448,192,70556,1,0,0:0:0:0:
192,192,70714,1,0,0:0:0:0:
64,192,70871,1,0,0:0:0:0:
320,192,70871,1,0,0:0:0:0:
448,192,71029,1,0,0:0:0:0:
64,192,71187,1,0,0:0:0:0:
192,192,71187,1,0,0:0:0:0:
192,192,71345,1,0,0:0:0:0:
64,192,71503,1,0,0:0:0:0:
320,192,71503,1,0,0:0:0:0:
192,192,71661,1,0,0:0:0:0:
64,192,71819,1,0,0:0:0:0:
448,192,71819,1,0,0:0:0:0:
320,192,71977,1,0,0:0:0:0:
192,192,72135,1,0,0:0:0:0:
448,192,72135,1,0,0:0:0:0:
320,192,72292,1,0,0:0:0:0:
64,192,72292,1,0,0:0:0:0:
192,192,72450,1,0,0:0:0:0:
448,192,72450,1,0,0:0:0:0:
64,192,72450,1,0,0:0:0:0:
320,192,72608,1,0,0:0:0:0:
448,192,72608,1,0,0:0:0:0:
64,192,72766,1,0,0:0:0:0:
192,192,72766,1,0,0:0:0:0:
320,192,72924,1,0,0:0:0:0:
448,192,72924,1,0,0:0:0:0:
192,192,73082,1,0,0:0:0:0:
64,192,73082,1,0,0:0:0:0:
320,192,73240,1,0,0:0:0:0:
448,192,73240,1,0,0:0:0:0:
64,192,73398,1,0,0:0:0:0:
192,192,73398,1,0,0:0:0:0:
320,192,73556,1,0,0:0:0:0:
448,192,73556,1,0,0:0:0:0:
192,192,73714,1,0,0:0:0:0:
64,192,73714,1,0,0:0:0:0:
192,192,73871,1,0,0:0:0:0:
320,192,73871,1,0,0:0:0:0:
320,192,74029,1,0,0:0:0:0:
448,192,74029,1,0,0:0:0:0:
192,192,74187,1,0,0:0:0:0:
320,192,74187,1,0,0:0:0:0:
64,192,74345,1,0,0:0:0:0:
192,192,74345,1,0,0:0:0:0:
192,192,74503,1,0,0:0:0:0:
320,192,74503,1,0,0:0:0:0:
64,192,74661,1,0,0:0:0:0:
448,192,74661,1,0,0:0:0:0:
192,192,74819,1,0,0:0:0:0:
320,192,74819,1,0,0:0:0:0:
64,192,74977,1,0,0:0:0:0:
448,192,74977,1,0,0:0:0:0:
320,192,74977,1,0,0:0:0:0:
320,192,75135,1,0,0:0:0:0:
64,192,75135,1,0,0:0:0:0:
192,192,75292,1,0,0:0:0:0:
448,192,75292,1,0,0:0:0:0:
320,192,75450,1,0,0:0:0:0:
64,192,75450,1,0,0:0:0:0:
192,192,75608,1,0,0:0:0:0:
448,192,75608,1,0,0:0:0:0:
64,192,75766,1,0,0:0:0:0:
192,192,75766,1,0,0:0:0:0:
320,192,75924,1,0,0:0:0:0:
448,192,75924,1,0,0:0:0:0:
192,192,76082,1,0,0:0:0:0:
64,192,76082,1,0,0:0:0:0:
320,192,76240,1,0,0:0:0:0:
448,192,76240,1,0,0:0:0:0:
192,192,76398,1,0,0:0:0:0:
64,192,76398,1,0,0:0:0:0:
320,192,76556,1,0,0:0:0:0:
448,192,76556,1,0,0:0:0:0:
192,192,76714,1,0,0:0:0:0:
64,192,76714,1,0,0:0:0:0:
320,192,76871,1,0,0:0:0:0:
448,192,76871,1,0,0:0:0:0:
192,192,77029,1,0,0:0:0:0:
64,192,77029,1,0,0:0:0:0:
64,192,77187,1,0,0:0:0:0:
192,192,77187,1,0,0:0:0:0:
64,192,77345,1,0,0:0:0:0:
192,192,77345,1,0,0:0:0:0:
448,192,77503,1,0,0:0:0:0:
64,192,77503,1,0,0:0:0:0:
320,192,77503,1,0,0:0:0:0:
192,192,77582,1,0,0:0:0:0:
64,192,77661,1,0,0:0:0:0:
192,192,77740,1,0,0:0:0:0:
320,192,77819,1,0,0:0:0:0:
64,192,77898,1,0,0:0:0:0:
448,192,77898,1,0,0:0:0:0:
192,192,77977,1,0,0:0:0:0:
320,192,78056,1,0,0:0:0:0:
448,192,78135,1,0,0:0:0:0:
320,192,78214,1,0,0:0:0:0:
192,192,78292,1,0,0:0:0:0:
64,192,78371,1,0,0:0:0:0:
192,192,78450,1,0,0:0:0:0:
320,192,78529,1,0,0:0:0:0:
448,192,78608,1,0,0:0:0:0:
64,192,78687,1,0,0:0:0:0:
192,192,78766,1,0,0:0:0:0:
320,192,78845,1,0,0:0:0:0:
448,192,78924,1,0,0:0:0:0:
320,192,79003,1,0,0:0:0:0:
192,192,79082,1,0,0:0:0:0:
64,192,79161,1,0,0:0:0:0:
448,192,79161,1,0,0:0:0:0:
320,192,79240,1,0,0:0:0:0:
192,192,79319,1,0,0:0:0:0:
64,192,79398,1,0,0:0:0:0:
192,192,79477,1,0,0:0:0:0:
320,192,79556,1,0,0:0:0:0:
448,192,79635,1,0,0:0:0:0:
64,192,79635,1,0,0:0:0:0:
192,192,79714,1,0,0:0:0:0:
320,192,79792,1,0,0:0:0:0:
448,192,79871,1,0,0:0:0:0:
320,192,79950,1,0,0:0:0:0:
192,192,80029,1,0,0:0:0:0:
64,192,80029,1,0,0:0:0:0:
448,192,80029,1,0,0:0:0:0:
320,192,80187,1,0,0:0:0:0:
64,192,80345,1,0,0:0:0:0:
448,192,80503,1,0,0:0:0:0:
192,192,80661,1,0,0:0:0:0:
320,192,80661,1,0,0:0:0:0:
192,192,80819,1,0,0:0:0:0:
64,192,80977,1,0,0:0:0:0:
320,192,81135,1,0,0:0:0:0:
448,192,81292,1,0,0:0:0:0:
320,192,81371,1,0,0:0:0:0:
64,192,81450,1,0,0:0:0:0:
320,192,81608,1,0,0:0:0:0:
192,192,81766,1,0,0:0:0:0:
320,192,82556,1,0,0:0:0:0:
448,192,82556,1,0,0:0:0:0:
64,192,82556,1,0,0:0:0:0:
320,192,82714,1,0,0:0:0:0:
192,192,82871,1,0,0:0:0:0:
64,192,83029,1,0,0:0:0:0:
320,192,83187,1,0,0:0:0:0:
448,192,83187,1,0,0:0:0:0:
192,192,83345,1,0,0:0:0:0:
320,192,83503,1,0,0:0:0:0:
64,192,83661,1,0,0:0:0:0:
320,192,83819,1,0,0:0:0:0:
448,192,83819,1,0,0:0:0:0:
192,192,83977,1,0,0:0:0:0:
320,192,84135,1,0,0:0:0:0:
64,192,84292,1,0,0:0:0:0:
192,192,84450,1,0,0:0:0:0:
320,192,84450,1,0,0:0:0:0:
448,192,84608,1,0,0:0:0:0:
192,192,84766,1,0,0:0:0:0:
448,192,84924,1,0,0:0:0:0:
64,192,85082,1,0,0:0:0:0:
192,192,85082,1,0,0:0:0:0:
320,192,85240,1,0,0:0:0:0:
448,192,85398,1,0,0:0:0:0:
64,192,85556,1,0,0:0:0:0:
320,192,85714,1,0,0:0:0:0:
448,192,85714,1,0,0:0:0:0:
192,192,85871,1,0,0:0:0:0:
64,192,86029,1,0,0:0:0:0:
448,192,86187,1,0,0:0:0:0:
192,192,86345,1,0,0:0:0:0:
64,192,86345,1,0,0:0:0:0:
320,192,86503,1,0,0:0:0:0:
64,192,86661,1,0,0:0:0:0:
320,192,86819,1,0,0:0:0:0:
64,192,86977,1,0,0:0:0:0:
192,192,86977,1,0,0:0:0:0:
320,192,87135,1,0,0:0:0:0:
448,192,87292,1,0,0:0:0:0:
64,192,87292,1,0,0:0:0:0:
320,192,87450,1,0,0:0:0:0:
448,192,87608,1,0,0:0:0:0:
192,192,87608,1,0,0:0:0:0:
320,192,87766,1,0,0:0:0:0:
64,192,87924,1,0,0:0:0:0:
320,192,88082,1,0,0:0:0:0:
64,192,88240,1,0,0:0:0:0:
448,192,88240,1,0,0:0:0:0:
192,192,88398,1,0,0:0:0:0:
448,192,88556,1,0,0:0:0:0:
192,192,88714,1,0,0:0:0:0:
64,192,88871,1,0,0:0:0:0:
320,192,88871,1,0,0:0:0:0:
192,192,89029,1,0,0:0:0:0:
448,192,89187,1,0,0:0:0:0:
192,192,89345,1,0,0:0:0:0:
64,192,89503,1,0,0:0:0:0:
320,192,89503,1,0,0:0:0:0:
192,192,89661,1,0,0:0:0:0:
320,192,89819,1,0,0:0:0:0:
192,192,89977,1,0,0:0:0:0:
64,192,90135,1,0,0:0:0:0:
448,192,90135,1,0,0:0:0:0:
320,192,90292,1,0,0:0:0:0:
192,192,90450,1,0,0:0:0:0:
64,192,90608,1,0,0:0:0:0:
192,192,90766,1,0,0:0:0:0:
448,192,90766,1,0,0:0:0:0:
448,192,90924,1,0,0:0:0:0:
192,192,91082,1,0,0:0:0:0:
64,192,91240,1,0,0:0:0:0:
192,192,91398,1,0,0:0:0:0:
320,192,91398,1,0,0:0:0:0:
64,192,91556,1,0,0:0:0:0:
320,192,91714,1,0,0:0:0:0:
192,192,91871,1,0,0:0:0:0:
64,192,92029,128,0,92108:0:0:0:0:
192,192,92108,128,0,92187:0:0:0:0:
320,192,92187,128,0,92266:0:0:0:0:
448,192,92266,128,0,92661:0:0:0:0:
320,192,92661,1,0,0:0:0:0:
64,192,92661,1,0,0:0:0:0:
192,192,92661,1,0,0:0:0:0:
320,192,92819,1,0,0:0:0:0:
192,192,92977,1,0,0:0:0:0:
448,192,93135,1,0,0:0:0:0:
192,192,93292,1,0,0:0:0:0:
64,192,93292,1,0,0:0:0:0:
320,192,93450,1,0,0:0:0:0:
448,192,93450,1,0,0:0:0:0:
64,192,93608,1,0,0:0:0:0:
448,192,93766,1,0,0:0:0:0:
192,192,93924,1,0,0:0:0:0:
320,192,93924,1,0,0:0:0:0:
64,192,94082,1,0,0:0:0:0:
448,192,94240,1,0,0:0:0:0:
320,192,94398,1,0,0:0:0:0:
64,192,94556,1,0,0:0:0:0:
192,192,94556,1,0,0:0:0:0:
320,192,94714,1,0,0:0:0:0:
192,192,94871,1,0,0:0:0:0:
64,192,95029,1,0,0:0:0:0:
320,192,95187,1,0,0:0:0:0:
448,192,95187,1,0,0:0:0:0:
192,192,95345,1,0,0:0:0:0:
64,192,95503,1,0,0:0:0:0:
448,192,95661,1,0,0:0:0:0:
192,192,95819,1,0,0:0:0:0:
320,192,95819,1,0,0:0:0:0:
64,192,95977,1,0,0:0:0:0:
448,192,96135,1,0,0:0:0:0:
192,192,96292,1,0,0:0:0:0:
320,192,96450,1,0,0:0:0:0:
448,192,96450,1,0,0:0:0:0:
320,192,96608,1,0,0:0:0:0:
192,192,96766,1,0,0:0:0:0:
64,192,96924,1,0,0:0:0:0:
320,192,97082,1,0,0:0:0:0:
448,192,97082,1,0,0:0:0:0:
192,192,97240,1,0,0:0:0:0:
64,192,97398,1,0,0:0:0:0:
320,192,97556,1,0,0:0:0:0:
192,192,97714,1,0,0:0:0:0:
448,192,97714,1,0,0:0:0:0:
320,192,97871,1,0,0:0:0:0:
192,192,98029,1,0,0:0:0:0:
448,192,98187,1,0,0:0:0:0:
320,192,98345,1,0,0:0:0:0:
64,192,98345,1,0,0:0:0:0:
192,192,98503,1,0,0:0:0:0:
448,192,98661,1,0,0:0:0:0:
64,192,98819,1,0,0:0:0:0:
192,192,98977,1,0,0:0:0:0:
320,192,98977,1,0,0:0:0:0:
320,192,99135,1,0,0:0:0:0:
64,192,99292,1,0,0:0:0:0:
320,192,99450,1,0,0:0:0:0:
192,192,99608,1,0,0:0:0:0:
448,192,99608,1,0,0:0:0:0:
320,192,99766,1,0,0:0:0:0:
448,192,99924,1,0,0:0:0:0:
192,192,100082,1,0,0:0:0:0:
64,192,100240,1,0,0:0:0:0:
320,192,100398,1,0,0:0:0:0:
64,192,100556,1,0,0:0:0:0:
192,192,100714,1,0,0:0:0:0:
320,192,100871,1,0,0:0:0:0:
448,192,101029,1,0,0:0:0:0:
192,192,101187,1,0,0:0:0:0:
64,192,101345,1,0,0:0:0:0:
320,192,101503,1,0,0:0:0:0:
448,192,101582,1,0,0:0:0:0:
64,192,101661,1,0,0:0:0:0:
192,192,101740,1,0,0:0:0:0:
448,192,101819,1,0,0:0:0:0:
320,192,101898,1,0,0:0:0:0:
64,192,101977,1,0,0:0:0:0:
192,192,102056,1,0,0:0:0:0:
320,192,102135,1,0,0:0:0:0:
320,192,102766,1,0,0:0:0:0:
448,192,102766,1,0,0:0:0:0:
64,192,102766,1,0,0:0:0:0:
320,192,102924,1,0,0:0:0:0:
64,192,103082,1,0,0:0:0:0:
448,192,103240,1,0,0:0:0:0:
192,192,103398,1,0,0:0:0:0:
320,192,103398,1,0,0:0:0:0:
192,192,103556,1,0,0:0:0:0:
64,192,103714,1,0,0:0:0:0:
448,192,103871,1,0,0:0:0:0:
192,192,104029,1,0,0:0:0:0:
320,192,104029,1,0,0:0:0:0:
64,192,104187,1,0,0:0:0:0:
448,192,104345,1,0,0:0:0:0:
320,192,104503,1,0,0:0:0:0:
64,192,104661,1,0,0:0:0:0:
192,192,104661,1,0,0:0:0:0:
320,192,104819,1,0,0:0:0:0:
448,192,104977,1,0,0:0:0:0:
64,192,105135,1,0,0:0:0:0:
192,192,105292,1,0,0:0:0:0:
448,192,105292,1,0,0:0:0:0:
320,192,105450,1,0,0:0:0:0:
64,192,105608,1,0,0:0:0:0:
320,192,105766,1,0,0:0:0:0:
64,192,105924,1,0,0:0:0:0:
192,192,105924,1,0,0:0:0:0:
320,192,106082,1,0,0:0:0:0:
192,192,106240,1,0,0:0:0:0:
448,192,106398,1,0,0:0:0:0:
64,192,106556,1,0,0:0:0:0:
192,192,106556,1,0,0:0:0:0:
320,192,106714,1,0,0:0:0:0:
448,192,106871,1,0,0:0:0:0:
192,192,107029,1,0,0:0:0:0:
64,192,107187,1,0,0:0:0:0:
192,192,107187,1,0,0:0:0:0:
320,192,107345,1,0,0:0:0:0:
192,192,107503,1,0,0:0:0:0:
448,192,107661,1,0,0:0:0:0:
64,192,107819,1,0,0:0:0:0:
192,192,107819,1,0,0:0:0:0:
320,192,107977,1,0,0:0:0:0:
448,192,108135,1,0,0:0:0:0:
192,192,108292,1,0,0:0:0:0:
64,192,108450,1,0,0:0:0:0:
320,192,108450,1,0,0:0:0:0:
448,192,108608,1,0,0:0:0:0:
320,192,108766,1,0,0:0:0:0:
448,192,108924,1,0,0:0:0:0:
192,192,109082,1,0,0:0:0:0:
320,192,109082,1,0,0:0:0:0:
64,192,109240,1,0,0:0:0:0:
320,192,109398,1,0,0:0:0:0:
192,192,109556,1,0,0:0:0:0:
64,192,109714,1,0,0:0:0:0:
320,192,109714,1,0,0:0:0:0:
448,192,109871,1,0,0:0:0:0:
192,192,110029,1,0,0:0:0:0:
64,192,110187,1,0,0:0:0:0:
320,192,110345,1,0,0:0:0:0:
448,192,110345,1,0,0:0:0:0:
192,192,110503,1,0,0:0:0:0:
64,192,110661,1,0,0:0:0:0:
320,192,110819,1,0,0:0:0:0:
192,192,110977,1,0,0:0:0:0:
448,192,110977,1,0,0:0:0:0:
320,192,111135,1,0,0:0:0:0:
192,192,111292,1,0,0:0:0:0:
64,192,111450,1,0,0:0:0:0:
320,192,111608,1,0,0:0:0:0:
448,192,111608,1,0,0:0:0:0:
192,192,111766,1,0,0:0:0:0:
64,192,111924,1,0,0:0:0:0:
448,192,112082,1,0,0:0:0:0:
320,192,112240,1,0,0:0:0:0:
64,192,112240,1,0,0:0:0:0:
64,192,112871,1,0,0:0:0:0:
192,192,112871,1,0,0:0:0:0:
448,192,112871,1,0,0:0:0:0:
320,192,113029,1,0,0:0:0:0:
192,192,113187,1,0,0:0:0:0:
320,192,113345,1,0,0:0:0:0:
64,192,113503,1,0,0:0:0:0:
192,192,113503,1,0,0:0:0:0:
320,192,113661,1,0,0:0:0:0:
192,192,113819,1,0,0:0:0:0:
320,192,113977,1,0,0:0:0:0:
64,192,114135,1,0,0:0:0:0:
448,192,114135,1,0,0:0:0:0:
192,192,114292,1,0,0:0:0:0:
320,192,114450,1,0,0:0:0:0:
64,192,114608,1,0,0:0:0:0:
192,192,114766,1,0,0:0:0:0:
320,192,114766,1,0,0:0:0:0:
320,192,114924,1,0,0:0:0:0:
448,192,115082,1,0,0:0:0:0:
192,192,115240,1,0,0:0:0:0:
64,192,115398,1,0,0:0:0:0:
320,192,115398,1,0,0:0:0:0:
448,192,115556,1,0,0:0:0:0:
192,192,115714,1,0,0:0:0:0:
320,192,115871,1,0,0:0:0:0:
64,192,116029,1,0,0:0:0:0:
448,192,116029,1,0,0:0:0:0:
320,192,116187,1,0,0:0:0:0:
192,192,116345,1,0,0:0:0:0:
448,192,116503,1,0,0:0:0:0:
64,192,116661,1,0,0:0:0:0:
320,192,116661,1,0,0:0:0:0:
192,192,116819,1,0,0:0:0:0:
64,192,116977,1,0,0:0:0:0:
448,192,116977,1,0,0:0:0:0:
64,192,117292,1,0,0:0:0:0:
320,192,117292,1,0,0:0:0:0:
192,192,117450,1,0,0:0:0:0:
448,192,117608,1,0,0:0:0:0:
192,192,117766,1,0,0:0:0:0:
64,192,117924,1,0,0:0:0:0:
320,192,117924,1,0,0:0:0:0:
192,192,118082,1,0,0:0:0:0:
448,192,118240,1,0,0:0:0:0:
320,192,118398,1,0,0:0:0:0:
64,192,118556,1,0,0:0:0:0:
192,192,118556,1,0,0:0:0:0:
64,192,118714,1,0,0:0:0:0:
192,192,118871,1,0,0:0:0:0:
320,192,119029,1,0,0:0:0:0:
320,192,119187,1,0,0:0:0:0:
448,192,119187,1,0,0:0:0:0:
320,192,119345,1,0,0:0:0:0:
192,192,119503,1,0,0:0:0:0:
448,192,119661,1,0,0:0:0:0:
64,192,119819,1,0,0:0:0:0:
192,192,119819,1,0,0:0:0:0:
320,192,119977,1,0,0:0:0:0:
192,192,120135,1,0,0:0:0:0:
320,192,120292,1,0,0:0:0:0:
448,192,120450,1,0,0:0:0:0:
320,192,120608,1,0,0:0:0:0:
192,192,120766,1,0,0:0:0:0:
64,192,120924,1,0,0:0:0:0:
448,192,121082,1,0,0:0:0:0:
192,192,121240,1,0,0:0:0:0:
64,192,121398,1,0,0:0:0:0:
448,192,121556,1,0,0:0:0:0:
64,192,121714,1,0,0:0:0:0:
192,192,121871,1,0,0:0:0:0:
448,192,122029,1,0,0:0:0:0:
320,192,122187,1,0,0:0:0:0:
448,192,122345,1,0,0:0:0:0:
192,192,122503,1,0,0:0:0:0:
64,192,122661,1,0,0:0:0:0:
192,192,122819,1,0,0:0:0:0:
192,192,122977,128,0,125503:0:0:0:0:
320,192,122977,1,0,0:0:0:0:
64,192,122977,1,0,0:0:0:0:
448,192,123135,1,0,0:0:0:0:
320,192,123292,1,0,0:0:0:0:
64,192,123450,1,0,0:0:0:0:
320,192,123608,1,0,0:0:0:0:
448,192,123766,1,0,0:0:0:0:
320,192,123924,1,0,0:0:0:0:
448,192,124082,1,0,0:0:0:0:
320,192,124240,1,0,0:0:0:0:
64,192,124398,1,0,0:0:0:0:
320,192,124556,1,0,0:0:0:0:
64,192,124714,1,0,0:0:0:0:
320,192,124871,1,0,0:0:0:0:
448,192,125029,1,0,0:0:0:0:
320,192,125187,1,0,0:0:0:0:
64,192,125345,1,0,0:0:0:0:
320,192,125503,128,0,128029:0:0:0:0:
448,192,125503,1,0,0:0:0:0:
64,192,125503,1,0,0:0:0:0:
192,192,125661,1,0,0:0:0:0:
64,192,125819,1,0,0:0:0:0:
448,192,125977,1,0,0:0:0:0:
192,192,126135,1,0,0:0:0:0:
64,192,126292,1,0,0:0:0:0:
192,192,126450,1,0,0:0:0:0:
448,192,126608,1,0,0:0:0:0:
192,192,126766,1,0,0:0:0:0:
64,192,126924,1,0,0:0:0:0:
192,192,127082,1,0,0:0:0:0:
448,192,127240,1,0,0:0:0:0:
192,192,127398,1,0,0:0:0:0:
64,192,127556,1,0,0:0:0:0:
192,192,127714,1,0,0:0:0:0:
448,192,127871,1,0,0:0:0:0:
192,192,128029,128,0,130556:0:0:0:0:
448,192,128029,1,0,0:0:0:0:
64,192,128029,1,0,0:0:0:0:
320,192,128187,1,0,0:0:0:0:
448,192,128345,1,0,0:0:0:0:
64,192,128503,1,0,0:0:0:0:
448,192,128661,1,0,0:0:0:0:
64,192,128819,1,0,0:0:0:0:
320,192,128977,1,0,0:0:0:0:
64,192,129135,1,0,0:0:0:0:
320,192,129292,1,0,0:0:0:0:
448,192,129450,1,0,0:0:0:0:
64,192,129608,1,0,0:0:0:0:
448,192,129766,1,0,0:0:0:0:
64,192,129924,1,0,0:0:0:0:
320,192,130082,1,0,0:0:0:0:
448,192,130240,1,0,0:0:0:0:
320,192,130398,1,0,0:0:0:0:
448,192,130556,128,0,133082:0:0:0:0:
64,192,130556,1,0,0:0:0:0:
320,192,130556,1,0,0:0:0:0:
320,192,130871,128,0,131187:0:0:0:0:
64,192,131187,128,0,131503:0:0:0:0:
320,192,131503,128,0,131661:0:0:0:0:
64,192,131661,128,0,132135:0:0:0:0:
320,192,132135,128,0,132450:0:0:0:0:
64,192,132450,128,0,132766:0:0:0:0:
320,192,132766,128,0,133082:0:0:0:0:
192,192,133082,128,0,135608:0:0:0:0:
64,192,133082,1,0,0:0:0:0:
320,192,133398,128,0,133714:0:0:0:0:
448,192,133398,1,0,0:0:0:0:
448,192,133714,128,0,134029:0:0:0:0:
64,192,133714,1,0,0:0:0:0:
320,192,134029,128,0,134187:0:0:0:0:
64,192,134029,1,0,0:0:0:0:
448,192,134187,128,0,134503:0:0:0:0:
64,192,134187,1,0,0:0:0:0:
64,192,134503,1,0,0:0:0:0:
320,192,134503,128,0,134819:0:0:0:0:
448,192,134819,128,0,134977:0:0:0:0:
64,192,134819,1,0,0:0:0:0:
64,192,134977,128,0,135292:0:0:0:0:
320,192,135292,128,0,135608:0:0:0:0:
448,192,135292,1,0,0:0:0:0:
448,192,135608,128,0,138135:0:0:0:0:
64,192,135608,128,0,138135:0:0:0:0:
192,192,135924,128,0,136240:0:0:0:0:
320,192,135924,1,0,0:0:0:0:
320,192,136240,128,0,136556:0:0:0:0:
192,192,136556,128,0,136714:0:0:0:0:
320,192,136714,128,0,137345:0:0:0:0:
192,192,137029,1,0,0:0:0:0:
192,192,137345,128,0,137503:0:0:0:0:
320,192,137503,128,0,137819:0:0:0:0:
192,192,137819,128,0,138135:0:0:0:0:
320,192,138135,128,0,140661:0:0:0:0:
448,192,138292,1,0,0:0:0:0:
192,192,138450,1,0,0:0:0:0:
64,192,138608,1,0,0:0:0:0:
448,192,138766,1,0,0:0:0:0:
64,192,138924,1,0,0:0:0:0:
192,192,139082,1,0,0:0:0:0:
448,192,139240,1,0,0:0:0:0:
192,192,139398,1,0,0:0:0:0:
64,192,139556,1,0,0:0:0:0:
448,192,139714,1,0,0:0:0:0:
192,192,139871,1,0,0:0:0:0:
448,192,140029,1,0,0:0:0:0:
192,192,140187,1,0,0:0:0:0:
64,192,140345,1,0,0:0:0:0:
192,192,140503,1,0,0:0:0:0:
192,192,140661,128,0,143187:0:0:0:0:
448,192,140661,1,0,0:0:0:0:
64,192,140661,1,0,0:0:0:0:
320,192,140819,1,0,0:0:0:0:
448,192,140977,1,0,0:0:0:0:
64,192,141135,1,0,0:0:0:0:
320,192,141292,1,0,0:0:0:0:
448,192,141450,1,0,0:0:0:0:
64,192,141608,1,0,0:0:0:0:
320,192,141766,1,0,0:0:0:0:
448,192,141924,1,0,0:0:0:0:
320,192,143187,128,0,143503:0:0:0:0:
448,192,143187,128,0,143503:0:0:0:0:
64,192,143187,128,0,143503:0:0:0:0:
192,192,143503,128,0,143819:0:0:0:0:
320,192,143819,128,0,144135:0:0:0:0:
64,192,144135,128,0,144450:0:0:0:0:
192,192,144135,128,0,144450:0:0:0:0:
448,192,144135,128,0,144292:0:0:0:0:
320,192,144292,128,0,144608:0:0:0:0:
64,192,144608,128,0,144766:0:0:0:0:
192,192,144766,128,0,145082:0:0:0:0:
320,192,145082,128,0,145398:0:0:0:0:
448,192,145082,128,0,145398:0:0:0:0:
64,192,145082,128,0,145398:0:0:0:0:
192,192,145398,128,0,146029:0:0:0:0:
64,192,145714,128,0,146029:0:0:0:0:
448,192,145714,128,0,146029:0:0:0:0:
320,192,146029,128,0,146345:0:0:0:0:
64,192,146345,128,0,146661:0:0:0:0:
448,192,146661,128,0,147292:0:0:0:0:
192,192,146661,128,0,146977:0:0:0:0:
320,192,146661,128,0,146819:0:0:0:0:
64,192,146819,128,0,147135:0:0:0:0:
192,192,147135,128,0,147292:0:0:0:0:
320,192,147292,128,0,147450:0:0:0:0:
64,192,147292,128,0,147608:0:0:0:0:
448,192,147450,128,0,147608:0:0:0:0:
192,192,147608,128,0,147924:0:0:0:0:
320,192,147608,128,0,147924:0:0:0:0:
448,192,147924,1,0,0:0:0:0:
320,192,148003,1,0,0:0:0:0:
192,192,148082,1,0,0:0:0:0:
448,192,148161,1,0,0:0:0:0:
320,192,148240,128,0,148556:0:0:0:0:
192,192,148240,128,0,148556:0:0:0:0:
64,192,148240,128,0,148556:0:0:0:0:
448,192,148556,128,0,148871:0:0:0:0:
320,192,148871,128,0,149187:0:0:0:0:
192,192,149187,128,0,149345:0:0:0:0:
64,192,149187,128,0,149661:0:0:0:0:
448,192,149187,128,0,149661:0:0:0:0:
320,192,149345,128,0,149661:0:0:0:0:
192,192,149661,128,0,149819:0:0:0:0:
320,192,149819,128,0,150135:0:0:0:0:
64,192,150135,128,0,150292:0:0:0:0:
448,192,150135,128,0,150292:0:0:0:0:
64,192,150450,128,0,150608:0:0:0:0:
448,192,150450,128,0,150608:0:0:0:0:
448,192,150766,128,0,151082:0:0:0:0:
320,192,150766,128,0,151082:0:0:0:0:
64,192,150766,128,0,151082:0:0:0:0:
192,192,151082,128,0,151398:0:0:0:0:
320,192,151398,128,0,151714:0:0:0:0:
192,192,151714,128,0,151871:0:0:0:0:
64,192,151714,128,0,152029:0:0:0:0:
448,192,151714,128,0,152029:0:0:0:0:
320,192,151871,128,0,152187:0:0:0:0:
192,192,152187,128,0,152345:0:0:0:0:
320,192,152345,128,0,152661:0:0:0:0:
448,192,152661,128,0,152977:0:0:0:0:
64,192,152661,128,0,152977:0:0:0:0:
192,192,152661,128,0,152819:0:0:0:0:
320,192,152819,128,0,152977:0:0:0:0:
192,192,152977,128,0,153056:0:0:0:0:
320,192,153056,128,0,153135:0:0:0:0:
448,192,153135,128,0,153214:0:0:0:0:
320,192,153214,128,0,153292:0:0:0:0:
192,192,153292,128,0,153608:0:0:0:0:
64,192,153292,128,0,153608:0:0:0:0:
448,192,153292,128,0,153608:0:0:0:0:
320,192,153608,128,0,153924:0:0:0:0:
192,192,153924,128,0,154240:0:0:0:0:
448,192,154240,128,0,154556:0:0:0:0:
320,192,154240,128,0,154398:0:0:0:0:
64,192,154240,128,0,154556:0:0:0:0:
192,192,154398,128,0,154714:0:0:0:0:
448,192,154714,128,0,154871:0:0:0:0:
320,192,154871,128,0,155187:0:0:0:0:
192,192,155187,128,0,155345:0:0:0:0:
64,192,155187,128,0,155345:0:0:0:0:
448,192,155187,128,0,155345:0:0:0:0:
320,192,155503,128,0,155819:0:0:0:0:
64,192,155503,128,0,155661:0:0:0:0:
192,192,155503,128,0,155661:0:0:0:0:
448,192,155503,128,0,155661:0:0:0:0:
192,192,155819,128,0,156135:0:0:0:0:
448,192,155819,128,0,156135:0:0:0:0:
64,192,155819,128,0,156135:0:0:0:0:
320,192,156135,128,0,156450:0:0:0:0:
192,192,156450,128,0,156766:0:0:0:0:
448,192,156766,128,0,157082:0:0:0:0:
320,192,156766,128,0,157082:0:0:0:0:
64,192,156766,128,0,156924:0:0:0:0:
192,192,156924,128,0,157240:0:0:0:0:
64,192,157240,128,0,157398:0:0:0:0:
320,192,157398,128,0,157714:0:0:0:0:
192,192,157714,128,0,158029:0:0:0:0:
64,192,157714,128,0,158029:0:0:0:0:
448,192,157714,128,0,158029:0:0:0:0:
320,192,158029,1,0,0:0:0:0:
192,192,158108,1,0,0:0:0:0:
64,192,158187,1,0,0:0:0:0:
192,192,158266,1,0,0:0:0:0:
448,192,158345,128,0,158661:0:0:0:0:
320,192,158345,128,0,158661:0:0:0:0:
64,192,158345,128,0,158661:0:0:0:0:
192,192,158661,128,0,158977:0:0:0:0:
448,192,158977,128,0,159292:0:0:0:0:
64,192,159292,128,0,159608:0:0:0:0:
192,192,159292,128,0,159608:0:0:0:0:
320,192,159292,128,0,159450:0:0:0:0:
448,192,159450,128,0,159766:0:0:0:0:
320,192,159766,128,0,159924:0:0:0:0:
192,192,159924,128,0,160240:0:0:0:0:
448,192,160240,128,0,160556:0:0:0:0:
320,192,160240,128,0,160556:0:0:0:0:
192,192,160556,128,0,160714:0:0:0:0:
64,192,160556,128,0,160714:0:0:0:0:
64,192,160871,128,0,161187:0:0:0:0:
448,192,160871,128,0,161187:0:0:0:0:
192,192,160871,128,0,161187:0:0:0:0:
320,192,161187,128,0,161503:0:0:0:0:
192,192,161503,128,0,161661:0:0:0:0:
448,192,161661,128,0,161977:0:0:0:0:
320,192,161819,128,0,162135:0:0:0:0:
192,192,161819,128,0,162135:0:0:0:0:
64,192,161977,128,0,162135:0:0:0:0:
448,192,162135,128,0,162450:0:0:0:0:
320,192,162450,128,0,162608:0:0:0:0:
192,192,162608,128,0,162924:0:0:0:0:
448,192,162766,128,0,163082:0:0:0:0:
64,192,162766,128,0,163082:0:0:0:0:
320,192,162766,128,0,163398:0:0:0:0:
192,192,163398,128,0,165924:0:0:0:0:
64,192,163398,1,0,0:0:0:0:
320,192,163556,1,0,0:0:0:0:
448,192,163714,1,0,0:0:0:0:
64,192,163871,1,0,0:0:0:0:
320,192,164029,1,0,0:0:0:0:
448,192,164029,1,0,0:0:0:0:
64,192,164187,1,0,0:0:0:0:
448,192,164345,1,0,0:0:0:0:
320,192,164503,1,0,0:0:0:0:
64,192,164661,1,0,0:0:0:0:
448,192,164661,1,0,0:0:0:0:
320,192,164819,1,0,0:0:0:0:
64,192,164977,1,0,0:0:0:0:
448,192,165135,1,0,0:0:0:0:
64,192,165292,1,0,0:0:0:0:
320,192,165292,1,0,0:0:0:0:
320,192,165450,1,0,0:0:0:0:
448,192,165608,1,0,0:0:0:0:
64,192,165766,1,0,0:0:0:0:
320,192,165924,128,0,168450:0:0:0:0:
64,192,165924,1,0,0:0:0:0:
448,192,165924,1,0,0:0:0:0:
192,192,166082,1,0,0:0:0:0:
64,192,166240,1,0,0:0:0:0:
448,192,166398,1,0,0:0:0:0:
64,192,166556,1,0,0:0:0:0:
192,192,166556,1,0,0:0:0:0:
448,192,166714,1,0,0:0:0:0:
192,192,166871,1,0,0:0:0:0:
448,192,167029,1,0,0:0:0:0:
64,192,167187,1,0,0:0:0:0:
192,192,167187,1,0,0:0:0:0:
192,192,167345,1,0,0:0:0:0:
64,192,167503,1,0,0:0:0:0:
192,192,167661,1,0,0:0:0:0:
448,192,167819,1,0,0:0:0:0:
64,192,167819,1,0,0:0:0:0:
192,192,167977,1,0,0:0:0:0:
64,192,168135,1,0,0:0:0:0:
448,192,168292,1,0,0:0:0:0:
192,192,168450,128,0,170977:0:0:0:0:
64,192,168450,1,0,0:0:0:0:
448,192,168450,1,0,0:0:0:0:
320,192,168608,1,0,0:0:0:0:
448,192,168766,1,0,0:0:0:0:
64,192,168766,1,0,0:0:0:0:
320,192,168924,1,0,0:0:0:0:
320,192,169082,1,0,0:0:0:0:
448,192,169082,1,0,0:0:0:0:
448,192,169240,1,0,0:0:0:0:
320,192,169398,1,0,0:0:0:0:
64,192,169556,1,0,0:0:0:0:
320,192,169714,1,0,0:0:0:0:
448,192,169714,1,0,0:0:0:0:
64,192,169871,1,0,0:0:0:0:
320,192,170029,1,0,0:0:0:0:
320,192,170187,1,0,0:0:0:0:
448,192,170345,1,0,0:0:0:0:
64,192,170345,1,0,0:0:0:0:
320,192,170503,1,0,0:0:0:0:
448,192,170661,1,0,0:0:0:0:
64,192,170819,1,0,0:0:0:0:
320,192,170977,128,0,173503:0:0:0:0:
64,192,170977,1,0,0:0:0:0:
448,192,170977,1,0,0:0:0:0:
192,192,171135,1,0,0:0:0:0:
64,192,171292,1,0,0:0:0:0:
192,192,171450,1,0,0:0:0:0:
64,192,171608,1,0,0:0:0:0:
448,192,171608,1,0,0:0:0:0:
192,192,171766,1,0,0:0:0:0:
448,192,171924,1,0,0:0:0:0:
192,192,172082,1,0,0:0:0:0:
64,192,172240,1,0,0:0:0:0:
448,192,172240,1,0,0:0:0:0:
192,192,172398,1,0,0:0:0:0:
64,192,172556,1,0,0:0:0:0:
448,192,172714,1,0,0:0:0:0:
192,192,172871,1,0,0:0:0:0:
64,192,172871,1,0,0:0:0:0:
448,192,173029,1,0,0:0:0:0:
192,192,173187,1,0,0:0:0:0:
64,192,173345,1,0,0:0:0:0:
448,192,173503,128,0,176029:0:0:0:0:
64,192,173503,1,0,0:0:0:0:
192,192,173503,1,0,0:0:0:0:
192,192,173661,1,0,0:0:0:0:
64,192,173819,1,0,0:0:0:0:
192,192,173977,1,0,0:0:0:0:
320,192,173977,1,0,0:0:0:0:
64,192,174135,1,0,0:0:0:0:
192,192,174135,1,0,0:0:0:0:
320,192,174292,1,0,0:0:0:0:
192,192,174450,1,0,0:0:0:0:
320,192,174450,1,0,0:0:0:0:
192,192,174608,1,0,0:0:0:0:
320,192,174766,1,0,0:0:0:0:
64,192,174766,1,0,0:0:0:0:
192,192,174924,1,0,0:0:0:0:
320,192,175082,1,0,0:0:0:0:
192,192,175240,1,0,0:0:0:0:
64,192,175240,1,0,0:0:0:0:
320,192,175398,1,0,0:0:0:0:
192,192,175556,1,0,0:0:0:0:
64,192,175714,1,0,0:0:0:0:
320,192,175714,1,0,0:0:0:0:
192,192,175871,1,0,0:0:0:0:
64,192,176029,128,0,178556:0:0:0:0:
192,192,176029,1,0,0:0:0:0:
320,192,176029,1,0,0:0:0:0:
320,192,176187,1,0,0:0:0:0:
448,192,176345,1,0,0:0:0:0:
192,192,176503,1,0,0:0:0:0:
320,192,176661,1,0,0:0:0:0:
448,192,176661,1,0,0:0:0:0:
448,192,176819,1,0,0:0:0:0:
320,192,176977,1,0,0:0:0:0:
192,192,177135,1,0,0:0:0:0:
320,192,177292,1,0,0:0:0:0:
448,192,177292,1,0,0:0:0:0:
192,192,177450,1,0,0:0:0:0:
448,192,177608,1,0,0:0:0:0:
320,192,177766,1,0,0:0:0:0:
192,192,177924,1,0,0:0:0:0:
448,192,177924,1,0,0:0:0:0:
320,192,178082,1,0,0:0:0:0:
448,192,178240,1,0,0:0:0:0:
192,192,178398,1,0,0:0:0:0:
320,192,178556,128,0,181082:0:0:0:0:
192,192,178556,1,0,0:0:0:0:
448,192,178556,1,0,0:0:0:0:
192,192,178714,1,0,0:0:0:0:
64,192,178871,1,0,0:0:0:0:
448,192,179029,1,0,0:0:0:0:
64,192,179187,1,0,0:0:0:0:
192,192,179187,1,0,0:0:0:0:
448,192,179345,1,0,0:0:0:0:
192,192,179503,1,0,0:0:0:0:
448,192,179661,1,0,0:0:0:0:
64,192,179819,1,0,0:0:0:0:
192,192,179819,1,0,0:0:0:0:
192,192,179977,1,0,0:0:0:0:
64,192,180135,1,0,0:0:0:0:
448,192,180292,1,0,0:0:0:0:
64,192,180450,1,0,0:0:0:0:
192,192,180450,1,0,0:0:0:0:
192,192,180608,1,0,0:0:0:0:
64,192,180766,1,0,0:0:0:0:
448,192,180924,1,0,0:0:0:0:
192,192,181082,128,0,183608:0:0:0:0:
64,192,181082,1,0,0:0:0:0:
448,192,181082,1,0,0:0:0:0:
320,192,181240,1,0,0:0:0:0:
448,192,181398,1,0,0:0:0:0:
64,192,181556,1,0,0:0:0:0:
320,192,181714,1,0,0:0:0:0:
448,192,181714,1,0,0:0:0:0:
448,192,181871,1,0,0:0:0:0:
320,192,182029,1,0,0:0:0:0:
448,192,182187,1,0,0:0:0:0:
64,192,182345,1,0,0:0:0:0:
320,192,182345,1,0,0:0:0:0:
320,192,182503,1,0,0:0:0:0:
64,192,182661,128,0,182819:0:0:0:0:
320,192,182661,1,0,0:0:0:0:
448,192,182977,128,0,183135:0:0:0:0:
64,192,182977,1,0,0:0:0:0:
64,192,183292,128,0,183450:0:0:0:0:
320,192,183292,1,0,0:0:0:0:
448,192,183450,1,0,0:0:0:0:
320,192,183450,128,0,183608:0:0:0:0:
448,192,183608,128,0,186135:0:0:0:0:
64,192,183608,1,0,0:0:0:0:
192,192,183924,1,0,0:0:0:0:
320,192,183924,1,0,0:0:0:0:
64,192,184240,1,0,0:0:0:0:
320,192,184240,1,0,0:0:0:0:
64,192,184556,1,0,0:0:0:0:
192,192,184556,1,0,0:0:0:0:
64,192,184871,1,0,0:0:0:0:
320,192,184871,1,0,0:0:0:0:
192,192,185187,1,0,0:0:0:0:
320,192,185187,1,0,0:0:0:0:
64,192,185503,1,0,0:0:0:0:
192,192,185503,1,0,0:0:0:0:
192,192,185661,1,0,0:0:0:0:
320,192,185661,1,0,0:0:0:0:
64,192,185977,1,0,0:0:0:0:
320,192,185977,1,0,0:0:0:0:
320,192,186135,128,0,188661:0:0:0:0:
64,192,186135,1,0,0:0:0:0:
192,192,186135,1,0,0:0:0:0:
64,192,186450,1,0,0:0:0:0:
448,192,186450,1,0,0:0:0:0:
64,192,186766,1,0,0:0:0:0:
192,192,186766,1,0,0:0:0:0:
448,192,187082,1,0,0:0:0:0:
192,192,187082,1,0,0:0:0:0:
64,192,187398,1,0,0:0:0:0:
192,192,187398,1,0,0:0:0:0:
448,192,187714,1,0,0:0:0:0:
192,192,187714,1,0,0:0:0:0:
192,192,187871,1,0,0:0:0:0:
64,192,187871,1,0,0:0:0:0:
64,192,188029,1,0,0:0:0:0:
192,192,188029,1,0,0:0:0:0:
64,192,188345,1,0,0:0:0:0:
448,192,188345,1,0,0:0:0:0:
448,192,188661,128,0,191187:0:0:0:0:
64,192,188661,1,0,0:0:0:0:
192,192,188661,1,0,0:0:0:0:
64,192,188977,1,0,0:0:0:0:
320,192,188977,1,0,0:0:0:0:
192,192,189292,1,0,0:0:0:0:
320,192,189292,1,0,0:0:0:0:
64,192,189608,1,0,0:0:0:0:
192,192,189608,1,0,0:0:0:0:
192,192,189924,1,0,0:0:0:0:
320,192,189924,1,0,0:0:0:0:
64,192,190240,1,0,0:0:0:0:
320,192,190240,1,0,0:0:0:0:
192,192,190556,1,0,0:0:0:0:
64,192,190556,1,0,0:0:0:0:
192,192,190714,1,0,0:0:0:0:
320,192,190714,1,0,0:0:0:0:
64,192,191029,1,0,0:0:0:0:
320,192,191029,1,0,0:0:0:0:
64,192,191187,128,0,193714:0:0:0:0:
192,192,191187,1,0,0:0:0:0:
320,192,191187,1,0,0:0:0:0:
320,192,191503,1,0,0:0:0:0:
448,192,191503,1,0,0:0:0:0:
192,192,191819,1,0,0:0:0:0:
448,192,191819,1,0,0:0:0:0:
320,192,192135,1,0,0:0:0:0:
192,192,192135,1,0,0:0:0:0:
320,192,192450,1,0,0:0:0:0:
448,192,192450,1,0,0:0:0:0:
192,192,192766,1,0,0:0:0:0:
448,192,192766,1,0,0:0:0:0:
320,192,193082,1,0,0:0:0:0:
192,192,193082,1,0,0:0:0:0:
192,192,193398,1,0,0:0:0:0:
448,192,193398,1,0,0:0:0:0:
320,192,193556,1,0,0:0:0:0:
448,192,193556,1,0,0:0:0:0:
192,192,193714,1,0,0:0:0:0:
448,192,193714,1,0,0:0:0:0:
320,192,193714,1,0,0:0:0:0:
448,192,193871,1,0,0:0:0:0:
64,192,194029,1,0,0:0:0:0:
192,192,194029,1,0,0:0:0:0:
448,192,194187,1,0,0:0:0:0:
64,192,194345,1,0,0:0:0:0:
192,192,194345,1,0,0:0:0:0:
192,192,194503,1,0,0:0:0:0:
320,192,194661,1,0,0:0:0:0:
448,192,194661,1,0,0:0:0:0:
320,192,194819,1,0,0:0:0:0:
64,192,194977,1,0,0:0:0:0:
192,192,194977,1,0,0:0:0:0:
192,192,195135,1,0,0:0:0:0:
64,192,195292,1,0,0:0:0:0:
192,192,195450,1,0,0:0:0:0:
320,192,195608,1,0,0:0:0:0:
448,192,195608,1,0,0:0:0:0:
320,192,195766,1,0,0:0:0:0:
192,192,195924,1,0,0:0:0:0:
64,192,196082,1,0,0:0:0:0:
320,192,196240,1,0,0:0:0:0:
448,192,196240,1,0,0:0:0:0:
192,192,196398,1,0,0:0:0:0:
64,192,196398,1,0,0:0:0:0:
320,192,196556,1,0,0:0:0:0:
448,192,196556,1,0,0:0:0:0:
192,192,196714,1,0,0:0:0:0:
64,192,196714,1,0,0:0:0:0:
320,192,196871,1,0,0:0:0:0:
448,192,196871,1,0,0:0:0:0:
320,192,197029,1,0,0:0:0:0:
448,192,197029,1,0,0:0:0:0:
320,192,197187,1,0,0:0:0:0:
448,192,197187,1,0,0:0:0:0:
320,192,197345,1,0,0:0:0:0:
448,192,197345,1,0,0:0:0:0:
64,192,197503,1,0,0:0:0:0:
192,192,197503,1,0,0:0:0:0:
320,192,197503,1,0,0:0:0:0:
192,192,197661,1,0,0:0:0:0:
64,192,197661,1,0,0:0:0:0:
192,192,197819,1,0,0:0:0:0:
64,192,197819,1,0,0:0:0:0:
192,192,197977,1,0,0:0:0:0:
64,192,197977,1,0,0:0:0:0:
320,192,198135,1,0,0:0:0:0:
448,192,198135,1,0,0:0:0:0:
192,192,198135,1,0,0:0:0:0:
192,192,198292,1,0,0:0:0:0:
320,192,198292,1,0,0:0:0:0:
192,192,198450,1,0,0:0:0:0:
320,192,198450,1,0,0:0:0:0:
192,192,198608,1,0,0:0:0:0:
320,192,198608,1,0,0:0:0:0:
64,192,198766,1,0,0:0:0:0:
448,192,198766,1,0,0:0:0:0:
320,192,198766,1,0,0:0:0:0:
192,192,198845,1,0,0:0:0:0:
320,192,198924,1,0,0:0:0:0:
448,192,199003,1,0,0:0:0:0:
64,192,199082,1,0,0:0:0:0:
192,192,199161,1,0,0:0:0:0:
320,192,199240,1,0,0:0:0:0:
192,192,199319,1,0,0:0:0:0:
64,192,199398,1,0,0:0:0:0:
448,192,199477,1,0,0:0:0:0:
320,192,199556,1,0,0:0:0:0:
192,192,199635,1,0,0:0:0:0:
64,192,199714,1,0,0:0:0:0:
448,192,199792,1,0,0:0:0:0:
320,192,199871,1,0,0:0:0:0:
192,192,199950,1,0,0:0:0:0:
64,192,200029,1,0,0:0:0:0:
192,192,200108,1,0,0:0:0:0:
320,192,200187,1,0,0:0:0:0:
64,192,200266,1,0,0:0:0:0:
192,192,200345,1,0,0:0:0:0:
448,192,200424,1,0,0:0:0:0:
320,192,200503,1,0,0:0:0:0:
64,192,200582,1,0,0:0:0:0:
192,192,200661,1,0,0:0:0:0:
448,192,200740,1,0,0:0:0:0:
320,192,200819,1,0,0:0:0:0:
64,192,200898,1,0,0:0:0:0:
192,192,200977,1,0,0:0:0:0:
320,192,201056,1,0,0:0:0:0:
448,192,201135,1,0,0:0:0:0:
320,192,201292,1,0,0:0:0:0:
192,192,201292,1,0,0:0:0:0:
64,192,201292,1,0,0:0:0:0:
448,192,201450,1,0,0:0:0:0:
320,192,201608,1,0,0:0:0:0:
192,192,201766,1,0,0:0:0:0:
320,192,201924,1,0,0:0:0:0:
448,192,201924,1,0,0:0:0:0:
192,192,202082,1,0,0:0:0:0:
64,192,202240,1,0,0:0:0:0:
448,192,202398,1,0,0:0:0:0:
192,192,202556,1,0,0:0:0:0:
448,192,202714,1,0,0:0:0:0:
320,192,202792,1,0,0:0:0:0:
64,192,202950,1,0,0:0:0:0:
320,192,203819,1,0,0:0:0:0:
448,192,203819,1,0,0:0:0:0:
64,192,203819,1,0,0:0:0:0:
192,192,203977,1,0,0:0:0:0:
448,192,204135,1,0,0:0:0:0:
192,192,204292,1,0,0:0:0:0:
64,192,204450,1,0,0:0:0:0:
448,192,204450,1,0,0:0:0:0:
320,192,204608,1,0,0:0:0:0:
448,192,204766,1,0,0:0:0:0:
64,192,204924,1,0,0:0:0:0:
192,192,205082,1,0,0:0:0:0:
320,192,205082,1,0,0:0:0:0:
320,192,205240,1,0,0:0:0:0:
192,192,205398,1,0,0:0:0:0:
448,192,205556,1,0,0:0:0:0:
64,192,205714,1,0,0:0:0:0:
448,192,205714,1,0,0:0:0:0:
320,192,205871,1,0,0:0:0:0:
192,192,206029,1,0,0:0:0:0:
64,192,206187,1,0,0:0:0:0:
192,192,206345,1,0,0:0:0:0:
320,192,206345,1,0,0:0:0:0:
448,192,206345,1,0,0:0:0:0:
320,192,206503,1,0,0:0:0:0:
64,192,206661,1,0,0:0:0:0:
448,192,206819,1,0,0:0:0:0:
64,192,206977,1,0,0:0:0:0:
192,192,206977,1,0,0:0:0:0:
320,192,207135,1,0,0:0:0:0:
64,192,207292,1,0,0:0:0:0:
448,192,207292,1,0,0:0:0:0:
192,192,207608,1,0,0:0:0:0:
448,192,207608,1,0,0:0:0:0:
320,192,207766,1,0,0:0:0:0:
192,192,207924,1,0,0:0:0:0:
448,192,208082,1,0,0:0:0:0:
64,192,208240,1,0,0:0:0:0:
192,192,208240,1,0,0:0:0:0:
320,192,208398,1,0,0:0:0:0:
192,192,208556,1,0,0:0:0:0:
320,192,208714,1,0,0:0:0:0:
64,192,208871,1,0,0:0:0:0:
192,192,208871,1,0,0:0:0:0:
448,192,208871,1,0,0:0:0:0:
320,192,209029,1,0,0:0:0:0:
64,192,209187,1,0,0:0:0:0:
192,192,209345,1,0,0:0:0:0:
320,192,209503,1,0,0:0:0:0:
448,192,209503,1,0,0:0:0:0:
192,192,209661,1,0,0:0:0:0:
448,192,209819,1,0,0:0:0:0:
64,192,209977,1,0,0:0:0:0:
192,192,210135,1,0,0:0:0:0:
448,192,210135,1,0,0:0:0:0:
320,192,210292,1,0,0:0:0:0:
64,192,210450,1,0,0:0:0:0:
448,192,210608,1,0,0:0:0:0:
64,192,210766,1,0,0:0:0:0:
320,192,210766,1,0,0:0:0:0:
192,192,210924,1,0,0:0:0:0:
320,192,211082,1,0,0:0:0:0:
448,192,211240,1,0,0:0:0:0:
64,192,211398,1,0,0:0:0:0:
192,192,211398,1,0,0:0:0:0:
320,192,211398,1,0,0:0:0:0:
320,192,211556,1,0,0:0:0:0:
448,192,211714,1,0,0:0:0:0:
192,192,211871,1,0,0:0:0:0:
64,192,212029,1,0,0:0:0:0:
320,192,212029,1,0,0:0:0:0:
448,192,212187,1,0,0:0:0:0:
320,192,212345,1,0,0:0:0:0:
64,192,212503,1,0,0:0:0:0:
192,192,212661,1,0,0:0:0:0:
320,192,212661,1,0,0:0:0:0:
448,192,212819,1,0,0:0:0:0:
64,192,212977,1,0,0:0:0:0:
448,192,213135,1,0,0:0:0:0:
448,192,213292,128,0,213371:0:0:0:0:
320,192,213371,128,0,213450:0:0:0:0:
64,192,213450,128,0,213529:0:0:0:0:
192,192,213529,128,0,213608:0:0:0:0:
448,192,213608,128,0,213924:0:0:0:0:
64,192,213924,1,0,0:0:0:0:
192,192,213924,1,0,0:0:0:0:
320,192,213924,1,0,0:0:0:0:
192,192,214082,1,0,0:0:0:0:
448,192,214240,1,0,0:0:0:0:
64,192,214398,1,0,0:0:0:0:
320,192,214556,1,0,0:0:0:0:
448,192,214556,1,0,0:0:0:0:
192,192,214714,1,0,0:0:0:0:
64,192,214871,1,0,0:0:0:0:
448,192,215029,1,0,0:0:0:0:
64,192,215187,1,0,0:0:0:0:
320,192,215187,1,0,0:0:0:0:
192,192,215345,1,0,0:0:0:0:
320,192,215503,1,0,0:0:0:0:
64,192,215661,1,0,0:0:0:0:
448,192,215819,1,0,0:0:0:0:
320,192,215819,1,0,0:0:0:0:
320,192,215977,1,0,0:0:0:0:
64,192,216135,1,0,0:0:0:0:
448,192,216292,1,0,0:0:0:0:
64,192,216450,1,0,0:0:0:0:
320,192,216450,1,0,0:0:0:0:
192,192,216608,1,0,0:0:0:0:
448,192,216766,1,0,0:0:0:0:
64,192,216924,1,0,0:0:0:0:
192,192,217082,1,0,0:0:0:0:
320,192,217082,1,0,0:0:0:0:
192,192,217240,1,0,0:0:0:0:
64,192,217398,1,0,0:0:0:0:
320,192,217556,1,0,0:0:0:0:
448,192,217714,1,0,0:0:0:0:
64,192,217714,1,0,0:0:0:0:
320,192,217871,1,0,0:0:0:0:
64,192,218029,1,0,0:0:0:0:
192,192,218187,1,0,0:0:0:0:
64,192,218345,1,0,0:0:0:0:
320,192,218345,1,0,0:0:0:0:
192,192,218503,1,0,0:0:0:0:
448,192,218661,1,0,0:0:0:0:
320,192,218819,1,0,0:0:0:0:
64,192,218977,1,0,0:0:0:0:
192,192,218977,1,0,0:0:0:0:
320,192,219135,1,0,0:0:0:0:
192,192,219292,1,0,0:0:0:0:
448,192,219450,1,0,0:0:0:0:
64,192,219608,1,0,0:0:0:0:
320,192,219608,1,0,0:0:0:0:
192,192,219766,1,0,0:0:0:0:
448,192,219924,1,0,0:0:0:0:
64,192,220082,1,0,0:0:0:0:
320,192,220240,1,0,0:0:0:0:
448,192,220240,1,0,0:0:0:0:
192,192,220398,1,0,0:0:0:0:
320,192,220556,1,0,0:0:0:0:
192,192,220714,1,0,0:0:0:0:
64,192,220871,1,0,0:0:0:0:
448,192,220871,1,0,0:0:0:0:
192,192,221029,1,0,0:0:0:0:
320,192,221187,1,0,0:0:0:0:
448,192,221345,1,0,0:0:0:0:
192,192,221503,1,0,0:0:0:0:
64,192,221661,1,0,0:0:0:0:
192,192,221819,1,0,0:0:0:0:
320,192,221977,1,0,0:0:0:0:
448,192,222135,1,0,0:0:0:0:
320,192,222292,1,0,0:0:0:0:
64,192,222450,1,0,0:0:0:0:
192,192,222608,1,0,0:0:0:0:
320,192,222766,1,0,0:0:0:0:
192,192,222845,1,0,0:0:0:0:
64,192,222924,1,0,0:0:0:0:
192,192,223003,1,0,0:0:0:0:
320,192,223082,1,0,0:0:0:0:
448,192,223161,1,0,0:0:0:0:
64,192,223240,1,0,0:0:0:0:
192,192,223319,1,0,0:0:0:0:
320,192,223398,1,0,0:0:0:0:
320,192,224029,1,0,0:0:0:0:
448,192,224029,1,0,0:0:0:0:
64,192,224029,1,0,0:0:0:0:
192,192,224187,1,0,0:0:0:0:
320,192,224345,1,0,0:0:0:0:
448,192,224503,1,0,0:0:0:0:
64,192,224661,1,0,0:0:0:0:
192,192,224661,1,0,0:0:0:0:
448,192,224819,1,0,0:0:0:0:
320,192,224977,1,0,0:0:0:0:
192,192,225135,1,0,0:0:0:0:
64,192,225292,1,0,0:0:0:0:
320,192,225292,1,0,0:0:0:0:
192,192,225450,1,0,0:0:0:0:
320,192,225608,1,0,0:0:0:0:
448,192,225766,1,0,0:0:0:0:
64,192,225924,1,0,0:0:0:0:
192,192,225924,1,0,0:0:0:0:
320,192,226082,1,0,0:0:0:0:
192,192,226240,1,0,0:0:0:0:
448,192,226398,1,0,0:0:0:0:
64,192,226556,1,0,0:0:0:0:
192,192,226556,1,0,0:0:0:0:
320,192,226714,1,0,0:0:0:0:
448,192,226871,1,0,0:0:0:0:
64,192,227029,1,0,0:0:0:0:
192,192,227187,1,0,0:0:0:0:
448,192,227187,1,0,0:0:0:0:
320,192,227345,1,0,0:0:0:0:
64,192,227503,1,0,0:0:0:0:
448,192,227661,1,0,0:0:0:0:
64,192,227819,1,0,0:0:0:0:
192,192,227819,1,0,0:0:0:0:
320,192,227977,1,0,0:0:0:0:
64,192,228135,1,0,0:0:0:0:
320,192,228292,1,0,0:0:0:0:
448,192,228450,1,0,0:0:0:0:
192,192,228450,1,0,0:0:0:0:
64,192,228608,1,0,0:0:0:0:
448,192,228766,1,0,0:0:0:0:
192,192,228924,1,0,0:0:0:0:
64,192,229082,1,0,0:0:0:0:
320,192,229082,1,0,0:0:0:0:
192,192,229240,1,0,0:0:0:0:
448,192,229398,1,0,0:0:0:0:
64,192,229556,1,0,0:0:0:0:
320,192,229714,1,0,0:0:0:0:
448,192,229714,1,0,0:0:0:0:
192,192,229871,1,0,0:0:0:0:
448,192,230029,1,0,0:0:0:0:
192,192,230187,1,0,0:0:0:0:
64,192,230345,1,0,0:0:0:0:
320,192,230345,1,0,0:0:0:0:
448,192,230503,1,0,0:0:0:0:
192,192,230661,1,0,0:0:0:0:
448,192,230819,1,0,0:0:0:0:
64,192,230977,1,0,0:0:0:0:
320,192,230977,1,0,0:0:0:0:
192,192,231135,1,0,0:0:0:0:
448,192,231292,1,0,0:0:0:0:
320,192,231450,1,0,0:0:0:0:
448,192,231608,1,0,0:0:0:0:
64,192,231608,1,0,0:0:0:0:
320,192,231766,1,0,0:0:0:0:
192,192,231924,1,0,0:0:0:0:
64,192,232082,1,0,0:0:0:0:
320,192,232240,1,0,0:0:0:0:
448,192,232240,1,0,0:0:0:0:
320,192,232398,1,0,0:0:0:0:
192,192,232556,1,0,0:0:0:0:
448,192,232714,1,0,0:0:0:0:
64,192,232871,1,0,0:0:0:0:
192,192,232871,1,0,0:0:0:0:
320,192,233029,1,0,0:0:0:0:
192,192,233187,1,0,0:0:0:0:
64,192,233345,1,0,0:0:0:0:
320,192,233503,1,0,0:0:0:0:
448,192,233503,1,0,0:0:0:0:
64,192,234135,1,0,0:0:0:0:
448,192,234135,1,0,0:0:0:0:
320,192,234135,1,0,0:0:0:0:
320,192,234292,1,0,0:0:0:0:
192,192,234450,1,0,0:0:0:0:
64,192,234608,1,0,0:0:0:0:
192,192,234766,1,0,0:0:0:0:
448,192,234766,1,0,0:0:0:0:
320,192,234924,1,0,0:0:0:0:
448,192,235082,1,0,0:0:0:0:
320,192,235240,1,0,0:0:0:0:
192,192,235398,1,0,0:0:0:0:
448,192,235398,1,0,0:0:0:0:
64,192,235556,1,0,0:0:0:0:
192,192,235714,1,0,0:0:0:0:
320,192,235871,1,0,0:0:0:0:
448,192,236029,1,0,0:0:0:0:
192,192,236029,1,0,0:0:0:0:
320,192,236187,1,0,0:0:0:0:
192,192,236345,1,0,0:0:0:0:
64,192,236503,1,0,0:0:0:0:
192,192,236661,1,0,0:0:0:0:
448,192,236661,1,0,0:0:0:0:
320,192,236819,1,0,0:0:0:0:
192,192,236977,1,0,0:0:0:0:
320,192,237135,1,0,0:0:0:0:
448,192,237292,1,0,0:0:0:0:
64,192,237292,1,0,0:0:0:0:
192,192,237450,1,0,0:0:0:0:
320,192,237608,1,0,0:0:0:0:
192,192,237766,1,0,0:0:0:0:
448,192,237924,1,0,0:0:0:0:
64,192,237924,1,0,0:0:0:0:
320,192,238082,1,0,0:0:0:0:
64,192,238240,1,0,0:0:0:0:
320,192,238398,1,0,0:0:0:0:
64,192,238556,1,0,0:0:0:0:
448,192,238556,1,0,0:0:0:0:
192,192,238714,1,0,0:0:0:0:
448,192,238871,1,0,0:0:0:0:
64,192,239029,1,0,0:0:0:0:
192,192,239187,1,0,0:0:0:0:
320,192,239187,1,0,0:0:0:0:
448,192,239345,1,0,0:0:0:0:
64,192,239503,1,0,0:0:0:0:
448,192,239661,1,0,0:0:0:0:
64,192,239819,1,0,0:0:0:0:
192,192,239819,1,0,0:0:0:0:
448,192,239977,1,0,0:0:0:0:
64,192,240135,1,0,0:0:0:0:
320,192,240292,1,0,0:0:0:0:
192,192,240450,1,0,0:0:0:0:
448,192,240450,1,0,0:0:0:0:
320,192,240608,1,0,0:0:0:0:
64,192,240766,1,0,0:0:0:0:
320,192,240924,1,0,0:0:0:0:
192,192,241082,1,0,0:0:0:0:
64,192,241082,1,0,0:0:0:0:
320,192,241240,1,0,0:0:0:0:
448,192,241398,1,0,0:0:0:0:
320,192,241556,1,0,0:0:0:0:
64,192,241714,1,0,0:0:0:0:
320,192,241871,1,0,0:0:0:0:
448,192,242029,1,0,0:0:0:0:
64,192,242187,1,0,0:0:0:0:
448,192,242345,1,0,0:0:0:0:
320,192,242503,1,0,0:0:0:0:
192,192,242661,1,0,0:0:0:0:
448,192,242819,1,0,0:0:0:0:
64,192,242977,1,0,0:0:0:0:
192,192,243135,1,0,0:0:0:0:
448,192,243292,1,0,0:0:0:0:
320,192,243450,1,0,0:0:0:0:
192,192,243608,1,0,0:0:0:0:
448,192,243766,1,0,0:0:0:0:
64,192,243924,1,0,0:0:0:0:
192,192,244082,1,0,0:0:0:0:
320,192,244240,128,0,244556:0:0:0:0:
448,192,244240,128,0,246766:0:0:0:0:
192,192,244556,128,0,244871:0:0:0:0:
64,192,244871,128,0,245029:0:0:0:0:
320,192,245029,128,0,245187:0:0:0:0:
192,192,245187,128,0,245345:0:0:0:0:
64,192,245345,128,0,245503:0:0:0:0:
192,192,245503,128,0,245819:0:0:0:0:
64,192,245819,128,0,246135:0:0:0:0:
192,192,246135,128,0,246292:0:0:0:0:
320,192,246292,128,0,246450:0:0:0:0:
64,192,246450,128,0,246608:0:0:0:0:
192,192,246608,128,0,246766:0:0:0:0:
64,192,246766,128,0,247082:0:0:0:0:
320,192,246766,128,0,249292:0:0:0:0:
448,192,247082,128,0,247398:0:0:0:0:
192,192,247398,128,0,247556:0:0:0:0:
64,192,247556,128,0,247714:0:0:0:0:
448,192,247714,128,0,247871:0:0:0:0:
192,192,247871,128,0,248029:0:0:0:0:
64,192,248029,128,0,248345:0:0:0:0:
448,192,248345,128,0,248661:0:0:0:0:
192,192,248661,128,0,248819:0:0:0:0:
64,192,248819,128,0,248977:0:0:0:0:
192,192,248977,128,0,249135:0:0:0:0:
64,192,249135,128,0,249292:0:0:0:0:
448,192,249292,128,0,251819:0:0:0:0:
192,192,249292,128,0,249608:0:0:0:0:
320,192,249608,128,0,249924:0:0:0:0:
192,192,249924,128,0,250082:0:0:0:0:
64,192,250082,128,0,250240:0:0:0:0:
320,192,250240,128,0,250398:0:0:0:0:
64,192,250398,128,0,250556:0:0:0:0:
192,192,250556,128,0,250871:0:0:0:0:
64,192,250871,128,0,251187:0:0:0:0:
320,192,251187,128,0,251345:0:0:0:0:
192,192,251345,128,0,251503:0:0:0:0:
64,192,251503,128,0,251661:0:0:0:0:
320,192,251661,128,0,251819:0:0:0:0:
192,192,251819,128,0,254345:0:0:0:0:
64,192,251819,128,0,252135:0:0:0:0:
320,192,252135,128,0,252450:0:0:0:0:
448,192,252450,128,0,252608:0:0:0:0:
64,192,252608,128,0,252766:0:0:0:0:
448,192,252766,128,0,252924:0:0:0:0:
64,192,252924,128,0,253082:0:0:0:0:
320,192,253082,128,0,253398:0:0:0:0:
64,192,253398,128,0,253714:0:0:0:0:
448,192,253714,128,0,253871:0:0:0:0:
320,192,253871,128,0,254029:0:0:0:0:
448,192,254029,128,0,254187:0:0:0:0:
64,192,254187,128,0,254345:0:0:0:0:
320,192,254345,128,0,256871:0:0:0:0:
448,192,254345,128,0,254661:0:0:0:0:
192,192,254661,128,0,254977:0:0:0:0:
448,192,254977,128,0,255135:0:0:0:0:
64,192,255135,128,0,255292:0:0:0:0:
192,192,255292,128,0,255450:0:0:0:0:
448,192,255450,128,0,255608:0:0:0:0:
192,192,255608,128,0,255924:0:0:0:0:
64,192,255924,128,0,256240:0:0:0:0:
448,192,256240,128,0,256398:0:0:0:0:
192,192,256398,128,0,256556:0:0:0:0:
448,192,256556,128,0,256714:0:0:0:0:
64,192,256714,128,0,256871:0:0:0:0:
192,192,256871,128,0,259398:0:0:0:0:
448,192,256871,128,0,257187:0:0:0:0:
320,192,257187,128,0,257503:0:0:0:0:
64,192,257503,128,0,257661:0:0:0:0:
448,192,257661,128,0,257819:0:0:0:0:
320,192,257819,128,0,257977:0:0:0:0:
448,192,257977,128,0,258135:0:0:0:0:
320,192,258135,128,0,258450:0:0:0:0:
64,192,258450,128,0,258766:0:0:0:0:
448,192,258766,128,0,258924:0:0:0:0:
320,192,258924,128,0,259082:0:0:0:0:
448,192,259082,128,0,259240:0:0:0:0:
320,192,259240,128,0,259398:0:0:0:0:
448,192,259398,128,0,261924:0:0:0:0:
64,192,259398,128,0,261924:0:0:0:0:
320,192,259714,128,0,260029:0:0:0:0:
192,192,260029,128,0,260345:0:0:0:0:
320,192,260345,128,0,260661:0:0:0:0:
192,192,260661,128,0,260977:0:0:0:0:
320,192,260977,128,0,261292:0:0:0:0:
192,192,261292,128,0,261766:0:0:0:0:
320,192,261924,128,0,264450:0:0:0:0:
192,192,261924,128,0,264450:0:0:0:0:
