osu file format v14

[General]
AudioFilename: audio.mp3
AudioLeadIn: 0
PreviewTime: 65600
Countdown: 0
SampleSet: None
StackLeniency: 0.7
Mode: 3
LetterboxInBreaks: 0
SpecialStyle: 0
WidescreenStoryboard: 0

[Editor]
DistanceSpacing: 0.8
BeatDivisor: 4
GridSize: 16
TimelineZoom: 1.6

[Metadata]
Title:Nanamori
TitleUnicode:Nanamori
Artist:Kotori
ArtistUnicode:Kotori
Creator:Stats-Kun
Version:Kyoko Nanamori
Source:
Tags:Original Yuru Yuri YRYR Dubstep
BeatmapID:1875664
BeatmapSetID:897854

[Difficulty]
HPDrainRate:8
CircleSize:4
OverallDifficulty:8
ApproachRate:5
SliderMultiplier:1.4
SliderTickRate:1

[Events]
//Background and Video events
0,0,"Chinatsu-chinatsu-yoshikawa-30592358-1280-720.jpg",0,0
//Break Periods
//Storyboard Layer 0 (Background)
//Storyboard Layer 1 (Fail)
//Storyboard Layer 2 (Pass)
//Storyboard Layer 3 (Foreground)
//Storyboard Sound Samples

[TimingPoints]
0,400,4,2,0,100,1,0
1600,-133.333333333333,4,2,0,100,0,0
14400,-100,4,2,0,100,0,0
40000,-133.333333333333,4,2,0,100,0,0
51200,-100,4,2,0,100,0,0
52800,-90.9090909090909,4,2,0,100,0,0
64800,-100,4,2,0,100,0,0
116800,-133.333333333333,4,2,0,100,0,0
128000,-90.9090909090909,4,2,0,100,0,0
141600,-100,4,2,0,100,0,0

[HitObjects]
320,192,0,128,0,1600:0:0:0:0:
448,192,0,128,0,1600:0:0:0:0:
64,192,1600,128,0,4400:0:0:0:0:
192,192,1600,1,0,0:0:0:0:
192,192,4400,128,0,4800:0:0:0:0:
320,192,4400,1,0,0:0:0:0:
448,192,4800,128,0,7600:0:0:0:0:
320,192,4800,1,0,0:0:0:0:
320,192,7600,128,0,8000:0:0:0:0:
192,192,7600,1,0,0:0:0:0:
192,192,8000,128,0,10800:0:0:0:0:
448,192,8000,1,0,0:0:0:0:
320,192,8400,1,0,0:0:0:0:
448,192,8800,1,0,0:0:0:0:
320,192,8800,1,0,0:0:0:0:
64,192,9000,1,0,0:0:0:0:
320,192,9200,1,0,0:0:0:0:
448,192,9400,1,0,0:0:0:0:
64,192,9600,1,0,0:0:0:0:
320,192,9600,1,0,0:0:0:0:
320,192,10000,1,0,0:0:0:0:
448,192,10000,1,0,0:0:0:0:
448,192,10400,1,0,0:0:0:0:
448,192,10600,1,0,0:0:0:0:
64,192,10800,128,0,11200:0:0:0:0:
320,192,10800,1,0,0:0:0:0:
192,192,11000,1,0,0:0:0:0:
320,192,11200,128,0,12800:0:0:0:0:
448,192,11200,1,0,0:0:0:0:
192,192,11600,1,0,0:0:0:0:
448,192,12000,1,0,0:0:0:0:
192,192,12200,1,0,0:0:0:0:
64,192,12400,1,0,0:0:0:0:
192,192,12600,1,0,0:0:0:0:
64,192,12800,1,0,0:0:0:0:
192,192,12800,1,0,0:0:0:0:
320,192,13200,1,0,0:0:0:0:
448,192,13200,1,0,0:0:0:0:
64,192,13600,1,0,0:0:0:0:
192,192,13600,1,0,0:0:0:0:
448,192,13800,1,0,0:0:0:0:
320,192,13900,1,0,0:0:0:0:
64,192,14000,1,0,0:0:0:0:
192,192,14000,1,0,0:0:0:0:
64,192,14200,1,0,0:0:0:0:
192,192,14200,1,0,0:0:0:0:
64,192,14400,1,0,0:0:0:0:
192,192,14400,1,0,0:0:0:0:
448,192,14400,128,0,16000:0:0:0:0:
320,192,14800,1,0,0:0:0:0:
64,192,15200,1,0,0:0:0:0:
192,192,15400,1,0,0:0:0:0:
320,192,15600,1,0,0:0:0:0:
192,192,15800,1,0,0:0:0:0:
320,192,16000,128,0,17600:0:0:0:0:
64,192,16000,1,0,0:0:0:0:
192,192,16000,1,0,0:0:0:0:
448,192,16400,1,0,0:0:0:0:
448,192,16800,1,0,0:0:0:0:
192,192,17000,1,0,0:0:0:0:
64,192,17200,1,0,0:0:0:0:
192,192,17400,1,0,0:0:0:0:
64,192,17600,128,0,19200:0:0:0:0:
448,192,17600,1,0,0:0:0:0:
192,192,17600,1,0,0:0:0:0:
448,192,18000,1,0,0:0:0:0:
192,192,18400,1,0,0:0:0:0:
320,192,18600,1,0,0:0:0:0:
448,192,18800,1,0,0:0:0:0:
320,192,19000,1,0,0:0:0:0:
192,192,19200,128,0,20800:0:0:0:0:
320,192,19200,1,0,0:0:0:0:
448,192,19200,1,0,0:0:0:0:
320,192,19600,1,0,0:0:0:0:
64,192,20000,1,0,0:0:0:0:
448,192,20200,1,0,0:0:0:0:
64,192,20400,1,0,0:0:0:0:
448,192,20600,1,0,0:0:0:0:
320,192,20800,128,0,22400:0:0:0:0:
64,192,20800,1,0,0:0:0:0:
448,192,20800,1,0,0:0:0:0:
448,192,21200,1,0,0:0:0:0:
64,192,21600,1,0,0:0:0:0:
192,192,21800,1,0,0:0:0:0:
448,192,22000,1,0,0:0:0:0:
192,192,22200,1,0,0:0:0:0:
64,192,22400,128,0,24000:0:0:0:0:
192,192,22400,1,0,0:0:0:0:
448,192,22400,1,0,0:0:0:0:
192,192,22800,1,0,0:0:0:0:
448,192,23200,1,0,0:0:0:0:
320,192,23400,1,0,0:0:0:0:
448,192,23600,1,0,0:0:0:0:
192,192,23800,1,0,0:0:0:0:
448,192,24000,128,0,25600:0:0:0:0:
192,192,24000,1,0,0:0:0:0:
320,192,24000,1,0,0:0:0:0:
320,192,24400,1,0,0:0:0:0:
64,192,24800,1,0,0:0:0:0:
320,192,25000,1,0,0:0:0:0:
192,192,25200,1,0,0:0:0:0:
64,192,25400,1,0,0:0:0:0:
192,192,25600,128,0,26400:0:0:0:0:
320,192,25600,1,0,0:0:0:0:
64,192,25600,1,0,0:0:0:0:
320,192,26000,1,0,0:0:0:0:
320,192,26200,1,0,0:0:0:0:
448,192,26400,1,0,0:0:0:0:
320,192,26400,1,0,0:0:0:0:
448,192,26600,1,0,0:0:0:0:
320,192,26600,1,0,0:0:0:0:
192,192,26800,1,0,0:0:0:0:
64,192,26800,1,0,0:0:0:0:
192,192,27000,1,0,0:0:0:0:
64,192,27000,1,0,0:0:0:0:
64,192,27200,1,0,0:0:0:0:
192,192,27200,1,0,0:0:0:0:
448,192,27200,128,0,28800:0:0:0:0:
320,192,27600,1,0,0:0:0:0:
64,192,28000,1,0,0:0:0:0:
192,192,28200,1,0,0:0:0:0:
320,192,28400,1,0,0:0:0:0:
192,192,28600,1,0,0:0:0:0:
320,192,28800,128,0,30400:0:0:0:0:
64,192,28800,1,0,0:0:0:0:
192,192,28800,1,0,0:0:0:0:
448,192,29200,1,0,0:0:0:0:
448,192,29600,1,0,0:0:0:0:
192,192,29800,1,0,0:0:0:0:
64,192,30000,1,0,0:0:0:0:
192,192,30200,1,0,0:0:0:0:
64,192,30400,128,0,32000:0:0:0:0:
448,192,30400,1,0,0:0:0:0:
192,192,30400,1,0,0:0:0:0:
448,192,30800,1,0,0:0:0:0:
192,192,31200,1,0,0:0:0:0:
320,192,31400,1,0,0:0:0:0:
448,192,31600,1,0,0:0:0:0:
320,192,31800,1,0,0:0:0:0:
192,192,32000,128,0,33600:0:0:0:0:
320,192,32000,1,0,0:0:0:0:
448,192,32000,1,0,0:0:0:0:
320,192,32400,1,0,0:0:0:0:
64,192,32800,1,0,0:0:0:0:
448,192,33000,1,0,0:0:0:0:
64,192,33200,1,0,0:0:0:0:
448,192,33400,1,0,0:0:0:0:
320,192,33600,128,0,35200:0:0:0:0:
64,192,33600,1,0,0:0:0:0:
448,192,33600,1,0,0:0:0:0:
448,192,34000,1,0,0:0:0:0:
64,192,34400,1,0,0:0:0:0:
192,192,34600,1,0,0:0:0:0:
448,192,34800,1,0,0:0:0:0:
192,192,35000,1,0,0:0:0:0:
64,192,35200,128,0,36800:0:0:0:0:
192,192,35200,1,0,0:0:0:0:
448,192,35200,1,0,0:0:0:0:
192,192,35600,1,0,0:0:0:0:
448,192,36000,1,0,0:0:0:0:
320,192,36200,1,0,0:0:0:0:
448,192,36400,1,0,0:0:0:0:
192,192,36600,1,0,0:0:0:0:
448,192,36800,128,0,38400:0:0:0:0:
192,192,36800,1,0,0:0:0:0:
320,192,36800,1,0,0:0:0:0:
320,192,37200,1,0,0:0:0:0:
64,192,37600,1,0,0:0:0:0:
320,192,37800,1,0,0:0:0:0:
192,192,38000,1,0,0:0:0:0:
64,192,38200,1,0,0:0:0:0:
192,192,38400,128,0,39200:0:0:0:0:
320,192,38400,1,0,0:0:0:0:
64,192,38400,1,0,0:0:0:0:
320,192,38800,1,0,0:0:0:0:
320,192,39000,1,0,0:0:0:0:
448,192,39200,1,0,0:0:0:0:
448,192,39400,1,0,0:0:0:0:
64,192,39600,1,0,0:0:0:0:
64,192,39800,1,0,0:0:0:0:
64,192,40000,128,0,42800:0:0:0:0:
192,192,40000,1,0,0:0:0:0:
192,192,40200,1,0,0:0:0:0:
320,192,40400,1,0,0:0:0:0:
320,192,40600,1,0,0:0:0:0:
448,192,40800,1,0,0:0:0:0:
448,192,41000,1,0,0:0:0:0:
320,192,41200,1,0,0:0:0:0:
320,192,41400,1,0,0:0:0:0:
192,192,41600,1,0,0:0:0:0:
320,192,41800,1,0,0:0:0:0:
448,192,42000,1,0,0:0:0:0:
320,192,42200,1,0,0:0:0:0:
192,192,42400,1,0,0:0:0:0:
448,192,42600,1,0,0:0:0:0:
192,192,42800,128,0,43200:0:0:0:0:
320,192,42800,1,0,0:0:0:0:
64,192,43000,1,0,0:0:0:0:
448,192,43200,128,0,46000:0:0:0:0:
320,192,43200,1,0,0:0:0:0:
192,192,43400,1,0,0:0:0:0:
64,192,43600,1,0,0:0:0:0:
192,192,43800,1,0,0:0:0:0:
64,192,44000,1,0,0:0:0:0:
192,192,44200,1,0,0:0:0:0:
320,192,44400,1,0,0:0:0:0:
192,192,44600,1,0,0:0:0:0:
320,192,44800,1,0,0:0:0:0:
192,192,45000,1,0,0:0:0:0:
64,192,45200,1,0,0:0:0:0:
192,192,45400,1,0,0:0:0:0:
320,192,45600,1,0,0:0:0:0:
192,192,45800,1,0,0:0:0:0:
320,192,46000,128,0,46400:0:0:0:0:
64,192,46000,1,0,0:0:0:0:
192,192,46200,1,0,0:0:0:0:
192,192,46400,128,0,49200:0:0:0:0:
448,192,46400,1,0,0:0:0:0:
320,192,46600,1,0,0:0:0:0:
64,192,46800,1,0,0:0:0:0:
64,192,47000,1,0,0:0:0:0:
448,192,47200,1,0,0:0:0:0:
320,192,47400,1,0,0:0:0:0:
64,192,47600,1,0,0:0:0:0:
64,192,47800,1,0,0:0:0:0:
64,192,48000,1,0,0:0:0:0:
320,192,48200,1,0,0:0:0:0:
448,192,48400,1,0,0:0:0:0:
448,192,48600,1,0,0:0:0:0:
64,192,48800,1,0,0:0:0:0:
320,192,49000,1,0,0:0:0:0:
64,192,49200,128,0,49600:0:0:0:0:
448,192,49200,1,0,0:0:0:0:
320,192,49400,1,0,0:0:0:0:
448,192,49600,128,0,51200:0:0:0:0:
192,192,49600,1,0,0:0:0:0:
320,192,49600,1,0,0:0:0:0:
320,192,50000,128,0,51200:0:0:0:0:
192,192,50400,128,0,51200:0:0:0:0:
64,192,50800,128,0,51200:0:0:0:0:
64,192,51800,1,0,0:0:0:0:
192,192,51800,1,0,0:0:0:0:
320,192,52000,128,0,52800:0:0:0:0:
448,192,52000,128,0,52800:0:0:0:0:
64,192,52400,1,0,0:0:0:0:
192,192,52400,1,0,0:0:0:0:
64,192,52800,128,0,53200:0:0:0:0:
192,192,52800,1,0,0:0:0:0:
192,192,53200,128,0,53600:0:0:0:0:
320,192,53200,1,0,0:0:0:0:
448,192,53600,128,0,54000:0:0:0:0:
64,192,53600,1,0,0:0:0:0:
320,192,54000,128,0,54400:0:0:0:0:
192,192,54000,1,0,0:0:0:0:
192,192,54400,128,0,54800:0:0:0:0:
448,192,54400,1,0,0:0:0:0:
64,192,54800,128,0,55200:0:0:0:0:
448,192,54800,1,0,0:0:0:0:
320,192,55200,128,0,55600:0:0:0:0:
192,192,55200,1,0,0:0:0:0:
448,192,55600,128,0,56000:0:0:0:0:
192,192,55600,1,0,0:0:0:0:
320,192,56000,128,0,56400:0:0:0:0:
192,192,56000,1,0,0:0:0:0:
192,192,56400,128,0,56800:0:0:0:0:
64,192,56400,1,0,0:0:0:0:
64,192,56800,128,0,57200:0:0:0:0:
320,192,56800,1,0,0:0:0:0:
448,192,57200,128,0,57600:0:0:0:0:
320,192,57200,1,0,0:0:0:0:
192,192,57600,128,0,58000:0:0:0:0:
320,192,57600,1,0,0:0:0:0:
320,192,58000,128,0,58400:0:0:0:0:
64,192,58000,1,0,0:0:0:0:
448,192,58400,128,0,58800:0:0:0:0:
192,192,58400,1,0,0:0:0:0:
64,192,58800,128,0,59200:0:0:0:0:
320,192,58800,1,0,0:0:0:0:
448,192,59200,1,0,0:0:0:0:
192,192,59200,1,0,0:0:0:0:
448,192,59400,1,0,0:0:0:0:
320,192,59600,1,0,0:0:0:0:
320,192,59800,1,0,0:0:0:0:
192,192,60000,1,0,0:0:0:0:
192,192,60200,1,0,0:0:0:0:
64,192,60400,1,0,0:0:0:0:
64,192,60600,1,0,0:0:0:0:
192,192,60800,1,0,0:0:0:0:
192,192,61000,1,0,0:0:0:0:
320,192,61200,1,0,0:0:0:0:
320,192,61400,1,0,0:0:0:0:
448,192,61600,1,0,0:0:0:0:
448,192,61800,1,0,0:0:0:0:
64,192,62000,1,0,0:0:0:0:
64,192,62200,1,0,0:0:0:0:
448,192,62400,1,0,0:0:0:0:
320,192,62500,1,0,0:0:0:0:
192,192,62600,1,0,0:0:0:0:
64,192,62700,1,0,0:0:0:0:
192,192,62800,1,0,0:0:0:0:
320,192,62900,1,0,0:0:0:0:
192,192,63000,1,0,0:0:0:0:
64,192,63100,1,0,0:0:0:0:
192,192,63200,1,0,0:0:0:0:
320,192,63300,1,0,0:0:0:0:
448,192,63400,1,0,0:0:0:0:
320,192,63500,1,0,0:0:0:0:
192,192,63600,1,0,0:0:0:0:
64,192,63700,1,0,0:0:0:0:
192,192,63800,1,0,0:0:0:0:
320,192,63900,1,0,0:0:0:0:
192,192,64000,1,0,0:0:0:0:
64,192,64100,1,0,0:0:0:0:
192,192,64200,1,0,0:0:0:0:
64,192,64300,1,0,0:0:0:0:
192,192,64400,1,0,0:0:0:0:
320,192,64500,1,0,0:0:0:0:
448,192,64600,1,0,0:0:0:0:
320,192,64700,1,0,0:0:0:0:
448,192,64800,1,0,0:0:0:0:
64,192,65600,128,0,66000:0:0:0:0:
192,192,65600,128,0,66000:0:0:0:0:
320,192,66000,1,0,0:0:0:0:
448,192,66000,1,0,0:0:0:0:
448,192,66200,1,0,0:0:0:0:
64,192,66400,128,0,66600:0:0:0:0:
192,192,66400,1,0,0:0:0:0:
320,192,66600,1,0,0:0:0:0:
448,192,66800,128,0,67000:0:0:0:0:
320,192,66800,1,0,0:0:0:0:
192,192,67000,1,0,0:0:0:0:
64,192,67200,128,0,67600:0:0:0:0:
320,192,67200,128,0,67600:0:0:0:0:
192,192,67600,1,0,0:0:0:0:
64,192,67800,1,0,0:0:0:0:
320,192,67800,1,0,0:0:0:0:
320,192,68000,1,0,0:0:0:0:
192,192,68200,1,0,0:0:0:0:
448,192,68200,1,0,0:0:0:0:
320,192,68400,128,0,68800:0:0:0:0:
64,192,68400,128,0,68800:0:0:0:0:
448,192,68800,128,0,69200:0:0:0:0:
192,192,68800,128,0,69200:0:0:0:0:
320,192,69200,1,0,0:0:0:0:
64,192,69300,1,0,0:0:0:0:
320,192,69400,1,0,0:0:0:0:
448,192,69500,1,0,0:0:0:0:
192,192,69600,128,0,69800:0:0:0:0:
64,192,69600,1,0,0:0:0:0:
320,192,69800,1,0,0:0:0:0:
320,192,70000,128,0,70200:0:0:0:0:
448,192,70000,1,0,0:0:0:0:
192,192,70200,1,0,0:0:0:0:
64,192,70400,1,0,0:0:0:0:
192,192,70400,1,0,0:0:0:0:
64,192,70600,1,0,0:0:0:0:
192,192,70700,1,0,0:0:0:0:
320,192,70800,1,0,0:0:0:0:
448,192,71000,1,0,0:0:0:0:
64,192,71200,1,0,0:0:0:0:
448,192,71400,1,0,0:0:0:0:
64,192,71600,1,0,0:0:0:0:
64,192,71800,1,0,0:0:0:0:
64,192,72000,1,0,0:0:0:0:
192,192,72000,1,0,0:0:0:0:
320,192,72000,128,0,72400:0:0:0:0:
448,192,72000,128,0,72400:0:0:0:0:
64,192,72400,1,0,0:0:0:0:
192,192,72400,128,0,72800:0:0:0:0:
64,192,72800,1,0,0:0:0:0:
320,192,72800,1,0,0:0:0:0:
64,192,73000,1,0,0:0:0:0:
448,192,73200,1,0,0:0:0:0:
192,192,73400,1,0,0:0:0:0:
320,192,73600,128,0,74000:0:0:0:0:
448,192,73600,1,0,0:0:0:0:
448,192,74000,1,0,0:0:0:0:
64,192,74200,1,0,0:0:0:0:
192,192,74400,1,0,0:0:0:0:
320,192,74600,1,0,0:0:0:0:
192,192,74800,1,0,0:0:0:0:
64,192,74800,128,0,75200:0:0:0:0:
448,192,75200,128,0,75600:0:0:0:0:
320,192,75200,1,0,0:0:0:0:
320,192,76000,1,0,0:0:0:0:
448,192,76000,1,0,0:0:0:0:
192,192,76100,1,0,0:0:0:0:
64,192,76200,1,0,0:0:0:0:
192,192,76300,1,0,0:0:0:0:
320,192,76400,1,0,0:0:0:0:
448,192,76500,1,0,0:0:0:0:
320,192,76600,1,0,0:0:0:0:
64,192,76800,1,0,0:0:0:0:
192,192,76800,1,0,0:0:0:0:
320,192,76900,1,0,0:0:0:0:
448,192,77000,1,0,0:0:0:0:
320,192,77100,1,0,0:0:0:0:
192,192,77200,1,0,0:0:0:0:
64,192,77300,1,0,0:0:0:0:
448,192,77400,1,0,0:0:0:0:
320,192,77500,1,0,0:0:0:0:
192,192,77600,1,0,0:0:0:0:
64,192,77600,1,0,0:0:0:0:
320,192,78000,1,0,0:0:0:0:
448,192,78000,1,0,0:0:0:0:
64,192,78400,1,0,0:0:0:0:
192,192,78400,1,0,0:0:0:0:
320,192,78400,128,0,78800:0:0:0:0:
192,192,78800,128,0,79000:0:0:0:0:
64,192,79000,128,0,79200:0:0:0:0:
192,192,79200,1,0,0:0:0:0:
320,192,79200,128,0,79400:0:0:0:0:
448,192,79400,128,0,79600:0:0:0:0:
320,192,79600,128,0,79800:0:0:0:0:
192,192,79800,128,0,80000:0:0:0:0:
64,192,80000,1,0,0:0:0:0:
320,192,80000,128,0,80200:0:0:0:0:
448,192,80200,128,0,80400:0:0:0:0:
320,192,80400,128,0,80600:0:0:0:0:
192,192,80600,128,0,80800:0:0:0:0:
320,192,80800,1,0,0:0:0:0:
64,192,80800,128,0,81000:0:0:0:0:
192,192,81000,128,0,81200:0:0:0:0:
320,192,81200,128,0,81400:0:0:0:0:
448,192,81400,128,0,81600:0:0:0:0:
320,192,81600,1,0,0:0:0:0:
192,192,81600,128,0,82000:0:0:0:0:
64,192,81600,128,0,82000:0:0:0:0:
320,192,82000,128,0,82200:0:0:0:0:
448,192,82200,128,0,82400:0:0:0:0:
64,192,82400,1,0,0:0:0:0:
192,192,82400,1,0,0:0:0:0:
64,192,82600,1,0,0:0:0:0:
192,192,82600,1,0,0:0:0:0:
448,192,82800,1,0,0:0:0:0:
320,192,82800,1,0,0:0:0:0:
320,192,82933,1,0,0:0:0:0:
448,192,82933,1,0,0:0:0:0:
320,192,83066,1,0,0:0:0:0:
448,192,83066,1,0,0:0:0:0:
64,192,83200,128,0,83400:0:0:0:0:
192,192,83400,128,0,83600:0:0:0:0:
320,192,83600,128,0,83800:0:0:0:0:
448,192,83800,128,0,84000:0:0:0:0:
320,192,84000,1,0,0:0:0:0:
192,192,84000,128,0,84200:0:0:0:0:
448,192,84200,128,0,84300:0:0:0:0:
320,192,84300,128,0,84400:0:0:0:0:
192,192,84400,128,0,84500:0:0:0:0:
64,192,84500,128,0,84600:0:0:0:0:
448,192,84600,128,0,84700:0:0:0:0:
320,192,84700,128,0,84800:0:0:0:0:
64,192,84800,128,0,85200:0:0:0:0:
192,192,84800,128,0,85200:0:0:0:0:
448,192,85200,128,0,85400:0:0:0:0:
320,192,85400,128,0,85600:0:0:0:0:
192,192,85600,1,0,0:0:0:0:
448,192,85600,128,0,85800:0:0:0:0:
320,192,85800,128,0,86000:0:0:0:0:
192,192,86000,128,0,86200:0:0:0:0:
64,192,86200,128,0,86400:0:0:0:0:
448,192,86400,1,0,0:0:0:0:
320,192,86400,128,0,86600:0:0:0:0:
192,192,86600,128,0,86800:0:0:0:0:
64,192,86800,128,0,87000:0:0:0:0:
192,192,87000,128,0,87200:0:0:0:0:
320,192,87200,1,0,0:0:0:0:
64,192,87200,128,0,87400:0:0:0:0:
192,192,87400,128,0,87600:0:0:0:0:
320,192,87600,128,0,87800:0:0:0:0:
448,192,87800,128,0,88000:0:0:0:0:
64,192,88000,128,0,88400:0:0:0:0:
192,192,88000,128,0,88400:0:0:0:0:
320,192,88400,128,0,88600:0:0:0:0:
192,192,88600,128,0,88800:0:0:0:0:
320,192,88800,1,0,0:0:0:0:
448,192,88900,1,0,0:0:0:0:
320,192,89000,1,0,0:0:0:0:
192,192,89100,1,0,0:0:0:0:
320,192,89200,1,0,0:0:0:0:
448,192,89300,1,0,0:0:0:0:
320,192,89400,1,0,0:0:0:0:
192,192,89500,1,0,0:0:0:0:
320,192,89600,1,0,0:0:0:0:
448,192,89600,1,0,0:0:0:0:
64,192,89600,128,0,91200:0:0:0:0:
448,192,91200,128,0,92800:0:0:0:0:
192,192,91200,1,0,0:0:0:0:
320,192,91200,1,0,0:0:0:0:
320,192,91600,1,0,0:0:0:0:
64,192,92000,1,0,0:0:0:0:
192,192,92200,1,0,0:0:0:0:
320,192,92400,1,0,0:0:0:0:
192,192,92600,1,0,0:0:0:0:
192,192,92800,1,0,0:0:0:0:
64,192,92800,1,0,0:0:0:0:
320,192,92800,128,0,94400:0:0:0:0:
448,192,93200,1,0,0:0:0:0:
448,192,93600,1,0,0:0:0:0:
192,192,93800,1,0,0:0:0:0:
64,192,94000,1,0,0:0:0:0:
192,192,94200,1,0,0:0:0:0:
192,192,94400,1,0,0:0:0:0:
448,192,94400,1,0,0:0:0:0:
64,192,94400,128,0,96000:0:0:0:0:
448,192,94800,1,0,0:0:0:0:
192,192,95200,1,0,0:0:0:0:
320,192,95400,1,0,0:0:0:0:
448,192,95600,1,0,0:0:0:0:
320,192,95800,1,0,0:0:0:0:
448,192,96000,1,0,0:0:0:0:
320,192,96000,1,0,0:0:0:0:
192,192,96000,128,0,97600:0:0:0:0:
320,192,96400,1,0,0:0:0:0:
64,192,96800,1,0,0:0:0:0:
448,192,97000,1,0,0:0:0:0:
64,192,97200,1,0,0:0:0:0:
448,192,97400,1,0,0:0:0:0:
448,192,97600,1,0,0:0:0:0:
64,192,97600,1,0,0:0:0:0:
320,192,97600,128,0,99200:0:0:0:0:
448,192,98000,1,0,0:0:0:0:
64,192,98400,1,0,0:0:0:0:
192,192,98600,1,0,0:0:0:0:
448,192,98800,1,0,0:0:0:0:
192,192,99000,1,0,0:0:0:0:
448,192,99200,1,0,0:0:0:0:
192,192,99200,1,0,0:0:0:0:
64,192,99200,128,0,100800:0:0:0:0:
192,192,99600,1,0,0:0:0:0:
448,192,100000,1,0,0:0:0:0:
320,192,100200,1,0,0:0:0:0:
448,192,100400,1,0,0:0:0:0:
192,192,100600,1,0,0:0:0:0:
320,192,100800,1,0,0:0:0:0:
192,192,100800,1,0,0:0:0:0:
448,192,100800,128,0,102400:0:0:0:0:
320,192,101200,1,0,0:0:0:0:
64,192,101600,1,0,0:0:0:0:
320,192,101800,1,0,0:0:0:0:
192,192,102000,1,0,0:0:0:0:
64,192,102200,1,0,0:0:0:0:
64,192,102400,1,0,0:0:0:0:
320,192,102400,1,0,0:0:0:0:
192,192,102400,128,0,103200:0:0:0:0:
320,192,102800,1,0,0:0:0:0:
320,192,103000,1,0,0:0:0:0:
320,192,103200,1,0,0:0:0:0:
448,192,103200,1,0,0:0:0:0:
320,192,103400,1,0,0:0:0:0:
448,192,103400,1,0,0:0:0:0:
64,192,103600,1,0,0:0:0:0:
192,192,103600,1,0,0:0:0:0:
64,192,103800,1,0,0:0:0:0:
192,192,103800,1,0,0:0:0:0:
448,192,104000,128,0,105600:0:0:0:0:
192,192,104000,1,0,0:0:0:0:
64,192,104000,1,0,0:0:0:0:
320,192,104400,1,0,0:0:0:0:
64,192,104800,1,0,0:0:0:0:
192,192,105000,1,0,0:0:0:0:
320,192,105200,1,0,0:0:0:0:
192,192,105400,1,0,0:0:0:0:
192,192,105600,1,0,0:0:0:0:
64,192,105600,1,0,0:0:0:0:
320,192,105600,128,0,107200:0:0:0:0:
448,192,106000,1,0,0:0:0:0:
448,192,106400,1,0,0:0:0:0:
192,192,106600,1,0,0:0:0:0:
64,192,106800,1,0,0:0:0:0:
192,192,107000,1,0,0:0:0:0:
192,192,107200,1,0,0:0:0:0:
448,192,107200,1,0,0:0:0:0:
64,192,107200,128,0,108800:0:0:0:0:
448,192,107600,1,0,0:0:0:0:
192,192,108000,1,0,0:0:0:0:
320,192,108200,1,0,0:0:0:0:
448,192,108400,1,0,0:0:0:0:
320,192,108600,1,0,0:0:0:0:
448,192,108800,1,0,0:0:0:0:
320,192,108800,1,0,0:0:0:0:
192,192,108800,128,0,110400:0:0:0:0:
320,192,109200,1,0,0:0:0:0:
64,192,109600,1,0,0:0:0:0:
448,192,109800,1,0,0:0:0:0:
64,192,110000,1,0,0:0:0:0:
448,192,110200,1,0,0:0:0:0:
448,192,110400,1,0,0:0:0:0:
64,192,110400,1,0,0:0:0:0:
320,192,110400,128,0,112000:0:0:0:0:
448,192,110800,1,0,0:0:0:0:
64,192,111200,1,0,0:0:0:0:
192,192,111400,1,0,0:0:0:0:
448,192,111600,1,0,0:0:0:0:
192,192,111800,1,0,0:0:0:0:
448,192,112000,1,0,0:0:0:0:
192,192,112000,1,0,0:0:0:0:
64,192,112000,128,0,113600:0:0:0:0:
192,192,112400,1,0,0:0:0:0:
448,192,112800,1,0,0:0:0:0:
320,192,113000,1,0,0:0:0:0:
448,192,113200,1,0,0:0:0:0:
192,192,113400,1,0,0:0:0:0:
320,192,113600,1,0,0:0:0:0:
192,192,113600,1,0,0:0:0:0:
448,192,113600,128,0,115200:0:0:0:0:
320,192,114000,1,0,0:0:0:0:
64,192,114400,1,0,0:0:0:0:
320,192,114600,1,0,0:0:0:0:
192,192,114800,1,0,0:0:0:0:
64,192,115000,1,0,0:0:0:0:
64,192,115200,1,0,0:0:0:0:
320,192,115200,1,0,0:0:0:0:
192,192,115200,128,0,116000:0:0:0:0:
320,192,115600,1,0,0:0:0:0:
320,192,115800,1,0,0:0:0:0:
448,192,116000,1,0,0:0:0:0:
448,192,116200,1,0,0:0:0:0:
64,192,116400,1,0,0:0:0:0:
64,192,116600,1,0,0:0:0:0:
64,192,116800,128,0,119600:0:0:0:0:
192,192,116800,1,0,0:0:0:0:
192,192,117000,1,0,0:0:0:0:
320,192,117200,1,0,0:0:0:0:
320,192,117400,1,0,0:0:0:0:
448,192,117600,1,0,0:0:0:0:
448,192,117800,1,0,0:0:0:0:
320,192,118000,1,0,0:0:0:0:
320,192,118200,1,0,0:0:0:0:
192,192,118400,1,0,0:0:0:0:
320,192,118600,1,0,0:0:0:0:
448,192,118800,1,0,0:0:0:0:
320,192,119000,1,0,0:0:0:0:
192,192,119200,1,0,0:0:0:0:
448,192,119400,1,0,0:0:0:0:
192,192,119600,128,0,120000:0:0:0:0:
320,192,119600,1,0,0:0:0:0:
64,192,119800,1,0,0:0:0:0:
448,192,120000,128,0,122800:0:0:0:0:
320,192,120000,1,0,0:0:0:0:
192,192,120200,1,0,0:0:0:0:
64,192,120400,1,0,0:0:0:0:
192,192,120600,1,0,0:0:0:0:
64,192,120800,1,0,0:0:0:0:
192,192,121000,1,0,0:0:0:0:
320,192,121200,1,0,0:0:0:0:
192,192,121400,1,0,0:0:0:0:
320,192,121600,1,0,0:0:0:0:
192,192,121800,1,0,0:0:0:0:
64,192,122000,1,0,0:0:0:0:
192,192,122200,1,0,0:0:0:0:
320,192,122400,1,0,0:0:0:0:
192,192,122600,1,0,0:0:0:0:
320,192,122800,128,0,123200:0:0:0:0:
64,192,122800,1,0,0:0:0:0:
192,192,123000,1,0,0:0:0:0:
192,192,123200,128,0,126000:0:0:0:0:
448,192,123200,1,0,0:0:0:0:
320,192,123400,1,0,0:0:0:0:
64,192,123600,1,0,0:0:0:0:
64,192,123800,1,0,0:0:0:0:
448,192,124000,1,0,0:0:0:0:
320,192,124200,1,0,0:0:0:0:
64,192,124400,1,0,0:0:0:0:
64,192,124600,1,0,0:0:0:0:
64,192,124800,1,0,0:0:0:0:
320,192,125000,1,0,0:0:0:0:
448,192,125200,1,0,0:0:0:0:
448,192,125400,1,0,0:0:0:0:
64,192,125600,1,0,0:0:0:0:
320,192,125800,1,0,0:0:0:0:
64,192,126000,128,0,126400:0:0:0:0:
448,192,126000,1,0,0:0:0:0:
320,192,126200,1,0,0:0:0:0:
448,192,126400,128,0,128000:0:0:0:0:
192,192,126400,1,0,0:0:0:0:
320,192,126400,1,0,0:0:0:0:
320,192,126800,128,0,128000:0:0:0:0:
192,192,127200,128,0,128000:0:0:0:0:
64,192,127600,128,0,128000:0:0:0:0:
448,192,128400,128,0,128800:0:0:0:0:
320,192,128600,128,0,128800:0:0:0:0:
64,192,128800,128,0,129200:0:0:0:0:
192,192,128800,1,0,0:0:0:0:
320,192,129200,128,0,129600:0:0:0:0:
448,192,129200,128,0,129600:0:0:0:0:
192,192,129200,1,0,0:0:0:0:
64,192,129600,128,0,130000:0:0:0:0:
192,192,129600,1,0,0:0:0:0:
192,192,130000,128,0,130400:0:0:0:0:
320,192,130000,1,0,0:0:0:0:
448,192,130400,128,0,130800:0:0:0:0:
64,192,130400,1,0,0:0:0:0:
320,192,130800,128,0,131200:0:0:0:0:
192,192,130800,1,0,0:0:0:0:
192,192,131200,128,0,131600:0:0:0:0:
448,192,131200,1,0,0:0:0:0:
64,192,131600,128,0,132000:0:0:0:0:
448,192,131600,1,0,0:0:0:0:
320,192,132000,128,0,132400:0:0:0:0:
192,192,132000,1,0,0:0:0:0:
448,192,132400,128,0,132800:0:0:0:0:
192,192,132400,1,0,0:0:0:0:
320,192,132800,128,0,133200:0:0:0:0:
192,192,132800,1,0,0:0:0:0:
192,192,133200,128,0,133600:0:0:0:0:
64,192,133200,1,0,0:0:0:0:
64,192,133600,128,0,134000:0:0:0:0:
320,192,133600,1,0,0:0:0:0:
448,192,134000,128,0,134400:0:0:0:0:
320,192,134000,1,0,0:0:0:0:
192,192,134400,128,0,134800:0:0:0:0:
320,192,134400,1,0,0:0:0:0:
320,192,134800,128,0,135200:0:0:0:0:
64,192,134800,1,0,0:0:0:0:
448,192,135200,128,0,135600:0:0:0:0:
192,192,135200,1,0,0:0:0:0:
64,192,135600,128,0,136000:0:0:0:0:
320,192,135600,1,0,0:0:0:0:
448,192,136000,1,0,0:0:0:0:
192,192,136000,1,0,0:0:0:0:
448,192,136200,1,0,0:0:0:0:
320,192,136400,1,0,0:0:0:0:
320,192,136600,1,0,0:0:0:0:
192,192,136800,1,0,0:0:0:0:
192,192,137000,1,0,0:0:0:0:
64,192,137200,1,0,0:0:0:0:
64,192,137400,1,0,0:0:0:0:
192,192,137600,1,0,0:0:0:0:
192,192,137800,1,0,0:0:0:0:
320,192,138000,1,0,0:0:0:0:
320,192,138200,1,0,0:0:0:0:
448,192,138400,1,0,0:0:0:0:
448,192,138600,1,0,0:0:0:0:
64,192,138800,1,0,0:0:0:0:
64,192,139000,1,0,0:0:0:0:
448,192,139200,1,0,0:0:0:0:
320,192,139300,1,0,0:0:0:0:
192,192,139400,1,0,0:0:0:0:
64,192,139500,1,0,0:0:0:0:
192,192,139600,1,0,0:0:0:0:
320,192,139700,1,0,0:0:0:0:
192,192,139800,1,0,0:0:0:0:
64,192,139900,1,0,0:0:0:0:
192,192,140000,1,0,0:0:0:0:
320,192,140100,1,0,0:0:0:0:
448,192,140200,1,0,0:0:0:0:
320,192,140300,1,0,0:0:0:0:
192,192,140400,1,0,0:0:0:0:
64,192,140500,1,0,0:0:0:0:
192,192,140600,1,0,0:0:0:0:
320,192,140700,1,0,0:0:0:0:
192,192,140800,1,0,0:0:0:0:
64,192,140900,1,0,0:0:0:0:
192,192,141000,1,0,0:0:0:0:
64,192,141100,1,0,0:0:0:0:
192,192,141200,1,0,0:0:0:0:
320,192,141300,1,0,0:0:0:0:
448,192,141400,1,0,0:0:0:0:
320,192,141500,1,0,0:0:0:0:
448,192,141600,1,0,0:0:0:0:
64,192,142400,128,0,142800:0:0:0:0:
192,192,142400,128,0,142800:0:0:0:0:
320,192,142800,1,0,0:0:0:0:
448,192,142800,1,0,0:0:0:0:
448,192,143000,1,0,0:0:0:0:
64,192,143200,1,0,0:0:0:0:
192,192,143300,1,0,0:0:0:0:
320,192,143400,1,0,0:0:0:0:
448,192,143500,1,0,0:0:0:0:
320,192,143600,1,0,0:0:0:0:
192,192,143700,1,0,0:0:0:0:
64,192,143800,1,0,0:0:0:0:
192,192,143900,1,0,0:0:0:0:
320,192,144000,1,0,0:0:0:0:
448,192,144000,1,0,0:0:0:0:
64,192,144000,128,0,144400:0:0:0:0:
320,192,144400,1,0,0:0:0:0:
448,192,144400,1,0,0:0:0:0:
320,192,144600,1,0,0:0:0:0:
448,192,144600,1,0,0:0:0:0:
320,192,144800,1,0,0:0:0:0:
448,192,144800,1,0,0:0:0:0:
64,192,145000,1,0,0:0:0:0:
192,192,145000,1,0,0:0:0:0:
320,192,145200,1,0,0:0:0:0:
448,192,145200,1,0,0:0:0:0:
320,192,145600,1,0,0:0:0:0:
64,192,145600,128,0,146400:0:0:0:0:
192,192,145600,128,0,146400:0:0:0:0:
448,192,146000,1,0,0:0:0:0:
320,192,146100,1,0,0:0:0:0:
448,192,146200,1,0,0:0:0:0:
320,192,146300,1,0,0:0:0:0:
448,192,146400,1,0,0:0:0:0:
64,192,146600,1,0,0:0:0:0:
192,192,146600,1,0,0:0:0:0:
320,192,146800,1,0,0:0:0:0:
448,192,146800,1,0,0:0:0:0:
64,192,147000,1,0,0:0:0:0:
192,192,147000,1,0,0:0:0:0:
320,192,147200,1,0,0:0:0:0:
448,192,147200,1,0,0:0:0:0:
64,192,147333,1,0,0:0:0:0:
192,192,147333,1,0,0:0:0:0:
64,192,147466,1,0,0:0:0:0:
192,192,147466,1,0,0:0:0:0:
64,192,147600,1,0,0:0:0:0:
192,192,147600,1,0,0:0:0:0:
320,192,147800,1,0,0:0:0:0:
448,192,147800,1,0,0:0:0:0:
64,192,148000,1,0,0:0:0:0:
192,192,148000,1,0,0:0:0:0:
320,192,148200,1,0,0:0:0:0:
448,192,148200,1,0,0:0:0:0:
64,192,148400,1,0,0:0:0:0:
192,192,148500,1,0,0:0:0:0:
320,192,148600,1,0,0:0:0:0:
192,192,148800,128,0,149200:0:0:0:0:
64,192,148800,128,0,149200:0:0:0:0:
320,192,148800,1,0,0:0:0:0:
448,192,148800,1,0,0:0:0:0:
320,192,149200,1,0,0:0:0:0:
448,192,149200,1,0,0:0:0:0:
448,192,149400,1,0,0:0:0:0:
320,192,149600,1,0,0:0:0:0:
448,192,149600,1,0,0:0:0:0:
64,192,149800,1,0,0:0:0:0:
192,192,149800,1,0,0:0:0:0:
320,192,150000,1,0,0:0:0:0:
448,192,150000,1,0,0:0:0:0:
64,192,150200,1,0,0:0:0:0:
192,192,150200,1,0,0:0:0:0:
192,192,150400,1,0,0:0:0:0:
64,192,150400,1,0,0:0:0:0:
320,192,150400,128,0,150800:0:0:0:0:
448,192,150400,128,0,150800:0:0:0:0:
192,192,150800,1,0,0:0:0:0:
320,192,151000,1,0,0:0:0:0:
64,192,151200,1,0,0:0:0:0:
192,192,151200,1,0,0:0:0:0:
320,192,151400,1,0,0:0:0:0:
192,192,151600,1,0,0:0:0:0:
448,192,152000,1,0,0:0:0:0:
320,192,152000,1,0,0:0:0:0:
192,192,152000,128,0,152800:0:0:0:0:
64,192,152000,128,0,152800:0:0:0:0:
448,192,152400,1,0,0:0:0:0:
320,192,152500,1,0,0:0:0:0:
448,192,152600,1,0,0:0:0:0:
320,192,152700,1,0,0:0:0:0:
448,192,152800,1,0,0:0:0:0:
320,192,152900,1,0,0:0:0:0:
192,192,153000,1,0,0:0:0:0:
64,192,153100,1,0,0:0:0:0:
192,192,153200,1,0,0:0:0:0:
320,192,153300,1,0,0:0:0:0:
448,192,153400,1,0,0:0:0:0:
320,192,153500,1,0,0:0:0:0:
192,192,153600,1,0,0:0:0:0:
320,192,153700,1,0,0:0:0:0:
448,192,153800,1,0,0:0:0:0:
320,192,153900,1,0,0:0:0:0:
192,192,154000,1,0,0:0:0:0:
64,192,154100,1,0,0:0:0:0:
448,192,154200,1,0,0:0:0:0:
320,192,154300,1,0,0:0:0:0:
192,192,154400,1,0,0:0:0:0:
64,192,154400,128,0,154700:0:0:0:0:
448,192,154700,128,0,154900:0:0:0:0:
192,192,154900,128,0,155200:0:0:0:0:
320,192,154900,128,0,155200:0:0:0:0:
64,192,155200,128,0,155600:0:0:0:0:
448,192,155200,128,0,155600:0:0:0:0:
320,192,155600,1,0,0:0:0:0:
192,192,155733,1,0,0:0:0:0:
64,192,155866,1,0,0:0:0:0:
192,192,156000,1,0,0:0:0:0:
320,192,156133,1,0,0:0:0:0:
448,192,156266,1,0,0:0:0:0:
64,192,156400,1,0,0:0:0:0:
192,192,156533,1,0,0:0:0:0:
320,192,156666,1,0,0:0:0:0:
448,192,156800,1,0,0:0:0:0:
192,192,156800,1,0,0:0:0:0:
64,192,156933,1,0,0:0:0:0:
192,192,157066,1,0,0:0:0:0:
320,192,157200,1,0,0:0:0:0:
192,192,157333,1,0,0:0:0:0:
64,192,157466,1,0,0:0:0:0:
448,192,157600,1,0,0:0:0:0:
320,192,157733,1,0,0:0:0:0:
192,192,157866,1,0,0:0:0:0:
64,192,158000,1,0,0:0:0:0:
320,192,158200,128,0,158400:0:0:0:0:
448,192,158200,128,0,158400:0:0:0:0:
192,192,158400,128,0,158800:0:0:0:0:
64,192,158400,128,0,158800:0:0:0:0:
320,192,158800,1,0,0:0:0:0:
448,192,159066,1,0,0:0:0:0:
64,192,159200,1,0,0:0:0:0:
320,192,159200,1,0,0:0:0:0:
192,192,159300,1,0,0:0:0:0:
320,192,159400,1,0,0:0:0:0:
448,192,159500,1,0,0:0:0:0:
320,192,159600,1,0,0:0:0:0:
192,192,159700,1,0,0:0:0:0:
320,192,159800,1,0,0:0:0:0:
448,192,159900,1,0,0:0:0:0:
64,192,160000,1,0,0:0:0:0:
320,192,160000,1,0,0:0:0:0:
192,192,160100,1,0,0:0:0:0:
320,192,160200,1,0,0:0:0:0:
448,192,160300,1,0,0:0:0:0:
320,192,160400,1,0,0:0:0:0:
192,192,160500,1,0,0:0:0:0:
64,192,160600,1,0,0:0:0:0:
192,192,160700,1,0,0:0:0:0:
320,192,160800,1,0,0:0:0:0:
64,192,160800,1,0,0:0:0:0:
448,192,160800,128,0,160933:0:0:0:0:
192,192,160933,128,0,161066:0:0:0:0:
64,192,161066,128,0,161200:0:0:0:0:
320,192,161200,1,0,0:0:0:0:
448,192,161200,1,0,0:0:0:0:
64,192,161400,1,0,0:0:0:0:
192,192,161400,1,0,0:0:0:0:
320,192,161600,128,0,162000:0:0:0:0:
448,192,161600,128,0,162000:0:0:0:0:
192,192,162000,128,0,162200:0:0:0:0:
64,192,162200,128,0,162400:0:0:0:0:
192,192,162400,128,0,162600:0:0:0:0:
320,192,162400,1,0,0:0:0:0:
320,192,162600,128,0,162800:0:0:0:0:
192,192,162800,128,0,163000:0:0:0:0:
64,192,163000,128,0,163200:0:0:0:0:
192,192,163200,1,0,0:0:0:0:
320,192,163200,1,0,0:0:0:0:
448,192,163200,128,0,163400:0:0:0:0:
320,192,163400,128,0,163600:0:0:0:0:
192,192,163600,128,0,163800:0:0:0:0:
64,192,163800,128,0,164000:0:0:0:0:
192,192,164000,1,0,0:0:0:0:
320,192,164000,128,0,164200:0:0:0:0:
192,192,164200,128,0,164400:0:0:0:0:
64,192,164400,128,0,164600:0:0:0:0:
320,192,164800,128,0,165200:0:0:0:0:
448,192,164800,128,0,165200:0:0:0:0:
192,192,164800,1,0,0:0:0:0:
64,192,165200,128,0,165400:0:0:0:0:
192,192,165400,128,0,165600:0:0:0:0:
320,192,165600,1,0,0:0:0:0:
448,192,165700,1,0,0:0:0:0:
320,192,165800,1,0,0:0:0:0:
192,192,165900,1,0,0:0:0:0:
64,192,166000,1,0,0:0:0:0:
192,192,166100,1,0,0:0:0:0:
320,192,166200,1,0,0:0:0:0:
448,192,166300,1,0,0:0:0:0:
192,192,166400,1,0,0:0:0:0:
64,192,166400,1,0,0:0:0:0:
448,192,166800,1,0,0:0:0:0:
320,192,166800,1,0,0:0:0:0:
64,192,167200,1,0,0:0:0:0:
192,192,167200,1,0,0:0:0:0:
192,192,167600,1,0,0:0:0:0:
320,192,167800,1,0,0:0:0:0:
192,192,168000,1,0,0:0:0:0:
448,192,168000,128,0,169600:0:0:0:0:
320,192,168400,1,0,0:0:0:0:
64,192,168800,1,0,0:0:0:0:
192,192,169000,1,0,0:0:0:0:
320,192,169200,1,0,0:0:0:0:
192,192,169400,1,0,0:0:0:0:
320,192,169600,128,0,171200:0:0:0:0:
64,192,169600,1,0,0:0:0:0:
192,192,169600,1,0,0:0:0:0:
448,192,170000,1,0,0:0:0:0:
448,192,170400,1,0,0:0:0:0:
192,192,170600,1,0,0:0:0:0:
64,192,170800,1,0,0:0:0:0:
192,192,171000,1,0,0:0:0:0:
64,192,171200,128,0,172800:0:0:0:0:
448,192,171200,1,0,0:0:0:0:
192,192,171200,1,0,0:0:0:0:
448,192,171600,1,0,0:0:0:0:
192,192,172000,1,0,0:0:0:0:
320,192,172200,1,0,0:0:0:0:
448,192,172400,1,0,0:0:0:0:
320,192,172600,1,0,0:0:0:0:
192,192,172800,128,0,174400:0:0:0:0:
320,192,172800,1,0,0:0:0:0:
448,192,172800,1,0,0:0:0:0:
320,192,173200,1,0,0:0:0:0:
64,192,173600,1,0,0:0:0:0:
448,192,173800,1,0,0:0:0:0:
64,192,174000,1,0,0:0:0:0:
448,192,174200,1,0,0:0:0:0:
320,192,174400,128,0,176000:0:0:0:0:
64,192,174400,1,0,0:0:0:0:
448,192,174400,1,0,0:0:0:0:
448,192,174800,1,0,0:0:0:0:
64,192,175200,1,0,0:0:0:0:
192,192,175400,1,0,0:0:0:0:
448,192,175600,1,0,0:0:0:0:
192,192,175800,1,0,0:0:0:0:
64,192,176000,128,0,177600:0:0:0:0:
192,192,176000,1,0,0:0:0:0:
448,192,176000,1,0,0:0:0:0:
192,192,176400,1,0,0:0:0:0:
448,192,176800,1,0,0:0:0:0:
320,192,177000,1,0,0:0:0:0:
448,192,177200,1,0,0:0:0:0:
192,192,177400,1,0,0:0:0:0:
448,192,177600,128,0,179200:0:0:0:0:
192,192,177600,1,0,0:0:0:0:
320,192,177600,1,0,0:0:0:0:
320,192,178000,1,0,0:0:0:0:
64,192,178400,1,0,0:0:0:0:
320,192,178600,1,0,0:0:0:0:
192,192,178800,1,0,0:0:0:0:
64,192,179000,1,0,0:0:0:0:
192,192,179200,128,0,180000:0:0:0:0:
320,192,179200,1,0,0:0:0:0:
64,192,179200,1,0,0:0:0:0:
320,192,179600,1,0,0:0:0:0:
320,192,179800,1,0,0:0:0:0:
448,192,180000,1,0,0:0:0:0:
320,192,180000,1,0,0:0:0:0:
448,192,180200,1,0,0:0:0:0:
320,192,180200,1,0,0:0:0:0:
192,192,180400,1,0,0:0:0:0:
64,192,180400,1,0,0:0:0:0:
192,192,180600,1,0,0:0:0:0:
64,192,180600,1,0,0:0:0:0:
64,192,180800,1,0,0:0:0:0:
192,192,180800,1,0,0:0:0:0:
448,192,180800,128,0,182400:0:0:0:0:
320,192,181200,1,0,0:0:0:0:
64,192,181600,1,0,0:0:0:0:
192,192,181800,1,0,0:0:0:0:
320,192,182000,1,0,0:0:0:0:
192,192,182200,1,0,0:0:0:0:
320,192,182400,128,0,184000:0:0:0:0:
64,192,182400,1,0,0:0:0:0:
192,192,182400,1,0,0:0:0:0:
448,192,182800,1,0,0:0:0:0:
448,192,183200,1,0,0:0:0:0:
192,192,183400,1,0,0:0:0:0:
64,192,183600,1,0,0:0:0:0:
192,192,183800,1,0,0:0:0:0:
64,192,184000,128,0,185600:0:0:0:0:
448,192,184000,1,0,0:0:0:0:
192,192,184000,1,0,0:0:0:0:
448,192,184400,1,0,0:0:0:0:
192,192,184800,1,0,0:0:0:0:
320,192,185000,1,0,0:0:0:0:
448,192,185200,1,0,0:0:0:0:
320,192,185400,1,0,0:0:0:0:
192,192,185600,128,0,187200:0:0:0:0:
320,192,185600,1,0,0:0:0:0:
448,192,185600,1,0,0:0:0:0:
320,192,186000,1,0,0:0:0:0:
64,192,186400,1,0,0:0:0:0:
448,192,186600,1,0,0:0:0:0:
64,192,186800,1,0,0:0:0:0:
448,192,187000,1,0,0:0:0:0:
320,192,187200,128,0,188800:0:0:0:0:
64,192,187200,1,0,0:0:0:0:
448,192,187200,1,0,0:0:0:0:
448,192,187600,1,0,0:0:0:0:
64,192,188000,1,0,0:0:0:0:
192,192,188200,1,0,0:0:0:0:
448,192,188400,1,0,0:0:0:0:
192,192,188600,1,0,0:0:0:0:
64,192,188800,128,0,190400:0:0:0:0:
192,192,188800,1,0,0:0:0:0:
448,192,188800,1,0,0:0:0:0:
192,192,189200,1,0,0:0:0:0:
448,192,189600,1,0,0:0:0:0:
320,192,189800,1,0,0:0:0:0:
448,192,190000,1,0,0:0:0:0:
192,192,190200,1,0,0:0:0:0:
448,192,190400,128,0,192000:0:0:0:0:
192,192,190400,1,0,0:0:0:0:
320,192,190400,1,0,0:0:0:0:
320,192,190800,1,0,0:0:0:0:
64,192,191200,1,0,0:0:0:0:
320,192,191400,1,0,0:0:0:0:
192,192,191600,1,0,0:0:0:0:
64,192,191800,1,0,0:0:0:0:
192,192,192000,128,0,192800:0:0:0:0:
320,192,192000,1,0,0:0:0:0:
64,192,192000,1,0,0:0:0:0:
320,192,192400,1,0,0:0:0:0:
320,192,192600,1,0,0:0:0:0:
448,192,192800,1,0,0:0:0:0:
448,192,193000,1,0,0:0:0:0:
64,192,193200,1,0,0:0:0:0:
64,192,193400,1,0,0:0:0:0:
64,192,193600,128,0,195200:0:0:0:0:
192,192,193600,128,0,194800:0:0:0:0:
320,192,193600,128,0,194400:0:0:0:0:
448,192,193600,128,0,194000:0:0:0:0:
