osu file format v14

[General]
AudioFilename: audio.mp3
AudioLeadIn: 0
PreviewTime: 58732
Countdown: 0
SampleSet: None
StackLeniency: 0.6
Mode: 3
LetterboxInBreaks: 0
SpecialStyle: 0
WidescreenStoryboard: 0

[Editor]
DistanceSpacing: 0.8
BeatDivisor: 4
GridSize: 32
TimelineZoom: 0.9999999

[Metadata]
Title:Mintflake
TitleUnicode:Mintflake
Artist:Kotori
ArtistUnicode:Kotori
Creator:Yuvira
Version:Normal
Source:
Tags:dubstep electronic bass house
BeatmapID:2003464
BeatmapSetID:714869

[Difficulty]
HPDrainRate:7
CircleSize:4
OverallDifficulty:7
ApproachRate:5
SliderMultiplier:1.5
SliderTickRate:1

[Events]
//Background and Video events
0,0,"Mintflake.jpg",0,0
//Break Periods
//Storyboard Layer 0 (Background)
//Storyboard Layer 1 (Fail)
//Storyboard Layer 2 (Pass)
//Storyboard Layer 3 (Foreground)
//Storyboard Sound Samples

[TimingPoints]
200,472.44094488189,4,1,0,100,1,0
60672,-100,4,1,0,100,0,1
90908,-100,4,1,0,100,0,0

[HitObjects]
448,192,15318,5,0,0:0:0:0:
64,192,15318,1,0,0:0:0:0:
192,192,15554,1,0,0:0:0:0:
320,192,15790,1,0,0:0:0:0:
64,192,16026,1,0,0:0:0:0:
448,192,16262,1,0,0:0:0:0:
192,192,16262,1,0,0:0:0:0:
64,192,16499,1,0,0:0:0:0:
320,192,16735,1,0,0:0:0:0:
192,192,16971,1,0,0:0:0:0:
64,192,17207,1,0,0:0:0:0:
448,192,17207,1,0,0:0:0:0:
192,192,17444,1,0,0:0:0:0:
320,192,17680,1,0,0:0:0:0:
192,192,18152,128,0,18625:0:0:0:0:
448,192,18152,128,0,18625:0:0:0:0:
64,192,18625,1,0,0:0:0:0:
320,192,18625,128,0,19097:0:0:0:0:
64,192,19097,1,0,0:0:0:0:
448,192,19097,1,0,0:0:0:0:
192,192,19333,1,0,0:0:0:0:
64,192,19570,1,0,0:0:0:0:
320,192,19806,1,0,0:0:0:0:
448,192,20042,1,0,0:0:0:0:
192,192,20042,1,0,0:0:0:0:
320,192,20278,1,0,0:0:0:0:
448,192,20514,1,0,0:0:0:0:
192,192,20751,1,0,0:0:0:0:
64,192,20987,1,0,0:0:0:0:
448,192,20987,1,0,0:0:0:0:
448,192,21459,1,0,0:0:0:0:
192,192,21696,1,0,0:0:0:0:
64,192,21932,1,0,0:0:0:0:
448,192,21932,1,0,0:0:0:0:
320,192,22168,1,0,0:0:0:0:
192,192,22404,128,0,22877:0:0:0:0:
448,192,22877,5,0,0:0:0:0:
64,192,22877,1,0,0:0:0:0:
192,192,23113,1,0,0:0:0:0:
320,192,23349,1,0,0:0:0:0:
64,192,23585,1,0,0:0:0:0:
448,192,23822,1,0,0:0:0:0:
192,192,23822,1,0,0:0:0:0:
64,192,24058,1,0,0:0:0:0:
320,192,24294,1,0,0:0:0:0:
192,192,24530,1,0,0:0:0:0:
64,192,24766,1,0,0:0:0:0:
448,192,24766,1,0,0:0:0:0:
192,192,25003,1,0,0:0:0:0:
320,192,25239,1,0,0:0:0:0:
192,192,25711,128,0,26184:0:0:0:0:
448,192,25711,128,0,26184:0:0:0:0:
64,192,26184,1,0,0:0:0:0:
320,192,26184,128,0,26656:0:0:0:0:
64,192,26656,1,0,0:0:0:0:
448,192,26656,1,0,0:0:0:0:
192,192,26892,1,0,0:0:0:0:
64,192,27129,1,0,0:0:0:0:
320,192,27365,1,0,0:0:0:0:
192,192,27601,1,0,0:0:0:0:
448,192,27601,1,0,0:0:0:0:
320,192,27837,1,0,0:0:0:0:
448,192,28074,1,0,0:0:0:0:
192,192,28310,1,0,0:0:0:0:
448,192,28546,1,0,0:0:0:0:
64,192,28546,1,0,0:0:0:0:
448,192,29018,1,0,0:0:0:0:
64,192,29255,1,0,0:0:0:0:
192,192,29491,1,0,0:0:0:0:
320,192,29727,1,0,0:0:0:0:
448,192,29963,1,0,0:0:0:0:
64,192,29963,128,0,30436:0:0:0:0:
448,192,30436,1,0,0:0:0:0:
192,192,30436,1,0,0:0:0:0:
320,192,30672,1,0,0:0:0:0:
64,192,30908,1,0,0:0:0:0:
192,192,30908,1,0,0:0:0:0:
320,192,31144,1,0,0:0:0:0:
448,192,31381,1,0,0:0:0:0:
192,192,31381,1,0,0:0:0:0:
64,192,31617,1,0,0:0:0:0:
192,192,31853,1,0,0:0:0:0:
320,192,31853,1,0,0:0:0:0:
448,192,32089,1,0,0:0:0:0:
64,192,32325,1,0,0:0:0:0:
320,192,32325,1,0,0:0:0:0:
192,192,32562,1,0,0:0:0:0:
448,192,32798,1,0,0:0:0:0:
320,192,32798,1,0,0:0:0:0:
192,192,33270,128,0,33743:0:0:0:0:
448,192,33270,128,0,33743:0:0:0:0:
64,192,33743,1,0,0:0:0:0:
320,192,33743,128,0,34215:0:0:0:0:
64,192,34215,1,0,0:0:0:0:
448,192,34215,1,0,0:0:0:0:
320,192,34451,1,0,0:0:0:0:
192,192,34688,1,0,0:0:0:0:
64,192,34688,1,0,0:0:0:0:
320,192,34924,1,0,0:0:0:0:
448,192,35160,1,0,0:0:0:0:
192,192,35160,1,0,0:0:0:0:
64,192,35396,1,0,0:0:0:0:
320,192,35633,1,0,0:0:0:0:
192,192,35633,1,0,0:0:0:0:
64,192,35869,1,0,0:0:0:0:
448,192,36105,1,0,0:0:0:0:
192,192,36105,1,0,0:0:0:0:
64,192,36577,1,0,0:0:0:0:
448,192,36577,1,0,0:0:0:0:
192,192,36814,1,0,0:0:0:0:
320,192,36814,1,0,0:0:0:0:
64,192,37050,1,0,0:0:0:0:
448,192,37050,1,0,0:0:0:0:
192,192,37286,1,0,0:0:0:0:
320,192,37286,1,0,0:0:0:0:
448,192,37522,1,0,0:0:0:0:
64,192,37522,128,0,37995:0:0:0:0:
448,192,37995,1,0,0:0:0:0:
192,192,37995,1,0,0:0:0:0:
320,192,38231,1,0,0:0:0:0:
64,192,38467,1,0,0:0:0:0:
192,192,38467,1,0,0:0:0:0:
320,192,38703,1,0,0:0:0:0:
448,192,38940,1,0,0:0:0:0:
192,192,38940,1,0,0:0:0:0:
64,192,39176,1,0,0:0:0:0:
192,192,39412,1,0,0:0:0:0:
320,192,39412,1,0,0:0:0:0:
448,192,39648,1,0,0:0:0:0:
64,192,39885,1,0,0:0:0:0:
320,192,39885,1,0,0:0:0:0:
192,192,40121,1,0,0:0:0:0:
448,192,40357,1,0,0:0:0:0:
320,192,40357,1,0,0:0:0:0:
192,192,40829,128,0,41302:0:0:0:0:
448,192,40829,128,0,41302:0:0:0:0:
64,192,41302,1,0,0:0:0:0:
320,192,41302,128,0,41774:0:0:0:0:
64,192,41774,1,0,0:0:0:0:
448,192,41774,1,0,0:0:0:0:
320,192,42011,1,0,0:0:0:0:
192,192,42247,1,0,0:0:0:0:
64,192,42247,1,0,0:0:0:0:
320,192,42483,1,0,0:0:0:0:
192,192,42719,1,0,0:0:0:0:
448,192,42719,1,0,0:0:0:0:
64,192,42955,1,0,0:0:0:0:
320,192,43192,1,0,0:0:0:0:
192,192,43192,1,0,0:0:0:0:
64,192,43428,1,0,0:0:0:0:
448,192,43664,1,0,0:0:0:0:
192,192,43664,1,0,0:0:0:0:
64,192,44137,1,0,0:0:0:0:
448,192,44137,1,0,0:0:0:0:
192,192,44373,1,0,0:0:0:0:
320,192,44373,1,0,0:0:0:0:
64,192,44609,1,0,0:0:0:0:
448,192,44609,1,0,0:0:0:0:
192,192,44845,1,0,0:0:0:0:
320,192,44845,1,0,0:0:0:0:
448,192,45081,128,0,45554:0:0:0:0:
64,192,45081,128,0,45554:0:0:0:0:
192,192,45554,1,0,0:0:0:0:
320,192,45554,1,0,0:0:0:0:
448,192,46026,1,0,0:0:0:0:
320,192,46026,1,0,0:0:0:0:
64,192,46262,1,0,0:0:0:0:
192,192,46735,1,0,0:0:0:0:
320,192,46735,1,0,0:0:0:0:
448,192,46971,1,0,0:0:0:0:
320,192,47089,1,0,0:0:0:0:
192,192,47207,1,0,0:0:0:0:
64,192,47444,1,0,0:0:0:0:
448,192,47916,1,0,0:0:0:0:
320,192,47916,1,0,0:0:0:0:
64,192,48152,1,0,0:0:0:0:
192,192,48625,1,0,0:0:0:0:
448,192,48625,1,0,0:0:0:0:
320,192,48861,1,0,0:0:0:0:
64,192,49333,1,0,0:0:0:0:
448,192,49333,1,0,0:0:0:0:
448,192,49806,1,0,0:0:0:0:
320,192,49806,1,0,0:0:0:0:
64,192,50042,1,0,0:0:0:0:
192,192,50514,1,0,0:0:0:0:
320,192,50514,1,0,0:0:0:0:
448,192,50751,1,0,0:0:0:0:
320,192,50869,1,0,0:0:0:0:
192,192,50987,1,0,0:0:0:0:
64,192,51223,1,0,0:0:0:0:
320,192,51696,1,0,0:0:0:0:
448,192,51696,1,0,0:0:0:0:
64,192,51932,1,0,0:0:0:0:
192,192,52404,1,0,0:0:0:0:
448,192,52404,1,0,0:0:0:0:
320,192,52640,1,0,0:0:0:0:
64,192,53113,1,0,0:0:0:0:
448,192,53113,1,0,0:0:0:0:
192,192,53349,1,0,0:0:0:0:
64,192,53585,1,0,0:0:0:0:
448,192,53585,1,0,0:0:0:0:
320,192,53822,1,0,0:0:0:0:
64,192,54058,1,0,0:0:0:0:
448,192,54058,1,0,0:0:0:0:
192,192,54294,1,0,0:0:0:0:
64,192,54530,1,0,0:0:0:0:
448,192,54530,1,0,0:0:0:0:
320,192,54766,1,0,0:0:0:0:
192,192,54885,1,0,0:0:0:0:
64,192,55003,1,0,0:0:0:0:
448,192,55003,1,0,0:0:0:0:
320,192,55239,1,0,0:0:0:0:
64,192,55475,1,0,0:0:0:0:
448,192,55475,1,0,0:0:0:0:
192,192,55711,1,0,0:0:0:0:
64,192,55948,1,0,0:0:0:0:
448,192,55948,1,0,0:0:0:0:
320,192,56184,1,0,0:0:0:0:
64,192,56420,1,0,0:0:0:0:
448,192,56420,1,0,0:0:0:0:
192,192,56656,1,0,0:0:0:0:
320,192,56774,1,0,0:0:0:0:
64,192,56892,1,0,0:0:0:0:
448,192,57011,1,0,0:0:0:0:
64,192,57129,1,0,0:0:0:0:
448,192,57247,1,0,0:0:0:0:
64,192,57365,1,0,0:0:0:0:
448,192,57483,1,0,0:0:0:0:
64,192,57601,1,0,0:0:0:0:
448,192,57719,1,0,0:0:0:0:
64,192,57837,1,0,0:0:0:0:
448,192,57955,1,0,0:0:0:0:
64,192,58074,1,0,0:0:0:0:
448,192,58192,1,0,0:0:0:0:
64,192,58310,1,0,0:0:0:0:
192,192,58369,1,0,0:0:0:0:
320,192,58428,1,0,0:0:0:0:
448,192,58487,1,0,0:0:0:0:
64,192,58546,1,0,0:0:0:0:
192,192,58605,1,0,0:0:0:0:
320,192,58664,1,0,0:0:0:0:
448,192,58723,1,0,0:0:0:0:
64,192,58782,1,0,0:0:0:0:
192,192,59018,1,0,0:0:0:0:
320,192,59018,1,0,0:0:0:0:
64,192,59255,1,0,0:0:0:0:
448,192,59255,1,0,0:0:0:0:
192,192,59491,1,0,0:0:0:0:
320,192,59491,1,0,0:0:0:0:
448,192,59727,1,0,0:0:0:0:
64,192,59727,1,0,0:0:0:0:
320,192,59963,1,0,0:0:0:0:
448,192,60200,1,0,0:0:0:0:
192,192,60200,1,0,0:0:0:0:
64,192,60436,1,0,0:0:0:0:
320,192,60436,1,0,0:0:0:0:
64,192,60672,1,0,0:0:0:0:
448,192,60672,1,0,0:0:0:0:
320,192,60908,128,0,61144:0:0:0:0:
64,192,61144,1,0,0:0:0:0:
448,192,61144,1,0,0:0:0:0:
192,192,61262,1,0,0:0:0:0:
320,192,61381,1,0,0:0:0:0:
64,192,61617,1,0,0:0:0:0:
448,192,61617,1,0,0:0:0:0:
192,192,61735,1,0,0:0:0:0:
320,192,61853,1,0,0:0:0:0:
64,192,62089,1,0,0:0:0:0:
448,192,62089,1,0,0:0:0:0:
192,192,62207,1,0,0:0:0:0:
320,192,62325,1,0,0:0:0:0:
448,192,62444,1,0,0:0:0:0:
64,192,62562,1,0,0:0:0:0:
192,192,62562,1,0,0:0:0:0:
320,192,62798,1,0,0:0:0:0:
192,192,62916,1,0,0:0:0:0:
64,192,63034,1,0,0:0:0:0:
448,192,63034,1,0,0:0:0:0:
192,192,63152,1,0,0:0:0:0:
320,192,63270,1,0,0:0:0:0:
64,192,63507,1,0,0:0:0:0:
448,192,63507,1,0,0:0:0:0:
192,192,63625,1,0,0:0:0:0:
320,192,63743,1,0,0:0:0:0:
64,192,63979,1,0,0:0:0:0:
448,192,63979,1,0,0:0:0:0:
320,192,64097,1,0,0:0:0:0:
64,192,64215,1,0,0:0:0:0:
192,192,64333,1,0,0:0:0:0:
64,192,64451,1,0,0:0:0:0:
448,192,64451,1,0,0:0:0:0:
320,192,64688,128,0,64924:0:0:0:0:
64,192,64924,1,0,0:0:0:0:
448,192,64924,1,0,0:0:0:0:
192,192,65042,1,0,0:0:0:0:
320,192,65160,1,0,0:0:0:0:
64,192,65396,1,0,0:0:0:0:
448,192,65396,1,0,0:0:0:0:
192,192,65514,1,0,0:0:0:0:
320,192,65633,1,0,0:0:0:0:
64,192,65869,1,0,0:0:0:0:
448,192,65869,1,0,0:0:0:0:
192,192,65987,1,0,0:0:0:0:
320,192,66105,1,0,0:0:0:0:
448,192,66223,1,0,0:0:0:0:
64,192,66341,1,0,0:0:0:0:
192,192,66341,1,0,0:0:0:0:
448,192,66577,1,0,0:0:0:0:
320,192,66696,1,0,0:0:0:0:
448,192,66814,1,0,0:0:0:0:
192,192,66814,1,0,0:0:0:0:
64,192,67050,1,0,0:0:0:0:
320,192,67050,1,0,0:0:0:0:
192,192,67286,1,0,0:0:0:0:
320,192,67404,1,0,0:0:0:0:
448,192,67522,1,0,0:0:0:0:
64,192,67759,1,0,0:0:0:0:
320,192,67759,1,0,0:0:0:0:
192,192,67995,1,0,0:0:0:0:
448,192,67995,1,0,0:0:0:0:
64,192,68231,1,0,0:0:0:0:
448,192,68231,1,0,0:0:0:0:
320,192,68467,128,0,68703:0:0:0:0:
64,192,68703,1,0,0:0:0:0:
448,192,68703,1,0,0:0:0:0:
192,192,68822,1,0,0:0:0:0:
320,192,68940,1,0,0:0:0:0:
64,192,69176,1,0,0:0:0:0:
448,192,69176,1,0,0:0:0:0:
192,192,69294,1,0,0:0:0:0:
320,192,69412,1,0,0:0:0:0:
64,192,69648,1,0,0:0:0:0:
448,192,69648,1,0,0:0:0:0:
192,192,69766,1,0,0:0:0:0:
320,192,69885,1,0,0:0:0:0:
448,192,70003,1,0,0:0:0:0:
64,192,70121,1,0,0:0:0:0:
192,192,70121,1,0,0:0:0:0:
320,192,70357,1,0,0:0:0:0:
192,192,70475,1,0,0:0:0:0:
64,192,70593,1,0,0:0:0:0:
448,192,70593,1,0,0:0:0:0:
192,192,70711,1,0,0:0:0:0:
320,192,70829,1,0,0:0:0:0:
64,192,71066,1,0,0:0:0:0:
448,192,71066,1,0,0:0:0:0:
192,192,71184,1,0,0:0:0:0:
320,192,71302,1,0,0:0:0:0:
64,192,71538,1,0,0:0:0:0:
448,192,71538,1,0,0:0:0:0:
320,192,71656,1,0,0:0:0:0:
64,192,71774,1,0,0:0:0:0:
192,192,71892,1,0,0:0:0:0:
64,192,72011,1,0,0:0:0:0:
448,192,72011,1,0,0:0:0:0:
320,192,72247,128,0,72483:0:0:0:0:
64,192,72483,1,0,0:0:0:0:
448,192,72483,1,0,0:0:0:0:
192,192,72601,1,0,0:0:0:0:
320,192,72719,1,0,0:0:0:0:
64,192,72955,1,0,0:0:0:0:
448,192,72955,1,0,0:0:0:0:
192,192,73074,1,0,0:0:0:0:
320,192,73192,1,0,0:0:0:0:
64,192,73428,1,0,0:0:0:0:
448,192,73428,1,0,0:0:0:0:
192,192,73546,1,0,0:0:0:0:
320,192,73664,5,0,0:0:0:0:
448,192,73782,1,0,0:0:0:0:
192,192,73900,1,0,0:0:0:0:
64,192,73900,1,0,0:0:0:0:
192,192,74137,1,0,0:0:0:0:
320,192,74255,1,0,0:0:0:0:
64,192,74373,1,0,0:0:0:0:
448,192,74373,1,0,0:0:0:0:
320,192,74491,1,0,0:0:0:0:
192,192,74609,1,0,0:0:0:0:
64,192,74845,128,0,75318:0:0:0:0:
448,192,74845,128,0,75318:0:0:0:0:
320,192,75318,128,0,75790:0:0:0:0:
64,192,75790,128,0,76262:0:0:0:0:
192,192,75790,1,0,0:0:0:0:
192,192,76262,1,0,0:0:0:0:
448,192,76262,1,0,0:0:0:0:
320,192,76381,1,0,0:0:0:0:
448,192,76499,128,0,76735:0:0:0:0:
64,192,76735,1,0,0:0:0:0:
320,192,76735,128,0,77207:0:0:0:0:
64,192,77207,1,0,0:0:0:0:
192,192,77207,128,0,77680:0:0:0:0:
64,192,77680,1,0,0:0:0:0:
448,192,77680,1,0,0:0:0:0:
320,192,77916,1,0,0:0:0:0:
192,192,78034,1,0,0:0:0:0:
64,192,78152,1,0,0:0:0:0:
448,192,78152,1,0,0:0:0:0:
192,192,78270,1,0,0:0:0:0:
320,192,78388,128,0,78625:0:0:0:0:
64,192,78625,1,0,0:0:0:0:
192,192,78625,128,0,78861:0:0:0:0:
448,192,78861,128,0,79097:0:0:0:0:
64,192,79097,1,0,0:0:0:0:
320,192,79097,128,0,79570:0:0:0:0:
192,192,79570,1,0,0:0:0:0:
64,192,79570,128,0,80042:0:0:0:0:
192,192,80042,1,0,0:0:0:0:
448,192,80042,1,0,0:0:0:0:
320,192,80160,1,0,0:0:0:0:
448,192,80278,128,0,80514:0:0:0:0:
64,192,80514,1,0,0:0:0:0:
320,192,80514,128,0,80987:0:0:0:0:
64,192,80987,1,0,0:0:0:0:
192,192,80987,128,0,81459:0:0:0:0:
64,192,81459,1,0,0:0:0:0:
448,192,81459,1,0,0:0:0:0:
192,192,81696,1,0,0:0:0:0:
320,192,81814,1,0,0:0:0:0:
64,192,81932,1,0,0:0:0:0:
448,192,81932,1,0,0:0:0:0:
192,192,82168,1,0,0:0:0:0:
64,192,82404,1,0,0:0:0:0:
448,192,82404,1,0,0:0:0:0:
192,192,82562,1,0,0:0:0:0:
320,192,82719,1,0,0:0:0:0:
448,192,82877,1,0,0:0:0:0:
64,192,82877,1,0,0:0:0:0:
320,192,83034,1,0,0:0:0:0:
192,192,83192,1,0,0:0:0:0:
448,192,83349,1,0,0:0:0:0:
64,192,83349,128,0,83822:0:0:0:0:
192,192,83822,1,0,0:0:0:0:
448,192,83822,1,0,0:0:0:0:
320,192,83940,1,0,0:0:0:0:
448,192,84058,128,0,84294:0:0:0:0:
64,192,84294,1,0,0:0:0:0:
320,192,84294,128,0,84766:0:0:0:0:
64,192,84766,1,0,0:0:0:0:
192,192,84766,128,0,85239:0:0:0:0:
64,192,85239,1,0,0:0:0:0:
448,192,85239,1,0,0:0:0:0:
320,192,85475,1,0,0:0:0:0:
192,192,85593,1,0,0:0:0:0:
64,192,85711,1,0,0:0:0:0:
448,192,85711,1,0,0:0:0:0:
192,192,85829,1,0,0:0:0:0:
320,192,85948,128,0,86184:0:0:0:0:
192,192,86184,1,0,0:0:0:0:
64,192,86184,128,0,86538:0:0:0:0:
448,192,86538,1,0,0:0:0:0:
320,192,86656,1,0,0:0:0:0:
192,192,86656,128,0,87129:0:0:0:0:
64,192,87129,128,0,87601:0:0:0:0:
320,192,87129,1,0,0:0:0:0:
448,192,87601,1,0,0:0:0:0:
192,192,87601,1,0,0:0:0:0:
320,192,87719,1,0,0:0:0:0:
448,192,87837,128,0,88074:0:0:0:0:
64,192,88074,1,0,0:0:0:0:
320,192,88074,128,0,88546:0:0:0:0:
64,192,88546,1,0,0:0:0:0:
192,192,88546,128,0,89018:0:0:0:0:
64,192,89018,128,0,89373:0:0:0:0:
448,192,89018,128,0,89373:0:0:0:0:
192,192,89373,1,0,0:0:0:0:
448,192,89491,128,0,89845:0:0:0:0:
64,192,89491,128,0,89845:0:0:0:0:
192,192,89845,1,0,0:0:0:0:
64,192,89963,128,0,90318:0:0:0:0:
448,192,89963,128,0,90318:0:0:0:0:
192,192,90318,1,0,0:0:0:0:
64,192,90436,1,0,0:0:0:0:
448,192,90436,1,0,0:0:0:0:
320,192,90672,1,0,0:0:0:0:
448,192,90908,1,0,0:0:0:0:
192,192,90908,1,0,0:0:0:0:
320,192,91144,1,0,0:0:0:0:
64,192,91381,1,0,0:0:0:0:
192,192,91381,1,0,0:0:0:0:
320,192,91617,1,0,0:0:0:0:
448,192,91853,1,0,0:0:0:0:
192,192,91853,1,0,0:0:0:0:
64,192,92089,1,0,0:0:0:0:
192,192,92325,1,0,0:0:0:0:
320,192,92325,1,0,0:0:0:0:
448,192,92562,1,0,0:0:0:0:
64,192,92798,1,0,0:0:0:0:
320,192,92798,1,0,0:0:0:0:
192,192,93034,1,0,0:0:0:0:
448,192,93270,1,0,0:0:0:0:
320,192,93270,1,0,0:0:0:0:
192,192,93743,128,0,94215:0:0:0:0:
448,192,93743,128,0,94215:0:0:0:0:
64,192,94215,1,0,0:0:0:0:
320,192,94215,128,0,94688:0:0:0:0:
64,192,94688,1,0,0:0:0:0:
448,192,94688,1,0,0:0:0:0:
320,192,94924,1,0,0:0:0:0:
192,192,95160,1,0,0:0:0:0:
64,192,95160,1,0,0:0:0:0:
320,192,95396,1,0,0:0:0:0:
448,192,95633,1,0,0:0:0:0:
192,192,95633,1,0,0:0:0:0:
64,192,95869,1,0,0:0:0:0:
320,192,96105,1,0,0:0:0:0:
192,192,96105,1,0,0:0:0:0:
64,192,96341,1,0,0:0:0:0:
448,192,96577,1,0,0:0:0:0:
192,192,96577,1,0,0:0:0:0:
64,192,97050,1,0,0:0:0:0:
448,192,97050,1,0,0:0:0:0:
192,192,97286,1,0,0:0:0:0:
320,192,97286,1,0,0:0:0:0:
64,192,97522,1,0,0:0:0:0:
448,192,97522,1,0,0:0:0:0:
192,192,97759,1,0,0:0:0:0:
320,192,97759,1,0,0:0:0:0:
448,192,97995,1,0,0:0:0:0:
64,192,97995,128,0,98467:0:0:0:0:
448,192,98467,1,0,0:0:0:0:
192,192,98467,1,0,0:0:0:0:
320,192,98703,1,0,0:0:0:0:
64,192,98940,1,0,0:0:0:0:
192,192,98940,1,0,0:0:0:0:
320,192,99176,1,0,0:0:0:0:
448,192,99412,1,0,0:0:0:0:
192,192,99412,1,0,0:0:0:0:
64,192,99648,1,0,0:0:0:0:
192,192,99885,1,0,0:0:0:0:
320,192,99885,1,0,0:0:0:0:
448,192,100121,1,0,0:0:0:0:
64,192,100357,1,0,0:0:0:0:
320,192,100357,1,0,0:0:0:0:
192,192,100593,1,0,0:0:0:0:
448,192,100829,1,0,0:0:0:0:
320,192,100829,1,0,0:0:0:0:
192,192,101302,128,0,101774:0:0:0:0:
448,192,101302,128,0,101774:0:0:0:0:
64,192,101774,1,0,0:0:0:0:
320,192,101774,128,0,102247:0:0:0:0:
64,192,102247,1,0,0:0:0:0:
448,192,102247,1,0,0:0:0:0:
320,192,102483,1,0,0:0:0:0:
192,192,102719,1,0,0:0:0:0:
64,192,102719,1,0,0:0:0:0:
320,192,102955,1,0,0:0:0:0:
192,192,103192,1,0,0:0:0:0:
448,192,103192,1,0,0:0:0:0:
64,192,103428,1,0,0:0:0:0:
320,192,103664,1,0,0:0:0:0:
192,192,103664,1,0,0:0:0:0:
64,192,103900,1,0,0:0:0:0:
448,192,104137,1,0,0:0:0:0:
192,192,104137,1,0,0:0:0:0:
64,192,104609,1,0,0:0:0:0:
448,192,104609,1,0,0:0:0:0:
192,192,104845,1,0,0:0:0:0:
320,192,104845,1,0,0:0:0:0:
64,192,105081,1,0,0:0:0:0:
448,192,105081,1,0,0:0:0:0:
192,192,105318,1,0,0:0:0:0:
320,192,105318,1,0,0:0:0:0:
64,192,105554,128,0,106026:0:0:0:0:
448,192,105554,128,0,106026:0:0:0:0:
320,192,106026,1,0,0:0:0:0:
192,192,106026,1,0,0:0:0:0:
