osu file format v14

[General]
AudioFilename: Black Out The Alternative.mp3
AudioLeadIn: 0
PreviewTime: 221038
Countdown: 0
SampleSet: None
StackLeniency: 0.2
Mode: 3
LetterboxInBreaks: 0
SpecialStyle: 0
WidescreenStoryboard: 1

[Editor]
Bookmarks: 13926,27213,39833,46202,59443,72684,83856,97097,101441,105164,118405,125026,131646,142403,153159,166400,179652,190162,200673,211184,221695,241213,251445,261677,270391,273701,286942,291286,295009,304205,313041,315724,342206,355622,357233,363853
DistanceSpacing: 1
BeatDivisor: 4
GridSize: 4
TimelineZoom: 1.870002

[Metadata]
Title:Black Out The Alternative
TitleUnicode:Black Out The Alternative
Artist:Kotori
ArtistUnicode:ことり
Creator:Pope Gadget
Version:The Latter (2018)
Source:
Tags:marathon hatsune miku vocaloid metal proggers
BeatmapID:1833909
BeatmapSetID:327178

[Difficulty]
HPDrainRate:8.8
CircleSize:4
OverallDifficulty:8.2
ApproachRate:5
SliderMultiplier:1.4
SliderTickRate:1

[Events]
//Background and Video events
0,0,"Juxtapose (PSCHC Edit).jpg",0,0
//Break Periods
2,46202,52408
2,179652,190053
//Storyboard Layer 0 (Background)
//Storyboard Layer 1 (Fail)
//Storyboard Layer 2 (Pass)
//Storyboard Layer 3 (Foreground)
//Storyboard Sound Samples

[TimingPoints]
685,413.793103448276,4,3,1,89,1,0
685,-111.111111111111,4,3,1,89,0,0
13305,-109.89010989011,4,3,1,20,0,0
13409,-105.263157894737,4,3,1,30,0,0
13512,-100,4,3,1,40,0,0
13616,-102.040816326531,4,3,1,50,0,0
13719,-104.166666666667,4,3,1,60,0,0
13822,-106.382978723404,4,3,1,70,0,0
13926,-66.6666666666667,4,3,1,80,0,0
13952,-95.2380952380952,4,3,1,80,0,0
14340,-95.2380952380952,4,3,1,60,0,0
15193,-111.111111111111,4,3,1,80,0,0
15374,-33.3333333333333,4,3,1,80,0,0
15384,-100,4,3,1,80,0,0
16822,-105.263157894737,4,3,1,80,0,0
16926,-111.111111111111,4,3,1,80,0,0
17029,-117.647058823529,4,3,1,80,0,0
17098,-111.111111111111,4,3,1,80,0,0
17167,-105.263157894737,4,3,1,80,0,0
17236,-50,4,3,1,80,0,0
17246,-100,4,3,1,80,0,0
18374,-100,4,3,1,45,0,0
18426,-100,4,3,1,65,0,0
18478,-117.647058823529,4,3,1,80,0,0
18684,-57.1428571428571,4,3,1,80,0,0
18694,-100,4,3,1,80,0,0
19512,-40,4,3,1,80,0,0
19522,-100,4,3,1,80,0,0
20236,-97.0873786407767,4,3,1,80,0,0
20340,-94.3396226415094,4,3,1,80,0,0
20443,-91.743119266055,4,3,1,80,0,0
20547,-33.3333333333333,4,3,1,80,0,0
20557,-100,4,3,1,80,0,0
21788,-111.111111111111,4,3,1,80,0,0
21995,-100,4,3,1,80,0,0
23443,-108.695652173913,4,3,1,80,0,0
23547,-96.1538461538461,4,3,1,80,0,0
23598,-156.25,4,3,1,80,0,0
23650,-75.7575757575758,4,3,1,80,0,0
23702,-192.307692307692,4,3,1,80,0,0
23753,-62.5,4,3,1,80,0,0
23805,-250,4,3,1,80,0,0
23857,-28.5714285714286,4,3,1,80,0,0
23867,-100,4,3,1,80,0,0
24995,-100,4,3,1,45,0,0
25047,-100,4,3,1,65,0,0
25099,-125,4,3,1,80,0,0
25305,-25,4,3,1,80,0,0
25315,-100,4,3,1,80,0,0
26133,-33.3333333333333,4,3,1,80,0,0
26143,-100,4,3,1,80,0,0
26340,419.58041958042,4,3,1,80,1,0
26340,-98.6206896551723,4,3,1,80,0,0
26759,454.545454545455,4,3,1,80,1,0
26759,-64.1025641025641,4,3,1,80,0,0
26796,-84.7457627118644,4,3,1,80,0,0
26834,-121.951219512195,4,3,1,80,0,0
26872,-227.272727272727,4,3,1,80,0,0
26910,-64.1025641025641,4,3,1,80,0,0
26947,-84.7457627118644,4,3,1,80,0,0
26985,-121.951219512195,4,3,1,80,0,0
27023,-227.272727272727,4,3,1,80,0,0
27062,-76.9230769230769,4,3,1,80,0,0
27099,-90.9090909090909,4,3,1,80,0,0
27137,-111.111111111111,4,3,1,80,0,0
27175,-142.857142857143,4,3,1,80,0,0
27213,413.793103448276,4,3,1,80,1,0
27213,-33.3333333333333,4,3,1,80,0,0
27223,-100,4,3,1,80,0,0
32178,-66.6666666666667,4,3,1,80,0,0
32213,-200,4,3,1,80,0,0
32247,-100,4,3,1,80,0,0
32281,-66.6666666666667,4,3,1,80,0,0
32316,-200,4,3,1,80,0,0
32350,-100,4,3,1,80,0,0
32385,-66.6666666666667,4,3,1,80,0,0
32420,-200,4,3,1,80,0,0
32454,-100,4,3,1,80,0,0
32488,-66.6666666666667,4,3,1,80,0,0
32523,-200,4,3,1,80,0,0
32557,-100,4,3,1,80,0,0
32592,-66.6666666666667,4,3,1,80,0,0
32627,-200,4,3,1,80,0,0
32661,-100,4,3,1,80,0,0
32695,-66.6666666666667,4,3,1,80,0,0
32730,-200,4,3,1,80,0,0
32764,-100,4,3,1,80,0,0
32799,-66.6666666666667,4,3,1,80,0,0
32834,-200,4,3,1,80,0,0
32868,-100,4,3,1,80,0,0
32902,-66.6666666666667,4,3,1,80,0,0
32937,-200,4,3,1,80,0,0
32971,-100,4,3,1,80,0,0
33006,-66.6666666666667,4,3,1,80,0,0
33041,-200,4,3,1,80,0,0
33075,-100,4,3,1,80,0,0
33109,-66.6666666666667,4,3,1,80,0,0
33144,-200,4,3,1,80,0,0
33178,-100,4,3,1,80,0,0
33213,-66.6666666666667,4,3,1,80,0,0
33248,-200,4,3,1,80,0,0
33282,-100,4,3,1,80,0,0
33316,-66.6666666666667,4,3,1,80,0,0
33351,-200,4,3,1,80,0,0
33385,-100,4,3,1,80,0,0
33471,-100,4,3,1,60,0,0
33575,-100,4,3,1,80,0,0
38385,-50,4,3,1,80,0,0
38411,-125,4,3,1,80,0,0
38592,-80,4,3,1,80,0,0
38644,-133.333333333333,4,3,1,80,0,0
38695,-80,4,3,1,80,0,0
38747,-133.333333333333,4,3,1,80,0,0
38799,-80,4,3,1,80,0,0
38850,-133.333333333333,4,3,1,80,0,0
38902,-33.3333333333333,4,3,1,80,0,0
38928,-142.857142857143,4,3,1,80,0,0
39109,-80,4,3,1,80,0,0
39161,-133.333333333333,4,3,1,80,0,0
39212,-80,4,3,1,80,0,0
39264,-133.333333333333,4,3,1,80,0,0
39316,-80,4,3,1,80,0,0
39367,-133.333333333333,4,3,1,80,0,0
39419,-50,4,3,1,80,0,0
39471,-200,4,3,1,80,0,0
39626,-40,4,3,1,80,0,0
39678,-200,4,3,1,80,0,0
39833,560.747663551402,4,3,1,80,1,0
39833,-33.3333333333333,4,3,1,80,0,0
39853,-80,4,3,1,80,0,0
40954,540.540540540541,4,3,1,80,1,0
40954,-25,4,3,1,80,0,0
40964,-80,4,3,1,80,0,0
41494,560.747663551402,4,3,1,80,1,0
41494,-20,4,3,1,80,0,0
41504,-74.0740740740741,4,3,1,80,0,0
41914,545.454545454546,4,3,1,80,1,0
41914,-16.6666666666667,4,3,1,80,0,0
41924,-75.187969924812,4,3,1,80,0,0
42186,-25,4,3,1,80,0,0
42196,-75.187969924812,4,3,1,80,0,0
42459,-50,4,3,1,80,0,0
42469,-75.187969924812,4,3,1,80,0,0
42732,413.793103448276,4,3,1,80,1,0
42732,-16.6666666666667,4,3,1,80,0,0
42742,-105.263157894737,4,3,1,80,0,0
43007,-107.52688172043,4,3,1,80,0,0
43076,-109.89010989011,4,3,1,80,0,0
43145,-112.359550561798,4,3,1,80,0,0
43214,-114.942528735632,4,3,1,80,0,0
43283,-117.647058823529,4,3,1,80,0,0
43947,-66.6666666666667,4,3,1,80,0,0
43973,-125,4,3,1,60,0,0
44050,-66.6666666666667,4,3,1,60,0,0
44076,-125,4,3,1,60,0,0
44154,-66.6666666666667,4,3,1,60,0,0
44180,-125,4,3,1,60,0,0
44257,-66.6666666666667,4,3,1,60,0,0
44283,-125,4,3,1,60,0,0
44309,-133.333333333333,4,3,1,60,0,0
44568,-66.6666666666667,4,3,1,60,0,0
44594,-125,4,3,1,60,0,0
44671,-66.6666666666667,4,3,1,60,0,0
44697,-125,4,3,1,60,0,0
44775,-66.6666666666667,4,3,1,60,0,0
44801,-125,4,3,1,60,0,0
44878,-66.6666666666667,4,3,1,60,0,0
44904,-125,4,3,1,60,0,0
44930,-133.333333333333,4,3,1,60,0,0
45188,-66.6666666666667,4,3,1,60,0,0
45214,461.538461538462,4,3,1,60,1,0
45214,-100,4,3,1,60,0,0
45224,-100,4,3,1,60,0,0
45367,472.44094488189,4,3,1,65,1,0
45367,-66.6666666666667,4,3,1,65,0,0
45377,-105.263157894737,4,3,1,65,0,0
45524,461.538461538462,4,3,1,70,1,0
45524,-50,4,3,1,70,0,0
45534,-111.111111111111,4,3,1,70,0,0
45677,504.201680672269,4,3,1,75,1,0
45677,-117.647058823529,4,3,1,75,0,0
45708,-33.3333333333333,4,3,1,75,0,0
45721,-117.647058823529,4,3,1,75,0,0
45845,530.973451327434,4,3,1,80,1,0
45845,-25,4,3,1,80,0,0
45861,-125,4,3,1,80,0,0
46021,545.454545454546,4,3,1,80,1,0
46021,-18.1818181818182,4,3,1,80,0,0
46040,-133.333333333333,4,3,1,80,0,0
46202,413.793103448276,4,3,1,80,1,0
46202,-13.3333333333333,4,3,1,80,0,0
46224,-120.481927710843,4,3,1,80,0,0
49305,-94.3396226415094,4,3,1,80,0,0
49339,-151.515151515152,4,3,1,80,0,0
49374,-84.0336134453781,4,3,1,80,0,0
49408,-169.491525423729,4,3,1,80,0,0
49443,-75.7575757575758,4,3,1,80,0,0
49477,-192.307692307692,4,3,1,80,0,0
49512,-105.263157894737,4,3,1,80,0,0
51788,-83.3333333333333,4,3,1,80,0,0
51822,-142.857142857143,4,3,1,80,0,0
51857,-80,4,3,1,80,0,0
51891,-153.846153846154,4,3,1,80,0,0
51926,-76.9230769230769,4,3,1,80,0,0
51960,-166.666666666667,4,3,1,80,0,0
51995,-106.382978723404,4,3,1,80,0,0
52202,-107.52688172043,4,3,1,80,0,0
52408,-108.695652173913,4,3,1,80,0,0
52615,-109.89010989011,4,3,1,80,0,0
52822,-57.1428571428571,4,3,1,80,0,0
52848,-111.111111111111,4,3,1,80,0,0
58512,-83.3333333333333,4,3,1,80,0,0
58538,-166.666666666667,4,3,1,80,0,0
58564,-83.3333333333333,4,3,1,80,0,0
58590,-166.666666666667,4,3,1,80,0,0
58615,-57.1428571428571,4,3,1,80,0,0
58641,-105.263157894737,4,3,1,80,0,0
59029,-104.166666666667,4,3,1,80,0,0
59133,-103.092783505155,4,3,1,80,0,0
59236,-102.040816326531,4,3,1,80,0,0
59339,-101.010101010101,4,3,1,80,0,0
59443,-100,4,3,1,80,0,1
65288,-1000,4,3,1,80,0,1
65314,-50,4,3,1,80,0,1
65339,-100,4,3,1,80,0,1
65391,-1000,4,3,1,80,0,1
65417,-50,4,3,1,80,0,1
65442,-100,4,3,1,80,0,1
65495,-1000,4,3,1,80,0,1
65521,-47.6190476190476,4,3,1,80,0,1
65546,-100,4,3,1,60,0,1
65598,-1000,4,3,1,60,0,1
65624,-47.6190476190476,4,3,1,60,0,1
65649,-100,4,3,1,60,0,1
65702,-1000,4,3,1,60,0,1
65728,-45.4545454545455,4,3,1,60,0,1
65753,-100,4,3,1,60,0,1
65805,-1000,4,3,1,60,0,1
65831,-43.4782608695652,4,3,1,60,0,1
65856,-100,4,3,1,60,0,1
65908,-1000,4,3,1,60,0,1
65934,-43.4782608695652,4,3,1,60,0,1
65959,-100,4,3,1,60,0,1
66012,-1000,4,3,1,60,0,1
66038,-40,4,3,1,60,0,1
66063,-100,4,3,1,80,0,1
71753,-103.092783505155,4,3,1,80,0,1
71857,-106.382978723404,4,3,1,80,0,1
72477,-103.092783505155,4,3,1,80,0,1
72580,-100,4,3,1,80,0,1
72684,413.793103448276,3,3,1,80,1,0
72684,-50,3,3,1,80,0,0
72709,-100,3,3,1,80,0,0
75477,413.793103448276,3,3,1,80,1,0
75477,-33.3333333333333,3,3,1,80,0,0
75502,-100,3,3,1,80,0,0
78270,413.793103448276,3,3,1,80,1,0
78270,-33.3333333333333,3,3,1,80,0,0
78295,-100,3,3,1,80,0,0
81063,413.793103448276,3,3,1,80,1,0
81063,-33.3333333333333,3,3,1,80,0,0
81088,-100,3,3,1,80,0,0
83856,413.793103448276,4,3,1,80,1,1
83856,-50,3,3,1,80,0,1
83881,-100,3,3,1,80,0,1
89700,-1000,4,3,1,80,0,1
89726,-50,4,3,1,80,0,1
89751,-100,4,3,1,80,0,1
89803,-1000,4,3,1,80,0,1
89829,-50,4,3,1,80,0,1
89854,-100,4,3,1,80,0,1
89907,-1000,4,3,1,80,0,1
89933,-47.6190476190476,4,3,1,80,0,1
89958,-100,4,3,1,60,0,1
90010,-1000,4,3,1,60,0,1
90036,-47.6190476190476,4,3,1,60,0,1
90061,-100,4,3,1,60,0,1
90114,-1000,4,3,1,60,0,1
90140,-45.4545454545455,4,3,1,60,0,1
90165,-100,4,3,1,60,0,1
90217,-1000,4,3,1,60,0,1
90243,-43.4782608695652,4,3,1,60,0,1
90268,-100,4,3,1,60,0,1
90320,-1000,4,3,1,60,0,1
90346,-43.4782608695652,4,3,1,60,0,1
90371,-100,4,3,1,60,0,1
90424,-1000,4,3,1,60,0,1
90450,-40,4,3,1,60,0,1
90475,-100,4,3,1,80,0,1
96580,-101.010101010101,4,3,1,80,0,1
96683,-102.040816326531,4,3,1,70,0,1
96787,-103.092783505155,4,3,1,70,0,1
96890,-104.166666666667,4,3,1,70,0,1
96993,-105.263157894737,4,3,1,70,0,1
97097,413.793103448276,7,3,1,80,1,0
97097,-10,7,3,1,80,0,0
97100,-90.9090909090909,7,3,1,80,0,0
97303,-91.743119266055,7,3,1,80,0,0
97510,-92.5925925925926,7,3,1,80,0,0
97717,-93.4579439252336,7,3,1,80,0,0
97924,-94.3396226415094,7,3,1,80,0,0
98234,-95.2380952380952,7,3,1,80,0,0
98545,-96.1538461538461,7,3,1,80,0,0
98752,-97.0873786407767,7,3,1,80,0,0
98959,-98.0392156862745,7,3,1,80,0,0
99165,-99.009900990099,7,3,1,80,0,0
99372,-100,7,3,1,80,0,0
101131,-101.010101010101,7,3,1,80,0,0
101183,-102.040816326531,7,3,1,80,0,0
101234,-104.166666666667,7,3,1,80,0,0
101286,-107.52688172043,7,3,1,80,0,0
101338,-113.636363636364,7,3,1,80,0,0
101389,-125,7,3,1,80,0,0
101441,413.793103448276,5,3,1,80,1,0
101441,-73.5294117647059,5,3,1,80,0,0
101475,-149.253731343284,5,3,1,80,0,0
101544,-73.5294117647059,5,3,1,80,0,0
101578,-149.253731343284,5,3,1,80,0,0
101647,-73.5294117647059,5,3,1,80,0,0
101681,-149.253731343284,5,3,1,80,0,0
101751,-50,5,3,1,80,0,0
101785,-149.253731343284,5,3,1,80,0,0
102061,-73.5294117647059,5,3,1,80,0,0
102095,-149.253731343284,5,3,1,80,0,0
102165,-73.5294117647059,5,3,1,80,0,0
102199,-149.253731343284,5,3,1,80,0,0
102268,-73.5294117647059,5,3,1,80,0,0
102302,-149.253731343284,5,3,1,80,0,0
102372,-50,5,3,1,80,0,0
102406,-149.253731343284,5,3,1,80,0,0
102682,-73.5294117647059,5,3,1,80,0,0
102716,-149.253731343284,5,3,1,80,0,0
102785,-73.5294117647059,5,3,1,80,0,0
102819,-149.253731343284,5,3,1,80,0,0
102889,-73.5294117647059,5,3,1,80,0,0
102923,-149.253731343284,5,3,1,80,0,0
102992,-47.6190476190476,5,3,1,80,0,0
103026,-333.333333333333,5,3,1,80,0,0
103096,-73.5294117647059,5,3,1,80,0,0
103130,-149.253731343284,5,3,1,80,0,0
103199,-73.5294117647059,5,3,1,80,0,0
103233,-149.253731343284,5,3,1,80,0,0
103303,-73.5294117647059,5,3,1,80,0,0
103337,-149.253731343284,5,3,1,80,0,0
103406,-73.5294117647059,5,3,1,80,0,0
103440,-149.253731343284,5,3,1,80,0,0
103509,413.793103448276,4,3,1,80,1,0
103509,-33.3333333333333,5,3,1,80,0,0
103543,-149.253731343284,5,3,1,80,0,0
103819,-73.5294117647059,5,3,1,80,0,0
103853,-149.253731343284,5,3,1,80,0,0
103922,-73.5294117647059,5,3,1,80,0,0
103956,-149.253731343284,5,3,1,80,0,0
104026,-73.5294117647059,5,3,1,80,0,0
104060,-149.253731343284,5,3,1,80,0,0
104129,-66.6666666666667,5,3,1,80,0,0
104164,-100,5,3,1,80,0,0
104233,-83.3333333333333,5,3,1,80,0,0
104267,-133.333333333333,5,3,1,80,0,0
104336,-88.4955752212389,5,3,1,80,0,0
104405,-149.253731343284,5,3,1,80,0,0
104474,-88.4955752212389,5,3,1,80,0,0
104543,-149.253731343284,5,3,1,80,0,0
104612,-71.4285714285714,5,3,1,80,0,0
104681,-250,5,3,1,80,0,0
104750,-76.9230769230769,5,3,1,80,0,0
104819,-181.818181818182,5,3,1,80,0,0
104888,-83.3333333333333,5,3,1,80,0,0
104957,-133.333333333333,5,3,1,80,0,0
105026,-86.9565217391304,5,3,1,80,0,0
105095,-121.951219512195,5,3,1,80,0,0
105164,-100,5,3,1,80,0,0
109715,-90.9090909090909,5,3,1,80,0,0
109767,-111.111111111111,5,3,1,80,0,0
109819,-90.9090909090909,5,3,1,80,0,0
109871,-111.111111111111,5,3,1,80,0,0
109922,-90.9090909090909,5,3,1,80,0,0
109974,-111.111111111111,5,3,1,80,0,0
110026,-90.9090909090909,5,3,1,80,0,0
110078,-111.111111111111,5,3,1,80,0,0
110129,-83.3333333333333,5,3,1,80,0,0
110181,-125,5,3,1,80,0,0
110233,-83.3333333333333,5,3,1,80,0,0
110285,-125,5,3,1,80,0,0
110336,-83.3333333333333,5,3,1,80,0,0
110388,-125,5,3,1,80,0,0
110440,-83.3333333333333,5,3,1,80,0,0
110492,-125,5,3,1,80,0,0
110543,-76.9230769230769,5,3,1,80,0,0
110595,-142.857142857143,5,3,1,80,0,0
110646,-76.9230769230769,5,3,1,80,0,0
110698,-142.857142857143,5,3,1,80,0,0
110750,-76.9230769230769,5,3,1,80,0,0
110802,-142.857142857143,5,3,1,80,0,0
110853,-76.9230769230769,5,3,1,80,0,0
110905,-142.857142857143,5,3,1,80,0,0
110957,-71.4285714285714,5,3,1,80,0,0
111009,-166.666666666667,5,3,1,80,0,0
111060,-71.4285714285714,5,3,1,80,0,0
111112,-166.666666666667,5,3,1,80,0,0
111164,-71.4285714285714,5,3,1,80,0,0
111216,-166.666666666667,5,3,1,80,0,0
111267,-71.4285714285714,5,3,1,80,0,0
111319,-166.666666666667,5,3,1,80,0,0
111371,-66.6666666666667,5,3,1,80,0,0
111423,-200,5,3,1,80,0,0
111474,-66.6666666666667,5,3,1,80,0,0
111526,-200,5,3,1,80,0,0
111577,-66.6666666666667,5,3,1,80,0,0
111629,-200,5,3,1,80,0,0
111681,-66.6666666666667,5,3,1,80,0,0
111733,-200,5,3,1,80,0,0
111759,-66.6666666666667,5,3,1,80,0,0
111784,-80,5,3,1,80,0,0
111810,-100,5,3,1,80,0,0
115069,-66.6666666666667,5,3,1,80,0,0
115095,-80,5,3,1,80,0,0
115121,-100,5,3,1,80,0,0
117629,-333.333333333333,5,3,1,80,0,0
117655,-58.8235294117647,5,3,1,80,0,0
117681,-100,5,3,1,80,0,0
117733,-333.333333333333,5,3,1,80,0,0
117759,-58.8235294117647,5,3,1,80,0,0
117785,-100,5,3,1,80,0,0
117836,-333.333333333333,5,3,1,80,0,0
117862,-58.8235294117647,5,3,1,80,0,0
117888,-100,5,3,1,80,0,0
117940,-333.333333333333,5,3,1,80,0,0
117966,-58.8235294117647,5,3,1,80,0,0
117992,-100,5,3,1,80,0,0
118043,-333.333333333333,5,3,1,80,0,0
118069,-58.8235294117647,5,3,1,80,0,0
118095,-100,5,3,1,80,0,0
118146,-333.333333333333,5,3,1,80,0,0
118172,-58.8235294117647,5,3,1,80,0,0
118198,-100,5,3,1,80,0,0
118250,-333.333333333333,5,3,1,80,0,0
118276,-58.8235294117647,5,3,1,80,0,0
118302,-100,5,3,1,80,0,0
118353,-333.333333333333,5,3,1,80,0,0
118379,-58.8235294117647,5,3,1,80,0,0
118405,-100,5,3,1,80,0,0
118431,-102.040816326531,5,3,1,80,0,0
118457,-104.166666666667,5,3,1,80,0,0
118483,-106.382978723404,5,3,1,80,0,0
118543,-104.166666666667,5,3,1,80,0,0
118612,-103.092783505155,5,3,1,80,0,0
118681,-102.040816326531,5,3,1,80,0,0
118750,-101.010101010101,5,3,1,80,0,0
118819,-100,5,3,1,80,0,0
118888,-99.009900990099,5,3,1,80,0,0
118957,-98.0392156862745,5,3,1,80,0,0
119026,-97.0873786407767,5,3,1,80,0,0
119095,-96.1538461538461,5,3,1,80,0,0
119164,-95.2380952380952,5,3,1,80,0,0
119233,-94.3396226415094,5,3,1,80,0,0
119284,-95.2380952380952,5,3,1,80,0,0
119336,-96.1538461538461,5,3,1,80,0,0
119388,-97.0873786407767,5,3,1,80,0,0
119440,-98.0392156862745,5,3,1,80,0,0
119491,-99.009900990099,5,3,1,80,0,0
119543,-100,5,3,1,80,0,0
119595,-101.010101010101,5,3,1,80,0,0
119646,-102.040816326531,5,3,1,80,0,0
119698,-103.092783505155,5,3,1,80,0,0
119750,-104.166666666667,5,3,1,80,0,0
119802,-105.263157894737,5,3,1,80,0,0
119853,-106.382978723404,5,3,1,80,0,0
120129,-105.263157894737,5,3,1,80,0,0
120198,-104.166666666667,5,3,1,80,0,0
120267,-103.092783505155,5,3,1,80,0,0
120336,-102.040816326531,5,3,1,80,0,0
120405,-101.010101010101,5,3,1,80,0,0
120474,-100,5,3,1,80,0,0
120543,-99.009900990099,5,3,1,80,0,0
120612,-98.0392156862745,5,3,1,80,0,0
120681,-97.0873786407767,5,3,1,80,0,0
120750,-96.1538461538461,5,3,1,80,0,0
120819,-95.2380952380952,5,3,1,80,0,0
120888,-94.3396226415094,5,3,1,80,0,0
120939,-95.2380952380952,5,3,1,80,0,0
120991,-96.1538461538461,5,3,1,80,0,0
121043,-97.0873786407767,5,3,1,80,0,0
121095,-98.0392156862745,5,3,1,80,0,0
121146,-99.009900990099,5,3,1,80,0,0
121198,-100,5,3,1,80,0,0
121250,-101.010101010101,5,3,1,80,0,0
121301,-102.040816326531,5,3,1,80,0,0
121353,-103.092783505155,5,3,1,80,0,0
121405,-104.166666666667,5,3,1,80,0,0
121457,-105.263157894737,5,3,1,80,0,0
121508,-106.382978723404,5,3,1,80,0,0
121560,-104.166666666667,5,3,1,80,0,0
121612,-102.040816326531,5,3,1,80,0,0
121664,-100,5,3,1,80,0,0
121853,-99.009900990099,5,3,1,80,0,0
121991,-98.0392156862745,5,3,1,80,0,0
122129,-97.0873786407767,5,3,1,80,0,0
122267,-96.1538461538461,5,3,1,80,0,0
122405,-95.2380952380952,5,3,1,80,0,0
122543,-94.3396226415094,5,3,1,80,0,0
122681,-95.2380952380952,5,3,1,80,0,0
122819,-96.1538461538461,5,3,1,80,0,0
122957,-97.0873786407767,5,3,1,80,0,0
123095,-98.0392156862745,5,3,1,80,0,0
123233,-99.009900990099,5,3,1,80,0,0
123371,-100,5,3,1,80,0,0
123509,-99.009900990099,5,3,1,80,0,0
123646,-98.0392156862745,5,3,1,80,0,0
123784,-97.0873786407767,5,3,1,80,0,0
123922,-96.1538461538461,5,3,1,80,0,0
124060,-95.2380952380952,5,3,1,80,0,0
124198,-94.3396226415094,5,3,1,80,0,0
124336,-93.4579439252336,5,3,1,80,0,0
124474,-92.5925925925926,5,3,1,80,0,0
124612,-91.743119266055,5,3,1,80,0,0
124750,-90.9090909090909,5,3,1,80,0,0
124784,-91.743119266055,5,3,1,80,0,0
124819,-92.5925925925926,5,3,1,80,0,0
124853,-93.4579439252336,5,3,1,80,0,0
124888,-94.3396226415094,5,3,1,80,0,0
124922,-95.2380952380952,5,3,1,80,0,0
124957,-96.1538461538461,5,3,1,80,0,0
124991,-97.0873786407767,5,3,1,80,0,0
125026,-100,5,3,1,80,0,0
131077,-400,5,3,1,80,0,0
131103,-57.1428571428571,5,3,1,80,0,0
131129,-400,5,3,1,80,0,0
131155,-57.1428571428571,5,3,1,80,0,0
131181,-400,5,3,1,80,0,0
131207,-57.1428571428571,5,3,1,80,0,0
131267,-133.333333333333,5,3,1,80,0,0
131371,-57.1428571428571,5,3,1,80,0,0
131405,-133.333333333333,5,3,1,80,0,0
131509,-400,5,3,1,80,0,0
131543,-133.333333333333,5,3,1,80,0,0
131577,-80,5,3,1,80,0,0
131612,-57.1428571428571,5,3,1,80,0,0
131646,-52.6315789473684,5,3,1,80,0,0
131681,-1000,5,3,1,80,0,0
131715,-100,5,3,1,80,0,0
132267,-52.6315789473684,5,3,1,80,0,0
132302,-1000,5,3,1,80,0,0
132336,-100,5,3,1,80,0,0
132888,-52.6315789473684,5,3,1,80,0,0
132923,-1000,5,3,1,80,0,0
132957,-100,5,3,1,80,0,0
133509,-52.6315789473684,5,3,1,80,0,0
133544,-133.333333333333,5,3,1,80,0,0
133715,-125,5,3,1,80,0,0
133741,-117.647058823529,5,3,1,80,0,0
133767,-111.111111111111,5,3,1,80,0,0
133793,-105.263157894737,5,3,1,80,0,0
133819,-100,5,3,1,80,0,0
133922,-52.6315789473684,5,3,1,80,0,0
133957,-1000,5,3,1,80,0,0
133991,-100,5,3,1,80,0,0
134543,-52.6315789473684,5,3,1,80,0,0
134578,-1000,5,3,1,80,0,0
134612,-100,5,3,1,80,0,0
134957,413.793103448276,5,3,1,80,1,0
135163,-52.6315789473684,5,3,1,80,0,0
135198,-1000,5,3,1,80,0,0
135232,-100,5,3,1,80,0,0
135784,-57.1428571428571,5,3,1,80,0,0
135819,-100,5,3,1,80,0,0
136198,-95.2380952380952,5,3,1,80,0,0
136612,-90.9090909090909,5,3,1,80,0,0
137025,413.793103448276,4,3,1,80,1,0
137025,-62.5,5,3,1,80,0,0
137060,-333.333333333333,5,3,1,80,0,0
137094,-100,5,3,1,80,0,0
137645,-62.5,5,3,1,80,0,0
137680,-333.333333333333,5,3,1,80,0,0
137714,-100,5,3,1,80,0,0
138266,-62.5,5,3,1,80,0,0
138301,-333.333333333333,5,3,1,80,0,0
138335,-100,5,3,1,80,0,0
138887,-62.5,5,3,1,80,0,0
138921,-133.333333333333,5,3,1,80,0,0
139092,-125,5,3,1,80,0,0
139118,-117.647058823529,5,3,1,80,0,0
139144,-111.111111111111,5,3,1,80,0,0
139170,-105.263157894737,5,3,1,80,0,0
139196,-100,5,3,1,80,0,0
139300,-62.5,5,3,1,80,0,0
139335,-333.333333333333,5,3,1,80,0,0
139369,-100,5,3,1,80,0,0
139921,-62.5,5,3,1,80,0,0
139956,-333.333333333333,5,3,1,80,0,0
139990,-100,5,3,1,80,0,0
140335,413.793103448276,5,3,1,80,1,0
140541,-62.5,5,3,1,80,0,0
140576,-333.333333333333,5,3,1,80,0,0
140610,-100,5,3,1,80,0,0
141162,-57.1428571428571,5,3,1,80,0,0
141197,-100,5,3,1,80,0,0
141990,-99.009900990099,5,3,1,80,0,0
142025,-98.0392156862745,5,3,1,55,0,0
142059,-97.0873786407767,5,3,1,55,0,0
142094,-96.1538461538461,5,3,1,55,0,0
142128,-95.2380952380952,5,3,1,55,0,0
142162,-93.4579439252336,5,3,1,55,0,0
142197,-91.743119266055,5,3,1,55,0,0
142231,-90.0900900900901,5,3,1,55,0,0
142266,-88.4955752212389,5,3,1,55,0,0
142300,-86.9565217391304,5,3,1,55,0,0
142403,413.793103448276,4,3,1,80,1,0
144471,-66.6666666666667,4,3,1,80,0,0
144506,-133.333333333333,4,3,1,80,0,0
144644,-66.6666666666667,4,3,1,80,0,0
144713,-133.333333333333,4,3,1,80,0,0
144954,-66.6666666666667,4,3,1,80,0,0
144989,-133.333333333333,4,3,1,80,0,0
145066,-57.1428571428571,4,3,1,80,0,0
145092,-133.333333333333,4,3,1,80,0,0
145299,-100,4,3,1,80,0,0
145713,413.793103448276,5,3,1,80,1,0
145713,-44.4444444444445,5,3,1,80,0,0
145738,-133.333333333333,5,3,1,80,0,0
145816,-125,5,3,1,80,0,0
145842,-117.647058823529,5,3,1,80,0,0
145868,-111.111111111111,5,3,1,80,0,0
145894,-105.263157894737,5,3,1,80,0,0
145919,-100,5,3,1,80,0,0
146540,-44.4444444444445,5,3,1,80,0,0
146575,-133.333333333333,5,3,1,80,0,0
146747,-44.4444444444445,5,3,1,80,0,0
146782,-133.333333333333,5,3,1,80,0,0
146850,-66.6666666666667,5,3,1,80,0,0
146884,-133.333333333333,5,3,1,80,0,0
146954,-66.6666666666667,5,3,1,80,0,0
146988,-133.333333333333,5,3,1,80,0,0
147057,-66.6666666666667,5,3,1,80,0,0
147091,-133.333333333333,5,3,1,80,0,0
147161,-66.6666666666667,5,3,1,80,0,0
147195,-133.333333333333,5,3,1,80,0,0
147368,-44.4444444444445,5,3,1,80,0,0
147403,-133.333333333333,5,3,1,80,0,0
147575,-66.6666666666667,5,3,1,80,0,0
147609,-133.333333333333,5,3,1,80,0,0
147781,413.793103448276,4,3,1,80,1,0
147781,-33.3333333333333,5,3,1,80,0,0
147816,-111.111111111111,5,3,1,80,0,0
148091,-125,5,3,1,80,0,0
148194,-66.6666666666667,4,3,1,80,0,0
148229,-133.333333333333,4,3,1,80,0,0
148298,-125,5,3,1,80,0,0
148324,-117.647058823529,5,3,1,80,0,0
148350,-111.111111111111,5,3,1,80,0,0
148376,-105.263157894737,5,3,1,80,0,0
148401,-100,5,3,1,80,0,0
148608,-66.6666666666667,4,3,1,80,0,0
148643,-133.333333333333,4,3,1,80,0,0
148815,-44.4444444444445,5,3,1,80,0,0
148850,-133.333333333333,5,3,1,80,0,0
149022,-66.6666666666667,4,3,1,80,0,0
149057,-133.333333333333,4,3,1,80,0,0
149229,-105.263157894737,4,3,1,80,0,0
149436,-111.111111111111,4,3,1,80,0,0
149643,-117.647058823529,4,3,1,80,0,0
149849,-66.6666666666667,4,3,1,80,0,0
149884,-133.333333333333,4,3,1,80,0,0
150022,-66.6666666666667,4,3,1,80,0,0
150056,-100,4,3,1,80,0,0
150367,-133.333333333333,4,3,1,80,0,0
150444,-57.1428571428571,4,3,1,80,0,0
150505,-133.333333333333,4,3,1,80,0,0
150677,-100,4,3,1,80,0,0
151091,413.793103448276,5,3,1,80,1,0
151091,-125,5,3,1,80,0,0
151116,-123.456790123457,5,3,1,80,0,0
151142,-120.481927710843,5,3,1,80,0,0
151168,-117.647058823529,5,3,1,80,0,0
151194,-114.942528735632,5,3,1,80,0,0
151220,-112.359550561798,5,3,1,80,0,0
151246,-109.89010989011,5,3,1,80,0,0
151272,-107.52688172043,5,3,1,80,0,0
151297,-105.263157894737,5,3,1,80,0,0
151349,-104.166666666667,5,3,1,80,0,0
151401,-103.092783505155,5,3,1,80,0,0
152073,-104.166666666667,5,3,1,80,0,0
152125,-105.263157894737,5,3,1,80,0,0
152228,-107.52688172043,5,3,1,80,0,0
152332,-109.89010989011,5,3,1,80,0,0
152435,-112.359550561798,5,3,1,80,0,0
152539,-114.942528735632,5,3,1,80,0,0
152642,-117.647058823529,5,3,1,80,0,0
152746,-20,5,3,1,80,0,0
152772,-133.333333333333,5,3,1,80,0,0
152815,-80,5,3,1,80,0,0
152884,-133.333333333333,5,3,1,80,0,0
152953,-80,5,3,1,80,0,0
153022,-133.333333333333,5,3,1,80,0,0
153091,-80,5,3,1,80,0,0
153159,413.793103448276,4,3,1,80,1,0
153159,-95.2380952380952,4,3,1,80,0,0
154607,-96.1538461538461,4,3,1,80,0,0
154659,-97.0873786407767,4,3,1,80,0,0
154710,-98.0392156862745,4,3,1,80,0,0
154762,-99.009900990099,4,3,1,80,0,0
154814,-100,4,3,1,80,0,0
155952,-104.166666666667,4,3,1,80,0,0
156055,-108.695652173913,4,3,1,80,0,0
156081,-108.695652173913,4,3,1,45,0,0
156469,-100,4,3,1,80,0,0
158538,-57.1428571428571,4,3,1,80,0,0
158590,-400,4,3,1,80,0,0
158641,-100,4,3,1,80,0,0
158848,-57.1428571428571,4,3,1,80,0,0
158900,-400,4,3,1,80,0,0
158951,-100,4,3,1,80,0,0
159159,-57.1428571428571,4,3,1,80,0,0
159211,-400,4,3,1,80,0,0
159262,-112.359550561798,4,3,1,80,0,0
159365,-100,4,3,1,80,0,0
159779,-80,4,3,1,80,0,0
159831,-100,4,3,1,80,0,0
162676,-102.040816326531,4,3,1,80,0,0
162779,-104.166666666667,4,3,1,80,0,0
162883,-106.382978723404,4,3,1,80,0,0
162986,-108.695652173913,4,3,1,80,0,0
163296,-57.1428571428571,4,3,1,80,0,0
163348,-100,4,3,1,80,0,0
164952,-66.6666666666667,4,3,1,80,0,0
165004,-100,4,3,1,80,0,0
165986,-57.1428571428571,4,3,1,80,0,0
166021,-133.333333333333,4,3,1,80,0,0
166124,-57.1428571428571,4,3,1,80,0,0
166159,-133.333333333333,4,3,1,80,0,0
166262,-57.1428571428571,4,3,1,80,0,0
166296,-133.333333333333,4,3,1,80,0,0
166400,-100,4,3,1,80,0,0
174676,416.666666666667,4,3,1,80,1,0
174676,-99.3103448275861,4,3,1,80,0,0
176342,413.793103448276,4,3,1,80,1,0
179238,-62.5,4,3,1,80,0,0
179273,-125,4,3,1,80,0,0
179376,-62.5,4,3,1,80,0,0
179411,-125,4,3,1,80,0,0
179514,-62.5,4,3,1,80,0,0
179548,-125,4,3,1,80,0,0
179652,437.956204379562,3,3,1,80,1,0
179652,-100,3,3,1,80,0,0
179870,-101.010101010101,3,3,1,25,0,0
180089,-102.040816326531,3,3,1,25,0,0
180308,-103.092783505155,3,3,1,25,0,0
180527,-104.166666666667,3,3,1,25,0,0
180746,-105.263157894737,3,3,1,25,0,0
180965,-106.382978723404,3,3,1,25,0,0
181184,-107.52688172043,3,3,1,25,0,0
181403,-108.695652173913,3,3,1,25,0,0
181622,-109.89010989011,3,3,1,25,0,0
181841,-111.111111111111,3,3,1,25,0,0
182060,-112.359550561798,3,3,1,25,0,0
182279,-113.636363636364,3,3,1,25,0,0
182498,-114.942528735632,3,3,1,25,0,0
182717,-116.279069767442,3,3,1,25,0,0
182936,-117.647058823529,3,3,1,25,0,0
183155,-119.047619047619,3,3,1,25,0,0
183374,-120.481927710843,3,3,1,25,0,0
183593,-121.951219512195,3,3,1,30,0,0
183812,-123.456790123457,3,3,1,30,0,0
184031,-125,3,3,1,30,0,0
184250,-126.582278481013,3,3,1,30,0,0
184469,-128.205128205128,3,3,1,30,0,0
184688,-129.87012987013,3,3,1,30,0,0
184907,-131.578947368421,3,3,1,35,0,0
185126,-133.333333333333,3,3,1,35,0,0
185345,-135.135135135135,3,3,1,35,0,0
185564,-136.986301369863,3,3,1,35,0,0
185783,-138.888888888889,3,3,1,35,0,0
186002,-140.845070422535,3,3,1,35,0,0
186221,-142.857142857143,3,3,1,40,0,0
189943,-138.888888888889,3,3,1,50,0,0
189998,-135.135135135135,3,3,1,50,0,0
190053,-131.578947368421,3,3,1,50,0,0
190108,-128.205128205128,3,3,1,50,0,0
190162,-125,3,3,1,50,0,0
190217,-123.456790123457,3,3,1,50,0,0
190272,-121.951219512195,3,3,1,50,0,0
190327,-120.481927710843,3,3,1,50,0,0
190381,-119.047619047619,3,3,1,50,0,0
190436,-117.647058823529,3,3,1,50,0,0
200454,-116.279069767442,3,3,1,50,0,0
200564,-114.942528735632,3,3,1,50,0,0
200673,-113.636363636364,3,3,1,50,0,0
200783,-112.359550561798,3,3,1,50,0,0
200892,-111.111111111111,3,3,1,50,0,0
219615,-109.89010989011,3,3,1,50,0,0
219724,-108.695652173913,3,3,1,50,0,0
219834,-107.52688172043,3,3,1,50,0,0
219943,-106.382978723404,3,3,1,50,0,0
220053,-105.263157894737,3,3,1,50,0,0
220162,-104.166666666667,3,3,1,50,0,0
220272,-103.092783505155,3,3,1,50,0,0
220381,-102.040816326531,3,3,1,50,0,0
220491,-101.010101010101,3,3,1,50,0,0
220600,-100,3,3,1,50,0,0
220710,-99.009900990099,3,3,1,50,0,0
220819,-98.0392156862745,3,3,1,50,0,0
220929,-97.0873786407767,3,3,1,50,0,0
221038,-95.2380952380952,3,3,1,53,0,0
221148,-94.3396226415094,3,3,1,57,0,0
221257,-93.4579439252336,3,3,1,62,0,0
221367,-92.5925925925926,3,3,1,68,0,0
221476,-91.743119266055,3,3,1,73,0,0
221558,-90.9090909090909,3,3,1,77,0,0
221613,-86.9565217391304,3,3,1,80,0,0
221668,-83.3333333333333,3,3,1,80,0,0
221695,-100,3,3,1,80,0,0
224323,437.956204379562,5,3,1,80,1,0
224323,-100,5,3,1,80,0,0
225928,-104.166666666667,5,3,1,80,0,0
226074,-108.695652173913,5,3,1,80,0,0
226220,-113.636363636364,5,3,1,80,0,0
226366,-119.047619047619,5,3,1,80,0,0
226512,437.956204379562,3,3,1,80,1,0
226512,-94.3396226415094,3,3,1,80,0,0
226730,-95.2380952380952,3,3,1,80,0,0
226949,-96.1538461538461,3,3,1,80,0,0
227168,-97.0873786407767,3,3,1,80,0,0
227387,-98.0392156862745,3,3,1,80,0,0
227606,-99.009900990099,3,3,1,80,0,0
227825,-100,3,3,1,80,0,0
229139,437.956204379562,5,3,1,80,1,0
229139,-100,5,3,1,80,0,0
231328,437.956204379562,3,3,1,80,1,0
231328,-66.6666666666667,3,3,1,80,0,0
231356,-90.9090909090909,3,3,1,80,0,0
231410,-95.2380952380952,3,3,1,80,0,0
231493,-100,3,3,1,80,0,0
233955,437.956204379562,5,3,1,80,1,0
233955,-100,5,3,1,80,0,0
235560,-104.166666666667,5,3,1,80,0,0
235706,-108.695652173913,5,3,1,80,0,0
235852,-113.636363636364,5,3,1,80,0,0
235998,-119.047619047619,5,3,1,80,0,0
236071,-108.695652173913,5,3,1,80,0,0
236144,437.956204379562,3,3,1,80,1,0
236144,-96.1538461538461,3,3,1,80,0,0
236581,-97.0873786407767,3,3,1,80,0,0
237019,-98.0392156862745,3,3,1,80,0,0
237457,-99.009900990099,3,3,1,80,0,0
237895,-100,3,3,1,80,0,0
238771,437.956204379562,5,3,1,80,1,0
238771,-100,5,3,1,80,0,0
239208,444.444444444444,5,3,1,80,1,0
239208,-98.0392156862745,5,3,1,80,0,0
239652,487.80487804878,5,3,1,80,1,0
239652,-92.5925925925926,5,3,1,80,0,0
240139,508.474576271186,5,3,1,80,1,0
240139,-92.5925925925926,5,3,1,80,0,0
240647,550.45871559633,5,3,1,80,1,0
240647,-88.4955752212389,5,3,1,80,0,0
240784,-90.9090909090909,5,3,1,80,0,0
240922,582.52427184466,5,3,1,80,1,0
240922,-90.9090909090909,5,3,1,80,0,0
241067,-93.4579439252336,5,3,1,80,0,0
241213,352.941176470588,4,3,1,80,1,0
241213,-74.0740740740741,4,3,1,80,0,0
241257,-285.714285714286,4,3,1,80,0,0
241301,-117.241379310345,4,3,1,80,0,0
241389,-120.481927710843,4,3,1,80,0,0
242448,352.941176470588,4,3,1,80,1,0
242448,-74.0740740740741,4,3,1,80,0,0
242492,-285.714285714286,4,3,1,80,0,0
242536,-117.241379310345,4,3,1,80,0,0
242624,-125,4,3,1,80,0,0
243683,352.941176470588,4,3,1,80,1,0
243683,-74.0740740740741,4,3,1,80,0,0
243727,-285.714285714286,4,3,1,80,0,0
243771,-117.241379310345,4,3,1,80,0,0
243859,-120.481927710843,4,3,1,80,0,0
246153,-114.942528735632,4,3,1,80,0,0
246329,352.941176470588,4,3,1,80,1,0
246329,-74.0740740740741,4,3,1,80,0,0
246373,-285.714285714286,4,3,1,80,0,0
246417,-117.241379310345,4,3,1,80,0,0
246505,-120.481927710843,4,3,1,80,0,0
247564,352.941176470588,4,3,1,80,1,0
247564,-74.0740740740741,4,3,1,80,0,0
247608,-285.714285714286,4,3,1,80,0,0
247652,-117.241379310345,4,3,1,80,0,0
247740,-125,4,3,1,80,0,0
248799,352.941176470588,4,3,1,80,1,0
248799,-74.0740740740741,4,3,1,80,0,0
248843,-285.714285714286,4,3,1,80,0,0
248887,-117.241379310345,4,3,1,80,0,0
248975,-120.481927710843,4,3,1,80,0,0
250563,-114.942528735632,4,3,1,80,0,0
250651,-116.279069767442,4,3,1,80,0,0
250740,-117.647058823529,4,3,1,80,0,0
251004,-116.279069767442,4,3,1,80,0,0
251093,-114.942528735632,4,3,1,80,0,0
251181,-113.636363636364,4,3,1,80,0,0
251269,-112.359550561798,4,3,1,80,0,0
251357,-111.111111111111,4,3,1,80,0,0
251445,352.941176470588,4,3,1,80,1,0
251445,-117.241379310345,4,3,1,80,0,0
252680,352.941176470588,4,3,1,80,1,0
252680,-142.857142857143,4,3,1,80,0,0
252768,-100,4,3,1,80,0,0
252856,-117.241379310345,4,3,1,80,0,0
253915,352.941176470588,4,3,1,80,1,0
253915,-142.857142857143,4,3,1,80,0,0
254003,-100,4,3,1,80,0,0
254091,-117.241379310345,4,3,1,80,0,0
255150,-114.942528735632,4,3,1,80,0,0
255326,-117.647058823529,4,3,1,80,0,0
255503,-120.481927710843,4,3,1,80,0,0
255679,-119.047619047619,4,3,1,80,0,0
255856,-116.279069767442,4,3,1,80,0,0
256032,-117.647058823529,4,3,1,80,0,0
256561,352.941176470588,4,3,1,80,1,0
256561,-117.241379310345,4,3,1,80,0,0
257796,352.941176470588,4,3,1,80,1,0
257796,-142.857142857143,4,3,1,80,0,0
257884,-100,4,3,1,80,0,0
257972,-117.241379310345,4,3,1,80,0,0
259031,352.941176470588,4,3,1,80,1,0
259031,-142.857142857143,4,3,1,80,0,0
259119,-100,4,3,1,80,0,0
259207,-117.241379310345,4,3,1,80,0,0
260883,-116.279069767442,4,3,1,80,0,0
260972,-114.942528735632,4,3,1,80,0,0
261060,-113.636363636364,4,3,1,80,0,0
261148,-112.359550561798,4,3,1,80,0,0
261236,-111.111111111111,4,3,1,80,0,0
261325,-109.89010989011,4,3,1,80,0,0
261413,-108.695652173913,4,3,1,80,0,0
261501,-107.52688172043,4,3,1,80,0,0
261589,-106.382978723404,4,3,1,80,0,0
261677,352.941176470588,4,3,1,80,1,0
261677,-114.942528735632,4,3,1,80,0,0
262912,352.941176470588,4,3,1,80,1,0
262912,-114.942528735632,4,3,1,80,0,0
264147,352.941176470588,4,3,1,80,1,0
264147,-114.942528735632,4,3,1,80,0,0
265558,-117.647058823529,4,3,1,80,0,0
265735,-120.481927710843,4,3,1,80,0,0
265911,-119.047619047619,4,3,1,80,0,0
266088,-116.279069767442,4,3,1,80,0,0
266264,-117.647058823529,4,3,1,80,0,0
266793,352.941176470588,4,3,1,80,1,0
266793,-114.942528735632,4,3,1,80,0,0
268028,352.941176470588,3,3,1,80,1,0
268028,-116.279069767442,3,3,1,80,0,0
269086,359.281437125748,4,3,1,80,1,0
269086,-115.172413793104,4,3,1,80,0,0
269445,365.853658536585,4,3,1,80,1,0
269445,-114.942528735632,4,3,1,80,0,0
269810,375,4,3,1,80,1,0
269810,-113.636363636364,4,3,1,80,0,0
270185,413.793103448276,4,3,1,80,1,0
270391,413.793103448276,4,3,1,80,1,0
270391,-66.6666666666667,4,3,1,80,0,0
270416,-107.52688172043,4,3,1,80,0,0
270597,-66.6666666666667,4,3,1,80,0,0
270622,-107.52688172043,4,3,1,80,0,0
270804,-66.6666666666667,4,3,1,80,0,0
270829,-107.52688172043,4,3,1,80,0,0
271425,-50,4,3,1,80,0,0
271450,-107.52688172043,4,3,1,80,0,0
271631,-66.6666666666667,4,3,1,80,0,0
271656,-107.52688172043,4,3,1,80,0,0
271838,-66.6666666666667,4,3,1,80,0,0
271863,-107.52688172043,4,3,1,80,0,0
272046,-50,4,3,1,80,0,0
272071,-106.382978723404,4,3,1,80,0,0
272252,-66.6666666666667,4,3,1,80,0,0
272277,-106.382978723404,4,3,1,80,0,0
272459,-66.6666666666667,4,3,1,80,0,0
272484,-106.382978723404,4,3,1,80,0,0
273080,-104.166666666667,4,3,1,80,0,0
273235,-1000,4,3,1,80,0,0
273365,-19.0114068441065,4,3,1,80,0,0
273391,-102.040816326531,4,3,1,80,0,0
273546,-1000,4,3,1,80,0,0
273675,-18.5873605947955,4,3,1,80,0,0
273701,-100,4,3,1,80,0,1
279546,-1000,4,3,1,80,0,1
279572,-50,4,3,1,80,0,1
279597,-100,4,3,1,80,0,1
279649,-1000,4,3,1,80,0,1
279675,-50,4,3,1,80,0,1
279700,-100,4,3,1,80,0,1
279753,-1000,4,3,1,80,0,1
279779,-47.6190476190476,4,3,1,80,0,1
279804,-100,4,3,1,60,0,1
279856,-1000,4,3,1,60,0,1
279882,-47.6190476190476,4,3,1,60,0,1
279907,-100,4,3,1,60,0,1
279960,-1000,4,3,1,60,0,1
279986,-45.4545454545455,4,3,1,60,0,1
280011,-100,4,3,1,60,0,1
280063,-1000,4,3,1,60,0,1
280089,-43.4782608695652,4,3,1,60,0,1
280114,-100,4,3,1,60,0,1
280166,-1000,4,3,1,60,0,1
280192,-43.4782608695652,4,3,1,60,0,1
280217,-100,4,3,1,60,0,1
280270,-1000,4,3,1,60,0,1
280296,-40,4,3,1,60,0,1
280321,-100,4,3,1,80,0,1
286425,-102.040816326531,4,3,1,80,0,1
286528,-104.166666666667,4,3,1,70,0,1
286632,-106.382978723404,4,3,1,70,0,1
286735,-108.695652173913,4,3,1,70,0,1
286838,-111.111111111111,4,3,1,70,0,1
286942,413.793103448276,7,3,1,80,1,0
286942,-90.9090909090909,7,3,1,80,0,0
287148,-91.743119266055,7,3,1,80,0,0
287355,-92.5925925925926,7,3,1,80,0,0
287562,-93.4579439252336,7,3,1,80,0,0
287769,-94.3396226415094,7,3,1,80,0,0
288079,-95.2380952380952,7,3,1,80,0,0
288390,-96.1538461538461,7,3,1,80,0,0
288597,-97.0873786407767,7,3,1,80,0,0
288804,-98.0392156862745,7,3,1,80,0,0
289010,-99.009900990099,7,3,1,80,0,0
289217,-100,7,3,1,80,0,0
290976,-101.010101010101,7,3,1,80,0,0
291028,-102.040816326531,7,3,1,80,0,0
291079,-104.166666666667,7,3,1,80,0,0
291131,-107.52688172043,7,3,1,80,0,0
291183,-73.5294117647059,5,3,1,80,0,0
291217,-142.857142857143,5,3,1,80,0,0
291286,413.793103448276,4,3,1,80,1,0
291286,-73.5294117647059,5,3,1,80,0,0
291320,-149.253731343284,5,3,1,80,0,0
291389,-73.5294117647059,5,3,1,80,0,0
291423,-149.253731343284,5,3,1,80,0,0
291492,-73.5294117647059,5,3,1,80,0,0
291526,-149.253731343284,5,3,1,80,0,0
291596,-50,5,3,1,80,0,0
291630,-149.253731343284,5,3,1,80,0,0
291906,-73.5294117647059,5,3,1,80,0,0
291940,-149.253731343284,5,3,1,80,0,0
292010,-73.5294117647059,5,3,1,80,0,0
292044,-149.253731343284,5,3,1,80,0,0
292113,-73.5294117647059,5,3,1,80,0,0
292147,-149.253731343284,5,3,1,80,0,0
292217,-50,5,3,1,80,0,0
292251,-149.253731343284,5,3,1,80,0,0
292527,-73.5294117647059,5,3,1,80,0,0
292561,-149.253731343284,5,3,1,80,0,0
292630,-73.5294117647059,5,3,1,80,0,0
292664,-149.253731343284,5,3,1,80,0,0
292734,-73.5294117647059,5,3,1,80,0,0
292768,-149.253731343284,5,3,1,80,0,0
292837,-47.6190476190476,5,3,1,80,0,0
292871,-333.333333333333,5,3,1,80,0,0
292941,413.793103448276,5,3,1,80,1,0
292941,-73.5294117647059,5,3,1,80,0,0
292975,-149.253731343284,5,3,1,80,0,0
293044,-73.5294117647059,5,3,1,80,0,0
293078,-149.253731343284,5,3,1,80,0,0
293148,-73.5294117647059,5,3,1,80,0,0
293182,-149.253731343284,5,3,1,80,0,0
293251,-73.5294117647059,5,3,1,80,0,0
293285,-149.253731343284,5,3,1,80,0,0
293354,-33.3333333333333,5,3,1,80,0,0
293388,-149.253731343284,5,3,1,80,0,0
293664,-73.5294117647059,5,3,1,80,0,0
293698,-149.253731343284,5,3,1,80,0,0
293767,-73.5294117647059,5,3,1,80,0,0
293801,-149.253731343284,5,3,1,80,0,0
293871,-73.5294117647059,5,3,1,80,0,0
293905,-149.253731343284,5,3,1,80,0,0
293974,-66.6666666666667,5,3,1,80,0,0
294009,-100,5,3,1,80,0,0
294078,-83.3333333333333,5,3,1,80,0,0
294112,-133.333333333333,5,3,1,80,0,0
294181,-88.4955752212389,5,3,1,80,0,0
294250,-149.253731343284,5,3,1,80,0,0
294319,-88.4955752212389,5,3,1,80,0,0
294388,-149.253731343284,5,3,1,80,0,0
294457,-71.4285714285714,5,3,1,80,0,0
294526,-250,5,3,1,80,0,0
294595,-76.9230769230769,5,3,1,80,0,0
294664,-181.818181818182,5,3,1,80,0,0
294733,-83.3333333333333,5,3,1,80,0,0
294802,-133.333333333333,5,3,1,80,0,0
294871,-86.9565217391304,5,3,1,80,0,0
294940,-121.951219512195,5,3,1,80,0,0
295009,437.956204379562,5,3,1,80,1,0
295009,-33.3333333333333,5,3,1,80,0,0
295036,-100,5,3,1,80,0,0
295665,-33.3333333333333,5,3,1,80,0,0
295692,-100,5,3,1,80,0,0
296322,-33.3333333333333,5,3,1,80,0,0
296349,-100,5,3,1,80,0,0
296760,-50,5,3,1,80,0,0
296787,-100,5,3,1,80,0,0
297198,-33.3333333333333,5,3,1,80,0,0
297225,-200,5,3,1,80,0,0
297280,-100,5,3,1,80,0,0
297855,-33.3333333333333,5,3,1,80,0,0
297882,-200,5,3,1,80,0,0
297937,-100,5,3,1,80,0,0
298512,-33.3333333333333,5,3,1,80,0,0
298539,-200,5,3,1,80,0,0
298594,-100,5,3,1,80,0,0
298950,-50,5,3,1,80,0,0
298977,-133.333333333333,5,3,1,80,0,0
299032,-100,5,3,1,80,0,0
299388,-94.3396226415094,5,3,1,80,0,0
299717,-66.6666666666667,5,3,1,80,0,0
299744,-500,5,3,1,80,0,0
299799,-42.7350427350427,5,3,1,80,0,0
299826,-94.3396226415094,5,3,1,80,0,0
300373,-66.6666666666667,5,3,1,80,0,0
300400,-500,5,3,1,80,0,0
300455,-42.7350427350427,5,3,1,80,0,0
300482,-94.3396226415094,5,3,1,80,0,0
301030,-66.6666666666667,5,3,1,80,0,0
301057,-500,5,3,1,80,0,0
301112,-42.7350427350427,5,3,1,80,0,0
301139,-94.3396226415094,5,3,1,80,0,0
301578,437.956204379562,6,3,1,80,1,0
301578,-94.4827586206897,6,3,1,80,0,0
301906,-66.6666666666667,5,3,1,80,0,0
301933,-500,5,3,1,80,0,0
301988,-42.7350427350427,5,3,1,80,0,0
302015,-94.3396226415094,5,3,1,80,0,0
302563,-66.6666666666667,5,3,1,80,0,0
302590,-500,5,3,1,80,0,0
302645,-42.7350427350427,5,3,1,80,0,0
302672,-94.3396226415094,5,3,1,80,0,0
303220,-66.6666666666667,5,3,1,80,0,0
303247,-500,5,3,1,80,0,0
303302,-42.7350427350427,5,3,1,80,0,0
303329,-94.3396226415094,5,3,1,80,0,0
303767,-133.333333333333,6,3,1,80,0,0
303795,-129.87012987013,6,3,1,80,0,0
303822,-126.582278481013,6,3,1,80,0,0
303849,-123.456790123457,6,3,1,80,0,0
303877,-120.481927710843,6,3,1,80,0,0
303904,-117.647058823529,6,3,1,80,0,0
303932,-113.636363636364,6,3,1,80,0,0
303959,-109.89010989011,6,3,1,80,0,0
303986,-106.382978723404,6,3,1,80,0,0
304014,-103.092783505155,6,3,1,80,0,0
304041,-100,6,3,1,80,0,0
304068,-97.0873786407767,6,3,1,80,0,0
304096,-94.3396226415094,6,3,1,80,0,0
304123,-91.743119266055,6,3,1,80,0,0
304150,-89.2857142857143,6,3,1,80,0,0
304178,-86.9565217391304,6,3,1,80,0,0
304205,437.956204379562,5,3,1,80,1,0
304205,-94.4827586206897,5,3,1,80,0,0
306175,-64.168618266979,5,3,1,80,0,0
306212,-179.084967320262,5,3,1,80,0,0
306248,-94.4827586206897,5,3,1,80,0,0
306285,-64.168618266979,5,3,1,80,0,0
306322,-179.084967320262,5,3,1,80,0,0
306358,-94.4827586206897,5,3,1,80,0,0
310555,-64.168618266979,5,3,1,80,0,0
310592,-179.084967320262,5,3,1,80,0,0
310628,-94.4827586206897,5,3,1,80,0,0
310664,-64.168618266979,5,3,1,80,0,0
310701,-179.084967320262,5,3,1,80,0,0
310737,-94.4827586206897,5,3,1,80,0,0
311212,444.444444444444,5,3,1,80,1,0
311212,-93.1034482758622,5,3,1,80,0,0
311656,437.956204379562,5,3,1,80,1,0
311656,-94.4827586206897,5,3,1,80,0,0
312093,461.538461538462,5,3,1,80,1,0
312093,-89.655172413793,5,3,1,80,0,0
312554,487.80487804878,5,3,1,80,1,0
312554,-84.8275862068966,5,3,1,80,0,0
313041,521.739130434783,4,3,1,90,1,0
313041,-53.7383177570094,4,3,1,90,0,0
313084,-68.452380952381,4,3,1,90,0,0
313127,-94.2622950819673,4,3,1,90,0,0
313171,-151.315789473684,4,3,1,90,0,0
313214,-53.7383177570094,4,3,1,90,0,0
313257,-68.452380952381,4,3,1,90,0,0
313300,-94.2622950819673,4,3,1,90,0,0
313344,-151.315789473684,4,3,1,90,0,0
313388,-53.7383177570094,4,3,1,90,0,0
313431,-68.452380952381,4,3,1,90,0,0
313474,-94.2622950819673,4,3,1,90,0,0
313518,-151.315789473684,4,3,1,90,0,0
313562,600,4,3,1,80,1,0
313562,-33.3333333333333,4,3,1,80,0,0
313612,-71.4285714285714,4,3,1,70,0,0
314162,705.882352941176,4,3,1,85,1,0
314162,-33.3333333333333,4,3,1,85,0,0
314220,-62.5,4,3,1,75,0,0
314867,857.142857142857,4,3,1,90,1,0
314867,-33.3333333333333,4,3,1,90,0,0
314938,-55.5555555555556,4,3,1,80,0,0
315724,413.793103448276,4,3,1,80,1,0
315724,-33.3333333333333,4,3,1,80,0,0
315758,-100,4,3,1,80,0,0
316939,-100,4,3,1,60,0,0
316965,-125,4,3,1,60,0,0
317172,-33.3333333333333,4,3,1,80,0,0
317206,-100,4,3,1,80,0,0
318620,-113.636363636364,4,3,1,80,0,0
318724,-116.279069767442,4,3,1,80,0,0
318827,-119.047619047619,4,3,1,80,0,0
318930,-121.951219512195,4,3,1,80,0,0
319034,-33.3333333333333,4,3,1,80,0,0
319068,-100,4,3,1,80,0,0
320249,-100,4,3,1,60,0,0
320275,-125,4,3,1,60,0,0
320482,-33.3333333333333,4,3,1,80,0,0
320516,-100,4,3,1,80,0,0
321103,-111.111111111111,4,3,1,80,0,0
321310,-50,4,3,1,80,0,0
321344,-100,4,3,1,80,0,0
321724,-117.647058823529,4,3,1,80,0,0
321827,-114.942528735632,4,3,1,80,0,0
321930,-112.359550561798,4,3,1,80,0,0
322034,-109.89010989011,4,3,1,80,0,0
322137,-107.52688172043,4,3,1,80,0,0
322241,-105.263157894737,4,3,1,80,0,0
322344,-33.3333333333333,4,3,1,80,0,0
322378,-100,4,3,1,80,0,0
323560,-100,4,3,1,60,0,0
323585,-125,4,3,1,60,0,0
323792,-33.3333333333333,4,3,1,80,0,0
323826,-100,4,3,1,80,0,0
325240,-113.636363636364,4,3,1,80,0,0
325344,-116.279069767442,4,3,1,80,0,0
325447,-119.047619047619,4,3,1,80,0,0
325550,-121.951219512195,4,3,1,80,0,0
325654,-33.3333333333333,4,3,1,80,0,0
325688,-100,4,3,1,80,0,0
326870,-100,4,3,1,60,0,0
326895,-125,4,3,1,60,0,0
327102,-33.3333333333333,4,3,1,80,0,0
327136,-100,4,3,1,80,0,0
327723,-111.111111111111,4,3,1,80,0,0
327930,-50,4,3,1,80,0,0
327964,-100,4,3,1,80,0,0
328344,-95.2380952380952,4,3,1,80,0,0
328447,-90.9090909090909,4,3,1,80,0,0
328965,-40,4,3,1,80,0,0
328999,-100,4,3,1,80,0,0
329379,-100,4,3,1,60,0,0
330206,-125,4,3,1,60,0,0
330232,-125,4,3,1,80,0,0
330413,-40,4,3,1,80,0,0
330447,-100,4,3,1,80,0,0
331861,-113.636363636364,4,3,1,80,0,0
331965,-116.279069767442,4,3,1,80,0,0
332068,-119.047619047619,4,3,1,80,0,0
332171,-121.951219512195,4,3,1,80,0,0
332275,-40,4,3,1,80,0,0
332309,-100,4,3,1,80,0,0
333413,-100,4,3,1,45,0,0
333465,-111.111111111111,4,3,1,65,0,0
333516,-125,4,3,1,80,0,0
333723,-50,4,3,1,80,0,0
333757,-100,4,3,1,80,0,0
334344,-111.111111111111,4,3,1,80,0,0
334551,-40,4,3,1,80,0,0
334585,-100,4,3,1,80,0,0
334965,-117.647058823529,4,3,1,80,0,0
335068,-114.942528735632,4,3,1,80,0,0
335171,-112.359550561798,4,3,1,80,0,0
335275,-109.89010989011,4,3,1,80,0,0
335378,-107.52688172043,4,3,1,80,0,0
335482,-105.263157894737,4,3,1,80,0,0
335585,-40,4,3,1,80,0,0
335619,-100,4,3,1,80,0,0
336826,-125,4,3,1,80,0,0
337033,-40,4,3,1,80,0,0
337067,-100,4,3,1,80,0,0
338481,-113.636363636364,4,3,1,80,0,0
338585,-116.279069767442,4,3,1,80,0,0
338688,-119.047619047619,4,3,1,80,0,0
338791,-121.951219512195,4,3,1,80,0,0
338895,-40,4,3,1,80,0,0
338929,-100,4,3,1,80,0,0
340034,-100,4,3,1,45,0,0
340086,-111.111111111111,4,3,1,65,0,0
340136,-125,4,3,1,80,0,0
340343,-40,4,3,1,80,0,0
340377,-100,4,3,1,80,0,0
340964,-111.111111111111,4,3,1,80,0,0
341171,-50,4,3,1,80,0,0
341205,-100,4,3,1,80,0,0
341585,-105.263157894737,4,3,1,80,0,0
341688,-111.111111111111,4,3,1,80,0,0
342206,-33.3333333333333,4,3,1,80,0,0
342232,-100,4,3,1,80,0,0
343448,-125,4,3,1,80,0,0
343654,-20,4,3,1,80,0,0
343664,-100,4,3,1,80,0,0
345102,-107.52688172043,4,3,1,80,0,0
345206,-116.279069767442,4,3,1,80,0,0
345309,-126.582278481013,4,3,1,60,0,0
345378,-116.279069767442,4,3,1,65,0,0
345447,-107.52688172043,4,3,1,69,0,0
345516,-28.5714285714286,4,3,1,80,0,0
345526,-100,4,3,1,80,0,0
346758,-125,4,3,1,80,0,0
346964,-50,4,3,1,80,0,0
346974,-100,4,3,1,80,0,0
347792,-33.3333333333333,4,3,1,80,0,0
347802,-100,4,3,1,80,0,0
348516,-98.0392156862745,4,3,1,80,0,0
348620,-96.1538461538461,4,3,1,80,0,0
348723,-94.3396226415094,4,3,1,80,0,0
348827,-33.3333333333333,4,3,1,80,0,0
348837,-100,4,3,1,80,0,0
350068,-111.111111111111,4,3,1,80,0,0
350275,-100,4,3,1,80,0,0
351723,-108.695652173913,4,3,1,80,0,0
351930,-75.7575757575758,4,3,1,80,0,0
351982,-192.307692307692,4,3,1,80,0,0
352033,-62.5,4,3,1,80,0,0
352085,-250,4,3,1,80,0,0
352137,-28.5714285714286,4,3,1,80,0,0
352147,-100,4,3,1,80,0,0
353327,-100,4,3,1,65,0,0
353379,-125,4,3,1,80,0,0
353585,-25,4,3,1,80,0,0
353595,-100,4,3,1,80,0,0
353974,-100,4,3,1,65,0,0
353999,-100,4,3,1,80,0,0
354413,-33.3333333333333,4,3,1,80,0,0
354423,-100,4,3,1,80,0,0
354620,472.44094488189,4,3,1,80,1,0
354620,-95.2380952380952,4,3,1,80,0,0
355092,530.973451327434,4,3,1,80,1,0
355092,-50,4,3,1,80,0,0
355136,-80,4,3,1,80,0,0
355180,-133.333333333333,4,3,1,80,0,0
355224,-200,4,3,1,80,0,0
355268,-50,4,3,1,80,0,0
355312,-80,4,3,1,80,0,0
355356,-133.333333333333,4,3,1,80,0,0
355400,-200,4,3,1,80,0,0
355445,-57.1428571428571,4,3,1,80,0,0
355489,-80,4,3,1,80,0,0
355533,-133.333333333333,4,3,1,80,0,0
355577,-200,4,3,1,80,0,0
355622,315.789473684211,4,3,1,70,1,0
355622,-142.857142857143,4,3,1,70,0,0
355700,333.333333333333,4,3,1,35,1,0
355700,-142.857142857143,4,3,1,35,0,0
355741,324.324324324324,4,3,1,40,1,0
355741,-142.857142857143,4,3,1,40,0,0
355842,315.789473684211,4,3,1,40,1,0
355842,-142.857142857143,4,3,1,40,0,0
355960,300,4,3,1,45,1,0
355960,-142.857142857143,4,3,1,45,0,0
356072,333.333333333333,4,3,1,60,1,0
356072,-142.857142857143,4,3,1,60,0,0
356155,300,4,3,1,60,1,0
356155,-142.857142857143,4,3,1,60,0,0
356230,324.324324324324,4,3,1,40,1,0
356230,-142.857142857143,4,3,1,40,0,0
356311,307.692307692308,4,3,1,50,1,0
356311,-142.857142857143,4,3,1,50,0,0
356387,300,4,3,1,40,1,0
356387,-142.857142857143,4,3,1,40,0,0
356462,307.692307692308,4,3,1,45,1,0
356462,-142.857142857143,4,3,1,45,0,0
356538,324.324324324324,4,3,1,45,1,0
356538,-142.857142857143,4,3,1,45,0,0
356619,315.789473684211,4,3,1,40,1,0
356619,-142.857142857143,4,3,1,40,0,0
356697,285.714285714286,4,3,1,50,1,0
356697,-142.857142857143,4,3,1,50,0,0
356768,324.324324324324,4,3,1,40,1,0
356768,-142.857142857143,4,3,1,40,0,0
356849,307.692307692308,4,3,1,45,1,0
356849,-142.857142857143,4,3,1,45,0,0
356925,315.789473684211,4,3,1,45,1,0
356925,-142.857142857143,4,3,1,45,0,0
357003,461.538461538462,4,3,1,75,1,0
357003,-133.333333333333,4,3,1,75,0,0
357041,-125,4,3,1,80,0,0
357079,-111.111111111111,4,3,1,80,0,0
357118,-95.2380952380952,4,3,1,80,0,0
357156,-80,4,3,1,80,0,0
357195,-66.6666666666667,4,3,1,80,0,0
357233,413.793103448276,4,3,1,80,1,0
357233,-105.263157894737,4,3,1,80,0,0
363750,-105.263157894737,4,3,1,55,0,0
363801,-105.263157894737,4,3,1,65,0,0
363905,-105.263157894737,4,3,1,40,0,0

[HitObjects]
64,192,13305,5,0,0:0:0:0:
320,192,13305,1,8,0:0:0:0:
192,192,13409,5,0,0:0:0:0:
448,192,13409,1,8,0:0:0:0:
320,192,13512,1,8,0:0:0:0:
64,192,13616,1,8,0:0:0:0:
192,192,13616,1,0,0:0:0:0:
320,192,13719,1,8,0:0:0:0:
448,192,13719,1,0,0:0:0:0:
64,192,13822,1,8,0:0:0:0:
192,192,13926,128,0,15064:0:0:0:80:cymbal.wav
320,192,13926,128,0,15167:0:0:0:0:
448,192,13926,1,2,0:0:0:0:
448,192,14340,1,4,0:0:0:0:
64,192,14366,1,4,0:0:0:0:
64,192,14753,1,4,0:0:0:0:
448,192,14779,1,4,0:0:0:0:
192,192,15141,1,4,0:0:0:0:
448,192,15167,1,4,0:0:0:0:
64,192,15193,1,0,0:0:0:0:
192,192,15374,128,0,16202:0:0:0:80:cymbal.wav
448,192,15374,128,0,15891:0:0:0:0:
64,192,15374,1,2,0:0:0:0:
64,192,15788,1,2,0:0:0:0:
320,192,15995,1,0,0:0:0:0:
448,192,15995,128,0,16822:0:0:0:0:
64,192,15995,1,8,0:0:0:0:
320,192,16202,1,0,0:0:0:0:
64,192,16305,1,2,0:0:0:0:
192,192,16305,128,0,16719:0:0:0:0:
64,192,16409,1,2,0:0:0:0:
320,192,16409,1,0,0:0:0:0:
64,192,16616,1,0,0:0:0:0:
320,192,16616,1,2,0:0:0:0:
320,192,16822,1,0,0:0:0:0:
64,192,16822,1,2,0:0:0:0:
192,192,16822,1,8,0:0:0:0:
448,192,16926,1,2,0:0:0:0:
192,192,17029,1,2,0:0:0:0:
64,192,17029,1,0,0:0:0:0:
448,192,17133,1,2,0:0:0:0:
192,192,17236,1,2,0:0:0:0:
320,192,17236,128,0,17495:0:0:0:0:
64,192,17236,128,0,18478:0:0:0:80:cymbal.wav
192,192,17547,1,2,0:0:0:0:
320,192,17598,1,0,0:0:0:0:
192,192,17650,1,0,0:0:0:0:
448,192,17650,1,8,0:0:0:0:
192,192,17857,1,2,0:0:0:0:
320,192,17857,128,0,18374:0:0:0:0:
448,192,18064,1,0,0:0:0:0:
192,192,18271,1,2,0:0:0:0:
448,192,18374,1,8,0:0:0:0:
192,192,18426,1,8,0:0:0:0:
448,192,18478,1,0,0:0:0:0:
320,192,18478,1,8,0:0:0:0:
64,192,18685,128,0,19305:0:0:0:0:
192,192,18685,128,0,19202:0:0:0:0:
448,192,18685,1,2,0:0:0:0:
320,192,18891,1,0,0:0:0:0:
320,192,19098,1,0,0:0:0:0:
448,192,19098,1,8,0:0:0:0:
448,192,19305,1,0,0:0:0:0:
192,192,19305,1,2,0:0:0:0:
64,192,19409,1,2,0:0:0:0:
320,192,19409,1,0,0:0:0:0:
192,192,19512,1,2,0:0:0:0:
320,192,19512,128,0,19719:0:0:0:0:
448,192,19512,128,0,20340:0:0:0:0:
64,192,19719,1,8,0:0:0:0:
192,192,19719,1,0,0:0:0:0:
320,192,19822,128,0,20133:0:0:0:0:
192,192,19822,1,8,0:0:0:0:
64,192,19926,1,2,0:0:0:0:
192,192,20029,1,8,0:0:0:0:
64,192,20133,128,2,20340:0:0:0:0:
320,192,20236,1,2,0:0:0:0:
192,192,20340,1,2,0:0:0:0:
448,192,20443,1,0,0:0:0:0:
320,192,20443,1,2,0:0:0:0:
192,192,20547,128,0,20753:0:0:0:0:
320,192,20547,128,0,20857:0:0:0:80:cymbal.wav
64,192,20547,1,2,0:0:0:0:
448,192,20753,1,0,0:0:0:0:
64,192,20857,1,2,0:0:0:0:
192,192,20857,1,0,0:0:0:0:
448,192,20960,1,8,0:0:0:0:
320,192,20960,1,0,0:0:0:0:
64,192,21012,1,0,0:0:0:0:
192,192,21064,1,0,0:0:0:0:
320,192,21116,1,0,0:0:0:0:
64,192,21167,1,2,0:0:0:0:
192,192,21219,1,0,0:0:0:0:
448,192,21271,1,0,0:0:0:0:
64,192,21322,1,0,0:0:0:0:
320,192,21374,1,2,0:0:0:0:
448,192,21426,1,0,0:0:0:0:
192,192,21478,1,0,0:0:0:0:
64,192,21529,1,0,0:0:0:0:
448,192,21581,1,2,0:0:0:0:
320,192,21633,1,0,0:0:0:0:
192,192,21685,1,0,0:0:0:0:
64,192,21736,1,0,0:0:0:0:
320,192,21788,1,0,0:0:0:0:
448,192,21788,1,8,0:0:0:0:
320,192,21995,128,0,22150:0:0:0:0:
64,192,21995,128,0,22202:0:0:0:0:
448,192,21995,1,2,0:0:0:0:
320,192,22253,1,0,0:0:0:0:
64,192,22305,1,2,0:0:0:0:
448,192,22357,1,0,0:0:0:0:
192,192,22409,1,0,0:0:0:0:
64,192,22409,1,2,0:0:0:0:
320,192,22460,1,0,0:0:0:0:
448,192,22512,1,0,0:0:0:0:
64,192,22564,1,0,0:0:0:0:
192,192,22616,1,0,0:0:0:0:
320,192,22616,1,8,0:0:0:0:
448,192,22667,1,0,0:0:0:0:
64,192,22719,1,0,0:0:0:0:
320,192,22771,1,0,0:0:0:0:
192,192,22822,1,2,0:0:0:0:
448,192,22874,1,0,0:0:0:0:
320,192,22926,1,0,0:0:0:0:
64,192,22978,1,0,0:0:0:0:
192,192,23029,1,8,0:0:0:0:
448,192,23029,1,0,0:0:0:0:
320,192,23081,1,0,0:0:0:0:
64,192,23133,1,0,0:0:0:0:
192,192,23185,1,0,0:0:0:0:
320,192,23236,1,8,0:0:0:0:
448,192,23288,1,0,0:0:0:0:
192,192,23340,1,2,0:0:0:0:
64,192,23391,1,0,0:0:0:0:
320,192,23443,1,2,0:0:0:0:
448,192,23495,1,0,0:0:0:0:
192,192,23547,1,2,0:0:0:0:
64,192,23650,1,2,0:0:0:0:
320,192,23650,1,0,0:0:0:0:
192,192,23753,1,0,0:0:0:0:
448,192,23753,1,2,0:0:0:0:
320,192,23857,1,2,0:0:0:0:
64,192,23857,128,0,23960:0:0:0:0:
448,192,23857,128,0,24064:0:0:0:80:cymbal.wav
64,192,24064,1,0,0:0:0:0:
448,192,24167,1,0,0:0:0:0:
320,192,24167,1,2,0:0:0:0:
192,192,24271,1,8,0:0:0:0:
320,192,24271,1,0,0:0:0:0:
448,192,24322,1,0,0:0:0:0:
192,192,24374,1,0,0:0:0:0:
64,192,24426,1,0,0:0:0:0:
320,192,24478,1,2,0:0:0:0:
192,192,24529,1,0,0:0:0:0:
448,192,24581,1,0,0:0:0:0:
64,192,24633,1,0,0:0:0:0:
448,192,24685,1,0,0:0:0:0:
320,192,24685,1,0,0:0:0:0:
192,192,24736,1,0,0:0:0:0:
64,192,24788,1,0,0:0:0:0:
448,192,24840,1,0,0:0:0:0:
320,192,24891,1,2,0:0:0:0:
192,192,24943,1,0,0:0:0:0:
64,192,24995,1,8,0:0:0:0:
448,192,25047,1,0,0:0:0:0:
320,192,25047,1,8,0:0:0:0:
192,192,25098,1,8,0:0:0:0:
64,192,25098,1,0,0:0:0:0:
448,192,25305,128,0,25641:0:0:0:0:
192,192,25305,128,0,25590:0:0:0:80:cymbal.wav
64,192,25305,1,0,0:0:0:0:
320,192,25305,1,2,0:0:0:0:
192,192,25693,1,8,0:0:0:0:
64,192,25745,1,0,0:0:0:0:
320,192,25745,1,8,0:0:0:0:
448,192,25822,1,0,0:0:0:0:
192,192,25926,1,0,0:0:0:0:
64,192,25926,1,2,0:0:0:0:
192,192,26029,1,2,0:0:0:0:
320,192,26029,1,0,0:0:0:0:
64,192,26133,1,0,0:0:0:0:
320,192,26133,128,0,26340:0:0:0:0:
448,192,26133,128,0,26236:0:0:0:0:
64,192,26340,1,8,0:0:0:0:
448,192,26340,1,0,0:0:0:0:
64,192,26444,1,0,0:0:0:0:
448,192,26444,1,8,0:0:0:0:
320,192,26549,1,2,0:0:0:0:
192,192,26654,1,0,0:0:0:0:
448,192,26759,1,0,0:0:0:90:cymbal short.wav
64,192,26759,1,0,0:0:0:0:
320,192,26759,1,2,0:0:0:0:
64,192,26910,1,0,0:0:0:90:cymbal short.wav
448,192,26910,1,0,0:0:0:0:
192,192,26910,1,2,0:0:0:0:
192,192,27062,1,0,0:0:0:90:cymbal short.wav
320,192,27062,1,2,0:0:0:0:
64,192,27213,1,2,0:0:0:0:
320,192,27213,128,0,27316:0:0:0:80:cymbal.wav
448,192,27213,1,0,0:0:0:0:
192,192,27316,128,0,27419:0:0:0:0:
448,192,27419,128,0,27523:0:0:0:0:
64,192,27419,1,0,0:0:0:0:
192,192,27523,128,2,27626:0:0:0:0:
64,192,27626,128,0,27704:0:0:0:0:
320,192,27626,1,0,0:0:0:0:
192,192,27730,128,0,27833:0:0:0:0:
320,192,27833,128,2,27937:0:0:0:0:
448,192,27833,128,0,27911:0:0:0:0:
192,192,27937,128,0,28040:0:0:0:0:
320,192,28040,1,8,0:0:0:0:
448,192,28040,128,0,28144:0:0:0:0:
64,192,28040,128,0,28118:0:0:0:0:
192,192,28144,1,0,0:0:0:0:
448,192,28247,1,0,0:0:0:0:
320,192,28247,128,0,28325:0:0:0:0:
192,192,28350,1,0,0:0:0:0:
64,192,28350,128,0,28428:0:0:0:0:
448,192,28454,128,0,28531:0:0:0:0:
320,192,28454,128,0,28531:0:0:0:0:
64,192,28557,1,0,0:0:0:0:
192,192,28557,128,0,28635:0:0:0:0:
448,192,28661,1,2,0:0:0:0:
320,192,28764,1,2,0:0:0:0:
64,192,28764,128,0,28842:0:0:0:0:
448,192,28868,128,0,28971:0:0:0:0:
192,192,28868,128,2,28937:0:0:0:0:
64,192,28971,128,0,29075:0:0:0:0:
320,192,29075,128,0,29178:0:0:0:0:
448,192,29075,128,0,29144:0:0:0:0:
192,192,29178,1,2,0:0:0:0:
64,192,29178,128,0,29281:0:0:0:0:
448,192,29281,128,0,29350:0:0:0:0:
320,192,29385,128,0,29488:0:0:0:0:
192,192,29488,128,2,29592:0:0:0:0:
64,192,29488,128,0,29557:0:0:0:0:
320,192,29592,128,0,29695:0:0:0:0:
64,192,29695,1,2,0:0:0:0:
192,192,29695,1,0,0:0:0:0:
448,192,29695,128,0,29799:0:0:0:0:
320,192,29799,128,2,29902:0:0:0:0:
64,192,29902,128,0,30006:0:0:0:0:
192,192,30006,128,0,30109:0:0:0:0:
448,192,30006,1,2,0:0:0:0:
320,192,30109,128,0,30178:0:0:0:0:
64,192,30109,1,2,0:0:0:0:
448,192,30178,128,0,30247:0:0:0:0:
192,192,30247,128,0,30316:0:0:0:0:
64,192,30316,128,0,30419:0:0:0:0:
448,192,30316,1,0,0:0:0:0:
320,192,30419,128,0,30523:0:0:0:0:
64,192,30523,1,0,0:0:0:80:cymbal.wav
192,192,30523,1,2,0:0:0:0:
448,192,30523,128,0,30626:0:0:0:0:
320,192,30626,128,0,30730:0:0:0:0:
448,192,30730,1,0,0:0:0:0:
192,192,30730,128,0,30833:0:0:0:0:
320,192,30833,128,2,30937:0:0:0:0:
448,192,30937,1,0,0:0:0:0:
64,192,30937,128,0,31014:0:0:0:0:
192,192,31040,128,0,31144:0:0:0:0:
320,192,31144,128,2,31247:0:0:0:0:
448,192,31144,128,0,31221:0:0:0:0:
64,192,31247,128,0,31350:0:0:0:0:
448,192,31350,1,2,0:0:0:0:
192,192,31350,128,0,31454:0:0:0:0:
320,192,31350,128,0,31428:0:0:0:0:
64,192,31454,1,0,0:0:0:0:
320,192,31557,128,0,31635:0:0:0:0:
192,192,31661,1,0,0:0:0:0:
448,192,31661,128,0,31738:0:0:0:0:
64,192,31764,128,0,31842:0:0:0:0:
320,192,31764,128,0,31833:0:0:0:0:
192,192,31868,128,0,31945:0:0:0:0:
448,192,31868,128,0,31937:0:0:0:0:
192,192,32075,128,0,32152:0:0:0:0:
448,192,32075,1,2,0:0:0:0:
320,192,32178,128,0,32247:0:0:0:0:
64,192,32178,1,2,0:0:0:0:
448,192,32281,128,0,32350:0:0:0:0:
64,192,32385,128,0,32454:0:0:0:0:
192,192,32385,1,2,0:0:0:0:
320,192,32488,128,2,32557:0:0:0:0:
192,192,32592,128,0,32695:0:0:0:0:
64,192,32592,1,2,0:0:0:0:
448,192,32592,1,0,0:0:0:70:cymbal short.wav
320,192,32695,128,0,32764:0:0:0:0:
448,192,32799,128,0,32868:0:0:0:0:
64,192,32902,128,0,33006:0:0:0:70:cymbal short.wav
192,192,32902,1,2,0:0:0:0:
320,192,33006,128,0,33075:0:0:0:0:
192,192,33109,128,0,33178:0:0:0:0:
64,192,33213,128,0,33281:0:0:0:70:cymbal short.wav
448,192,33213,1,2,0:0:0:0:
192,192,33316,128,0,33419:0:0:0:0:
320,192,33316,1,0,0:0:0:0:
64,192,33419,1,8,0:0:0:0:
448,192,33419,1,0,0:0:0:0:
320,192,33471,1,8,0:0:0:0:
192,192,33523,1,8,0:0:0:0:
448,192,33575,1,0,0:0:0:0:
320,192,33626,1,8,0:0:0:0:
64,192,33678,1,0,0:0:0:0:
192,192,33730,1,8,0:0:0:0:
320,192,33781,1,0,0:0:0:0:
448,192,33833,128,0,33937:0:0:0:0:
192,192,33833,1,0,0:0:0:80:cymbal.wav
64,192,33833,1,2,0:0:0:0:
320,192,33937,128,0,34014:0:0:0:0:
192,192,34040,128,0,34144:0:0:0:0:
64,192,34040,128,0,34118:0:0:0:0:
448,192,34144,128,2,34350:0:0:0:0:
320,192,34247,128,0,34350:0:0:0:0:
64,192,34247,1,0,0:0:0:0:
192,192,34350,1,0,0:0:0:0:
64,192,34454,128,2,34557:0:0:0:0:
320,192,34557,128,0,34635:0:0:0:0:
192,192,34661,1,8,0:0:0:0:
448,192,34661,128,0,34764:0:0:0:0:
64,192,34661,128,0,34868:0:0:0:0:
320,192,34764,1,0,0:0:0:0:
192,192,34868,128,0,34971:0:0:0:0:
448,192,34868,128,0,34919:0:0:0:0:
320,192,34971,128,0,35023:0:0:0:0:
64,192,35075,128,0,35178:0:0:0:0:
320,192,35178,128,0,35230:0:0:0:0:
448,192,35178,1,0,0:0:0:0:
192,192,35281,1,2,0:0:0:0:
64,192,35385,128,0,35437:0:0:0:0:
320,192,35385,1,2,0:0:0:0:
192,192,35488,128,0,35592:0:0:0:0:
448,192,35488,1,2,0:0:0:0:
320,192,35592,128,0,35661:0:0:0:0:
64,192,35695,128,0,35799:0:0:0:0:
448,192,35695,1,0,0:0:0:0:
192,192,35799,128,2,36006:0:0:0:0:
320,192,35902,1,0,0:0:0:0:
448,192,35902,128,0,36006:0:0:0:0:
64,192,36006,128,0,36075:0:0:0:0:
320,192,36109,128,0,36213:0:0:0:0:
448,192,36109,1,2,0:0:0:0:
192,192,36213,128,0,36281:0:0:0:0:
64,192,36316,1,8,0:0:0:0:
448,192,36316,1,0,0:0:0:0:
320,192,36316,128,0,36471:0:0:0:0:
192,192,36419,1,2,0:0:0:0:
64,192,36523,1,0,0:0:0:0:
448,192,36523,1,0,0:0:0:0:
320,192,36626,1,2,0:0:0:0:
64,192,36730,1,2,0:0:0:0:
192,192,36730,128,0,36799:0:0:0:0:
320,192,36799,128,0,36868:0:0:0:0:
448,192,36868,128,0,36937:0:0:0:0:
64,192,36937,1,0,0:0:0:0:
192,192,36937,128,4,37040:0:0:0:0:
320,192,37040,128,4,37144:0:0:0:0:
64,192,37144,128,4,37247:0:0:0:0:
448,192,37144,1,0,0:0:0:0:
192,192,37247,128,6,37350:0:0:0:0:
64,192,37350,1,0,0:0:0:80:cymbal.wav
320,192,37350,1,2,0:0:0:0:
448,192,37350,128,0,37454:0:0:0:0:
192,192,37454,1,0,0:0:0:0:
320,192,37557,128,0,37661:0:0:0:0:
448,192,37557,1,2,0:0:0:0:
192,192,37661,1,0,0:0:0:0:
64,192,37661,128,0,37730:0:0:0:0:
448,192,37764,128,0,37833:0:0:0:0:
192,192,37764,128,0,37868:0:0:0:0:
320,192,37868,1,2,0:0:0:0:
320,192,37971,128,0,38040:0:0:0:0:
64,192,37971,128,0,38075:0:0:0:0:
448,192,38075,128,2,38144:0:0:0:0:
192,192,38178,128,0,38247:0:0:0:0:
64,192,38178,1,8,0:0:0:0:
448,192,38385,5,0,0:0:0:0:
320,192,38385,1,0,0:0:0:0:
64,192,38385,1,0,0:0:0:0:
192,192,38385,1,2,0:0:0:0:
320,192,38592,1,2,0:0:0:0:
448,192,38592,1,4,0:0:0:0:
320,192,38695,1,4,0:0:0:0:
192,192,38695,1,8,0:0:0:0:
64,192,38799,1,4,0:0:0:0:
448,192,38799,1,0,0:0:0:0:
192,192,38902,1,2,0:0:0:0:
64,192,38902,1,0,0:0:0:0:
320,192,38902,1,0,0:0:0:0:
192,192,39109,1,4,0:0:0:0:
320,192,39109,1,2,0:0:0:0:
192,192,39213,1,4,0:0:0:0:
64,192,39213,1,8,0:0:0:0:
448,192,39316,1,4,0:0:0:0:
320,192,39316,1,0,0:0:0:0:
448,192,39419,1,0,0:0:0:0:
192,192,39419,1,2,0:0:0:0:
64,192,39419,1,0,0:0:0:0:
64,192,39626,1,0,0:0:0:0:
320,192,39626,1,2,0:0:0:0:
448,192,39626,1,0,0:0:0:0:
192,192,39833,1,2,0:0:0:0:
448,192,39833,128,0,39973:0:0:0:0:
320,192,39833,128,0,40113:0:0:0:80:cymbal.wav
64,192,39973,128,0,40253:0:0:0:0:
448,192,40113,128,0,40393:0:0:0:0:
320,192,40253,128,0,40533:0:0:0:0:
192,192,40393,128,0,40533:0:0:0:0:
64,192,40533,128,0,40674:0:0:0:0:
448,192,40674,128,0,40814:0:0:0:0:
320,192,40814,128,0,40954:0:0:0:0:
192,192,40954,128,0,41224:0:0:0:80:cymbal short.wav
64,192,40954,128,0,41089:0:0:0:0:
448,192,40954,1,2,0:0:0:0:
320,192,41089,128,0,41224:0:0:0:0:
448,192,41224,128,0,41359:0:0:0:0:
64,192,41359,128,0,41494:0:0:0:0:
320,192,41494,128,0,41634:0:0:0:80:cymbal short.wav
192,192,41494,128,0,41774:0:0:0:0:
448,192,41494,1,2,0:0:0:0:
64,192,41634,128,0,41774:0:0:0:0:
448,192,41774,1,0,0:0:0:0:
320,192,41914,128,0,42186:0:0:0:80:cymbal short.wav
192,192,41914,128,0,42050:0:0:0:0:
64,192,41914,1,2,0:0:0:0:
448,192,42050,128,0,42186:0:0:0:0:
192,192,42186,128,2,42459:0:0:0:0:
64,192,42186,128,0,42323:0:0:0:80:cymbal short.wav
448,192,42323,128,0,42459:0:0:0:0:
320,192,42459,128,2,42595:0:0:0:0:
64,192,42459,128,0,42595:0:0:0:0:
192,192,42595,128,0,43197:0:0:0:0:
320,192,42732,128,0,43119:0:0:0:0:
448,192,42732,128,2,43042:0:0:0:0:
64,192,42732,128,0,43275:0:0:0:80:cymbal.wav
448,192,43145,1,0,0:0:0:0:
320,192,43249,1,0,0:0:0:0:
448,192,43352,1,0,0:0:0:0:
192,192,43352,1,2,0:0:0:0:
64,192,43456,1,2,0:0:0:0:
320,192,43559,1,0,0:0:0:0:
192,192,43559,1,2,0:0:0:0:
320,192,43973,1,0,0:0:0:0:
192,192,43973,1,8,0:0:0:0:
448,192,43973,1,0,0:0:0:0:
192,192,44076,1,0,0:0:0:0:
64,192,44076,1,8,0:0:0:0:
320,192,44180,1,8,0:0:0:0:
448,192,44180,1,0,0:0:0:0:
192,192,44283,1,8,0:0:0:0:
320,192,44283,1,0,0:0:0:0:
64,192,44283,1,0,0:0:0:0:
320,192,44594,1,0,0:0:0:0:
192,192,44594,1,0,0:0:0:0:
448,192,44594,1,8,0:0:0:0:
192,192,44697,1,0,0:0:0:0:
64,192,44697,1,8,0:0:0:0:
448,192,44800,1,8,0:0:0:0:
320,192,44800,1,0,0:0:0:0:
192,192,44904,1,8,0:0:0:0:
320,192,44904,1,0,0:0:0:0:
64,192,44904,1,0,0:0:0:0:
448,192,45214,1,0,0:0:0:0:
192,192,45214,1,8,0:0:0:0:
320,192,45214,1,0,0:0:0:0:
64,192,45367,1,0,0:0:0:0:
320,192,45367,1,8,0:0:0:0:
192,192,45524,1,8,0:0:0:0:
64,192,45524,1,0,0:0:0:0:
448,192,45524,1,0,0:0:0:0:
320,192,45668,1,12,0:0:0:0:
64,192,45708,1,8,0:0:0:0:
192,192,45845,1,8,0:0:0:0:
320,192,45845,1,4,0:0:0:0:
192,192,46021,1,4,0:0:0:0:
448,192,46021,1,8,0:0:0:0:
192,192,46202,1,0,0:0:0:80:cymbal.wav
64,192,46202,1,0,0:0:0:0:
320,192,46202,1,2,0:0:0:0:
448,192,46202,1,0,0:0:0:0:
320,192,49305,1,2,0:0:0:0:
192,192,49374,1,2,0:0:0:0:
320,192,49443,1,2,0:0:0:0:
64,192,49512,1,8,0:0:0:0:
448,192,49512,1,0,0:0:0:80:cymbal short.wav
192,192,49512,128,0,49667:0:0:0:0:
320,192,49719,128,0,49770:0:0:0:0:
192,192,49822,128,0,49874:0:0:0:0:
320,192,49926,128,0,50081:0:0:0:0:
192,192,50029,128,0,50184:0:0:0:0:
320,192,50236,128,0,50288:0:0:0:0:
192,192,50443,128,0,50495:0:0:0:0:
320,192,50650,128,0,50805:0:0:0:0:
192,192,50753,128,0,50908:0:0:0:0:
320,192,50960,128,0,51012:0:0:0:0:
192,192,51167,128,0,51322:0:0:0:0:
320,192,51374,128,0,51426:0:0:0:0:
192,192,51477,128,0,51529:0:0:0:0:
320,192,51581,128,0,51736:0:0:0:0:
192,192,51684,128,0,51839:0:0:0:0:
448,192,51788,1,2,0:0:0:0:
64,192,51857,1,2,0:0:0:0:
320,192,51926,1,2,0:0:0:0:
64,192,51995,1,2,0:0:0:0:
448,192,51995,1,0,0:0:0:80:cymbal short.wav
192,192,51995,128,0,52064:0:0:0:0:
320,192,52098,128,8,52167:0:0:0:0:
64,192,52202,1,4,0:0:0:0:
192,192,52202,128,0,52270:0:0:0:0:
448,192,52305,128,4,52374:0:0:0:0:
192,192,52408,1,0,0:0:0:0:
320,192,52408,128,4,52477:0:0:0:0:
64,192,52512,128,4,52581:0:0:0:0:
320,192,52615,5,0,0:0:0:0:
448,192,52615,128,4,52684:0:0:0:0:
64,192,52719,128,4,52788:0:0:0:0:
192,192,52822,128,0,52977:0:0:0:80:cymbal.wav
320,192,52822,1,2,0:0:0:0:
448,192,52822,1,0,0:0:0:0:
320,192,53029,128,0,53098:0:0:0:0:
448,192,53029,1,0,0:0:0:0:
192,192,53133,128,0,53202:0:0:0:0:
320,192,53236,128,0,53391:0:0:0:0:
192,192,53339,128,0,53495:0:0:0:0:
64,192,53339,1,0,0:0:0:0:
320,192,53546,128,0,53615:0:0:0:0:
448,192,53546,1,2,0:0:0:0:
192,192,53598,1,2,0:0:0:0:
448,192,53650,1,0,0:0:0:0:
64,192,53650,1,8,0:0:0:0:
192,192,53753,128,0,53822:0:0:0:0:
320,192,53960,128,0,54115:0:0:0:0:
192,192,54064,128,0,54219:0:0:0:0:
448,192,54064,1,0,0:0:0:0:
320,192,54270,128,0,54339:0:0:0:0:
448,192,54270,1,2,0:0:0:0:
192,192,54477,128,0,54633:0:0:0:0:
64,192,54477,1,0,0:0:0:0:
320,192,54477,1,2,0:0:0:0:
448,192,54581,1,0,0:0:0:0:
320,192,54684,128,0,54753:0:0:0:0:
192,192,54788,128,0,54857:0:0:0:0:
320,192,54891,128,0,55046:0:0:0:0:
64,192,54891,1,0,0:0:0:0:
192,192,54995,128,0,55150:0:0:0:0:
320,192,55202,128,0,55270:0:0:0:0:
64,192,55202,1,2,0:0:0:0:
448,192,55253,1,2,0:0:0:0:
192,192,55305,1,8,0:0:0:0:
64,192,55305,1,0,0:0:0:0:
192,192,55408,128,0,55477:0:0:0:0:
192,192,55615,128,2,55684:0:0:0:0:
320,192,55719,1,8,0:0:0:0:
448,192,55719,1,0,0:0:0:0:
64,192,55719,128,0,55788:0:0:0:0:
192,192,55822,1,8,0:0:0:0:
320,192,55822,128,0,55891:0:0:0:0:
64,192,55926,1,2,0:0:0:0:
448,192,55926,128,0,56133:0:0:0:0:
192,192,56133,128,0,56288:0:0:0:0:
320,192,56133,1,2,0:0:0:0:
64,192,56133,1,0,0:0:0:80:cymbal short.wav
320,192,56339,128,0,56408:0:0:0:0:
448,192,56339,1,0,0:0:0:0:
192,192,56443,128,0,56512:0:0:0:0:
320,192,56546,128,0,56702:0:0:0:0:
448,192,56546,1,0,0:0:0:0:
192,192,56650,128,0,56805:0:0:0:0:
64,192,56650,1,0,0:0:0:0:
320,192,56857,128,2,56926:0:0:0:0:
192,192,56908,1,2,0:0:0:0:
448,192,56960,1,8,0:0:0:0:
64,192,56960,1,0,0:0:0:0:
192,192,57064,128,0,57133:0:0:0:0:
320,192,57270,128,0,57426:0:0:0:0:
192,192,57374,128,0,57529:0:0:0:0:
448,192,57374,1,0,0:0:0:0:
320,192,57581,128,0,57650:0:0:0:0:
448,192,57581,1,0,0:0:0:0:
64,192,57581,1,2,0:0:0:0:
192,192,57788,128,0,57943:0:0:0:0:
64,192,57788,1,0,0:0:0:0:
320,192,57788,1,2,0:0:0:0:
448,192,57891,1,0,0:0:0:0:
320,192,57995,128,0,58064:0:0:0:0:
192,192,58098,128,0,58167:0:0:0:0:
320,192,58202,128,0,58357:0:0:0:0:
64,192,58202,1,0,0:0:0:0:
192,192,58305,128,0,58460:0:0:0:0:
448,192,58512,1,2,0:0:0:0:
192,192,58564,1,2,0:0:0:0:
64,192,58615,1,8,0:0:0:0:
448,192,58615,1,0,0:0:0:80:cymbal short.wav
320,192,58615,1,0,0:0:0:0:
192,192,58684,1,0,0:0:0:0:
320,192,58753,1,0,0:0:0:0:
64,192,58822,1,2,0:0:0:0:
192,192,58891,1,0,0:0:0:0:
448,192,58960,1,0,0:0:0:0:
64,192,59029,1,8,0:0:0:0:
320,192,59098,5,0,0:0:0:0:
448,192,59167,1,0,0:0:0:0:
192,192,59236,1,2,0:0:0:0:
320,192,59305,1,0,0:0:0:0:
64,192,59339,1,8,0:0:0:0:
448,192,59374,1,0,0:0:0:0:
320,192,59443,1,2,0:0:0:0:
64,192,59443,1,0,0:0:0:0:
192,192,59443,1,0,0:0:0:80:cymbal.wav
64,192,59650,1,0,0:0:0:0:
192,192,59650,1,2,0:0:0:0:
192,192,59753,1,0,0:0:0:0:
448,192,59753,1,2,0:0:0:0:
64,192,59857,1,0,0:0:0:0:
320,192,59857,1,8,0:0:0:0:
448,192,59857,1,0,0:0:0:0:
320,192,59960,1,2,0:0:0:0:
192,192,59960,1,0,0:0:0:0:
192,192,60167,1,0,0:0:0:0:
64,192,60167,1,2,0:0:0:0:
192,192,60374,1,2,0:0:0:0:
320,192,60374,1,0,0:0:0:0:
64,192,60581,1,0,0:0:0:0:
192,192,60581,1,2,0:0:0:0:
64,192,60684,1,0,0:0:0:0:
320,192,60684,1,0,0:0:0:0:
448,192,60684,1,8,0:0:0:0:
320,192,60788,1,0,0:0:0:0:
192,192,60788,1,0,0:0:0:0:
192,192,60891,1,2,0:0:0:0:
64,192,60891,1,0,0:0:0:0:
320,192,60995,1,0,0:0:0:0:
448,192,60995,1,2,0:0:0:0:
64,192,61098,1,2,0:0:0:0:
192,192,61098,1,0,0:0:0:0:
64,192,61305,1,0,0:0:0:0:
448,192,61305,1,2,0:0:0:0:
320,192,61408,1,0,0:0:0:0:
192,192,61408,1,2,0:0:0:0:
64,192,61512,1,8,0:0:0:0:
448,192,61512,1,0,0:0:0:0:
192,192,61512,1,0,0:0:0:0:
320,192,61615,1,2,0:0:0:0:
448,192,61615,1,0,0:0:0:0:
64,192,61719,1,0,0:0:0:0:
192,192,61822,1,2,0:0:0:0:
64,192,62029,1,0,0:0:0:0:
448,192,62029,1,0,0:0:0:0:
320,192,62029,1,8,0:0:0:0:
64,192,62236,1,0,0:0:0:0:
192,192,62236,1,2,0:0:0:0:
192,192,62339,1,0,0:0:0:0:
320,192,62339,1,0,0:0:0:0:
448,192,62339,1,8,0:0:0:0:
320,192,62443,1,0,0:0:0:0:
64,192,62443,1,4,0:0:0:0:
448,192,62546,1,4,0:0:0:0:
192,192,62546,1,0,0:0:0:0:
64,192,62650,1,4,0:0:0:0:
192,192,62650,1,0,0:0:0:0:
320,192,62753,1,2,0:0:0:0:
64,192,62753,1,0,0:0:0:0:
448,192,62753,1,0,0:0:0:0:
64,192,62960,1,2,0:0:0:0:
320,192,62960,1,0,0:0:0:0:
192,192,63064,1,2,0:0:0:0:
320,192,63064,1,0,0:0:0:0:
64,192,63167,1,8,0:0:0:0:
192,192,63167,1,0,0:0:0:0:
448,192,63167,1,0,0:0:0:0:
320,192,63270,1,2,0:0:0:0:
448,192,63270,1,0,0:0:0:0:
192,192,63477,1,2,0:0:0:0:
320,192,63477,1,0,0:0:0:0:
64,192,63581,1,0,0:0:0:0:
192,192,63684,1,0,0:0:0:0:
320,192,63684,1,2,0:0:0:0:
192,192,63891,1,2,0:0:0:0:
320,192,63891,1,0,0:0:0:0:
448,192,63995,1,8,0:0:0:0:
64,192,63995,1,0,0:0:0:0:
192,192,63995,1,0,0:0:0:0:
448,192,64098,1,0,0:0:0:0:
320,192,64098,1,0,0:0:0:0:
64,192,64202,1,2,0:0:0:0:
320,192,64202,1,0,0:0:0:0:
448,192,64305,1,0,0:0:0:0:
192,192,64305,1,0,0:0:0:0:
320,192,64408,1,2,0:0:0:0:
192,192,64408,1,0,0:0:0:0:
64,192,64408,1,0,0:0:0:0:
64,192,64615,1,2,0:0:0:0:
320,192,64615,1,0,0:0:0:0:
320,192,64719,1,0,0:0:0:0:
448,192,64719,1,2,0:0:0:0:
64,192,64822,1,8,0:0:0:0:
448,192,64822,1,0,0:0:0:0:
192,192,64822,1,0,0:0:0:0:
320,192,64926,1,0,0:0:0:0:
192,192,64926,1,2,0:0:0:0:
64,192,65029,1,0,0:0:0:0:
448,192,65133,1,8,0:0:0:0:
320,192,65133,1,0,0:0:0:0:
192,192,65236,128,0,65288:0:0:0:0:
320,192,65236,1,2,0:0:0:0:
64,192,65339,128,2,65391:0:0:0:0:
320,192,65443,128,0,65495:0:0:0:0:
448,192,65443,1,2,0:0:0:0:
192,192,65546,128,8,65598:0:0:0:0:
448,192,65650,128,8,65702:0:0:0:0:
64,192,65650,1,0,0:0:0:0:
320,192,65753,128,8,65805:0:0:0:0:
192,192,65857,1,0,0:0:0:0:
64,192,65857,128,8,65908:0:0:0:0:
448,192,65960,128,8,66012:0:0:0:0:
64,192,66064,1,0,0:0:0:0:
320,192,66064,1,2,0:0:0:0:
192,192,66064,128,0,66270:0:0:0:0:
448,192,66270,1,2,0:0:0:0:
320,192,66270,1,0,0:0:0:0:
320,192,66374,1,2,0:0:0:0:
64,192,66374,1,0,0:0:0:0:
448,192,66477,1,0,0:0:0:0:
64,192,66477,1,8,0:0:0:0:
192,192,66477,1,0,0:0:0:0:
448,192,66581,1,0,0:0:0:0:
192,192,66581,1,2,0:0:0:0:
192,192,66788,1,0,0:0:0:0:
320,192,66788,1,2,0:0:0:0:
448,192,66891,1,0,0:0:0:0:
320,192,66995,1,0,0:0:0:0:
192,192,66995,1,2,0:0:0:0:
320,192,67202,1,2,0:0:0:0:
192,192,67202,1,0,0:0:0:0:
320,192,67305,1,0,0:0:0:0:
448,192,67305,1,0,0:0:0:0:
64,192,67305,1,8,0:0:0:0:
448,192,67408,1,0,0:0:0:0:
192,192,67408,1,0,0:0:0:0:
192,192,67512,1,0,0:0:0:0:
320,192,67512,1,2,0:0:0:0:
448,192,67615,1,0,0:0:0:0:
64,192,67615,1,2,0:0:0:0:
192,192,67719,1,0,0:0:0:0:
320,192,67719,1,2,0:0:0:0:
448,192,67719,1,0,0:0:0:0:
320,192,67926,1,0,0:0:0:0:
64,192,67926,1,2,0:0:0:0:
448,192,68029,1,2,0:0:0:0:
192,192,68029,1,0,0:0:0:0:
320,192,68133,1,0,0:0:0:0:
448,192,68133,1,0,0:0:0:0:
64,192,68133,1,8,0:0:0:0:
320,192,68236,1,0,0:0:0:0:
192,192,68236,1,2,0:0:0:0:
448,192,68339,1,0,0:0:0:0:
192,192,68443,1,2,0:0:0:0:
320,192,68650,1,8,0:0:0:0:
448,192,68650,1,0,0:0:0:0:
64,192,68650,1,0,0:0:0:0:
448,192,68857,1,2,0:0:0:0:
448,192,68960,1,0,0:0:0:0:
64,192,68960,1,8,0:0:0:0:
320,192,68960,1,0,0:0:0:0:
320,192,69064,1,4,0:0:0:0:
192,192,69064,1,0,0:0:0:0:
192,192,69167,1,4,0:0:0:0:
64,192,69167,1,0,0:0:0:0:
448,192,69270,1,4,0:0:0:0:
320,192,69270,1,0,0:0:0:0:
192,192,69374,1,0,0:0:0:0:
64,192,69374,1,2,0:0:0:0:
320,192,69374,128,0,69581:0:0:0:0:
64,192,69581,1,0,0:0:0:0:
448,192,69581,1,2,0:0:0:0:
320,192,69684,1,0,0:0:0:0:
192,192,69684,1,2,0:0:0:0:
448,192,69788,1,8,0:0:0:0:
64,192,69788,1,0,0:0:0:0:
192,192,69788,1,0,0:0:0:0:
320,192,69891,1,2,0:0:0:0:
320,192,70098,1,0,0:0:0:0:
192,192,70098,1,2,0:0:0:0:
64,192,70202,1,0,0:0:0:0:
448,192,70305,1,2,0:0:0:0:
192,192,70305,1,0,0:0:0:0:
192,192,70512,1,0,0:0:0:0:
320,192,70512,1,2,0:0:0:0:
448,192,70615,1,0,0:0:0:0:
192,192,70615,1,0,0:0:0:0:
64,192,70615,1,8,0:0:0:0:
320,192,70719,1,0,0:0:0:0:
64,192,70719,1,0,0:0:0:0:
192,192,70822,1,2,0:0:0:0:
448,192,70822,1,0,0:0:0:0:
64,192,70926,1,2,0:0:0:0:
448,192,70926,1,0,0:0:0:0:
64,192,71029,1,0,0:0:0:0:
192,192,71029,1,0,0:0:0:0:
320,192,71029,1,2,0:0:0:0:
320,192,71236,1,0,0:0:0:0:
192,192,71236,1,2,0:0:0:0:
64,192,71339,1,0,0:0:0:0:
448,192,71339,1,2,0:0:0:0:
192,192,71443,1,0,0:0:0:0:
448,192,71443,1,0,0:0:0:0:
320,192,71443,1,8,0:0:0:0:
64,192,71546,1,2,0:0:0:0:
192,192,71546,1,0,0:0:0:0:
448,192,71650,1,0,0:0:0:0:
320,192,71753,1,8,0:0:0:0:
64,192,71753,1,0,0:0:0:0:
64,192,71857,1,8,0:0:0:0:
192,192,71857,1,2,0:0:0:0:
320,192,71960,1,0,0:0:0:0:
448,192,71960,1,8,0:0:0:0:
192,192,72064,1,8,0:0:0:0:
64,192,72064,1,0,0:0:0:0:
320,192,72270,1,2,0:0:0:0:
192,192,72270,1,0,0:0:0:0:
192,192,72477,1,2,0:0:0:0:
64,192,72477,1,8,0:0:0:0:
320,192,72581,1,8,0:0:0:0:
448,192,72581,1,0,0:0:0:0:
64,192,72684,5,0,0:0:0:0:
192,192,72684,1,0,0:0:0:80:cymbal.wav
448,192,72684,1,0,0:0:0:0:
320,192,72684,1,2,0:0:0:0:
192,192,72890,1,2,0:0:0:0:
64,192,72890,1,0,0:0:0:0:
320,192,72994,1,0,0:0:0:0:
448,192,72994,1,2,0:0:0:0:
64,192,73097,1,0,0:0:0:0:
192,192,73097,1,8,0:0:0:0:
320,192,73097,1,0,0:0:0:0:
448,192,73201,1,2,0:0:0:0:
64,192,73304,1,0,0:0:0:0:
448,192,73373,1,0,0:0:0:0:
192,192,73408,1,2,0:0:0:0:
320,192,73408,1,0,0:0:0:0:
64,192,73442,1,0,0:0:0:0:
448,192,73511,1,0,0:0:0:0:
320,192,73546,1,0,0:0:0:0:
192,192,73580,1,0,0:0:0:0:
64,192,73615,1,2,0:0:0:0:
448,192,73666,1,0,0:0:0:0:
320,192,73718,1,0,0:0:0:0:
448,192,73821,1,0,0:0:0:0:
64,192,73821,1,0,0:0:0:0:
192,192,73821,1,2,0:0:0:0:
320,192,73856,128,0,74201:0:0:0:0:
192,192,73925,1,8,0:0:0:0:
64,192,73925,1,0,0:0:0:0:
448,192,74028,1,0,0:0:0:0:
192,192,74132,1,2,0:0:0:0:
448,192,74339,1,2,0:0:0:0:
64,192,74339,1,0,0:0:0:0:
320,192,74373,128,0,74856:0:0:0:0:
192,192,74546,1,8,0:0:0:0:
448,192,74546,1,0,0:0:0:0:
192,192,74649,1,0,0:0:0:0:
64,192,74649,1,8,0:0:0:0:
448,192,74752,1,0,0:0:0:0:
192,192,74856,1,2,0:0:0:0:
448,192,74959,128,0,75942:0:0:0:0:
64,192,75063,1,2,0:0:0:0:
320,192,75063,1,0,0:0:0:0:
192,192,75166,1,2,0:0:0:0:
320,192,75270,1,2,0:0:0:0:
192,192,75373,1,2,0:0:0:0:
64,192,75373,1,8,0:0:0:0:
64,192,75477,1,0,0:0:0:60:cymbal.wav
320,192,75477,1,2,0:0:0:0:
64,192,75683,1,2,0:0:0:0:
320,192,75787,1,2,0:0:0:0:
192,192,75890,1,8,0:0:0:0:
64,192,75890,1,0,0:0:0:0:
320,192,75994,1,2,0:0:0:0:
448,192,75994,1,0,0:0:0:0:
64,192,76097,128,0,76201:0:0:0:0:
192,192,76201,128,2,76304:0:0:0:0:
448,192,76304,128,0,76408:0:0:0:0:
64,192,76304,1,0,0:0:0:0:
320,192,76408,128,2,76511:0:0:0:0:
64,192,76511,128,0,76614:0:0:0:0:
448,192,76614,128,0,76718:0:0:0:0:
320,192,76614,1,8,0:0:0:0:
192,192,76718,128,8,76821:0:0:0:0:
320,192,76718,1,0,0:0:0:0:
448,192,76821,128,0,76925:0:0:0:0:
64,192,76821,1,0,0:0:0:0:
320,192,76925,128,0,77028:0:0:0:0:
192,192,76925,1,2,0:0:0:0:
64,192,77028,128,0,77132:0:0:0:0:
192,192,77132,128,0,77235:0:0:0:0:
320,192,77132,1,2,0:0:0:0:
64,192,77235,128,0,77339:0:0:0:0:
448,192,77235,1,0,0:0:0:0:
320,192,77339,128,0,77442:0:0:0:0:
192,192,77339,1,8,0:0:0:0:
448,192,77442,128,8,77545:0:0:0:0:
192,192,77442,1,0,0:0:0:0:
320,192,77545,128,0,77597:0:0:0:0:
192,192,77597,128,0,77649:0:0:0:0:
64,192,77649,128,0,77727:0:0:0:0:
448,192,77649,1,2,0:0:0:0:
320,192,77727,128,0,77856:0:0:0:0:
192,192,77787,1,0,0:0:0:0:
64,192,77856,128,0,77925:0:0:0:0:
448,192,77856,1,8,0:0:0:0:
192,192,77925,128,0,77994:0:0:0:0:
320,192,77994,128,0,78063:0:0:0:0:
64,192,78063,128,0,78132:0:0:0:0:
448,192,78063,1,8,0:0:0:0:
192,192,78132,128,0,78201:0:0:0:0:
448,192,78201,128,0,78270:0:0:0:0:
320,192,78270,1,0,0:0:0:70:cymbal.wav
192,192,78270,1,0,0:0:0:0:
64,192,78270,1,2,0:0:0:0:
192,192,78476,1,2,0:0:0:0:
448,192,78580,1,2,0:0:0:0:
320,192,78683,128,0,79201:0:0:0:0:
448,192,78683,1,8,0:0:0:0:
64,192,78718,128,0,79097:0:0:0:0:
192,192,78787,1,2,0:0:0:0:
192,192,78994,1,0,0:0:0:0:
448,192,78994,1,2,0:0:0:0:
192,192,79097,1,0,0:0:0:0:
64,192,79201,128,2,79304:0:0:0:0:
448,192,79407,128,0,79614:0:0:0:0:
320,192,79407,1,2,0:0:0:0:
320,192,79511,1,0,0:0:0:0:
192,192,79511,1,8,0:0:0:0:
64,192,79614,1,0,0:0:0:0:
192,192,79718,128,0,79925:0:0:0:0:
448,192,79718,1,2,0:0:0:0:
320,192,79925,128,2,80132:0:0:0:0:
448,192,79925,1,0,0:0:0:0:
192,192,80132,128,8,80235:0:0:0:0:
64,192,80132,1,2,0:0:0:0:
64,192,80235,128,0,80442:0:0:0:0:
320,192,80235,1,8,0:0:0:0:
448,192,80338,128,0,80442:0:0:0:0:
192,192,80338,1,0,0:0:0:0:
320,192,80442,128,2,80545:0:0:0:0:
192,192,80545,128,2,80649:0:0:0:0:
320,192,80649,128,0,80752:0:0:0:0:
64,192,80649,128,0,80752:0:0:0:0:
448,192,80649,1,2,0:0:0:0:
448,192,80752,128,2,80856:0:0:0:0:
64,192,80856,128,0,80959:0:0:0:0:
192,192,80856,1,2,0:0:0:0:
192,192,80959,128,8,81063:0:0:0:0:
448,192,80959,1,0,0:0:0:0:
320,192,81063,128,0,81269:0:0:0:0:
64,192,81063,1,2,0:0:0:0:
448,192,81063,1,0,0:0:0:60:cymbal.wav
448,192,81269,128,0,81373:0:0:0:0:
192,192,81269,1,2,0:0:0:0:
64,192,81373,128,0,81476:0:0:0:0:
320,192,81373,1,2,0:0:0:0:
192,192,81476,128,0,81787:0:0:0:0:
320,192,81476,1,0,0:0:0:0:
448,192,81476,1,8,0:0:0:0:
64,192,81580,1,2,0:0:0:0:
320,192,81787,1,2,0:0:0:0:
192,192,81890,1,0,0:0:0:0:
448,192,81890,1,0,0:0:0:0:
64,192,81994,128,0,82097:0:0:0:0:
320,192,81994,1,2,0:0:0:0:
448,192,82097,128,0,82200:0:0:0:0:
192,192,82200,128,0,82304:0:0:0:0:
320,192,82200,1,2,0:0:0:0:
320,192,82304,128,0,82407:0:0:0:0:
64,192,82304,1,8,0:0:0:0:
64,192,82407,128,0,82511:0:0:0:0:
448,192,82511,128,0,82614:0:0:0:0:
192,192,82511,1,2,0:0:0:0:
64,192,82614,128,0,82718:0:0:0:0:
320,192,82718,128,0,82821:0:0:0:0:
448,192,82718,1,2,0:0:0:0:
192,192,82821,128,0,82925:0:0:0:0:
320,192,82925,128,8,83028:0:0:0:0:
64,192,82925,1,0,0:0:0:0:
448,192,83028,128,0,83131:0:0:0:0:
192,192,83028,1,8,0:0:0:0:
64,192,83028,1,0,0:0:0:0:
192,192,83131,128,0,83209:0:0:0:0:
64,192,83209,128,0,83261:0:0:0:0:
448,192,83235,1,2,0:0:0:0:
320,192,83261,128,0,83313:0:0:0:0:
192,192,83313,128,0,83364:0:0:0:0:
448,192,83364,128,0,83442:0:0:0:0:
320,192,83442,128,0,83519:0:0:0:0:
64,192,83442,1,8,0:0:0:0:
192,192,83519,128,0,83597:0:0:0:0:
64,192,83597,128,0,83675:0:0:0:0:
448,192,83649,1,8,0:0:0:0:
320,192,83675,128,0,83752:0:0:0:0:
192,192,83752,128,8,83856:0:0:0:0:
64,192,83856,1,0,0:0:0:80:cymbal.wav
320,192,83856,128,0,84062:0:0:0:0:
448,192,83856,1,2,0:0:0:0:
64,192,84062,1,0,0:0:0:0:
192,192,84062,1,2,0:0:0:0:
320,192,84166,1,0,0:0:0:0:
448,192,84166,1,2,0:0:0:0:
64,192,84269,1,8,0:0:0:0:
192,192,84269,1,0,0:0:0:0:
448,192,84269,1,0,0:0:0:0:
192,192,84373,1,2,0:0:0:0:
320,192,84373,1,0,0:0:0:0:
320,192,84580,1,2,0:0:0:0:
448,192,84580,1,0,0:0:0:0:
64,192,84683,1,0,0:0:0:0:
192,192,84683,1,0,0:0:0:0:
448,192,84787,1,2,0:0:0:0:
192,192,84787,1,0,0:0:0:0:
64,192,84993,1,2,0:0:0:0:
320,192,84993,1,0,0:0:0:0:
64,192,85097,1,0,0:0:0:0:
192,192,85097,1,0,0:0:0:0:
448,192,85097,1,8,0:0:0:0:
192,192,85200,1,0,0:0:0:0:
320,192,85200,1,0,0:0:0:0:
320,192,85304,1,2,0:0:0:0:
64,192,85304,1,0,0:0:0:0:
192,192,85407,1,2,0:0:0:0:
448,192,85407,1,0,0:0:0:0:
64,192,85511,1,2,0:0:0:0:
320,192,85511,1,0,0:0:0:0:
64,192,85718,1,0,0:0:0:0:
448,192,85718,1,2,0:0:0:0:
192,192,85821,1,0,0:0:0:0:
320,192,85821,1,2,0:0:0:0:
64,192,85924,1,0,0:0:0:0:
448,192,85924,1,8,0:0:0:0:
320,192,85924,1,0,0:0:0:0:
192,192,86028,1,2,0:0:0:0:
448,192,86028,1,0,0:0:0:0:
64,192,86131,1,0,0:0:0:0:
320,192,86235,1,2,0:0:0:0:
448,192,86235,1,0,0:0:0:0:
64,192,86442,1,8,0:0:0:0:
448,192,86442,1,0,0:0:0:0:
192,192,86442,1,0,0:0:0:0:
64,192,86649,1,0,0:0:0:0:
320,192,86649,1,2,0:0:0:0:
320,192,86752,1,0,0:0:0:0:
192,192,86752,1,0,0:0:0:0:
448,192,86752,1,8,0:0:0:0:
192,192,86856,1,4,0:0:0:0:
64,192,86856,1,0,0:0:0:0:
320,192,86959,1,4,0:0:0:0:
448,192,86959,128,0,87062:0:0:0:0:
64,192,87062,1,4,0:0:0:0:
320,192,87062,1,0,0:0:0:0:
192,192,87166,1,2,0:0:0:0:
64,192,87166,1,0,0:0:0:0:
448,192,87166,128,0,87373:0:0:0:0:
64,192,87373,1,2,0:0:0:0:
192,192,87373,1,0,0:0:0:0:
320,192,87476,1,2,0:0:0:0:
192,192,87476,1,0,0:0:0:0:
64,192,87580,1,0,0:0:0:0:
320,192,87580,1,0,0:0:0:0:
448,192,87580,1,8,0:0:0:0:
192,192,87683,1,2,0:0:0:0:
448,192,87683,1,0,0:0:0:0:
320,192,87890,1,2,0:0:0:0:
192,192,87890,1,0,0:0:0:0:
64,192,87993,1,0,0:0:0:0:
448,192,87993,1,0,0:0:0:0:
320,192,88097,1,0,0:0:0:0:
448,192,88097,1,2,0:0:0:0:
320,192,88304,1,0,0:0:0:0:
192,192,88304,1,2,0:0:0:0:
448,192,88407,1,0,0:0:0:0:
64,192,88407,1,8,0:0:0:0:
320,192,88407,1,0,0:0:0:0:
448,192,88511,1,0,0:0:0:0:
192,192,88511,1,0,0:0:0:0:
64,192,88614,1,2,0:0:0:0:
192,192,88614,1,0,0:0:0:0:
448,192,88718,1,2,0:0:0:0:
320,192,88718,1,0,0:0:0:0:
192,192,88821,1,0,0:0:0:0:
320,192,88821,1,2,0:0:0:0:
64,192,88821,1,0,0:0:0:0:
64,192,89028,1,0,0:0:0:0:
192,192,89028,1,2,0:0:0:0:
192,192,89131,1,0,0:0:0:0:
448,192,89131,1,2,0:0:0:0:
64,192,89235,1,0,0:0:0:0:
448,192,89235,1,8,0:0:0:0:
320,192,89235,1,0,0:0:0:0:
192,192,89338,1,0,0:0:0:0:
320,192,89338,1,2,0:0:0:0:
64,192,89442,1,0,0:0:0:0:
448,192,89545,1,0,0:0:0:0:
320,192,89545,1,0,0:0:0:0:
192,192,89649,128,0,89700:0:0:0:0:
320,192,89649,1,2,0:0:0:0:
64,192,89752,128,2,89804:0:0:0:0:
320,192,89856,128,0,89907:0:0:0:0:
448,192,89856,1,2,0:0:0:0:
192,192,89959,128,8,90011:0:0:0:0:
448,192,90062,128,8,90114:0:0:0:0:
64,192,90062,1,0,0:0:0:0:
320,192,90166,128,8,90218:0:0:0:0:
192,192,90269,1,0,0:0:0:0:
64,192,90269,128,8,90321:0:0:0:0:
448,192,90373,128,8,90424:0:0:0:0:
64,192,90476,1,0,0:0:0:0:
320,192,90476,1,2,0:0:0:0:
192,192,90476,128,0,90683:0:0:0:0:
448,192,90683,1,2,0:0:0:0:
320,192,90683,1,0,0:0:0:0:
192,192,90787,1,2,0:0:0:0:
448,192,90787,1,0,0:0:0:0:
64,192,90890,1,8,0:0:0:0:
192,192,90890,1,0,0:0:0:0:
320,192,90890,1,0,0:0:0:0:
64,192,90993,1,0,0:0:0:0:
448,192,90993,1,2,0:0:0:0:
64,192,91200,1,2,0:0:0:0:
320,192,91200,1,0,0:0:0:0:
448,192,91304,1,0,0:0:0:0:
64,192,91304,1,0,0:0:0:0:
320,192,91407,1,0,0:0:0:0:
192,192,91407,1,2,0:0:0:0:
192,192,91614,1,0,0:0:0:0:
320,192,91614,1,2,0:0:0:0:
192,192,91718,1,0,0:0:0:0:
448,192,91718,1,0,0:0:0:0:
64,192,91718,1,8,0:0:0:0:
448,192,91821,1,0,0:0:0:0:
320,192,91821,1,0,0:0:0:0:
320,192,91924,1,0,0:0:0:0:
192,192,91924,1,2,0:0:0:0:
448,192,92028,1,2,0:0:0:0:
64,192,92028,1,0,0:0:0:0:
320,192,92131,1,2,0:0:0:0:
192,192,92131,1,0,0:0:0:0:
448,192,92131,1,0,0:0:0:0:
320,192,92338,1,0,0:0:0:0:
448,192,92338,1,2,0:0:0:0:
64,192,92442,1,2,0:0:0:0:
192,192,92442,1,0,0:0:0:0:
320,192,92545,1,0,0:0:0:0:
64,192,92545,1,0,0:0:0:0:
448,192,92545,1,8,0:0:0:0:
320,192,92649,1,0,0:0:0:0:
192,192,92649,1,2,0:0:0:0:
64,192,92752,1,0,0:0:0:0:
192,192,92856,1,2,0:0:0:0:
320,192,93062,1,8,0:0:0:0:
64,192,93062,1,0,0:0:0:0:
448,192,93062,1,0,0:0:0:0:
192,192,93269,1,0,0:0:0:0:
448,192,93269,1,2,0:0:0:0:
64,192,93373,1,8,0:0:0:0:
448,192,93373,1,0,0:0:0:0:
320,192,93373,1,0,0:0:0:0:
320,192,93476,1,0,0:0:0:0:
192,192,93476,1,4,0:0:0:0:
448,192,93580,1,4,0:0:0:0:
64,192,93580,128,0,93683:0:0:0:0:
192,192,93683,1,0,0:0:0:0:
320,192,93683,1,4,0:0:0:0:
192,192,93787,1,2,0:0:0:0:
448,192,93787,1,0,0:0:0:0:
64,192,93787,128,0,93993:0:0:0:0:
448,192,93993,1,2,0:0:0:0:
320,192,93993,1,0,0:0:0:0:
192,192,94097,1,0,0:0:0:0:
320,192,94097,1,2,0:0:0:0:
64,192,94200,1,8,0:0:0:0:
448,192,94200,1,0,0:0:0:0:
192,192,94200,1,0,0:0:0:0:
320,192,94304,1,2,0:0:0:0:
320,192,94511,1,0,0:0:0:0:
192,192,94511,1,2,0:0:0:0:
448,192,94614,1,0,0:0:0:0:
320,192,94614,1,0,0:0:0:0:
64,192,94718,1,2,0:0:0:0:
192,192,94718,1,0,0:0:0:0:
192,192,94924,1,0,0:0:0:0:
320,192,94924,1,2,0:0:0:0:
64,192,95028,1,8,0:0:0:0:
192,192,95028,1,0,0:0:0:0:
448,192,95028,1,0,0:0:0:0:
320,192,95131,1,0,0:0:0:0:
448,192,95131,1,0,0:0:0:0:
192,192,95235,1,2,0:0:0:0:
64,192,95235,1,0,0:0:0:0:
448,192,95338,1,2,0:0:0:0:
64,192,95338,1,0,0:0:0:0:
448,192,95442,1,0,0:0:0:0:
192,192,95442,1,0,0:0:0:0:
320,192,95442,1,2,0:0:0:0:
448,192,95649,1,2,0:0:0:0:
320,192,95649,1,0,0:0:0:0:
448,192,95752,1,0,0:0:0:0:
192,192,95752,1,2,0:0:0:0:
192,192,95856,1,0,0:0:0:0:
64,192,95856,1,8,0:0:0:0:
320,192,95856,1,0,0:0:0:0:
448,192,95959,5,2,0:0:0:0:
64,192,95959,128,0,96166:0:0:0:0:
320,192,96011,1,0,0:0:0:0:
192,192,96062,128,0,96166:0:0:0:0:
448,192,96166,1,0,0:0:0:0:
320,192,96166,1,0,0:0:0:0:
64,192,96269,1,2,0:0:0:0:
192,192,96269,1,0,0:0:0:0:
320,192,96269,1,0,0:0:0:0:
448,192,96338,1,8,0:0:0:0:
192,192,96407,1,8,0:0:0:0:
320,192,96476,1,8,0:0:0:0:
448,192,96476,1,0,0:0:0:0:
64,192,96545,1,8,0:0:0:0:
320,192,96614,1,0,0:0:0:0:
192,192,96614,1,8,0:0:0:0:
448,192,96683,1,4,0:0:0:0:
64,192,96683,1,0,0:0:0:0:
320,192,96752,1,4,0:0:0:0:
192,192,96821,1,4,0:0:0:0:
64,192,96890,1,4,0:0:0:0:
448,192,96959,1,0,0:0:0:0:
192,192,96959,1,4,0:0:0:0:
320,192,97028,1,4,0:0:0:0:
448,192,97097,128,0,98441:0:0:0:0:
192,192,97097,1,0,0:0:0:80:cymbal.wav
64,192,97097,1,2,0:0:0:0:
64,192,97303,128,0,97510:0:0:0:0:
320,192,97303,1,2,0:0:0:0:
320,192,97510,128,0,97717:0:0:0:0:
192,192,97510,1,8,0:0:0:0:
64,192,97717,128,0,97924:0:0:0:0:
192,192,97717,1,2,0:0:0:0:
192,192,97924,128,0,98234:0:0:0:0:
320,192,97924,1,2,0:0:0:0:
64,192,98234,128,0,98752:0:0:0:0:
320,192,98234,1,8,0:0:0:0:
192,192,98545,1,0,0:0:0:0:
320,192,98545,1,0,0:0:0:80:cymbal short.wav
448,192,98545,1,2,0:0:0:0:
448,192,98752,128,0,98959:0:0:0:0:
320,192,98752,1,2,0:0:0:0:
192,192,98821,1,2,0:0:0:0:
64,192,98890,1,2,0:0:0:0:
192,192,98959,128,0,99165:0:0:0:0:
320,192,98959,1,8,0:0:0:0:
448,192,99165,128,0,99372:0:0:0:0:
64,192,99165,1,2,0:0:0:0:
320,192,99372,128,0,99579:0:0:0:0:
192,192,99372,1,2,0:0:0:0:
64,192,99579,128,0,99683:0:0:0:0:
448,192,99579,1,2,0:0:0:0:
192,192,99683,128,0,99890:0:0:0:0:
320,192,99683,1,8,0:0:0:0:
320,192,99890,128,8,99993:0:0:0:0:
448,192,99993,128,0,100200:0:0:0:0:
64,192,99993,1,2,0:0:0:0:
192,192,99993,1,0,0:0:0:70:cymbal.wav
64,192,100200,128,0,100407:0:0:0:0:
192,192,100200,1,2,0:0:0:0:
320,192,100407,128,0,100614:0:0:0:0:
192,192,100407,1,8,0:0:0:0:
448,192,100407,1,0,0:0:0:0:
64,192,100614,128,0,100821:0:0:0:0:
448,192,100614,1,2,0:0:0:0:
192,192,100821,128,0,101131:0:0:0:0:
320,192,100821,1,2,0:0:0:0:
448,192,100924,1,2,0:0:0:0:
64,192,100993,1,2,0:0:0:0:
320,192,101062,1,2,0:0:0:0:
448,192,101131,1,8,0:0:0:0:
64,192,101131,128,0,101441:0:0:0:0:
192,192,101338,1,8,0:0:0:0:
320,192,101441,1,2,0:0:0:0:
448,192,101441,1,4,0:0:0:0:
64,192,101544,1,2,0:0:0:0:
320,192,101544,1,0,0:0:0:0:
192,192,101647,1,2,0:0:0:0:
64,192,101647,1,0,0:0:0:0:
192,192,101751,1,8,0:0:0:0:
320,192,101751,1,0,0:0:0:0:
448,192,101751,1,2,0:0:0:0:
320,192,102061,1,4,0:0:0:0:
64,192,102061,1,2,0:0:0:0:
320,192,102165,1,0,0:0:0:0:
448,192,102165,1,2,0:0:0:0:
448,192,102268,1,0,0:0:0:0:
192,192,102268,1,2,0:0:0:0:
192,192,102372,1,0,0:0:0:0:
64,192,102372,1,8,0:0:0:0:
320,192,102372,1,2,0:0:0:0:
192,192,102682,1,2,0:0:0:0:
64,192,102682,1,4,0:0:0:0:
192,192,102785,1,0,0:0:0:0:
320,192,102785,1,2,0:0:0:0:
64,192,102889,1,2,0:0:0:0:
320,192,102889,1,0,0:0:0:0:
448,192,102992,1,2,0:0:0:0:
192,192,102992,1,8,0:0:0:0:
64,192,102992,1,0,0:0:0:0:
448,192,103096,1,0,0:0:0:0:
320,192,103096,1,2,0:0:0:0:
64,192,103199,1,0,0:0:0:0:
192,192,103199,1,2,0:0:0:0:
192,192,103303,1,0,0:0:0:0:
448,192,103303,1,2,0:0:0:0:
64,192,103406,1,2,0:0:0:0:
320,192,103406,1,0,0:0:0:0:
320,192,103509,1,2,0:0:0:0:
448,192,103509,1,0,0:0:0:0:
192,192,103509,1,0,0:0:0:80:cymbal short.wav
64,192,103509,1,8,0:0:0:0:
64,192,103819,1,2,0:0:0:0:
192,192,103819,1,0,0:0:0:0:
320,192,103819,1,0,0:0:0:0:
320,192,103922,1,2,0:0:0:0:
448,192,103922,1,0,0:0:0:0:
448,192,104026,1,2,0:0:0:0:
192,192,104026,1,0,0:0:0:0:
320,192,104129,1,8,0:0:0:0:
192,192,104129,1,2,0:0:0:0:
64,192,104129,1,0,0:0:0:70:cymbal short.wav
448,192,104233,1,2,0:0:0:0:
64,192,104336,1,0,0:0:0:0:
192,192,104336,1,2,0:0:0:0:
320,192,104474,1,0,0:0:0:0:
448,192,104474,1,8,0:0:0:0:
64,192,104612,1,8,0:0:0:0:
192,192,104612,1,0,0:0:0:0:
448,192,104612,1,0,0:0:0:0:
64,192,104750,1,0,0:0:0:0:
320,192,104750,1,2,0:0:0:0:
192,192,104888,1,4,0:0:0:0:
320,192,104888,1,0,0:0:0:0:
192,192,105026,1,0,0:0:0:0:
448,192,105026,1,4,0:0:0:0:
448,192,105164,1,0,0:0:0:0:
320,192,105164,1,0,0:0:0:70:cymbal.wav
64,192,105164,1,2,0:0:0:0:
64,192,105371,1,0,0:0:0:0:
192,192,105371,1,8,0:0:0:0:
448,192,105371,1,0,0:0:0:0:
320,192,105474,1,0,0:0:0:0:
448,192,105577,1,2,0:0:0:0:
192,192,105577,1,0,0:0:0:0:
64,192,105577,1,0,0:0:0:0:
64,192,105681,1,0,0:0:0:0:
192,192,105681,1,0,0:0:0:0:
320,192,105681,1,2,0:0:0:0:
448,192,105784,1,8,0:0:0:0:
64,192,105888,1,0,0:0:0:0:
320,192,105991,1,2,0:0:0:0:
448,192,105991,1,0,0:0:0:0:
192,192,106095,1,0,0:0:0:0:
64,192,106198,1,8,0:0:0:0:
320,192,106198,1,0,0:0:0:0:
448,192,106198,1,0,0:0:0:0:
64,192,106302,1,0,0:0:0:0:
192,192,106302,1,0,0:0:0:0:
320,192,106302,1,0,0:0:0:0:
448,192,106405,1,2,0:0:0:0:
64,192,106509,1,0,0:0:0:0:
192,192,106509,1,2,0:0:0:0:
320,192,106612,1,8,0:0:0:0:
448,192,106612,1,0,0:0:0:0:
64,192,106715,1,0,0:0:0:0:
192,192,106819,1,0,0:0:0:0:
320,192,106819,1,2,0:0:0:0:
448,192,106819,1,0,0:0:0:0:
192,192,106922,1,2,0:0:0:0:
320,192,106922,1,0,0:0:0:0:
64,192,106922,1,0,0:0:0:0:
448,192,107026,1,8,0:0:0:0:
64,192,107129,1,0,0:0:0:0:
320,192,107233,1,2,0:0:0:0:
448,192,107233,128,0,107284:0:0:0:0:
64,192,107336,1,2,0:0:0:0:
448,192,107440,1,0,0:0:0:0:
192,192,107440,1,8,0:0:0:0:
320,192,107440,1,0,0:0:0:0:
448,192,107543,1,0,0:0:0:0:
192,192,107543,1,0,0:0:0:0:
64,192,107543,1,0,0:0:0:0:
320,192,107646,128,2,107698:0:0:0:0:
64,192,107750,1,0,0:0:0:0:
448,192,107853,1,8,0:0:0:0:
320,192,107853,1,0,0:0:0:0:
64,192,107957,1,0,0:0:0:0:
320,192,108060,1,2,0:0:0:0:
448,192,108060,1,0,0:0:0:0:
192,192,108060,128,0,108112:0:0:0:0:
448,192,108164,1,0,0:0:0:0:
64,192,108164,1,2,0:0:0:0:
320,192,108164,1,0,0:0:0:0:
192,192,108267,1,8,0:0:0:0:
448,192,108371,1,0,0:0:0:0:
448,192,108474,1,2,0:0:0:0:
192,192,108474,1,0,0:0:0:0:
64,192,108474,128,0,108526:0:0:0:0:
64,192,108681,1,0,0:0:0:0:
320,192,108681,1,8,0:0:0:0:
448,192,108681,1,0,0:0:0:0:
192,192,108784,1,0,0:0:0:0:
64,192,108888,1,0,0:0:0:0:
320,192,108888,1,0,0:0:0:0:
448,192,108888,1,2,0:0:0:0:
64,192,108991,1,0,0:0:0:0:
320,192,108991,1,0,0:0:0:0:
192,192,108991,1,2,0:0:0:0:
448,192,109095,1,8,0:0:0:0:
64,192,109198,1,0,0:0:0:0:
320,192,109302,1,2,0:0:0:0:
448,192,109302,1,0,0:0:0:0:
64,192,109405,1,0,0:0:0:0:
192,192,109509,1,8,0:0:0:0:
320,192,109509,1,0,0:0:0:0:
448,192,109509,128,0,109560:0:0:0:0:
192,192,109612,1,2,0:0:0:0:
320,192,109612,1,0,0:0:0:0:
64,192,109612,1,0,0:0:0:0:
448,192,109715,1,2,0:0:0:0:
64,192,109715,128,0,109767:0:0:0:70:cymbal short.wav
192,192,109819,1,0,0:0:0:0:
448,192,109922,1,0,0:0:0:0:
64,192,109922,1,8,0:0:0:0:
320,192,110026,1,2,0:0:0:0:
448,192,110129,1,8,0:0:0:0:
64,192,110129,1,0,0:0:0:0:
192,192,110129,128,0,110181:0:0:0:0:
448,192,110233,1,0,0:0:0:0:
64,192,110233,1,2,0:0:0:0:
320,192,110233,1,0,0:0:0:0:
192,192,110336,1,2,0:0:0:0:
320,192,110440,1,0,0:0:0:0:
448,192,110440,1,2,0:0:0:0:
64,192,110543,1,8,0:0:0:0:
192,192,110543,1,0,0:0:0:0:
320,192,110646,1,2,0:0:0:0:
448,192,110750,1,0,0:0:0:0:
192,192,110750,1,2,0:0:0:0:
64,192,110750,128,0,110802:0:0:0:0:
448,192,110853,1,2,0:0:0:0:
192,192,110853,1,0,0:0:0:0:
320,192,110853,1,0,0:0:0:0:
64,192,110957,1,8,0:0:0:0:
448,192,111060,1,0,0:0:0:0:
192,192,111060,1,2,0:0:0:0:
320,192,111164,1,2,0:0:0:0:
64,192,111164,1,0,0:0:0:0:
448,192,111267,1,2,0:0:0:0:
192,192,111371,1,8,0:0:0:0:
64,192,111371,1,0,0:0:0:0:
320,192,111371,128,0,111422:0:0:0:0:
192,192,111474,1,2,0:0:0:0:
448,192,111577,1,0,0:0:0:0:
64,192,111577,1,0,0:0:0:0:
320,192,111681,1,2,0:0:0:0:
192,192,111681,1,0,0:0:0:0:
64,192,111784,1,2,0:0:0:0:
320,192,111784,1,0,0:0:0:70:cymbal.wav
448,192,111784,128,0,111991:0:0:0:0:
64,192,111991,1,0,0:0:0:0:
192,192,111991,1,0,0:0:0:0:
448,192,112095,1,0,0:0:0:0:
320,192,112198,1,8,0:0:0:0:
192,192,112198,1,0,0:0:0:0:
192,192,112302,1,0,0:0:0:0:
64,192,112302,1,0,0:0:0:0:
320,192,112405,1,0,0:0:0:0:
448,192,112509,1,0,0:0:0:0:
64,192,112509,1,2,0:0:0:0:
192,192,112612,1,0,0:0:0:0:
320,192,112612,1,2,0:0:0:0:
64,192,112715,1,0,0:0:0:0:
320,192,112819,1,0,0:0:0:0:
448,192,112819,1,2,0:0:0:0:
320,192,112922,1,0,0:0:0:0:
64,192,112922,1,0,0:0:0:0:
192,192,113026,1,8,0:0:0:0:
448,192,113026,1,0,0:0:0:0:
64,192,113129,1,0,0:0:0:0:
448,192,113233,1,0,0:0:0:0:
320,192,113336,1,0,0:0:0:0:
64,192,113336,1,0,0:0:0:0:
192,192,113440,1,2,0:0:0:0:
448,192,113440,1,0,0:0:0:0:
64,192,113543,1,0,0:0:0:0:
192,192,113543,1,0,0:0:0:0:
320,192,113646,1,0,0:0:0:0:
448,192,113646,1,0,0:0:0:0:
64,192,113750,1,0,0:0:0:0:
320,192,113853,1,8,0:0:0:0:
192,192,113853,1,0,0:0:0:0:
448,192,113853,128,0,113905:0:0:0:0:
64,192,113957,1,0,0:0:0:0:
448,192,114060,1,0,0:0:0:0:
320,192,114060,1,2,0:0:0:0:
320,192,114164,1,0,0:0:0:0:
192,192,114164,1,2,0:0:0:0:
448,192,114267,1,0,0:0:0:0:
64,192,114267,128,0,114319:0:0:0:0:
192,192,114371,1,0,0:0:0:0:
448,192,114474,1,2,0:0:0:0:
320,192,114474,1,0,0:0:0:0:
64,192,114577,1,0,0:0:0:0:
448,192,114577,1,0,0:0:0:0:
192,192,114681,1,8,0:0:0:0:
320,192,114681,128,0,114733:0:0:0:0:
64,192,114784,1,0,0:0:0:0:
448,192,114784,1,0,0:0:0:0:
64,192,114888,1,0,0:0:0:0:
192,192,114888,1,8,0:0:0:0:
320,192,114991,1,8,0:0:0:0:
448,192,115095,1,2,0:0:0:0:
192,192,115095,128,0,115146:0:0:0:0:
64,192,115095,128,0,115302:0:0:0:0:
320,192,115302,1,0,0:0:0:0:
192,192,115371,1,0,0:0:0:0:
448,192,115405,1,0,0:0:0:0:
320,192,115440,1,0,0:0:0:0:
64,192,115509,1,8,0:0:0:0:
192,192,115509,1,0,0:0:0:0:
64,192,115612,1,0,0:0:0:0:
320,192,115612,1,0,0:0:0:0:
448,192,115715,1,0,0:0:0:0:
192,192,115715,1,0,0:0:0:0:
320,192,115819,1,2,0:0:0:0:
64,192,115922,1,2,0:0:0:0:
448,192,115922,1,0,0:0:0:0:
192,192,116026,1,0,0:0:0:0:
448,192,116129,1,2,0:0:0:0:
64,192,116129,1,0,0:0:0:0:
448,192,116233,1,0,0:0:0:0:
192,192,116233,1,0,0:0:0:0:
64,192,116336,1,0,0:0:0:0:
320,192,116336,1,8,0:0:0:0:
448,192,116440,1,0,0:0:0:0:
192,192,116543,1,0,0:0:0:0:
320,192,116543,1,0,0:0:0:0:
448,192,116646,1,0,0:0:0:0:
64,192,116750,1,2,0:0:0:0:
192,192,116750,1,0,0:0:0:0:
64,192,116853,1,0,0:0:0:0:
320,192,116853,1,0,0:0:0:0:
192,192,116957,1,0,0:0:0:0:
448,192,116957,1,0,0:0:0:0:
64,192,117060,1,0,0:0:0:0:
448,192,117164,1,8,0:0:0:0:
192,192,117164,128,0,117215:0:0:0:0:
320,192,117267,128,0,117319:0:0:0:0:
448,192,117371,1,2,0:0:0:0:
64,192,117371,128,0,117474:0:0:0:0:
192,192,117474,1,2,0:0:0:0:
448,192,117474,128,0,117577:0:0:0:0:
64,192,117577,1,2,0:0:0:0:
320,192,117577,128,0,117629:0:0:0:0:
448,192,117681,128,0,117733:0:0:0:0:
192,192,117784,128,2,117836:0:0:0:0:
448,192,117888,1,0,0:0:0:0:
64,192,117888,128,0,117940:0:0:0:0:
320,192,117991,1,8,0:0:0:0:
192,192,117991,128,0,118043:0:0:0:0:
320,192,118095,1,0,0:0:0:0:
448,192,118095,128,0,118146:0:0:0:0:
192,192,118198,1,8,0:0:0:0:
64,192,118198,128,0,118250:0:0:0:0:
192,192,118302,1,0,0:0:0:0:
320,192,118302,128,8,118353:0:0:0:0:
64,192,118405,128,0,118457:0:0:0:80:cymbal.wav
448,192,118405,1,2,0:0:0:0:
320,192,118457,1,0,0:0:0:0:
192,192,118509,1,0,0:0:0:0:
64,192,118612,128,0,118681:0:0:0:0:
448,192,118612,1,8,0:0:0:0:
192,192,118681,128,0,118750:0:0:0:0:
320,192,118750,128,0,118957:0:0:0:0:
64,192,118819,128,2,118888:0:0:0:0:
192,192,118888,128,0,119095:0:0:0:0:
448,192,118957,1,0,0:0:0:0:
64,192,119026,128,8,119371:0:0:0:0:
320,192,119095,128,0,119164:0:0:0:0:
448,192,119164,1,0,0:0:0:0:
192,192,119233,128,2,119302:0:0:0:0:
320,192,119302,128,0,119509:0:0:0:0:
448,192,119371,1,0,0:0:0:0:
192,192,119440,128,8,119784:0:0:0:0:
64,192,119509,128,0,119577:0:0:0:0:
448,192,119577,1,0,0:0:0:0:
320,192,119646,128,2,119715:0:0:0:0:
64,192,119715,128,0,119853:0:0:0:0:
448,192,119784,1,0,0:0:0:0:
320,192,119853,128,8,119922:0:0:0:0:
192,192,119922,128,0,119991:0:0:0:0:
64,192,119991,128,0,120060:0:0:0:0:
448,192,120060,1,2,0:0:0:0:
320,192,120060,1,0,0:0:0:0:
192,192,120164,1,0,0:0:0:0:
320,192,120267,1,0,0:0:0:0:
448,192,120267,128,0,120336:0:0:0:0:
64,192,120267,1,8,0:0:0:0:
192,192,120336,128,0,120405:0:0:0:0:
320,192,120405,128,0,120474:0:0:0:0:
448,192,120474,128,2,120543:0:0:0:0:
192,192,120543,128,0,120888:0:0:0:0:
320,192,120612,128,0,120681:0:0:0:0:
448,192,120681,128,8,120750:0:0:0:0:
64,192,120750,1,0,0:0:0:0:
320,192,120819,128,0,121026:0:0:0:0:
448,192,120888,128,2,120957:0:0:0:0:
64,192,120957,1,0,0:0:0:0:
192,192,121026,128,0,121164:0:0:0:0:
448,192,121095,128,8,121233:0:0:0:0:
320,192,121164,128,0,121440:0:0:0:0:
64,192,121233,1,0,0:0:0:0:
192,192,121302,128,2,121371:0:0:0:0:
448,192,121371,128,0,121509:0:0:0:0:
64,192,121509,128,8,121612:0:0:0:0:
192,192,121560,128,0,121664:0:0:0:0:
320,192,121612,128,0,121715:0:0:0:0:
448,192,121664,128,0,121767:0:0:0:0:
64,192,121715,1,2,0:0:0:0:
64,192,121922,128,0,122026:0:0:0:0:
448,192,121922,1,8,0:0:0:0:
192,192,121922,128,0,122129:0:0:0:0:
320,192,122026,128,0,122129:0:0:0:0:
448,192,122129,128,0,122233:0:0:0:0:
64,192,122129,128,2,122440:0:0:0:0:
192,192,122233,128,2,122336:0:0:0:0:
448,192,122336,128,0,122543:0:0:0:0:
320,192,122336,1,8,0:0:0:0:
192,192,122440,128,0,122646:0:0:0:0:
64,192,122543,128,0,122646:0:0:0:0:
320,192,122543,1,2,0:0:0:0:
448,192,122646,128,0,122853:0:0:0:0:
64,192,122750,128,0,122853:0:0:0:0:
192,192,122750,128,8,122853:0:0:0:0:
320,192,122853,1,2,0:0:0:0:
192,192,122957,128,0,123060:0:0:0:0:
64,192,122957,128,0,123164:0:0:0:60:cymbal.wav
448,192,122957,128,2,123060:0:0:0:0:
320,192,123060,128,0,123164:0:0:0:0:
448,192,123164,1,8,0:0:0:0:
192,192,123164,128,0,123267:0:0:0:0:
64,192,123267,128,2,123371:0:0:0:0:
320,192,123371,1,8,0:0:0:0:
448,192,123371,128,0,123474:0:0:0:0:
64,192,123474,1,2,0:0:0:0:
192,192,123577,1,2,0:0:0:0:
320,192,123577,128,0,123681:0:0:0:0:
64,192,123681,1,2,0:0:0:0:
448,192,123784,1,8,0:0:0:0:
192,192,123784,128,0,123888:0:0:0:0:
64,192,123888,1,2,0:0:0:0:
448,192,123991,1,2,0:0:0:0:
320,192,123991,128,0,124095:0:0:0:0:
64,192,124095,1,2,0:0:0:0:
192,192,124198,1,8,0:0:0:0:
448,192,124198,128,0,124276:0:0:0:0:
320,192,124302,1,2,0:0:0:0:
448,192,124405,128,0,124509:0:0:0:0:
64,192,124405,1,2,0:0:0:0:
320,192,124509,1,2,0:0:0:0:
448,192,124612,128,0,124741:0:0:0:0:
192,192,124612,1,8,0:0:0:0:
64,192,124715,1,2,0:0:0:0:
448,192,124819,128,0,124974:0:0:0:0:
320,192,124819,1,2,0:0:0:0:
64,192,124922,1,2,0:0:0:0:
448,192,125026,128,0,127922:0:0:0:0:
192,192,125026,1,2,0:0:0:0:
320,192,125026,1,0,0:0:0:80:cymbal.wav
64,192,125233,1,0,0:0:0:0:
192,192,125336,1,0,0:0:0:0:
64,192,125440,1,0,0:0:0:0:
320,192,125440,1,8,0:0:0:0:
192,192,125543,1,0,0:0:0:0:
320,192,125646,1,0,0:0:0:0:
64,192,125750,1,2,0:0:0:0:
192,192,125750,1,0,0:0:0:0:
192,192,125853,1,2,0:0:0:0:
320,192,125853,1,0,0:0:0:0:
320,192,126060,1,2,0:0:0:0:
192,192,126164,1,0,0:0:0:0:
64,192,126267,1,8,0:0:0:0:
320,192,126267,1,0,0:0:0:0:
192,192,126371,1,0,0:0:0:0:
64,192,126474,1,0,0:0:0:0:
320,192,126577,1,0,0:0:0:0:
64,192,126681,1,0,0:0:0:0:
192,192,126681,1,2,0:0:0:0:
320,192,126784,1,0,0:0:0:0:
192,192,126888,1,0,0:0:0:0:
64,192,126991,1,0,0:0:0:0:
192,192,127095,1,0,0:0:0:0:
320,192,127095,1,8,0:0:0:0:
64,192,127302,1,0,0:0:0:0:
192,192,127302,1,2,0:0:0:0:
64,192,127405,1,2,0:0:0:0:
192,192,127509,1,0,0:0:0:0:
320,192,127509,1,2,0:0:0:0:
64,192,127612,1,0,0:0:0:0:
320,192,127715,1,2,0:0:0:0:
192,192,127819,1,0,0:0:0:0:
64,192,127922,1,8,0:0:0:0:
320,192,127922,1,0,0:0:0:0:
448,192,128026,1,0,0:0:0:0:
64,192,128129,1,8,0:0:0:0:
192,192,128129,1,0,0:0:0:0:
320,192,128233,1,0,0:0:0:0:
448,192,128233,1,8,0:0:0:0:
64,192,128336,128,0,131026:0:0:0:0:
320,192,128336,1,0,0:0:0:0:
192,192,128336,1,2,0:0:0:0:
448,192,128543,1,0,0:0:0:0:
320,192,128646,1,0,0:0:0:0:
448,192,128750,1,8,0:0:0:0:
192,192,128750,1,0,0:0:0:0:
320,192,128853,1,0,0:0:0:0:
448,192,128957,1,0,0:0:0:0:
192,192,129060,1,2,0:0:0:0:
320,192,129164,1,0,0:0:0:0:
448,192,129164,1,2,0:0:0:0:
448,192,129371,1,0,0:0:0:0:
192,192,129371,1,2,0:0:0:0:
320,192,129474,1,0,0:0:0:0:
448,192,129577,1,0,0:0:0:0:
192,192,129577,1,8,0:0:0:0:
320,192,129784,5,0,0:0:0:0:
192,192,129784,1,0,0:0:0:0:
448,192,129888,5,0,0:0:0:0:
448,192,129991,5,2,0:0:0:0:
192,192,129991,1,0,0:0:0:0:
320,192,130198,1,0,0:0:0:0:
448,192,130302,1,0,0:0:0:0:
320,192,130405,1,0,0:0:0:0:
192,192,130405,1,8,0:0:0:0:
448,192,130509,1,0,0:0:0:0:
192,192,130612,1,2,0:0:0:0:
320,192,130715,1,2,0:0:0:0:
448,192,130819,5,2,0:0:0:0:
192,192,130819,1,0,0:0:0:0:
448,192,131026,1,2,0:0:0:0:
320,192,131129,1,2,0:0:0:0:
192,192,131181,1,0,0:0:0:0:
320,192,131233,1,0,0:0:0:0:
448,192,131233,1,8,0:0:0:0:
64,192,131233,1,2,0:0:0:0:
448,192,131371,1,8,0:0:0:0:
320,192,131371,1,0,0:0:0:0:
64,192,131371,1,2,0:0:0:0:
448,192,131509,128,8,131646:0:0:0:0:
64,192,131509,1,2,0:0:0:0:
64,192,131646,128,0,131853:0:0:0:90:cymbal short.wav
192,192,131646,128,0,131750:0:0:0:0:
320,192,131646,128,2,131853:0:0:0:0:
448,192,131750,128,0,131853:0:0:0:55:hat1.wav
192,192,131853,128,0,131957:0:0:0:55:hat1.wav
448,192,131957,128,0,132060:0:0:0:55:hat1.wav
320,192,132060,128,0,132164:0:0:0:55:hat1.wav
64,192,132164,128,0,132267:0:0:0:55:hat1.wav
192,192,132267,128,0,132474:0:0:0:90:cymbal short.wav
320,192,132267,128,0,132371:0:0:0:0:
448,192,132267,128,2,132474:0:0:0:0:
64,192,132371,128,0,132474:0:0:0:55:hat1.wav
320,192,132474,128,0,132577:0:0:0:55:hat1.wav
192,192,132577,128,0,132681:0:0:0:55:hat1.wav
448,192,132681,128,0,132784:0:0:0:55:hat1.wav
192,192,132784,128,0,132888:0:0:0:55:hat1.wav
64,192,132888,128,0,132991:0:0:0:0:
320,192,132888,128,2,133095:0:0:0:0:
448,192,132888,128,0,133095:0:0:0:90:cymbal short.wav
192,192,132991,128,0,133095:0:0:0:50:hat1.wav
64,192,133095,128,0,133198:0:0:0:50:hat1.wav
448,192,133198,128,0,133302:0:0:0:50:hat1.wav
320,192,133302,128,0,133405:0:0:0:50:hat1.wav
192,192,133405,128,0,133509:0:0:0:50:hat1.wav
64,192,133509,128,2,133819:0:0:0:0:
320,192,133509,128,0,133922:0:0:0:80:cymbal.wav
448,192,133509,128,0,133819:0:0:0:0:
192,192,133819,128,0,134129:0:0:0:0:
64,192,133922,128,0,134129:0:0:0:90:cymbal short.wav
448,192,133922,128,2,134026:0:0:0:0:
320,192,134026,128,0,134129:0:0:0:50:hat1.wav
448,192,134129,128,0,134233:0:0:0:50:hat1.wav
192,192,134233,128,0,134336:0:0:0:50:hat1.wav
320,192,134336,128,0,134440:0:0:0:50:hat1.wav
448,192,134440,128,0,134543:0:0:0:50:hat1.wav
64,192,134543,128,0,134646:0:0:0:0:
192,192,134543,128,2,134750:0:0:0:0:
320,192,134543,128,0,134750:0:0:0:90:cymbal short.wav
448,192,134646,128,0,134750:0:0:0:50:hat1.wav
64,192,134750,128,0,134853:0:0:0:50:hat1.wav
320,192,134853,128,0,134957:0:0:0:50:hat1.wav
448,192,134957,128,0,135060:0:0:0:50:hat1.wav
64,192,135060,128,0,135163:0:0:0:50:hat1.wav
192,192,135163,128,0,135370:0:0:0:90:cymbal short.wav
320,192,135163,128,0,135267:0:0:0:0:
448,192,135163,128,2,135370:0:0:0:0:
64,192,135267,128,0,135370:0:0:0:50:hat1.wav
320,192,135370,128,0,135474:0:0:0:50:hat1.wav
192,192,135474,128,0,135577:0:0:0:50:hat1.wav
64,192,135577,128,0,135681:0:0:0:50:hat1.wav
320,192,135681,128,0,135784:0:0:0:50:hat1.wav
448,192,135784,128,0,136094:0:0:0:80:cymbal.wav
64,192,135784,128,0,136198:0:0:0:0:
192,192,135784,128,2,136094:0:0:0:0:
192,192,136198,128,0,136612:0:0:0:0:
320,192,136198,128,0,136508:0:0:0:0:
448,192,136198,1,2,0:0:0:0:
64,192,136301,1,8,0:0:0:0:
448,192,136405,1,8,0:0:0:0:
448,192,136612,128,0,137128:0:0:0:0:
64,192,136612,128,0,136922:0:0:0:0:
320,192,136612,1,2,0:0:0:0:
192,192,136819,1,10,0:0:0:0:
320,192,136922,1,0,0:0:0:0:
192,192,137025,128,2,137231:0:0:0:0:
64,192,137025,128,0,137128:0:0:0:90:cymbal short.wav
320,192,137128,128,0,137231:0:0:0:50:hat1.wav
64,192,137231,128,0,137335:0:0:0:50:hat1.wav
448,192,137231,128,0,137335:0:0:0:0:
192,192,137335,128,0,137438:0:0:0:50:hat1.wav
320,192,137438,128,0,137542:0:0:0:50:hat1.wav
448,192,137438,128,0,137542:0:0:0:0:
192,192,137542,128,0,137645:0:0:0:50:hat1.wav
64,192,137645,128,0,137749:0:0:0:0:
320,192,137645,128,2,137852:0:0:0:0:
448,192,137645,128,0,137749:0:0:0:90:cymbal short.wav
192,192,137749,128,0,137852:0:0:0:50:hat1.wav
64,192,137852,128,0,137956:0:0:0:0:
448,192,137852,128,0,137956:0:0:0:50:hat1.wav
320,192,137956,128,0,138059:0:0:0:50:hat1.wav
192,192,138059,128,0,138162:0:0:0:50:hat1.wav
64,192,138059,128,0,138162:0:0:0:0:
448,192,138162,128,0,138266:0:0:0:50:hat1.wav
320,192,138266,128,0,138369:0:0:0:0:
192,192,138266,128,0,138473:0:0:0:90:cymbal short.wav
64,192,138266,128,2,138369:0:0:0:0:
448,192,138369,128,0,138473:0:0:0:0:
320,192,138473,128,0,138576:0:0:0:0:
64,192,138473,128,0,138576:0:0:0:50:hat1.wav
192,192,138576,128,0,138680:0:0:0:50:hat1.wav
320,192,138680,128,0,138783:0:0:0:50:hat1.wav
448,192,138680,128,0,138783:0:0:0:0:
64,192,138783,128,0,138887:0:0:0:50:hat1.wav
192,192,138887,128,0,139093:0:0:0:0:
320,192,138887,128,2,139300:0:0:0:0:
448,192,138887,128,0,139197:0:0:0:80:cymbal.wav
192,192,139197,128,0,139507:0:0:0:0:
448,192,139300,128,0,139404:0:0:0:90:cymbal short.wav
64,192,139300,128,2,139404:0:0:0:0:
320,192,139404,128,0,139507:0:0:0:50:hat1.wav
448,192,139507,128,0,139611:0:0:0:50:hat1.wav
64,192,139507,128,0,139611:0:0:0:0:
192,192,139611,128,0,139714:0:0:0:50:hat1.wav
64,192,139714,128,0,139818:0:0:0:0:
320,192,139714,128,0,139818:0:0:0:50:hat1.wav
448,192,139818,128,0,139921:0:0:0:50:hat1.wav
320,192,139921,128,2,140128:0:0:0:0:
192,192,139921,128,0,140025:0:0:0:90:cymbal short.wav
64,192,139921,128,0,140025:0:0:0:0:
448,192,140025,128,0,140128:0:0:0:50:hat1.wav
192,192,140128,128,0,140231:0:0:0:50:hat1.wav
64,192,140128,128,0,140231:0:0:0:0:
448,192,140231,128,0,140335:0:0:0:50:hat1.wav
320,192,140335,128,0,140438:0:0:0:50:hat1.wav
192,192,140335,128,0,140438:0:0:0:0:
64,192,140438,128,0,140541:0:0:0:50:hat1.wav
192,192,140541,128,0,140748:0:0:0:0:
320,192,140541,128,0,140645:0:0:0:90:cymbal short.wav
448,192,140541,128,2,140645:0:0:0:0:
64,192,140645,128,0,140748:0:0:0:0:
320,192,140748,128,0,140852:0:0:0:50:hat1.wav
448,192,140748,128,0,140852:0:0:0:0:
64,192,140852,128,0,140955:0:0:0:50:hat1.wav
192,192,140955,128,0,141059:0:0:0:50:hat1.wav
320,192,140955,128,0,141059:0:0:0:0:
448,192,141059,128,0,141162:0:0:0:50:hat1.wav
320,192,141162,128,0,141472:0:0:0:0:
192,192,141162,128,2,141576:0:0:0:0:
64,192,141162,128,0,141783:0:0:0:80:cymbal.wav
320,192,141576,1,8,0:0:0:0:
448,192,141576,1,2,0:0:0:0:
192,192,141679,1,10,0:0:0:0:
320,192,141783,1,0,0:0:0:0:
448,192,141783,1,8,0:0:0:0:
64,192,141886,1,2,0:0:0:0:
320,192,141990,1,2,0:0:0:0:
192,192,141990,128,8,142128:0:0:0:0:
448,192,142059,128,8,142335:0:0:0:0:
64,192,142128,1,8,0:0:0:0:
192,192,142197,1,8,0:0:0:0:
320,192,142266,1,8,0:0:0:0:
192,192,142403,1,2,0:0:0:0:
320,192,142403,1,0,0:0:0:80:cymbal.wav
448,192,142403,128,0,143023:0:0:0:0:
64,192,142403,128,0,142713:0:0:0:0:
192,192,142609,1,0,0:0:0:0:
320,192,142713,1,2,0:0:0:0:
64,192,142816,1,8,0:0:0:0:
192,192,142816,1,0,0:0:0:0:
320,192,142894,1,0,0:0:0:0:
64,192,142971,1,0,0:0:0:0:
192,192,143023,1,2,0:0:0:0:
320,192,143049,1,0,0:0:0:0:
64,192,143127,1,2,0:0:0:0:
448,192,143230,1,2,0:0:0:0:
192,192,143230,1,0,0:0:0:0:
64,192,143308,1,0,0:0:0:0:
448,192,143385,1,0,0:0:0:0:
320,192,143437,1,8,0:0:0:0:
192,192,143437,1,0,0:0:0:0:
64,192,143437,1,0,0:0:0:0:
448,192,143566,1,0,0:0:0:0:
64,192,143644,1,0,0:0:0:0:
192,192,143644,1,2,0:0:0:0:
448,192,143721,1,0,0:0:0:0:
64,192,143799,1,0,0:0:0:0:
320,192,143851,1,2,0:0:0:0:
448,192,143885,1,0,0:0:0:0:
192,192,143954,1,2,0:0:0:0:
64,192,143980,1,0,0:0:0:0:
448,192,144058,1,2,0:0:0:0:
320,192,144058,1,0,0:0:0:0:
64,192,144135,1,0,0:0:0:0:
448,192,144230,1,0,0:0:0:0:
192,192,144265,1,2,0:0:0:0:
64,192,144316,1,0,0:0:0:0:
448,192,144394,1,0,0:0:0:0:
320,192,144471,1,8,0:0:0:0:
64,192,144471,1,0,0:0:0:0:
192,192,144575,1,0,0:0:0:0:
448,192,144678,1,2,0:0:0:0:
320,192,144678,1,0,0:0:0:0:
64,192,144678,1,0,0:0:0:0:
64,192,144885,1,0,0:0:0:0:
320,192,144989,1,2,0:0:0:0:
448,192,144989,1,0,0:0:0:0:
64,192,145092,1,0,0:0:0:0:
320,192,145092,1,0,0:0:0:0:
448,192,145092,1,0,0:0:0:0:
192,192,145092,1,8,0:0:0:0:
64,192,145299,1,0,0:0:0:0:
192,192,145299,1,2,0:0:0:0:
448,192,145368,1,2,0:0:0:0:
64,192,145437,1,0,0:0:0:0:
320,192,145437,1,2,0:0:0:0:
192,192,145506,1,2,0:0:0:0:
64,192,145713,1,0,0:0:0:0:
192,192,145713,1,0,0:0:0:0:
320,192,145713,1,0,0:0:0:0:
448,192,145713,1,8,0:0:0:0:
64,192,145842,1,0,0:0:0:0:
192,192,145885,1,0,0:0:0:0:
320,192,145919,1,0,0:0:0:0:
448,192,145919,1,2,0:0:0:0:
320,192,146126,1,0,0:0:0:0:
192,192,146126,1,2,0:0:0:0:
320,192,146230,1,0,0:0:0:0:
448,192,146230,1,2,0:0:0:0:
64,192,146333,1,2,0:0:0:0:
192,192,146333,1,0,0:0:0:0:
320,192,146540,1,8,0:0:0:0:
448,192,146540,1,0,0:0:0:0:
64,192,146540,1,0,0:0:0:0:
192,192,146540,1,0,0:0:0:0:
320,192,146747,1,0,0:0:0:0:
192,192,146747,1,8,0:0:0:0:
448,192,146747,1,0,0:0:0:0:
192,192,146954,1,0,0:0:0:0:
64,192,146954,1,2,0:0:0:0:
64,192,147057,1,0,0:0:0:0:
448,192,147057,1,2,0:0:0:0:
448,192,147161,1,0,0:0:0:0:
320,192,147161,1,2,0:0:0:0:
64,192,147368,1,0,0:0:0:0:
192,192,147368,1,2,0:0:0:0:
320,192,147368,1,8,0:0:0:0:
192,192,147575,1,8,0:0:0:0:
448,192,147575,1,0,0:0:0:0:
448,192,147781,1,0,0:0:0:0:
320,192,147781,1,2,0:0:0:0:
192,192,147781,1,0,0:0:0:80:cymbal.wav
64,192,147781,1,0,0:0:0:0:
448,192,147987,1,0,0:0:0:0:
320,192,148091,1,2,0:0:0:0:
192,192,148194,1,0,0:0:0:0:
448,192,148194,1,8,0:0:0:0:
64,192,148298,1,0,0:0:0:0:
192,192,148367,1,0,0:0:0:0:
448,192,148401,1,0,0:0:0:0:
320,192,148401,1,2,0:0:0:0:
192,192,148505,1,2,0:0:0:0:
64,192,148608,1,2,0:0:0:0:
320,192,148608,1,0,0:0:0:0:
448,192,148712,1,0,0:0:0:0:
320,192,148815,1,0,0:0:0:0:
64,192,148815,1,0,0:0:0:0:
192,192,148815,1,8,0:0:0:0:
64,192,149022,1,0,0:0:0:0:
192,192,149022,1,0,0:0:0:0:
320,192,149022,1,0,0:0:0:0:
448,192,149022,1,2,0:0:0:0:
448,192,149229,1,2,0:0:0:0:
64,192,149229,1,0,0:0:0:0:
320,192,149332,1,2,0:0:0:0:
192,192,149332,1,0,0:0:0:0:
192,192,149436,1,2,0:0:0:0:
64,192,149436,1,0,0:0:0:0:
448,192,149539,1,0,0:0:0:0:
192,192,149643,1,0,0:0:0:0:
320,192,149643,1,2,0:0:0:0:
192,192,149849,1,8,0:0:0:0:
448,192,149849,1,0,0:0:0:0:
64,192,149849,1,0,0:0:0:0:
320,192,149953,1,0,0:0:0:0:
192,192,149953,1,0,0:0:0:0:
448,192,150056,1,2,0:0:0:0:
320,192,150056,1,0,0:0:0:0:
64,192,150134,1,0,0:0:0:0:
192,192,150212,1,0,0:0:0:0:
320,192,150289,1,0,0:0:0:0:
192,192,150367,1,2,0:0:0:0:
64,192,150367,1,0,0:0:0:0:
448,192,150470,1,8,0:0:0:0:
192,192,150470,1,0,0:0:0:0:
64,192,150470,1,0,0:0:0:0:
320,192,150470,1,0,0:0:0:0:
192,192,150677,1,0,0:0:0:0:
448,192,150677,1,2,0:0:0:0:
320,192,150746,1,2,0:0:0:0:
64,192,150815,1,2,0:0:0:0:
448,192,150884,1,2,0:0:0:0:
192,192,150953,1,0,0:0:0:0:
320,192,151022,1,0,0:0:0:0:
64,192,151091,1,8,0:0:0:0:
192,192,151091,1,0,0:0:0:0:
448,192,151116,1,8,0:0:0:0:
320,192,151159,1,8,0:0:0:0:
192,192,151228,1,0,0:0:0:0:
448,192,151297,1,2,0:0:0:0:
64,192,151504,1,0,0:0:0:0:
320,192,151504,1,2,0:0:0:0:
448,192,151608,1,2,0:0:0:0:
448,192,151711,1,0,0:0:0:0:
192,192,151711,1,2,0:0:0:0:
448,192,151918,128,0,152332:0:0:0:0:
320,192,151918,1,0,0:0:0:0:
64,192,151918,1,8,0:0:0:0:
320,192,152125,1,0,0:0:0:0:
192,192,152125,1,8,0:0:0:0:
64,192,152125,1,0,0:0:0:0:
192,192,152228,1,2,0:0:0:0:
320,192,152332,128,0,152746:0:0:0:0:
64,192,152332,1,2,0:0:0:0:
448,192,152435,1,0,0:0:0:0:
192,192,152539,1,2,0:0:0:0:
64,192,152642,1,2,0:0:0:0:
192,192,152746,128,0,153159:0:0:0:0:
64,192,152746,1,8,0:0:0:0:
448,192,152746,128,2,153082:0:0:0:0:
64,192,153159,128,0,154503:0:0:0:70:cymbal.wav
320,192,153159,1,2,0:0:0:0:
448,192,153159,1,0,0:0:0:0:
192,192,153262,1,0,0:0:0:0:
448,192,153365,1,0,0:0:0:0:
320,192,153365,1,0,0:0:0:0:
192,192,153400,1,0,0:0:0:0:
448,192,153469,1,2,0:0:0:0:
320,192,153538,1,0,0:0:0:0:
192,192,153572,1,0,0:0:0:0:
448,192,153676,1,0,0:0:0:0:
192,192,153779,1,2,0:0:0:0:
320,192,153883,1,0,0:0:0:0:
320,192,153986,1,0,0:0:0:0:
448,192,153986,1,0,0:0:0:0:
192,192,153986,1,8,0:0:0:0:
448,192,154090,1,0,0:0:0:0:
320,192,154124,1,0,0:0:0:0:
192,192,154193,1,0,0:0:0:0:
448,192,154296,1,0,0:0:0:0:
320,192,154400,1,0,0:0:0:0:
192,192,154434,1,0,0:0:0:0:
448,192,154503,1,0,0:0:0:0:
192,192,154607,1,2,0:0:0:0:
320,192,154607,1,0,0:0:0:0:
64,192,154607,1,0,0:0:0:0:
192,192,154710,1,0,0:0:0:0:
448,192,154710,1,0,0:0:0:0:
320,192,154710,1,2,0:0:0:0:
64,192,154814,1,0,0:0:0:0:
448,192,154883,1,0,0:0:0:0:
192,192,154917,1,0,0:0:0:0:
320,192,154952,1,0,0:0:0:0:
64,192,155021,1,0,0:0:0:0:
192,192,155090,1,0,0:0:0:0:
448,192,155124,1,2,0:0:0:0:
320,192,155124,1,0,0:0:0:0:
64,192,155227,1,0,0:0:0:0:
192,192,155296,1,0,0:0:0:0:
448,192,155365,1,0,0:0:0:0:
320,192,155434,1,0,0:0:0:0:
64,192,155434,1,2,0:0:0:0:
192,192,155503,1,0,0:0:0:0:
448,192,155572,1,0,0:0:0:0:
64,192,155641,1,0,0:0:0:0:
192,192,155641,1,0,0:0:0:0:
320,192,155641,1,8,0:0:0:0:
448,192,155710,1,0,0:0:0:0:
64,192,155779,1,0,0:0:0:0:
320,192,155848,1,0,0:0:0:0:
192,192,155952,1,2,0:0:0:0:
320,192,155977,1,0,0:0:0:0:
448,192,156055,1,2,0:0:0:0:
64,192,156081,1,8,0:0:0:0:
320,192,156262,1,8,0:0:0:0:
448,192,156288,1,8,0:0:0:0:
192,192,156365,1,4,0:0:0:0:
64,192,156391,1,4,0:0:0:0:
320,192,156469,1,2,0:0:0:0:
448,192,156469,1,0,0:0:0:0:
192,192,156538,1,0,0:0:0:0:
448,192,156607,1,0,0:0:0:0:
64,192,156676,1,0,0:0:0:0:
192,192,156745,1,0,0:0:0:0:
320,192,156779,1,0,0:0:0:0:
448,192,156779,1,2,0:0:0:0:
64,192,156883,1,0,0:0:0:0:
320,192,156952,1,0,0:0:0:0:
192,192,157021,1,0,0:0:0:0:
320,192,157090,1,0,0:0:0:0:
64,192,157090,1,2,0:0:0:0:
448,192,157159,1,0,0:0:0:0:
192,192,157227,1,0,0:0:0:0:
320,192,157296,1,8,0:0:0:0:
64,192,157296,1,0,0:0:0:0:
448,192,157296,1,0,0:0:0:0:
192,192,157400,1,0,0:0:0:0:
64,192,157503,1,0,0:0:0:0:
448,192,157572,1,0,0:0:0:0:
192,192,157641,1,0,0:0:0:0:
320,192,157710,1,0,0:0:0:0:
64,192,157710,1,0,0:0:0:0:
448,192,157814,1,0,0:0:0:0:
64,192,157917,1,2,0:0:0:0:
192,192,157917,1,0,0:0:0:0:
320,192,157917,1,0,0:0:0:0:
192,192,158021,1,0,0:0:0:0:
320,192,158021,1,0,0:0:0:0:
448,192,158021,1,2,0:0:0:0:
64,192,158124,1,2,0:0:0:0:
448,192,158193,1,0,0:0:0:0:
320,192,158262,1,0,0:0:0:0:
64,192,158331,1,2,0:0:0:0:
448,192,158400,1,0,0:0:0:0:
192,192,158434,1,2,0:0:0:0:
64,192,158538,1,0,0:0:0:0:
320,192,158538,1,2,0:0:0:0:
448,192,158538,1,0,0:0:0:90:cymbal short.wav
192,192,158641,1,0,0:0:0:0:
320,192,158745,1,0,0:0:0:0:
192,192,158848,1,0,0:0:0:0:
64,192,158848,1,0,0:0:0:90:cymbal short.wav
448,192,158848,1,2,0:0:0:0:
320,192,158952,1,0,0:0:0:0:
448,192,159159,1,0,0:0:0:90:cymbal short.wav
320,192,159159,1,0,0:0:0:0:
64,192,159159,1,2,0:0:0:0:
192,192,159365,1,8,0:0:0:0:
320,192,159365,1,0,0:0:0:0:
192,192,159469,1,0,0:0:0:0:
64,192,159469,1,8,0:0:0:0:
320,192,159572,1,0,0:0:0:0:
448,192,159572,1,8,0:0:0:0:
192,192,159676,1,0,0:0:0:0:
320,192,159676,1,8,0:0:0:0:
448,192,159779,1,2,0:0:0:0:
64,192,159779,1,0,0:0:0:80:cymbal.wav
192,192,159848,1,0,0:0:0:0:
320,192,159917,1,0,0:0:0:0:
448,192,159986,1,0,0:0:0:0:
192,192,160038,1,0,0:0:0:0:
64,192,160090,1,0,0:0:0:0:
320,192,160090,1,2,0:0:0:0:
448,192,160141,1,0,0:0:0:0:
192,192,160193,1,0,0:0:0:0:
64,192,160262,1,0,0:0:0:0:
448,192,160331,1,0,0:0:0:0:
64,192,160400,1,0,0:0:0:0:
192,192,160400,1,2,0:0:0:0:
320,192,160469,1,0,0:0:0:0:
448,192,160538,1,0,0:0:0:0:
64,192,160607,1,0,0:0:0:0:
192,192,160607,1,0,0:0:0:0:
320,192,160607,1,8,0:0:0:0:
448,192,160710,1,0,0:0:0:0:
320,192,160762,1,0,0:0:0:0:
64,192,160814,1,0,0:0:0:0:
192,192,160883,1,0,0:0:0:0:
320,192,160952,1,0,0:0:0:0:
192,192,161021,1,0,0:0:0:0:
448,192,161021,1,0,0:0:0:0:
64,192,161090,1,0,0:0:0:0:
448,192,161159,1,0,0:0:0:0:
64,192,161227,1,0,0:0:0:0:
192,192,161227,1,0,0:0:0:0:
320,192,161227,1,2,0:0:0:0:
448,192,161331,1,0,0:0:0:0:
320,192,161331,1,0,0:0:0:0:
192,192,161331,1,2,0:0:0:0:
448,192,161434,1,2,0:0:0:0:
64,192,161503,1,0,0:0:0:0:
320,192,161538,1,0,0:0:0:0:
192,192,161572,1,0,0:0:0:0:
448,192,161641,1,0,0:0:0:0:
320,192,161710,1,0,0:0:0:0:
64,192,161745,1,2,0:0:0:0:
192,192,161745,1,0,0:0:0:0:
320,192,161848,1,0,0:0:0:0:
448,192,161900,1,0,0:0:0:0:
64,192,161952,1,0,0:0:0:0:
320,192,161986,1,0,0:0:0:0:
192,192,162055,1,0,0:0:0:0:
448,192,162055,1,2,0:0:0:0:
64,192,162159,1,0,0:0:0:0:
448,192,162262,1,0,0:0:0:0:
320,192,162262,1,8,0:0:0:0:
192,192,162262,1,0,0:0:0:0:
64,192,162331,1,0,0:0:0:0:
448,192,162400,1,0,0:0:0:0:
192,192,162469,1,0,0:0:0:0:
320,192,162538,1,0,0:0:0:0:
64,192,162572,1,2,0:0:0:0:
192,192,162624,1,0,0:0:0:0:
320,192,162676,1,4,0:0:0:0:
448,192,162676,1,2,0:0:0:0:
192,192,162779,1,0,0:0:0:0:
64,192,162779,1,4,0:0:0:0:
448,192,162883,1,4,0:0:0:0:
320,192,162952,1,0,0:0:0:0:
192,192,162986,1,4,0:0:0:0:
64,192,163021,1,0,0:0:0:0:
320,192,163090,1,4,0:0:0:0:
448,192,163159,1,0,0:0:0:0:
192,192,163193,1,2,0:0:0:0:
64,192,163296,1,0,0:0:0:70:cymbal.wav
448,192,163296,1,0,0:0:0:0:
320,192,163296,1,2,0:0:0:0:
64,192,163503,1,0,0:0:0:0:
448,192,163555,1,0,0:0:0:0:
192,192,163607,1,2,0:0:0:0:
320,192,163676,1,0,0:0:0:0:
448,192,163710,1,8,0:0:0:0:
64,192,163710,1,0,0:0:0:0:
192,192,163779,1,0,0:0:0:0:
448,192,163848,1,0,0:0:0:0:
320,192,163917,1,0,0:0:0:0:
192,192,163986,1,0,0:0:0:0:
64,192,164021,1,0,0:0:0:0:
448,192,164021,1,8,0:0:0:0:
320,192,164055,1,0,0:0:0:0:
192,192,164124,1,2,0:0:0:0:
448,192,164193,1,0,0:0:0:0:
64,192,164262,1,0,0:0:0:0:
448,192,164331,1,2,0:0:0:0:
192,192,164331,1,0,0:0:0:0:
320,192,164400,1,0,0:0:0:0:
192,192,164469,1,0,0:0:0:0:
64,192,164538,1,8,0:0:0:0:
448,192,164538,1,0,0:0:0:0:
320,192,164538,1,0,0:0:0:0:
192,192,164641,1,0,0:0:0:0:
64,192,164641,1,0,0:0:0:0:
448,192,164641,1,4,0:0:0:0:
320,192,164745,1,4,0:0:0:0:
448,192,164814,1,0,0:0:0:0:
64,192,164848,1,4,0:0:0:0:
192,192,164848,1,0,0:0:0:0:
192,192,164952,1,0,0:0:0:0:
320,192,164952,1,2,0:0:0:0:
448,192,164952,1,0,0:0:0:60:cymbal.wav
64,192,165021,1,0,0:0:0:0:
320,192,165090,1,0,0:0:0:0:
192,192,165159,1,0,0:0:0:0:
448,192,165227,1,0,0:0:0:0:
320,192,165296,1,0,0:0:0:0:
64,192,165365,1,8,0:0:0:0:
192,192,165365,1,0,0:0:0:0:
448,192,165434,1,0,0:0:0:0:
192,192,165503,1,0,0:0:0:0:
320,192,165572,1,0,0:0:0:0:
64,192,165624,1,0,0:0:0:0:
320,192,165676,1,0,0:0:0:0:
448,192,165676,1,8,0:0:0:0:
192,192,165727,1,0,0:0:0:0:
64,192,165779,1,2,0:0:0:0:
320,192,165848,1,0,0:0:0:0:
192,192,165883,1,2,0:0:0:0:
448,192,165986,1,0,0:0:0:0:
320,192,165986,1,2,0:0:0:0:
64,192,165986,1,8,0:0:0:0:
64,192,166124,1,0,0:0:0:0:
192,192,166124,1,8,0:0:0:0:
448,192,166124,1,0,0:0:0:0:
448,192,166262,1,0,0:0:0:0:
320,192,166262,1,0,0:0:0:0:
64,192,166262,1,0,0:0:0:0:
192,192,166400,1,0,0:0:0:60:cymbal.wav
320,192,166400,1,0,0:0:0:0:
448,192,166400,1,2,0:0:0:0:
64,192,166469,1,0,0:0:0:0:
448,192,166538,1,0,0:0:0:0:
64,192,166607,1,0,0:0:0:0:
320,192,166607,1,8,0:0:0:0:
192,192,166659,1,0,0:0:0:0:
448,192,166710,1,0,0:0:0:0:
320,192,166762,1,0,0:0:0:0:
64,192,166814,1,2,0:0:0:0:
192,192,166883,1,0,0:0:0:0:
448,192,166917,1,2,0:0:0:0:
320,192,166952,1,0,0:0:0:0:
64,192,167021,1,0,0:0:0:0:
192,192,167021,1,8,0:0:0:0:
320,192,167090,1,0,0:0:0:0:
64,192,167159,1,0,0:0:0:0:
448,192,167227,1,2,0:0:0:0:
192,192,167279,1,0,0:0:0:0:
320,192,167331,1,0,0:0:0:0:
64,192,167383,1,0,0:0:0:0:
192,192,167434,1,0,0:0:0:0:
448,192,167434,1,8,0:0:0:0:
64,192,167503,1,0,0:0:0:0:
320,192,167572,1,0,0:0:0:0:
192,192,167641,1,2,0:0:0:0:
448,192,167710,1,0,0:0:0:0:
320,192,167745,1,2,0:0:0:0:
192,192,167779,1,0,0:0:0:0:
64,192,167848,1,8,0:0:0:0:
448,192,167848,1,0,0:0:0:0:
192,192,167952,1,0,0:0:0:0:
320,192,167952,1,0,0:0:0:0:
448,192,168055,1,0,0:0:0:0:
64,192,168055,1,2,0:0:0:0:
320,192,168124,1,0,0:0:0:0:
192,192,168193,1,0,0:0:0:0:
64,192,168262,1,0,0:0:0:0:
448,192,168262,1,8,0:0:0:0:
320,192,168314,1,0,0:0:0:0:
192,192,168365,1,0,0:0:0:0:
448,192,168417,1,0,0:0:0:0:
64,192,168469,1,2,0:0:0:0:
320,192,168538,1,0,0:0:0:0:
192,192,168572,1,2,0:0:0:0:
64,192,168607,1,0,0:0:0:0:
320,192,168676,1,8,0:0:0:0:
448,192,168676,1,0,0:0:0:0:
64,192,168745,1,0,0:0:0:0:
192,192,168814,1,0,0:0:0:0:
448,192,168883,1,2,0:0:0:0:
64,192,168934,1,0,0:0:0:0:
320,192,168986,1,0,0:0:0:0:
192,192,169038,1,0,0:0:0:0:
64,192,169090,1,8,0:0:0:0:
448,192,169090,1,0,0:0:0:0:
320,192,169159,1,0,0:0:0:0:
64,192,169227,1,0,0:0:0:0:
320,192,169296,1,2,0:0:0:0:
192,192,169365,1,0,0:0:0:0:
448,192,169400,1,2,0:0:0:0:
320,192,169434,1,0,0:0:0:0:
192,192,169503,1,0,0:0:0:0:
64,192,169503,1,8,0:0:0:0:
320,192,169555,1,0,0:0:0:0:
448,192,169607,1,0,0:0:0:0:
64,192,169659,1,0,0:0:0:0:
192,192,169710,1,2,0:0:0:0:
320,192,169710,1,0,0:0:0:0:
64,192,169779,1,0,0:0:0:0:
320,192,169848,1,0,0:0:0:0:
448,192,169917,1,8,0:0:0:0:
64,192,169917,1,0,0:0:0:0:
192,192,169969,1,0,0:0:0:0:
320,192,170021,1,0,0:0:0:0:
448,192,170072,1,0,0:0:0:0:
192,192,170124,1,2,0:0:0:0:
320,192,170193,1,0,0:0:0:0:
64,192,170227,1,2,0:0:0:0:
448,192,170262,1,0,0:0:0:0:
192,192,170331,1,0,0:0:0:0:
320,192,170331,1,8,0:0:0:0:
64,192,170400,1,0,0:0:0:0:
448,192,170469,1,0,0:0:0:0:
64,192,170538,1,2,0:0:0:0:
320,192,170590,1,0,0:0:0:0:
192,192,170641,1,0,0:0:0:0:
448,192,170693,1,0,0:0:0:0:
64,192,170745,1,8,0:0:0:0:
320,192,170745,1,0,0:0:0:0:
192,192,170814,1,0,0:0:0:0:
448,192,170883,1,0,0:0:0:0:
192,192,170952,1,2,0:0:0:0:
320,192,171021,1,0,0:0:0:0:
64,192,171055,1,2,0:0:0:0:
448,192,171090,1,0,0:0:0:0:
192,192,171159,1,0,0:0:0:0:
320,192,171159,1,8,0:0:0:0:
64,192,171159,1,0,0:0:0:0:
192,192,171262,1,0,0:0:0:0:
448,192,171262,1,0,0:0:0:0:
320,192,171365,1,2,0:0:0:0:
64,192,171365,1,0,0:0:0:0:
448,192,171434,1,0,0:0:0:0:
192,192,171503,1,0,0:0:0:0:
64,192,171572,1,0,0:0:0:0:
320,192,171572,1,8,0:0:0:0:
192,192,171624,1,0,0:0:0:0:
448,192,171676,1,0,0:0:0:0:
64,192,171727,1,0,0:0:0:0:
320,192,171779,1,2,0:0:0:0:
64,192,171848,1,0,0:0:0:0:
192,192,171883,1,2,0:0:0:0:
448,192,171917,1,0,0:0:0:0:
64,192,171986,1,0,0:0:0:0:
320,192,171986,1,8,0:0:0:0:
448,192,172055,1,0,0:0:0:0:
192,192,172124,1,0,0:0:0:0:
320,192,172193,1,0,0:0:0:0:
448,192,172193,1,2,0:0:0:0:
192,192,172245,1,0,0:0:0:0:
64,192,172296,1,0,0:0:0:0:
320,192,172348,1,0,0:0:0:0:
448,192,172400,1,0,0:0:0:0:
192,192,172400,1,8,0:0:0:0:
320,192,172469,1,0,0:0:0:0:
64,192,172538,1,0,0:0:0:0:
192,192,172607,1,2,0:0:0:0:
320,192,172607,1,0,0:0:0:0:
64,192,172676,1,0,0:0:0:0:
448,192,172710,1,2,0:0:0:0:
320,192,172745,1,0,0:0:0:0:
192,192,172814,1,0,0:0:0:0:
64,192,172814,1,8,0:0:0:0:
320,192,172865,1,0,0:0:0:0:
448,192,172917,1,0,0:0:0:0:
64,192,172969,1,0,0:0:0:0:
192,192,173021,1,0,0:0:0:0:
320,192,173021,1,0,0:0:0:60:cymbal.wav
448,192,173021,1,2,0:0:0:0:
64,192,173090,1,0,0:0:0:0:
320,192,173159,1,0,0:0:0:0:
448,192,173227,1,8,0:0:0:0:
64,192,173227,1,0,0:0:0:0:
192,192,173279,1,0,0:0:0:0:
320,192,173331,1,0,0:0:0:0:
64,192,173383,1,0,0:0:0:0:
192,192,173434,1,2,0:0:0:0:
320,192,173503,1,0,0:0:0:0:
64,192,173538,1,2,0:0:0:0:
448,192,173572,1,0,0:0:0:0:
320,192,173641,1,0,0:0:0:0:
192,192,173641,1,8,0:0:0:0:
448,192,173710,1,0,0:0:0:0:
64,192,173779,1,0,0:0:0:0:
448,192,173848,1,2,0:0:0:0:
192,192,173900,1,0,0:0:0:0:
64,192,173952,1,0,0:0:0:0:
320,192,174003,1,0,0:0:0:0:
448,192,174055,1,8,0:0:0:0:
192,192,174055,1,0,0:0:0:0:
64,192,174124,1,0,0:0:0:0:
192,192,174193,1,0,0:0:0:0:
320,192,174262,1,2,0:0:0:0:
192,192,174331,1,0,0:0:0:0:
64,192,174365,1,2,0:0:0:0:
448,192,174400,1,0,0:0:0:0:
320,192,174469,1,8,0:0:0:0:
192,192,174469,1,0,0:0:0:0:
448,192,174572,1,0,0:0:0:0:
64,192,174572,1,0,0:0:0:0:
192,192,174676,1,0,0:0:0:0:
320,192,174676,1,2,0:0:0:0:
448,192,174745,1,0,0:0:0:0:
192,192,174814,1,0,0:0:0:0:
64,192,174884,1,8,0:0:0:0:
448,192,174884,1,0,0:0:0:0:
320,192,174936,1,0,0:0:0:0:
192,192,174988,1,0,0:0:0:0:
448,192,175040,1,0,0:0:0:0:
64,192,175092,1,2,0:0:0:0:
320,192,175162,1,0,0:0:0:0:
192,192,175196,1,2,0:0:0:0:
448,192,175231,1,0,0:0:0:0:
64,192,175301,1,8,0:0:0:0:
192,192,175301,1,0,0:0:0:0:
448,192,175370,1,0,0:0:0:0:
320,192,175439,1,0,0:0:0:0:
64,192,175509,1,2,0:0:0:0:
192,192,175561,1,0,0:0:0:0:
320,192,175613,1,0,0:0:0:0:
64,192,175665,1,0,0:0:0:0:
448,192,175717,1,8,0:0:0:0:
192,192,175717,1,0,0:0:0:0:
64,192,175787,1,0,0:0:0:0:
320,192,175856,1,0,0:0:0:0:
448,192,175926,1,2,0:0:0:0:
64,192,175995,1,0,0:0:0:0:
320,192,176030,1,2,0:0:0:0:
448,192,176064,1,0,0:0:0:0:
192,192,176134,1,8,0:0:0:0:
320,192,176134,1,0,0:0:0:0:
64,192,176186,1,0,0:0:0:0:
448,192,176238,1,0,0:0:0:0:
192,192,176290,1,0,0:0:0:0:
64,192,176342,1,2,0:0:0:0:
320,192,176342,1,0,0:0:0:0:
192,192,176410,1,0,0:0:0:0:
448,192,176479,1,0,0:0:0:0:
192,192,176548,1,8,0:0:0:0:
64,192,176548,1,0,0:0:0:0:
320,192,176600,1,0,0:0:0:0:
448,192,176652,1,0,0:0:0:0:
192,192,176704,1,0,0:0:0:0:
320,192,176755,1,2,0:0:0:0:
64,192,176755,1,0,0:0:0:0:
192,192,176824,1,0,0:0:0:0:
448,192,176859,1,2,0:0:0:0:
320,192,176893,1,0,0:0:0:0:
64,192,176962,1,8,0:0:0:0:
192,192,176962,1,0,0:0:0:0:
448,192,177031,1,0,0:0:0:0:
320,192,177100,1,0,0:0:0:0:
448,192,177169,1,2,0:0:0:0:
64,192,177169,1,0,0:0:0:0:
192,192,177238,1,0,0:0:0:0:
448,192,177307,1,0,0:0:0:0:
320,192,177376,1,8,0:0:0:0:
64,192,177376,1,0,0:0:0:0:
448,192,177445,1,0,0:0:0:0:
192,192,177479,1,2,0:0:0:0:
320,192,177514,1,0,0:0:0:0:
192,192,177583,1,0,0:0:0:80:cymbal short.wav
64,192,177583,1,2,0:0:0:0:
448,192,177652,1,0,0:0:0:0:
320,192,177686,1,0,0:0:0:0:
192,192,177721,1,0,0:0:0:0:
64,192,177790,1,8,0:0:0:0:
192,192,177859,1,0,0:0:0:0:
448,192,177893,1,2,0:0:0:0:
320,192,177928,1,0,0:0:0:0:
192,192,177997,1,0,0:0:0:0:
64,192,177997,1,8,0:0:0:0:
448,192,178066,1,0,0:0:0:0:
320,192,178100,1,2,0:0:0:0:
192,192,178135,1,0,0:0:0:0:
64,192,178204,1,2,0:0:0:0:
448,192,178273,1,0,0:0:0:0:
192,192,178307,1,2,0:0:0:0:
64,192,178342,1,0,0:0:0:0:
320,192,178410,1,0,0:0:0:0:
448,192,178410,1,8,0:0:0:0:
192,192,178479,1,0,0:0:0:0:
64,192,178514,1,2,0:0:0:0:
448,192,178548,1,0,0:0:0:0:
320,192,178617,1,2,0:0:0:0:
448,192,178686,1,0,0:0:0:0:
192,192,178721,1,2,0:0:0:0:
64,192,178755,1,0,0:0:0:0:
448,192,178824,1,0,0:0:0:0:
320,192,178824,1,8,0:0:0:0:
192,192,178893,1,0,0:0:0:0:
64,192,178928,1,2,0:0:0:0:
320,192,178962,1,0,0:0:0:0:
192,192,179031,1,0,0:0:0:0:
448,192,179031,1,2,0:0:0:0:
64,192,179100,1,0,0:0:0:0:
320,192,179135,1,2,0:0:0:0:
192,192,179238,5,8,0:0:0:0:
64,192,179238,1,0,0:0:0:0:
448,192,179238,1,0,0:0:0:0:
448,192,179376,1,0,0:0:0:0:
320,192,179376,1,8,0:0:0:0:
64,192,179376,1,0,0:0:0:0:
64,192,179514,1,0,0:0:0:0:
192,192,179514,1,0,0:0:0:0:
448,192,179514,1,8,0:0:0:0:
64,192,179652,128,0,183593:0:0:0:0:
320,192,179652,128,0,182498:0:0:0:80:cymbal.wav
448,192,179652,128,0,182279:0:0:0:0:
192,192,179652,1,2,0:0:0:0:
192,192,182717,1,0,0:0:0:0:
320,192,182936,1,0,0:0:0:0:
448,192,183155,1,0,0:0:0:0:
320,192,183374,1,0,0:0:0:0:
192,192,183593,128,0,183812:0:0:0:0:
64,192,183812,128,0,184907:0:0:0:0:
192,192,184031,1,0,0:0:0:0:
320,192,184250,1,0,0:0:0:0:
448,192,184469,1,0,0:0:0:0:
320,192,184688,1,0,0:0:0:0:
192,192,184907,128,0,185126:0:0:0:0:
64,192,185126,128,0,186221:0:0:0:0:
192,192,185345,1,0,0:0:0:0:
320,192,185564,1,0,0:0:0:0:
448,192,185783,1,0,0:0:0:0:
320,192,186002,1,0,0:0:0:0:
192,192,186221,128,0,186440:0:0:0:0:
64,192,186440,128,0,187535:0:0:0:0:
192,192,186659,1,0,0:0:0:0:
320,192,186878,1,0,0:0:0:0:
448,192,187097,1,0,0:0:0:0:
320,192,187316,1,0,0:0:0:0:
192,192,187535,128,0,187754:0:0:0:0:
64,192,187754,128,0,188849:0:0:0:0:
192,192,187973,1,0,0:0:0:0:
320,192,188192,1,0,0:0:0:0:
448,192,188411,1,0,0:0:0:0:
320,192,188630,1,0,0:0:0:0:
192,192,188849,128,0,189068:0:0:0:0:
64,192,189068,128,0,190053:0:0:0:0:
192,192,189287,1,0,0:0:0:0:
320,192,189506,1,0,0:0:0:0:
448,192,189724,1,0,0:0:0:0:
320,192,189943,1,0,0:0:0:0:
192,192,190053,1,0,0:0:0:0:
320,192,190108,5,0,0:0:0:0:
448,192,190162,1,2,0:0:0:0:
64,192,190162,1,0,0:0:0:70:cymbal.wav
192,192,190217,1,0,0:0:0:0:
320,192,190299,128,0,190518:0:0:0:0:
64,192,190381,1,0,0:0:0:0:
448,192,190600,1,0,0:0:0:70:rim.wav
192,192,190600,1,0,0:0:0:0:
320,192,190683,128,0,190902:0:0:0:0:
64,192,190819,1,0,0:0:0:0:
448,192,191038,1,0,0:0:0:70:rim.wav
64,192,191257,1,0,0:0:0:0:
448,192,191476,1,2,0:0:0:0:
320,192,191476,1,0,0:0:0:0:
64,192,191476,1,0,0:0:0:70:rim.wav
192,192,191695,128,0,192571:0:0:0:0:
320,192,191914,1,0,0:0:0:0:
64,192,191914,1,0,0:0:0:70:rim.wav
448,192,192133,1,0,0:0:0:0:
320,192,192352,1,0,0:0:0:0:
64,192,192352,1,0,0:0:0:70:rim.wav
448,192,192571,1,0,0:0:0:0:
64,192,192681,1,0,0:0:0:0:
448,192,192790,1,0,0:0:0:0:
320,192,192790,1,2,0:0:0:0:
192,192,192790,128,0,192936:0:0:0:70:ride.wav
64,192,193009,1,0,0:0:0:0:
448,192,193228,1,0,0:0:0:70:rim.wav
192,192,193228,128,0,193301:0:0:0:0:
320,192,193447,128,0,193593:0:0:0:0:
448,192,193666,1,0,0:0:0:70:rim.wav
64,192,193666,1,0,0:0:0:0:
320,192,193885,128,0,194104:0:0:0:0:
64,192,194104,1,0,0:0:0:70:rim.wav
448,192,194104,128,0,194250:0:0:0:70:ride.wav
192,192,194104,1,2,0:0:0:0:
192,192,194323,1,0,0:0:0:0:
320,192,194542,1,0,0:0:0:70:rim.wav
448,192,194542,128,0,194615:0:0:0:0:
64,192,194761,128,0,194907:0:0:0:0:
448,192,194980,1,0,0:0:0:70:rim.wav
192,192,194980,1,0,0:0:0:0:
64,192,195199,128,0,195345:0:0:0:0:
448,192,195199,1,0,0:0:0:0:
320,192,195308,1,0,0:0:0:0:
192,192,195363,1,0,0:0:0:0:
64,192,195418,1,2,0:0:0:0:
448,192,195418,128,0,195637:0:0:0:60:cymbal.wav
320,192,195473,1,0,0:0:0:0:
192,192,195555,1,0,0:0:0:0:
64,192,195637,1,0,0:0:0:0:
320,192,195856,1,0,0:0:0:70:rim.wav
448,192,195856,128,0,196038:0:0:0:0:
192,192,196075,1,0,0:0:0:0:
64,192,196294,1,0,0:0:0:70:rim.wav
448,192,196294,128,0,196440:0:0:0:0:
192,192,196513,1,0,0:0:0:0:
448,192,196732,128,0,196841:0:0:0:0:
64,192,196732,1,0,0:0:0:70:rim.wav
320,192,196732,1,2,0:0:0:0:
192,192,196951,128,0,197827:0:0:0:0:
320,192,197170,1,0,0:0:0:0:
64,192,197170,1,0,0:0:0:70:rim.wav
448,192,197389,1,0,0:0:0:0:
320,192,197608,1,0,0:0:0:0:
64,192,197608,1,0,0:0:0:70:rim.wav
448,192,197827,1,0,0:0:0:0:
192,192,197936,1,0,0:0:0:0:
320,192,198046,1,2,0:0:0:0:
64,192,198046,1,0,0:0:0:70:rim.wav
448,192,198046,128,0,198265:0:0:0:0:
192,192,198265,1,0,0:0:0:0:
64,192,198484,1,0,0:0:0:70:rim.wav
448,192,198484,128,0,198620:0:0:0:0:
320,192,198703,128,0,198885:0:0:0:0:
448,192,198922,1,0,0:0:0:0:
64,192,198922,1,0,0:0:0:70:rim.wav
320,192,199141,128,0,199250:0:0:0:0:
448,192,199360,1,2,0:0:0:0:
64,192,199360,1,0,0:0:0:70:rim.wav
192,192,199360,128,0,199506:0:0:0:0:
192,192,199579,1,0,0:0:0:0:
448,192,199797,1,0,0:0:0:70:rim.wav
192,192,199797,128,0,199880:0:0:0:0:
192,192,200016,1,4,0:0:0:0:
64,192,200016,128,0,200126:0:0:0:0:
320,192,200126,1,4,0:0:0:0:
448,192,200235,1,4,0:0:0:0:
64,192,200235,1,0,0:0:0:0:
192,192,200235,1,0,0:0:0:0:
320,192,200454,1,0,0:0:0:0:
448,192,200454,1,2,0:0:0:0:
64,192,200454,128,0,200509:0:0:0:0:
192,192,200564,1,0,0:0:0:0:
320,192,200619,1,0,0:0:0:0:
448,192,200673,1,0,0:0:0:70:cymbal.wav
64,192,200673,1,2,0:0:0:0:
192,192,200728,1,0,0:0:0:0:
320,192,200810,128,0,201029:0:0:0:0:
64,192,200892,128,0,200947:0:0:0:0:
448,192,201111,128,0,201193:0:0:0:0:
320,192,201193,128,0,201412:0:0:0:0:
192,192,201330,1,2,0:0:0:0:
64,192,201330,128,0,201440:0:0:0:0:
448,192,201549,128,0,201878:0:0:0:0:
64,192,201768,1,2,0:0:0:0:
192,192,201768,1,0,0:0:0:0:
448,192,201987,1,0,0:0:0:0:
320,192,201987,1,0,0:0:0:0:
64,192,201987,1,8,0:0:0:0:
192,192,202206,128,0,202535:0:0:0:0:
320,192,202425,1,0,0:0:0:0:
64,192,202425,1,0,0:0:0:0:
448,192,202644,1,0,0:0:0:0:
192,192,202644,128,0,202726:0:0:0:0:
320,192,202863,1,0,0:0:0:0:
64,192,202863,128,0,202973:0:0:0:0:
320,192,203082,1,2,0:0:0:0:
448,192,203082,128,0,203219:0:0:0:0:
320,192,203301,1,0,0:0:0:0:
64,192,203301,1,2,0:0:0:0:
192,192,203301,128,0,203520:0:0:0:0:
320,192,203520,128,0,203630:0:0:0:0:
64,192,203739,128,0,203885:0:0:0:0:
448,192,203739,128,0,203849:0:0:0:0:
320,192,203958,128,2,204177:0:0:0:0:
192,192,203958,128,0,204068:0:0:0:0:
448,192,204177,1,0,0:0:0:0:
64,192,204177,128,0,204469:0:0:0:0:
320,192,204396,128,0,204615:0:0:0:0:
192,192,204396,1,2,0:0:0:0:
192,192,204542,1,0,0:0:0:0:
64,192,204615,1,8,0:0:0:0:
448,192,204615,128,0,204834:0:0:0:0:
192,192,204834,128,0,204907:0:0:0:0:
320,192,205053,1,0,0:0:0:0:
448,192,205053,128,0,205199:0:0:0:0:
64,192,205272,128,0,205491:0:0:0:0:
192,192,205491,1,2,0:0:0:0:
448,192,205491,128,0,205710:0:0:0:0:
320,192,205491,1,0,0:0:0:0:
64,192,205710,128,0,205856:0:0:0:0:
320,192,205819,1,0,0:0:0:0:
192,192,205874,1,0,0:0:0:0:
64,192,205929,1,2,0:0:0:0:
448,192,205929,128,0,206148:0:0:0:0:
320,192,205984,1,0,0:0:0:0:
192,192,206066,1,0,0:0:0:0:
64,192,206148,128,0,206257:0:0:0:0:
448,192,206367,128,0,206586:0:0:0:0:
320,192,206367,128,0,206476:0:0:0:0:
320,192,206586,1,2,0:0:0:0:
192,192,206586,128,0,206695:0:0:0:0:
64,192,206805,1,0,0:0:0:0:
448,192,206805,1,0,0:0:0:0:
192,192,207024,1,0,0:0:0:0:
320,192,207024,1,2,0:0:0:0:
64,192,207243,1,8,0:0:0:0:
448,192,207243,128,0,207407:0:0:0:0:
192,192,207243,1,0,0:0:0:0:
320,192,207352,128,0,207462:0:0:0:0:
192,192,207462,128,0,207790:0:0:0:0:
320,192,207681,1,0,0:0:0:0:
64,192,207681,1,0,0:0:0:0:
448,192,207900,128,0,208009:0:0:0:0:
64,192,208119,128,0,208256:0:0:0:0:
192,192,208119,128,0,208301:0:0:0:0:
448,192,208338,1,2,0:0:0:0:
320,192,208338,128,0,208502:0:0:0:0:
192,192,208557,1,2,0:0:0:0:
64,192,208557,1,0,0:0:0:0:
448,192,208557,128,0,208776:0:0:0:0:
320,192,208776,128,0,208885:0:0:0:0:
448,192,208995,128,0,209104:0:0:0:0:
64,192,208995,128,0,209104:0:0:0:0:
320,192,209214,128,2,209433:0:0:0:0:
192,192,209214,128,0,209323:0:0:0:0:
448,192,209433,128,0,209761:0:0:0:0:
64,192,209433,1,0,0:0:0:0:
320,192,209652,128,0,209797:0:0:0:0:
192,192,209652,1,2,0:0:0:0:
64,192,209797,1,0,0:0:0:0:
192,192,209870,128,0,210089:0:0:0:0:
448,192,209870,128,8,209943:0:0:0:0:
64,192,210089,128,0,210363:0:0:0:0:
448,192,210308,1,2,0:0:0:0:
192,192,210308,128,0,210418:0:0:0:0:
448,192,210527,1,0,0:0:0:0:
64,192,210527,128,0,210746:0:0:0:0:
320,192,210527,1,8,0:0:0:0:
320,192,210746,1,0,0:0:0:0:
192,192,210746,1,8,0:0:0:0:
448,192,210892,1,0,0:0:0:0:
320,192,210965,1,8,0:0:0:0:
64,192,210965,128,0,211075:0:0:0:0:
192,192,211038,1,0,0:0:0:0:
320,192,211130,1,0,0:0:0:0:
64,192,211184,1,2,0:0:0:0:
448,192,211184,128,0,213593:0:0:0:60:cymbal.wav
192,192,211239,1,0,0:0:0:0:
320,192,211321,1,0,0:0:0:0:
64,192,211622,1,0,0:0:0:0:
192,192,211841,1,0,0:0:0:0:
320,192,211841,1,2,0:0:0:0:
320,192,212060,1,0,0:0:0:0:
64,192,212279,1,0,0:0:0:0:
192,192,212279,1,2,0:0:0:0:
320,192,212498,1,0,0:0:0:0:
192,192,212498,1,0,0:0:0:0:
64,192,212498,1,8,0:0:0:0:
64,192,212717,1,0,0:0:0:0:
192,192,212936,1,0,0:0:0:0:
64,192,213155,1,0,0:0:0:0:
320,192,213374,1,0,0:0:0:0:
192,192,213593,1,2,0:0:0:0:
64,192,213593,1,0,0:0:0:0:
448,192,213812,128,0,213885:0:0:0:0:
320,192,213812,1,0,0:0:0:0:
64,192,213812,128,0,214579:0:0:0:0:
192,192,214031,1,0,0:0:0:0:
192,192,214250,1,0,0:0:0:0:
320,192,214469,128,0,214542:0:0:0:0:
448,192,214469,1,2,0:0:0:0:
64,192,214688,1,0,0:0:0:0:
320,192,214907,1,2,0:0:0:0:
448,192,214907,1,0,0:0:0:0:
192,192,215126,128,0,215199:0:0:0:0:
448,192,215126,1,8,0:0:0:0:
64,192,215126,1,0,0:0:0:0:
320,192,215345,1,0,0:0:0:0:
64,192,215537,1,0,0:0:0:0:
192,192,215564,128,0,215619:0:0:0:0:
64,192,215783,128,0,215856:0:0:0:0:
192,192,215783,128,0,216276:0:0:0:0:
320,192,216002,1,2,0:0:0:0:
64,192,216002,1,0,0:0:0:0:
448,192,216002,1,0,0:0:0:0:
448,192,216221,1,0,0:0:0:0:
320,192,216330,1,0,0:0:0:0:
192,192,216385,1,0,0:0:0:0:
64,192,216440,1,2,0:0:0:0:
448,192,216440,1,0,0:0:0:0:
320,192,216495,128,0,216987:0:0:0:0:
192,192,216577,1,0,0:0:0:0:
64,192,216659,1,0,0:0:0:0:
448,192,216878,1,0,0:0:0:0:
64,192,217097,128,0,217535:0:0:0:0:
192,192,217097,1,2,0:0:0:0:
448,192,217316,1,0,0:0:0:0:
320,192,217535,1,2,0:0:0:0:
192,192,217535,1,0,0:0:0:0:
448,192,217754,1,8,0:0:0:0:
64,192,217754,1,0,0:0:0:0:
192,192,217754,1,0,0:0:0:0:
320,192,217836,1,0,0:0:0:0:
448,192,217918,128,0,218465:0:0:0:0:
192,192,217973,1,0,0:0:0:0:
64,192,218192,1,0,0:0:0:0:
320,192,218411,1,0,0:0:0:0:
448,192,218630,1,0,0:0:0:0:
64,192,218630,1,0,0:0:0:0:
320,192,218849,1,2,0:0:0:0:
192,192,218849,1,0,0:0:0:0:
192,192,219068,1,2,0:0:0:0:
64,192,219068,128,0,219141:0:0:0:0:
448,192,219287,1,0,0:0:0:0:
320,192,219506,1,0,0:0:0:0:
192,192,219724,128,0,219797:0:0:0:0:
64,192,219724,1,2,0:0:0:0:
448,192,219943,1,0,0:0:0:0:
64,192,220162,1,0,0:0:0:0:
192,192,220162,1,2,0:0:0:0:
320,192,220381,128,0,220454:0:0:0:0:
192,192,220381,1,0,0:0:0:0:
448,192,220381,1,8,0:0:0:0:
64,192,220600,1,0,0:0:0:0:
448,192,220600,1,0,0:0:0:0:
320,192,220819,1,2,0:0:0:0:
192,192,220819,1,0,0:0:0:0:
448,192,221038,128,0,221093:0:0:0:0:
64,192,221038,1,8,0:0:0:0:
192,192,221038,1,0,0:0:0:0:
448,192,221148,1,0,0:0:0:0:
64,192,221148,1,8,0:0:0:0:
320,192,221257,1,0,0:0:0:0:
192,192,221257,1,2,0:0:0:0:
448,192,221367,1,4,0:0:0:0:
64,192,221476,1,4,0:0:0:0:
192,192,221586,1,4,0:0:0:0:
448,192,221695,1,2,0:0:0:0:
320,192,221695,128,0,221914:0:0:0:55:glass break.wav
64,192,221695,128,0,222352:0:0:0:80:cymbal.wav
192,192,221914,128,0,222133:0:0:0:0:
448,192,222133,128,0,222243:0:0:0:0:
320,192,222352,128,0,222498:0:0:0:0:
192,192,222352,1,2,0:0:0:0:
448,192,222498,128,0,223009:0:0:0:0:
64,192,222571,128,0,222790:0:0:0:0:
320,192,222790,1,2,0:0:0:0:
192,192,222790,128,0,222900:0:0:0:0:
192,192,223009,128,0,223666:0:0:0:0:
64,192,223009,1,8,0:0:0:0:
320,192,223009,128,0,223228:0:0:0:0:
448,192,223228,128,0,223447:0:0:0:0:
320,192,223447,128,0,223593:0:0:0:0:
448,192,223666,1,2,0:0:0:0:
64,192,223666,128,0,223885:0:0:0:0:
320,192,223885,1,2,0:0:0:0:
192,192,223885,128,0,223995:0:0:0:0:
64,192,224104,1,8,0:0:0:0:
448,192,224104,1,0,0:0:0:0:
320,192,224104,1,0,0:0:0:0:
64,192,224214,1,8,0:0:0:0:
192,192,224214,1,0,0:0:0:0:
448,192,224214,1,0,0:0:0:0:
320,192,224323,128,2,224979:0:0:0:0:
192,192,224323,128,0,224432:0:0:0:0:
64,192,224541,128,0,224760:0:0:0:0:
448,192,224760,128,0,224979:0:0:0:0:
64,192,224979,128,0,225308:0:0:0:0:
192,192,224979,128,2,225198:0:0:0:0:
320,192,225198,128,0,225417:0:0:0:0:
448,192,225308,128,0,225490:0:0:0:0:
64,192,225417,1,2,0:0:0:0:
192,192,225417,128,0,225527:0:0:0:0:
448,192,225636,1,8,0:0:0:0:
320,192,225636,1,0,0:0:0:0:
64,192,225636,1,0,0:0:0:0:
64,192,225782,1,0,0:0:0:0:
192,192,225782,1,0,0:0:0:0:
320,192,225782,1,8,0:0:0:0:
448,192,225928,1,0,0:0:0:0:
192,192,225928,1,8,0:0:0:0:
64,192,225928,1,0,0:0:0:0:
320,192,226047,1,2,0:0:0:0:
448,192,226102,1,4,0:0:0:0:
320,192,226220,1,4,0:0:0:0:
192,192,226220,1,0,0:0:0:0:
64,192,226366,1,0,0:0:0:0:
192,192,226366,1,4,0:0:0:0:
448,192,226512,1,2,0:0:0:0:
64,192,226512,128,0,226730:0:0:0:0:
192,192,226512,1,0,0:0:0:0:
320,192,226512,128,0,226949:0:0:0:80:cymbal.wav
192,192,226730,128,0,226949:0:0:0:0:
448,192,226949,128,0,227059:0:0:0:0:
64,192,227095,128,0,227643:0:0:0:0:
320,192,227168,128,0,227314:0:0:0:0:
192,192,227168,1,2,0:0:0:0:
448,192,227314,128,0,227606:0:0:0:0:
192,192,227387,1,0,0:0:0:0:
320,192,227606,1,2,0:0:0:0:
192,192,227606,128,0,227716:0:0:0:0:
448,192,227825,1,8,0:0:0:0:
192,192,227825,1,0,0:0:0:0:
320,192,227825,128,0,228044:0:0:0:0:
64,192,228044,128,0,228263:0:0:0:0:
448,192,228263,128,0,228482:0:0:0:0:
64,192,228482,128,0,228592:0:0:0:0:
192,192,228482,128,2,228701:0:0:0:0:
320,192,228701,128,0,228847:0:0:0:0:
448,192,228701,1,2,0:0:0:0:
64,192,228920,1,8,0:0:0:0:
448,192,228920,1,0,0:0:0:0:
192,192,228920,1,0,0:0:0:0:
64,192,229030,1,8,0:0:0:0:
320,192,229030,1,0,0:0:0:0:
448,192,229030,1,0,0:0:0:0:
192,192,229139,128,2,229576:0:0:0:0:
320,192,229139,128,0,229631:0:0:0:0:
448,192,229357,128,0,229467:0:0:0:0:
64,192,229576,128,0,229686:0:0:0:0:
448,192,229722,128,0,230233:0:0:0:0:
64,192,229795,128,2,230306:0:0:0:0:
320,192,229795,128,0,229905:0:0:0:0:
192,192,230014,128,0,230124:0:0:0:0:
192,192,230233,1,2,0:0:0:0:
320,192,230233,128,0,230452:0:0:0:0:
448,192,230398,1,0,0:0:0:0:
64,192,230452,1,2,0:0:0:0:
192,192,230452,128,0,230562:0:0:0:0:
320,192,230671,1,8,0:0:0:0:
64,192,230671,1,0,0:0:0:0:
448,192,230671,1,0,0:0:0:0:
64,192,230781,1,0,0:0:0:0:
320,192,230781,1,8,0:0:0:0:
192,192,230890,1,2,0:0:0:0:
448,192,231000,1,8,0:0:0:0:
320,192,231000,1,0,0:0:0:0:
64,192,231109,1,0,0:0:0:0:
448,192,231109,1,0,0:0:0:0:
320,192,231109,1,8,0:0:0:0:
192,192,231219,1,8,0:0:0:0:
192,192,231328,128,0,232094:0:0:0:80:cymbal.wav
64,192,231328,1,0,0:0:0:0:
448,192,231328,128,0,231765:0:0:0:0:
320,192,231328,1,2,0:0:0:0:
320,192,231546,128,0,231765:0:0:0:0:
64,192,231765,128,0,231984:0:0:0:0:
448,192,231984,128,2,232532:0:0:0:0:
320,192,231984,128,0,232203:0:0:0:0:
64,192,232203,1,0,0:0:0:0:
192,192,232422,1,2,0:0:0:0:
320,192,232422,1,0,0:0:0:0:
320,192,232641,128,0,233517:0:0:0:0:
448,192,232641,1,0,0:0:0:0:
64,192,232641,128,0,232860:0:0:0:0:
448,192,232860,128,0,233079:0:0:0:0:
64,192,233079,128,0,233189:0:0:0:0:
192,192,233298,1,2,0:0:0:0:
448,192,233298,128,0,233408:0:0:0:0:
192,192,233517,1,0,0:0:0:0:
64,192,233517,1,2,0:0:0:0:
192,192,233736,1,0,0:0:0:0:
448,192,233736,1,8,0:0:0:0:
320,192,233736,1,0,0:0:0:0:
448,192,233846,1,0,0:0:0:0:
320,192,233846,1,8,0:0:0:0:
64,192,233846,1,0,0:0:0:0:
64,192,233955,128,0,234173:0:0:0:0:
192,192,233955,128,2,235049:0:0:0:0:
448,192,234173,128,0,234392:0:0:0:0:
64,192,234392,128,0,234502:0:0:0:0:
64,192,234611,1,2,0:0:0:0:
320,192,234611,128,0,234830:0:0:0:0:
448,192,234648,128,0,235122:0:0:0:0:
64,192,234830,1,0,0:0:0:0:
64,192,235049,1,0,0:0:0:0:
320,192,235049,128,2,235159:0:0:0:0:
448,192,235268,1,0,0:0:0:0:
64,192,235268,1,8,0:0:0:0:
192,192,235268,1,0,0:0:0:0:
192,192,235414,1,8,0:0:0:0:
320,192,235414,1,0,0:0:0:0:
448,192,235414,1,0,0:0:0:0:
64,192,235560,1,0,0:0:0:0:
448,192,235560,1,0,0:0:0:0:
320,192,235560,1,8,0:0:0:0:
192,192,235679,1,2,0:0:0:0:
64,192,235734,1,4,0:0:0:0:
320,192,235852,1,0,0:0:0:0:
192,192,235852,1,4,0:0:0:0:
448,192,235998,1,0,0:0:0:0:
320,192,235998,1,4,0:0:0:0:
192,192,236144,128,0,236253:0:0:0:0:
320,192,236144,1,2,0:0:0:0:
64,192,236144,128,0,238114:0:0:0:80:cymbal.wav
448,192,236144,128,0,236581:0:0:0:0:
192,192,236362,128,0,236581:0:0:0:0:
320,192,236581,128,0,236691:0:0:0:0:
448,192,236800,128,0,237129:0:0:0:0:
320,192,236800,1,2,0:0:0:0:
192,192,237019,1,0,0:0:0:0:
320,192,237238,1,2,0:0:0:0:
448,192,237238,128,0,237348:0:0:0:0:
320,192,237457,128,0,238333:0:0:0:0:
448,192,237457,1,8,0:0:0:0:
192,192,237457,128,0,237567:0:0:0:0:
448,192,237676,128,0,237895:0:0:0:0:
192,192,237895,128,0,238005:0:0:0:0:
192,192,238114,1,0,0:0:0:0:
448,192,238114,1,2,0:0:0:0:
192,192,238333,1,0,0:0:0:0:
64,192,238333,1,2,0:0:0:0:
192,192,238552,1,8,0:0:0:0:
64,192,238552,1,0,0:0:0:0:
448,192,238552,1,0,0:0:0:0:
192,192,238662,1,0,0:0:0:0:
64,192,238662,1,8,0:0:0:0:
320,192,238662,1,0,0:0:0:0:
448,192,238771,1,2,0:0:0:0:
320,192,238771,128,0,239208:0:0:0:0:
448,192,238935,128,0,240078:0:0:0:0:
64,192,238989,128,0,239208:0:0:0:0:
192,192,239208,128,0,239430:0:0:0:0:
64,192,239430,1,2,0:0:0:0:
320,192,239430,128,0,240266:0:0:0:0:
64,192,239652,128,0,239773:0:0:0:0:
64,192,239895,1,2,0:0:0:0:
192,192,239895,128,0,240017:0:0:0:0:
192,192,240139,1,0,0:0:0:0:
64,192,240139,128,0,240393:0:0:0:0:
448,192,240393,5,8,0:0:0:0:
192,192,240393,1,0,0:0:0:0:
64,192,240520,1,0,0:0:0:0:
448,192,240520,1,0,0:0:0:0:
192,192,240520,1,8,0:0:0:0:
320,192,240647,1,2,0:0:0:0:
64,192,240738,1,2,0:0:0:0:
448,192,240830,128,2,241116:0:0:0:0:
64,192,240922,1,0,0:0:0:0:
192,192,240922,1,0,0:0:0:0:
192,192,241067,1,2,0:0:0:0:
64,192,241067,1,0,0:0:0:0:
64,192,241213,128,0,241345:0:0:0:0:
320,192,241213,128,0,241389:0:0:0:90:cymbal short.wav
448,192,241213,128,0,241389:0:0:0:0:
192,192,241213,1,2,0:0:0:0:
192,192,241389,128,0,241521:0:0:0:50:hat1.wav
64,192,241565,128,0,241698:0:0:0:50:hat1.wav
320,192,241742,128,0,241874:0:0:0:50:hat1.wav
192,192,241918,128,0,242051:0:0:0:50:hat1.wav
448,192,242095,128,0,242227:0:0:0:50:hat1.wav
64,192,242271,128,0,242404:0:0:0:50:hat1.wav
320,192,242448,128,0,242565:0:0:0:0:
192,192,242448,128,2,242624:0:0:0:0:
448,192,242448,128,0,242624:0:0:0:90:cymbal short.wav
64,192,242624,128,0,242742:0:0:0:50:hat1.wav
192,192,242800,128,0,242918:0:0:0:50:hat1.wav
320,192,242977,128,0,243095:0:0:0:50:hat1.wav
192,192,243153,128,0,243271:0:0:0:50:hat1.wav
64,192,243330,128,0,243448:0:0:0:50:hat1.wav
448,192,243506,128,0,243624:0:0:0:50:hat1.wav
192,192,243683,128,0,243815:0:0:0:0:
320,192,243683,128,0,243859:0:0:0:90:cymbal short.wav
448,192,243683,128,2,243859:0:0:0:0:
64,192,243683,1,0,0:0:0:0:
64,192,243859,128,0,243991:0:0:0:50:hat1.wav
320,192,244035,128,0,244168:0:0:0:50:hat1.wav
192,192,244212,128,0,244344:0:0:0:50:hat1.wav
448,192,244388,128,0,244521:0:0:0:50:hat1.wav
64,192,244565,128,0,244697:0:0:0:50:hat1.wav
320,192,244741,128,0,244874:0:0:0:50:hat1.wav
448,192,244918,128,0,245050:0:0:0:50:hat1.wav
192,192,245094,128,0,245227:0:0:0:50:hat1.wav
64,192,245271,128,0,245403:0:0:0:50:hat1.wav
192,192,245447,128,0,245558:0:0:0:50:hat1.wav
320,192,245624,128,0,245712:0:0:0:50:hat1.wav
64,192,245800,128,0,245977:0:0:0:50:hat1.wav
448,192,245977,128,0,246153:0:0:0:50:hat1.wav
192,192,246153,1,2,0:0:0:0:
64,192,246153,1,0,0:0:0:0:
320,192,246241,1,2,0:0:0:0:
448,192,246241,1,0,0:0:0:0:
192,192,246329,128,0,246505:0:0:0:90:cymbal short.wav
64,192,246329,128,2,246505:0:0:0:0:
320,192,246329,128,0,246461:0:0:0:0:
448,192,246329,1,0,0:0:0:0:
448,192,246505,128,0,246637:0:0:0:50:hat1.wav
192,192,246681,128,0,246814:0:0:0:50:hat1.wav
320,192,246858,128,0,246990:0:0:0:50:hat1.wav
192,192,247034,128,0,247167:0:0:0:50:hat1.wav
64,192,247211,128,0,247343:0:0:0:50:hat1.wav
448,192,247387,128,0,247520:0:0:0:50:hat1.wav
64,192,247564,128,0,247740:0:0:0:90:cymbal short.wav
320,192,247564,128,2,247740:0:0:0:0:
192,192,247564,128,0,247681:0:0:0:0:
448,192,247740,128,0,247858:0:0:0:50:hat1.wav
64,192,247916,128,0,248034:0:0:0:50:hat1.wav
448,192,248093,128,0,248211:0:0:0:50:hat1.wav
320,192,248269,128,0,248387:0:0:0:50:hat1.wav
192,192,248446,128,0,248564:0:0:0:50:hat1.wav
64,192,248622,128,0,248740:0:0:0:50:hat1.wav
64,192,248799,128,0,248975:0:0:0:0:
192,192,248799,128,0,248975:0:0:0:90:cymbal short.wav
448,192,248799,128,0,248931:0:0:0:0:
320,192,248799,1,2,0:0:0:0:
320,192,248975,128,0,249107:0:0:0:50:hat1.wav
448,192,249151,128,0,249284:0:0:0:50:hat1.wav
192,192,249328,128,0,249460:0:0:0:50:hat1.wav
320,192,249504,128,0,249637:0:0:0:50:hat1.wav
64,192,249681,128,0,249813:0:0:0:50:hat1.wav
320,192,249857,128,0,249990:0:0:0:50:hat1.wav
448,192,250034,128,0,250166:0:0:0:50:hat1.wav
192,192,250210,128,0,250343:0:0:0:50:hat1.wav
64,192,250387,128,0,250519:0:0:0:50:hat1.wav
448,192,250563,1,2,0:0:0:0:
320,192,250563,1,0,0:0:0:0:
192,192,250607,1,0,0:0:0:0:
64,192,250651,1,2,0:0:0:0:
64,192,250740,1,0,0:0:0:0:
448,192,250740,1,0,0:0:0:0:
320,192,250740,1,8,0:0:0:0:
192,192,250784,1,0,0:0:0:0:
448,192,250828,1,8,0:0:0:0:
320,192,250872,1,0,0:0:0:0:
64,192,250916,1,4,0:0:0:0:
192,192,250960,1,0,0:0:0:0:
448,192,251004,1,4,0:0:0:0:
320,192,251049,1,0,0:0:0:0:
64,192,251093,1,4,0:0:0:0:
448,192,251137,1,0,0:0:0:0:
192,192,251181,1,4,0:0:0:0:
320,192,251269,1,4,0:0:0:0:
64,192,251269,1,0,0:0:0:0:
448,192,251357,1,4,0:0:0:0:
64,192,251445,128,0,251621:0:0:0:70:cymbal.wav
192,192,251445,1,2,0:0:0:0:
320,192,251445,128,0,251621:0:0:0:0:
192,192,251621,128,0,251797:0:0:0:0:
448,192,251621,1,2,0:0:0:0:
64,192,251797,128,0,251974:0:0:0:0:
448,192,251797,1,0,0:0:0:0:
320,192,251797,1,8,0:0:0:0:
320,192,251974,128,0,252150:0:0:0:0:
192,192,251974,1,2,0:0:0:0:
448,192,252062,1,2,0:0:0:0:
192,192,252150,128,0,252327:0:0:0:0:
64,192,252150,1,2,0:0:0:0:
64,192,252327,128,0,252503:0:0:0:0:
320,192,252327,1,2,0:0:0:0:
448,192,252503,128,0,252680:0:0:0:0:
320,192,252503,1,0,0:0:0:0:
192,192,252503,1,8,0:0:0:0:
192,192,252680,128,0,252856:0:0:0:0:
320,192,252680,128,0,252856:0:0:0:0:
64,192,252680,1,2,0:0:0:0:
64,192,252856,128,0,253032:0:0:0:0:
448,192,252856,1,2,0:0:0:0:
192,192,253032,128,0,253209:0:0:0:0:
320,192,253032,1,0,0:0:0:0:
448,192,253032,1,8,0:0:0:0:
320,192,253209,128,0,253385:0:0:0:0:
64,192,253209,1,2,0:0:0:0:
448,192,253268,1,2,0:0:0:0:
64,192,253327,1,2,0:0:0:0:
192,192,253385,128,2,253562:0:0:0:0:
64,192,253562,128,0,253738:0:0:0:0:
320,192,253562,1,8,0:0:0:0:
448,192,253562,1,0,0:0:0:0:
448,192,253738,128,2,253915:0:0:0:0:
64,192,253915,128,0,254091:0:0:0:0:
320,192,253915,128,0,254091:0:0:0:0:
192,192,253915,1,2,0:0:0:0:
192,192,254091,128,0,254267:0:0:0:0:
448,192,254091,1,2,0:0:0:0:
64,192,254267,128,0,254444:0:0:0:0:
448,192,254267,1,8,0:0:0:0:
320,192,254267,1,0,0:0:0:0:
320,192,254444,128,0,254620:0:0:0:0:
192,192,254444,1,2,0:0:0:0:
64,192,254532,1,2,0:0:0:0:
192,192,254620,128,0,254797:0:0:0:0:
448,192,254620,1,8,0:0:0:0:
64,192,254797,128,0,254973:0:0:0:0:
320,192,254797,1,2,0:0:0:0:
320,192,254973,128,0,255150:0:0:0:0:
448,192,254973,1,2,0:0:0:0:
192,192,254973,1,8,0:0:0:0:
448,192,255150,128,0,255326:0:0:0:0:
64,192,255150,1,4,0:0:0:0:
192,192,255326,128,0,255503:0:0:0:0:
320,192,255326,1,4,0:0:0:0:
64,192,255503,128,0,255679:0:0:0:0:
448,192,255503,1,2,0:0:0:0:
192,192,255679,128,0,255856:0:0:0:0:
320,192,255679,1,2,0:0:0:0:
320,192,255856,128,0,256032:0:0:0:0:
64,192,255856,1,4,0:0:0:0:
448,192,256032,128,0,256385:0:0:0:0:
64,192,256032,128,0,256120:0:0:0:0:
192,192,256032,1,2,0:0:0:0:
64,192,256209,128,0,256297:0:0:0:0:
320,192,256209,1,8,0:0:0:0:
192,192,256385,1,8,0:0:0:0:
64,192,256385,1,0,0:0:0:0:
192,192,256473,1,0,0:0:0:0:
448,192,256473,1,8,0:0:0:0:
64,192,256561,128,0,256737:0:0:0:70:cymbal.wav
320,192,256561,128,2,256737:0:0:0:0:
448,192,256737,128,0,256913:0:0:0:0:
192,192,256737,1,2,0:0:0:0:
192,192,256913,128,0,257090:0:0:0:0:
320,192,256913,1,0,0:0:0:0:
64,192,256913,1,8,0:0:0:0:
320,192,257090,128,0,257266:0:0:0:0:
448,192,257090,1,2,0:0:0:0:
64,192,257178,1,2,0:0:0:0:
192,192,257266,128,0,257443:0:0:0:0:
448,192,257266,1,2,0:0:0:0:
64,192,257443,128,0,257619:0:0:0:0:
320,192,257443,1,2,0:0:0:0:
448,192,257619,128,0,257796:0:0:0:0:
320,192,257619,1,8,0:0:0:0:
192,192,257619,1,0,0:0:0:0:
192,192,257796,128,0,257972:0:0:0:0:
320,192,257796,128,0,257972:0:0:0:0:
64,192,257796,1,2,0:0:0:0:
448,192,257972,128,2,258148:0:0:0:0:
64,192,257972,1,0,0:0:0:0:
192,192,258148,128,0,258325:0:0:0:0:
320,192,258148,1,0,0:0:0:0:
64,192,258148,1,8,0:0:0:0:
64,192,258325,128,0,258501:0:0:0:0:
320,192,258325,1,2,0:0:0:0:
448,192,258384,1,2,0:0:0:0:
192,192,258443,1,2,0:0:0:0:
320,192,258501,128,0,258678:0:0:0:0:
448,192,258501,1,2,0:0:0:0:
192,192,258678,128,0,258854:0:0:0:0:
64,192,258678,1,0,0:0:0:0:
448,192,258678,1,8,0:0:0:0:
64,192,258854,128,0,259031:0:0:0:0:
320,192,258854,1,2,0:0:0:0:
192,192,259031,128,2,259207:0:0:0:0:
448,192,259031,128,0,259207:0:0:0:0:
320,192,259031,1,0,0:0:0:0:
320,192,259207,128,0,259383:0:0:0:0:
64,192,259207,1,2,0:0:0:0:
448,192,259383,128,0,259560:0:0:0:0:
64,192,259383,1,8,0:0:0:0:
192,192,259383,1,0,0:0:0:0:
192,192,259560,128,0,259736:0:0:0:0:
320,192,259560,1,2,0:0:0:0:
448,192,259648,1,2,0:0:0:0:
320,192,259736,128,0,259913:0:0:0:0:
64,192,259736,1,8,0:0:0:0:
64,192,259913,128,0,260089:0:0:0:0:
448,192,259913,1,2,0:0:0:0:
320,192,260089,128,0,260266:0:0:0:0:
192,192,260089,1,2,0:0:0:0:
448,192,260089,1,0,0:0:0:0:
448,192,260266,128,0,260442:0:0:0:0:
64,192,260266,1,4,0:0:0:0:
192,192,260442,128,0,260619:0:0:0:0:
320,192,260442,1,4,0:0:0:0:
64,192,260619,128,0,260795:0:0:0:0:
320,192,260619,1,2,0:0:0:0:
448,192,260619,1,0,0:0:0:0:
448,192,260795,128,0,260950:0:0:0:0:
192,192,260795,1,2,0:0:0:0:
320,192,260883,1,2,0:0:0:0:
64,192,260972,128,0,261104:0:0:0:0:
192,192,260972,1,2,0:0:0:0:
448,192,261060,1,4,0:0:0:0:
192,192,261148,128,0,261258:0:0:0:0:
320,192,261148,1,4,0:0:0:0:
64,192,261236,1,4,0:0:0:0:
320,192,261325,128,0,261413:0:0:0:0:
448,192,261325,1,8,0:0:0:0:
192,192,261413,1,8,0:0:0:0:
64,192,261413,1,0,0:0:0:0:
448,192,261501,128,0,261567:0:0:0:0:
320,192,261501,1,8,0:0:0:0:
192,192,261589,1,0,0:0:0:0:
64,192,261589,1,8,0:0:0:0:
64,192,261677,128,0,261897:0:0:0:0:
320,192,261677,1,0,0:0:0:70:cymbal.wav
448,192,261677,1,2,0:0:0:0:
192,192,261853,128,0,262074:0:0:0:0:
448,192,261853,1,2,0:0:0:0:
64,192,262029,128,0,262250:0:0:0:0:
448,192,262029,1,0,0:0:0:0:
320,192,262029,1,8,0:0:0:0:
320,192,262206,128,0,262427:0:0:0:0:
192,192,262206,1,2,0:0:0:0:
448,192,262294,1,2,0:0:0:0:
192,192,262382,128,0,262603:0:0:0:0:
64,192,262382,1,2,0:0:0:0:
64,192,262559,128,0,262779:0:0:0:0:
320,192,262559,1,2,0:0:0:0:
448,192,262735,128,0,262956:0:0:0:0:
320,192,262735,1,0,0:0:0:0:
192,192,262735,1,8,0:0:0:0:
192,192,262912,128,0,263132:0:0:0:0:
64,192,262912,1,2,0:0:0:0:
320,192,263088,128,0,263309:0:0:0:0:
448,192,263088,1,2,0:0:0:0:
448,192,263264,1,0,0:0:0:0:
64,192,263264,1,8,0:0:0:0:
192,192,263264,128,0,263485:0:0:0:0:
448,192,263441,128,0,263662:0:0:0:0:
64,192,263441,1,2,0:0:0:0:
320,192,263529,1,0,0:0:0:0:
192,192,263617,128,0,263838:0:0:0:0:
64,192,263617,1,2,0:0:0:0:
64,192,263794,128,0,264014:0:0:0:0:
320,192,263794,1,0,0:0:0:0:
448,192,263794,1,8,0:0:0:0:
448,192,263970,128,0,264191:0:0:0:0:
192,192,263970,1,2,0:0:0:0:
64,192,264147,128,0,264367:0:0:0:0:
320,192,264147,1,2,0:0:0:0:
192,192,264323,128,0,264544:0:0:0:0:
448,192,264323,1,2,0:0:0:0:
448,192,264499,128,0,264720:0:0:0:0:
64,192,264499,1,8,0:0:0:0:
320,192,264499,1,0,0:0:0:0:
320,192,264676,128,0,264897:0:0:0:0:
192,192,264676,1,2,0:0:0:0:
64,192,264764,1,2,0:0:0:0:
192,192,264852,128,0,265073:0:0:0:0:
448,192,264852,1,8,0:0:0:0:
64,192,264852,1,0,0:0:0:0:
64,192,265029,128,0,265249:0:0:0:0:
320,192,265029,1,2,0:0:0:0:
320,192,265205,128,0,265426:0:0:0:0:
448,192,265205,1,2,0:0:0:0:
192,192,265205,1,0,0:0:0:0:
448,192,265382,128,0,265602:0:0:0:0:
64,192,265382,1,4,0:0:0:0:
192,192,265558,128,0,265735:0:0:0:0:
320,192,265558,1,4,0:0:0:0:
64,192,265735,128,0,265867:0:0:0:0:
448,192,265735,1,2,0:0:0:0:
320,192,265735,1,0,0:0:0:0:
192,192,265911,128,2,266088:0:0:0:0:
448,192,265911,1,0,0:0:0:0:
320,192,266088,128,0,266308:0:0:0:0:
64,192,266088,1,0,0:0:0:0:
64,192,266264,128,2,266617:0:0:0:0:
448,192,266264,128,0,266352:0:0:0:0:
192,192,266264,1,0,0:0:0:50:cymbal.wav
448,192,266441,128,0,266529:0:0:0:0:
320,192,266441,1,0,0:0:0:0:
192,192,266441,1,8,0:0:0:0:
320,192,266617,1,8,0:0:0:0:
448,192,266617,1,0,0:0:0:0:
448,192,266705,1,8,0:0:0:0:
192,192,266793,1,0,0:0:0:0:
320,192,266793,1,2,0:0:0:0:
64,192,266793,128,0,267057:0:0:0:70:cymbal.wav
448,192,266969,128,0,267234:0:0:0:0:
192,192,266969,1,2,0:0:0:0:
192,192,267145,128,0,267410:0:0:0:0:
320,192,267145,1,8,0:0:0:0:
64,192,267145,1,0,0:0:0:0:
320,192,267322,128,0,267587:0:0:0:0:
448,192,267322,1,2,0:0:0:0:
64,192,267410,1,2,0:0:0:0:
192,192,267498,128,0,267763:0:0:0:0:
448,192,267498,1,2,0:0:0:0:
64,192,267675,128,0,267940:0:0:0:0:
448,192,267675,1,2,0:0:0:0:
448,192,267851,128,0,268072:0:0:0:0:
320,192,267851,1,0,0:0:0:0:
192,192,267851,1,8,0:0:0:0:
64,192,268028,1,2,0:0:0:0:
192,192,268028,128,0,268248:0:0:0:0:
320,192,268116,1,4,0:0:0:0:
64,192,268204,128,4,268425:0:0:0:0:
448,192,268292,1,4,0:0:0:0:
320,192,268380,128,4,268601:0:0:0:0:
192,192,268469,1,4,0:0:0:0:
448,192,268557,128,4,268778:0:0:0:0:
64,192,268645,1,0,0:0:0:0:
192,192,268645,1,2,0:0:0:0:
320,192,268733,128,0,268954:0:0:0:70:cymbal short.wav
64,192,268733,1,2,0:0:0:0:
192,192,268910,128,0,269086:0:0:0:0:
64,192,269086,1,0,0:0:0:70:cymbal.wav
448,192,269086,128,0,269265:0:0:0:0:
320,192,269086,1,2,0:0:0:0:
192,192,269265,1,2,0:0:0:0:
64,192,269265,128,0,269445:0:0:0:0:
192,192,269445,128,0,269627:0:0:0:0:
448,192,269445,1,8,0:0:0:0:
320,192,269445,1,0,0:0:0:0:
64,192,269627,128,0,269810:0:0:0:0:
320,192,269627,1,2,0:0:0:0:
448,192,269719,1,2,0:0:0:0:
320,192,269810,128,0,269997:0:0:0:0:
448,192,269810,1,0,0:0:0:0:
192,192,269810,1,8,0:0:0:0:
64,192,269997,1,8,0:0:0:0:
192,192,269997,128,0,270185:0:0:0:0:
448,192,269997,1,0,0:0:0:0:
448,192,270185,128,0,270391:0:0:0:70:cymbal short.wav
64,192,270185,1,2,0:0:0:0:
64,192,270391,1,0,0:0:0:0:
320,192,270391,1,2,0:0:0:0:
192,192,270391,1,0,0:0:0:80:cymbal short.wav
448,192,270597,1,0,0:0:0:80:cymbal short.wav
192,192,270597,1,2,0:0:0:0:
64,192,270597,1,0,0:0:0:0:
192,192,270804,1,0,0:0:0:0:
448,192,270804,1,2,0:0:0:0:
64,192,270804,1,0,0:0:0:80:cymbal short.wav
192,192,271011,1,0,0:0:0:0:
448,192,271011,1,2,0:0:0:0:
64,192,271080,1,0,0:0:0:0:
320,192,271080,1,2,0:0:0:0:
192,192,271149,1,2,0:0:0:0:
64,192,271218,1,2,0:0:0:0:
448,192,271218,1,0,0:0:0:0:
320,192,271425,1,8,0:0:0:0:
448,192,271425,1,0,0:0:0:0:
192,192,271425,1,0,0:0:0:0:
64,192,271425,1,0,0:0:0:0:
64,192,271632,1,0,0:0:0:0:
320,192,271632,1,2,0:0:0:0:
448,192,271632,1,0,0:0:0:0:
192,192,271839,1,2,0:0:0:0:
320,192,271839,1,0,0:0:0:0:
448,192,271839,1,0,0:0:0:0:
192,192,272046,1,0,0:0:0:0:
320,192,272046,1,0,0:0:0:0:
448,192,272046,1,0,0:0:0:0:
64,192,272046,1,8,0:0:0:0:
320,192,272253,1,0,0:0:0:0:
448,192,272253,1,2,0:0:0:0:
192,192,272253,1,0,0:0:0:0:
64,192,272459,1,2,0:0:0:0:
320,192,272459,1,0,0:0:0:0:
448,192,272459,1,0,0:0:0:0:
320,192,272666,1,0,0:0:0:0:
192,192,272666,1,2,0:0:0:0:
448,192,272735,1,0,0:0:0:0:
64,192,272735,1,2,0:0:0:0:
320,192,272804,1,2,0:0:0:0:
448,192,272873,1,2,0:0:0:0:
192,192,272873,1,0,0:0:0:80:cymbal short.wav
64,192,272873,1,0,0:0:0:0:
64,192,273080,1,0,0:0:0:0:
192,192,273080,1,0,0:0:0:0:
320,192,273080,1,2,0:0:0:0:
192,192,273391,1,2,0:0:0:0:
320,192,273391,1,0,0:0:0:0:
448,192,273391,1,0,0:0:0:0:
64,192,273701,1,2,0:0:0:0:
192,192,273701,1,0,0:0:0:0:
448,192,273701,1,0,0:0:0:80:cymbal.wav
320,192,273701,128,0,273908:0:0:0:0:
192,192,273908,1,2,0:0:0:0:
320,192,274011,1,0,0:0:0:0:
64,192,274011,1,2,0:0:0:0:
448,192,274115,1,8,0:0:0:0:
64,192,274115,1,0,0:0:0:0:
320,192,274115,1,0,0:0:0:0:
448,192,274218,1,2,0:0:0:0:
192,192,274218,1,0,0:0:0:0:
448,192,274425,1,0,0:0:0:0:
320,192,274425,1,2,0:0:0:0:
192,192,274425,1,0,0:0:0:0:
64,192,274528,1,0,0:0:0:0:
192,192,274632,1,2,0:0:0:0:
448,192,274632,1,0,0:0:0:0:
320,192,274632,1,0,0:0:0:0:
448,192,274839,1,0,0:0:0:0:
64,192,274839,1,2,0:0:0:0:
448,192,274942,1,0,0:0:0:0:
192,192,274942,1,8,0:0:0:0:
64,192,274942,1,0,0:0:0:0:
320,192,275046,1,0,0:0:0:0:
192,192,275046,1,0,0:0:0:0:
64,192,275149,1,2,0:0:0:0:
320,192,275253,1,2,0:0:0:0:
448,192,275253,1,0,0:0:0:0:
192,192,275356,1,2,0:0:0:0:
64,192,275356,1,0,0:0:0:0:
448,192,275356,1,0,0:0:0:0:
64,192,275563,1,0,0:0:0:0:
320,192,275563,1,2,0:0:0:0:
448,192,275666,1,0,0:0:0:0:
192,192,275666,1,2,0:0:0:0:
320,192,275770,1,0,0:0:0:0:
448,192,275770,1,8,0:0:0:0:
64,192,275770,1,0,0:0:0:0:
320,192,275873,1,0,0:0:0:0:
64,192,275873,1,2,0:0:0:0:
448,192,275977,1,0,0:0:0:0:
192,192,276080,1,2,0:0:0:0:
64,192,276080,1,0,0:0:0:0:
192,192,276287,1,0,0:0:0:0:
448,192,276287,1,0,0:0:0:0:
64,192,276287,1,0,0:0:0:0:
320,192,276287,1,8,0:0:0:0:
320,192,276494,1,2,0:0:0:0:
64,192,276494,1,0,0:0:0:0:
448,192,276597,1,0,0:0:0:0:
192,192,276597,1,8,0:0:0:0:
320,192,276597,1,0,0:0:0:0:
64,192,276701,1,4,0:0:0:0:
192,192,276701,1,0,0:0:0:0:
448,192,276804,128,0,276908:0:0:0:0:
64,192,276804,1,4,0:0:0:0:
320,192,276908,1,4,0:0:0:0:
192,192,276908,1,0,0:0:0:0:
448,192,277011,128,2,277218:0:0:0:0:
64,192,277011,1,0,0:0:0:0:
192,192,277011,1,0,0:0:0:0:
320,192,277011,1,0,0:0:0:0:
192,192,277218,1,2,0:0:0:0:
64,192,277218,1,0,0:0:0:0:
64,192,277322,1,0,0:0:0:0:
320,192,277322,1,2,0:0:0:0:
448,192,277425,1,8,0:0:0:0:
64,192,277425,1,0,0:0:0:0:
192,192,277425,1,0,0:0:0:0:
448,192,277528,1,0,0:0:0:0:
192,192,277528,1,2,0:0:0:0:
64,192,277735,1,2,0:0:0:0:
320,192,277735,1,0,0:0:0:0:
448,192,277735,1,0,0:0:0:0:
192,192,277839,1,0,0:0:0:0:
320,192,277839,1,0,0:0:0:0:
448,192,277942,1,2,0:0:0:0:
192,192,277942,1,0,0:0:0:0:
64,192,277942,1,0,0:0:0:0:
64,192,278149,1,0,0:0:0:0:
448,192,278149,1,2,0:0:0:0:
320,192,278253,1,0,0:0:0:0:
64,192,278253,1,8,0:0:0:0:
448,192,278253,1,0,0:0:0:0:
192,192,278356,1,0,0:0:0:0:
320,192,278356,1,0,0:0:0:0:
448,192,278459,1,0,0:0:0:0:
64,192,278459,1,2,0:0:0:0:
320,192,278563,1,2,0:0:0:0:
64,192,278563,1,0,0:0:0:0:
448,192,278666,1,0,0:0:0:0:
320,192,278666,1,0,0:0:0:0:
192,192,278666,1,2,0:0:0:0:
320,192,278873,1,0,0:0:0:0:
64,192,278873,1,2,0:0:0:0:
448,192,278977,1,2,0:0:0:0:
192,192,278977,1,0,0:0:0:0:
448,192,279080,1,0,0:0:0:0:
64,192,279080,1,8,0:0:0:0:
192,192,279080,1,0,0:0:0:0:
64,192,279184,1,0,0:0:0:0:
320,192,279184,1,2,0:0:0:0:
192,192,279287,1,0,0:0:0:0:
320,192,279391,1,0,0:0:0:0:
448,192,279391,1,8,0:0:0:0:
320,192,279494,1,2,0:0:0:0:
192,192,279494,128,0,279546:0:0:0:0:
64,192,279597,128,2,279649:0:0:0:0:
448,192,279701,1,2,0:0:0:0:
320,192,279701,128,0,279753:0:0:0:0:
192,192,279804,128,0,279856:0:0:0:0:
64,192,279804,1,8,0:0:0:0:
64,192,279908,1,0,0:0:0:0:
448,192,279908,128,8,279959:0:0:0:0:
320,192,280011,128,8,280063:0:0:0:0:
192,192,280011,1,0,0:0:0:0:
64,192,280115,128,8,280166:0:0:0:0:
448,192,280115,1,0,0:0:0:0:
448,192,280218,128,8,280270:0:0:0:0:
192,192,280322,128,0,280528:0:0:0:0:
320,192,280322,1,2,0:0:0:0:
64,192,280322,1,0,0:0:0:0:
320,192,280528,1,0,0:0:0:0:
448,192,280528,1,2,0:0:0:0:
448,192,280632,1,0,0:0:0:0:
192,192,280632,1,2,0:0:0:0:
192,192,280735,1,0,0:0:0:0:
64,192,280735,1,8,0:0:0:0:
448,192,280735,1,0,0:0:0:0:
320,192,280839,1,2,0:0:0:0:
64,192,280839,1,0,0:0:0:0:
320,192,281046,1,0,0:0:0:0:
64,192,281046,1,0,0:0:0:0:
192,192,281046,1,2,0:0:0:0:
448,192,281149,1,0,0:0:0:0:
192,192,281253,1,0,0:0:0:0:
320,192,281253,1,2,0:0:0:0:
64,192,281253,1,0,0:0:0:0:
320,192,281459,1,0,0:0:0:0:
192,192,281459,1,2,0:0:0:0:
64,192,281563,1,0,0:0:0:0:
448,192,281563,1,8,0:0:0:0:
320,192,281563,1,0,0:0:0:0:
64,192,281666,1,0,0:0:0:0:
448,192,281666,1,0,0:0:0:0:
192,192,281770,1,0,0:0:0:0:
320,192,281770,1,2,0:0:0:0:
64,192,281873,1,2,0:0:0:0:
448,192,281873,1,0,0:0:0:0:
448,192,281977,1,0,0:0:0:0:
192,192,281977,1,2,0:0:0:0:
320,192,281977,1,0,0:0:0:0:
448,192,282184,1,2,0:0:0:0:
320,192,282184,1,0,0:0:0:0:
192,192,282184,1,0,0:0:0:0:
64,192,282287,1,2,0:0:0:0:
64,192,282391,1,8,0:0:0:0:
320,192,282391,1,0,0:0:0:0:
192,192,282391,1,0,0:0:0:0:
448,192,282494,1,0,0:0:0:0:
192,192,282494,1,2,0:0:0:0:
320,192,282597,1,0,0:0:0:0:
64,192,282597,1,0,0:0:0:0:
192,192,282701,1,2,0:0:0:0:
448,192,282908,1,0,0:0:0:0:
64,192,282908,1,0,0:0:0:0:
320,192,282908,1,8,0:0:0:0:
192,192,282908,1,0,0:0:0:0:
64,192,283115,1,2,0:0:0:0:
320,192,283218,1,0,0:0:0:0:
64,192,283218,1,0,0:0:0:0:
448,192,283218,1,8,0:0:0:0:
192,192,283322,1,4,0:0:0:0:
320,192,283322,1,0,0:0:0:0:
64,192,283425,128,0,283528:0:0:0:0:
448,192,283425,1,4,0:0:0:0:
320,192,283528,1,4,0:0:0:0:
192,192,283528,1,0,0:0:0:0:
64,192,283632,128,0,283839:0:0:0:0:
448,192,283632,1,2,0:0:0:0:
192,192,283632,1,0,0:0:0:0:
192,192,283839,1,0,0:0:0:0:
320,192,283839,1,2,0:0:0:0:
320,192,283942,1,0,0:0:0:0:
64,192,283942,1,2,0:0:0:0:
192,192,284046,1,8,0:0:0:0:
448,192,284046,1,0,0:0:0:0:
320,192,284046,1,0,0:0:0:0:
448,192,284149,1,2,0:0:0:0:
192,192,284356,1,0,0:0:0:0:
320,192,284356,1,0,0:0:0:0:
64,192,284356,1,2,0:0:0:0:
448,192,284459,1,0,0:0:0:0:
64,192,284459,1,0,0:0:0:0:
448,192,284563,1,0,0:0:0:0:
192,192,284563,1,0,0:0:0:0:
320,192,284563,1,2,0:0:0:0:
192,192,284770,1,2,0:0:0:0:
320,192,284770,1,0,0:0:0:0:
64,192,284873,1,8,0:0:0:0:
448,192,284873,1,0,0:0:0:0:
192,192,284873,1,0,0:0:0:0:
192,192,284977,1,0,0:0:0:0:
448,192,284977,1,0,0:0:0:0:
64,192,285080,1,2,0:0:0:0:
320,192,285080,1,0,0:0:0:0:
320,192,285184,1,0,0:0:0:0:
192,192,285184,1,2,0:0:0:0:
192,192,285287,1,0,0:0:0:0:
448,192,285287,1,2,0:0:0:0:
64,192,285287,1,0,0:0:0:0:
64,192,285494,1,2,0:0:0:0:
448,192,285494,1,0,0:0:0:0:
320,192,285597,1,2,0:0:0:0:
192,192,285597,1,0,0:0:0:0:
320,192,285701,1,0,0:0:0:0:
64,192,285701,1,0,0:0:0:0:
448,192,285701,1,8,0:0:0:0:
64,192,285804,128,2,286011:0:0:0:0:
448,192,285856,1,0,0:0:0:0:
192,192,285908,128,0,286011:0:0:0:0:
320,192,286011,1,8,0:0:0:0:
448,192,286011,1,0,0:0:0:0:
192,192,286115,1,2,0:0:0:0:
64,192,286115,1,0,0:0:0:0:
320,192,286184,1,8,0:0:0:0:
448,192,286218,1,8,0:0:0:0:
64,192,286218,1,0,0:0:0:0:
192,192,286270,1,8,0:0:0:0:
448,192,286322,1,0,0:0:0:0:
320,192,286322,1,8,0:0:0:0:
64,192,286391,1,8,0:0:0:0:
192,192,286459,1,8,0:0:0:0:
320,192,286459,1,0,0:0:0:0:
64,192,286528,1,0,0:0:0:0:
448,192,286528,1,4,0:0:0:0:
320,192,286597,1,4,0:0:0:0:
192,192,286666,1,4,0:0:0:0:
64,192,286735,1,4,0:0:0:0:
192,192,286804,1,4,0:0:0:0:
448,192,286804,1,0,0:0:0:0:
320,192,286873,1,4,0:0:0:0:
64,192,286942,1,2,0:0:0:0:
192,192,286942,1,0,0:0:0:0:
448,192,286942,128,0,288286:0:0:0:80:cymbal.wav
320,192,287148,1,2,0:0:0:0:
64,192,287148,128,0,287355:0:0:0:0:
192,192,287355,1,8,0:0:0:0:
320,192,287355,128,0,287562:0:0:0:0:
192,192,287562,1,2,0:0:0:0:
64,192,287562,128,0,287769:0:0:0:0:
320,192,287769,1,2,0:0:0:0:
192,192,287769,128,0,288079:0:0:0:0:
320,192,288079,1,8,0:0:0:0:
64,192,288079,128,0,288597:0:0:0:0:
448,192,288390,1,0,0:0:0:0:
320,192,288390,1,0,0:0:0:80:cymbal short.wav
192,192,288390,1,2,0:0:0:0:
320,192,288597,1,2,0:0:0:0:
448,192,288597,128,0,288804:0:0:0:0:
192,192,288666,1,2,0:0:0:0:
64,192,288735,1,2,0:0:0:0:
320,192,288804,1,8,0:0:0:0:
192,192,288804,128,0,289010:0:0:0:0:
64,192,289010,1,0,0:0:0:0:
448,192,289010,128,2,289217:0:0:0:0:
192,192,289217,1,2,0:0:0:0:
320,192,289217,128,0,289424:0:0:0:0:
448,192,289424,1,2,0:0:0:0:
64,192,289424,128,0,289528:0:0:0:0:
320,192,289528,1,8,0:0:0:0:
192,192,289528,128,0,289735:0:0:0:0:
320,192,289735,128,8,289838:0:0:0:0:
192,192,289838,1,0,0:0:0:70:cymbal.wav
64,192,289838,1,2,0:0:0:0:
448,192,289838,128,0,290045:0:0:0:0:
192,192,290045,1,2,0:0:0:0:
64,192,290045,128,0,290252:0:0:0:0:
448,192,290252,1,0,0:0:0:0:
192,192,290252,1,8,0:0:0:0:
320,192,290252,128,0,290459:0:0:0:0:
448,192,290459,1,2,0:0:0:0:
64,192,290459,128,0,290666:0:0:0:0:
320,192,290666,1,2,0:0:0:0:
192,192,290666,128,0,290976:0:0:0:0:
64,192,290769,1,2,0:0:0:0:
320,192,290838,1,2,0:0:0:0:
448,192,290907,1,2,0:0:0:0:
64,192,290976,128,0,291286:0:0:0:0:
320,192,290976,1,8,0:0:0:0:
320,192,291183,1,0,0:0:0:0:
448,192,291183,1,8,0:0:0:0:
448,192,291286,1,4,0:0:0:0:
192,192,291286,1,2,0:0:0:0:
192,192,291389,1,0,0:0:0:0:
64,192,291389,1,2,0:0:0:0:
64,192,291492,1,0,0:0:0:0:
320,192,291492,1,2,0:0:0:0:
448,192,291596,1,2,0:0:0:0:
192,192,291596,1,8,0:0:0:0:
320,192,291596,1,0,0:0:0:0:
64,192,291906,1,2,0:0:0:0:
192,192,291906,1,4,0:0:0:0:
448,192,292010,1,0,0:0:0:0:
192,192,292010,1,2,0:0:0:0:
320,192,292113,1,0,0:0:0:0:
448,192,292113,1,2,0:0:0:0:
192,192,292217,1,0,0:0:0:0:
64,192,292217,1,8,0:0:0:0:
320,192,292217,1,2,0:0:0:0:
64,192,292527,1,4,0:0:0:0:
192,192,292527,1,2,0:0:0:0:
320,192,292630,1,2,0:0:0:0:
192,192,292630,1,0,0:0:0:0:
320,192,292734,1,0,0:0:0:0:
64,192,292734,1,2,0:0:0:0:
64,192,292837,1,0,0:0:0:0:
192,192,292837,1,8,0:0:0:0:
448,192,292837,1,2,0:0:0:0:
320,192,292941,1,2,0:0:0:0:
448,192,292941,1,0,0:0:0:0:
192,192,293044,1,2,0:0:0:0:
64,192,293044,1,4,0:0:0:0:
448,192,293147,1,0,0:0:0:0:
64,192,293147,1,2,0:0:0:0:
192,192,293251,1,0,0:0:0:0:
320,192,293251,1,2,0:0:0:0:
192,192,293354,1,2,0:0:0:0:
64,192,293354,1,0,0:0:0:0:
320,192,293354,1,0,0:0:0:80:cymbal short.wav
448,192,293354,1,8,0:0:0:0:
192,192,293665,1,0,0:0:0:0:
320,192,293665,1,4,0:0:0:0:
64,192,293665,1,2,0:0:0:0:
448,192,293768,1,0,0:0:0:0:
192,192,293768,1,2,0:0:0:0:
64,192,293768,1,0,0:0:0:0:
320,192,293872,1,0,0:0:0:0:
448,192,293872,1,2,0:0:0:0:
64,192,293975,1,0,0:0:0:70:cymbal short.wav
320,192,293975,1,8,0:0:0:0:
192,192,293975,1,2,0:0:0:0:
448,192,294078,1,2,0:0:0:0:
192,192,294182,1,2,0:0:0:0:
64,192,294182,1,0,0:0:0:0:
448,192,294320,1,0,0:0:0:0:
320,192,294320,1,8,0:0:0:0:
448,192,294458,1,0,0:0:0:0:
192,192,294458,1,8,0:0:0:0:
64,192,294458,1,0,0:0:0:0:
320,192,294596,1,2,0:0:0:0:
64,192,294596,1,4,0:0:0:0:
320,192,294734,1,4,0:0:0:0:
192,192,294734,1,8,0:0:0:0:
448,192,294872,1,4,0:0:0:0:
64,192,294872,1,0,0:0:0:0:
448,192,295009,128,0,295118:0:0:0:0:
320,192,295009,128,0,295337:0:0:0:0:
192,192,295009,128,2,295556:0:0:0:0:
64,192,295009,128,0,295556:0:0:0:80:cymbal.wav
448,192,295227,128,0,295556:0:0:0:60:hat1.wav
320,192,295446,128,0,295556:0:0:0:60:hat1.wav
320,192,295665,128,0,296213:0:0:0:80:cymbal.wav
448,192,295665,128,2,296213:0:0:0:0:
192,192,295665,128,0,295775:0:0:0:0:
64,192,295665,128,0,295994:0:0:0:0:
192,192,295884,128,0,296213:0:0:0:60:hat1.wav
64,192,296103,128,0,296213:0:0:0:60:hat1.wav
192,192,296322,128,0,296651:0:0:0:80:cymbal.wav
64,192,296322,128,2,296651:0:0:0:0:
320,192,296322,128,0,296432:0:0:0:0:
448,192,296322,128,0,296651:0:0:0:0:
320,192,296541,128,0,297089:0:0:0:60:hat1.wav
192,192,296760,1,2,0:0:0:0:
448,192,296760,128,0,297089:0:0:0:60:cymbal.wav
64,192,296760,128,0,296833:0:0:0:60:hat1.wav
192,192,296906,128,0,296979:0:0:0:60:hat1.wav
64,192,297052,128,0,297125:0:0:0:60:hat1.wav
320,192,297198,128,2,297417:0:0:0:0:
64,192,297198,128,0,297417:0:0:0:0:
192,192,297198,128,0,297527:0:0:0:90:cymbal short.wav
448,192,297198,128,0,297308:0:0:0:0:
448,192,297417,128,0,297746:0:0:0:60:hat1.wav
192,192,297636,128,0,297746:0:0:0:60:hat1.wav
192,192,297855,128,0,298074:0:0:0:0:
320,192,297855,128,0,298074:0:0:0:90:cymbal short.wav
448,192,297855,128,2,298403:0:0:0:0:
64,192,297855,128,0,297965:0:0:0:0:
64,192,298074,128,0,298403:0:0:0:60:hat1.wav
192,192,298293,1,0,0:0:0:60:hat1.wav
192,192,298512,128,2,298731:0:0:0:0:
448,192,298512,128,0,298731:0:0:0:0:
64,192,298512,128,0,298841:0:0:0:90:cymbal short.wav
320,192,298512,128,0,298622:0:0:0:0:
320,192,298731,128,0,298841:0:0:0:60:hat1.wav
192,192,298950,128,2,299060:0:0:0:0:
64,192,298950,128,0,299060:0:0:0:0:
448,192,298950,128,0,299023:0:0:0:60:hat1.wav
320,192,299096,128,0,299169:0:0:0:60:hat1.wav
192,192,299169,1,8,0:0:0:0:
64,192,299169,1,0,0:0:0:0:
448,192,299242,128,0,299315:0:0:0:60:hat1.wav
64,192,299279,1,0,0:0:0:0:
192,192,299279,1,8,0:0:0:0:
320,192,299388,128,0,299607:0:0:0:70:cymbal.wav
64,192,299388,128,0,299498:0:0:0:50:hat1.wav
448,192,299388,1,2,0:0:0:0:
192,192,299607,128,2,299717:0:0:0:50:hat1.wav
320,192,299717,1,2,0:0:0:0:
320,192,299826,128,0,299936:0:0:0:50:hat1.wav
192,192,299826,1,0,0:0:0:0:
448,192,299826,1,0,0:0:0:0:
64,192,299826,1,8,0:0:0:0:
192,192,299936,1,0,0:0:0:0:
320,192,300045,128,0,300154:0:0:0:0:
448,192,300045,128,2,300154:0:0:0:50:hat1.wav
64,192,300045,128,0,300264:0:0:0:0:
192,192,300264,128,2,300373:0:0:0:0:
320,192,300264,128,0,300373:0:0:0:50:hat1.wav
448,192,300373,1,2,0:0:0:0:
192,192,300483,128,0,300592:0:0:0:50:hat1.wav
64,192,300483,1,0,0:0:0:0:
448,192,300483,1,0,0:0:0:0:
320,192,300483,1,8,0:0:0:0:
64,192,300592,1,0,0:0:0:0:
320,192,300702,128,0,300811:0:0:0:50:hat1.wav
192,192,300702,128,2,300921:0:0:0:0:
448,192,300921,128,0,301030:0:0:0:50:hat1.wav
64,192,300921,1,2,0:0:0:0:
320,192,301030,1,2,0:0:0:0:
448,192,301140,128,0,301578:0:0:0:0:
64,192,301140,128,0,301213:0:0:0:50:hat1.wav
320,192,301140,1,0,0:0:0:0:
192,192,301140,1,8,0:0:0:0:
320,192,301286,128,2,301359:0:0:0:50:hat1.wav
192,192,301432,128,2,301505:0:0:0:50:hat1.wav
64,192,301578,128,2,301687:0:0:0:50:hat1.wav
320,192,301578,128,0,301796:0:0:0:0:
192,192,301578,1,0,0:0:0:60:cymbal.wav
448,192,301796,128,2,301906:0:0:0:50:hat1.wav
192,192,301906,1,2,0:0:0:0:
320,192,302015,128,0,302125:0:0:0:50:hat1.wav
64,192,302015,1,8,0:0:0:0:
192,192,302015,1,0,0:0:0:0:
448,192,302015,1,0,0:0:0:0:
64,192,302125,1,0,0:0:0:0:
320,192,302234,128,2,302344:0:0:0:0:
192,192,302234,128,0,302344:0:0:0:50:hat1.wav
448,192,302234,128,0,302453:0:0:0:0:
192,192,302453,128,2,302563:0:0:0:0:
64,192,302453,128,0,302563:0:0:0:50:hat1.wav
320,192,302563,1,2,0:0:0:0:
64,192,302672,128,0,302782:0:0:0:50:hat1.wav
192,192,302672,1,0,0:0:0:0:
448,192,302672,1,8,0:0:0:0:
320,192,302672,1,0,0:0:0:0:
448,192,302782,1,0,0:0:0:0:
192,192,302891,128,2,303110:0:0:0:50:hat1.wav
320,192,302891,128,0,303001:0:0:0:0:
448,192,303110,128,0,303220:0:0:0:50:hat1.wav
64,192,303110,1,2,0:0:0:0:
192,192,303220,1,2,0:0:0:0:
64,192,303329,128,0,303475:0:0:0:0:
192,192,303329,128,0,303402:0:0:0:50:hat1.wav
448,192,303329,1,8,0:0:0:0:
320,192,303329,1,0,0:0:0:0:
320,192,303475,128,0,303548:0:0:0:50:hat1.wav
192,192,303512,1,4,0:0:0:0:
448,192,303621,128,4,303694:0:0:0:50:hat1.wav
64,192,303658,1,4,0:0:0:0:
192,192,303731,1,4,0:0:0:0:
320,192,303767,1,2,0:0:0:0:
448,192,303767,1,0,0:0:0:0:
64,192,303822,1,0,0:0:0:0:
192,192,303877,1,0,0:0:0:0:
320,192,303932,1,0,0:0:0:0:
448,192,303986,1,0,0:0:0:0:
64,192,304041,1,0,0:0:0:0:
192,192,304096,1,0,0:0:0:0:
320,192,304150,1,0,0:0:0:0:
192,192,304205,1,2,0:0:0:0:
448,192,304205,128,0,304569:0:0:0:70:cymbal.wav
64,192,304241,128,0,304642:0:0:0:0:
320,192,304423,1,2,0:0:0:0:
192,192,304533,1,2,0:0:0:0:
320,192,304642,1,8,0:0:0:0:
448,192,304642,128,0,304861:0:0:0:0:
192,192,304752,128,0,304807:0:0:0:0:
64,192,304861,128,0,304971:0:0:0:0:
320,192,304861,1,2,0:0:0:0:
448,192,304934,1,0,0:0:0:0:
320,192,304971,128,0,305080:0:0:0:0:
192,192,305007,1,0,0:0:0:0:
448,192,305080,128,0,305190:0:0:0:0:
64,192,305080,1,2,0:0:0:0:
320,192,305190,128,2,305263:0:0:0:0:
192,192,305263,128,0,305336:0:0:0:0:
64,192,305299,1,8,0:0:0:0:
320,192,305336,128,0,305409:0:0:0:0:
64,192,305409,128,0,305464:0:0:0:0:
192,192,305464,128,0,305546:0:0:0:0:
320,192,305518,1,2,0:0:0:0:
448,192,305546,128,0,305600:0:0:0:0:
64,192,305600,128,0,305683:0:0:0:0:
320,192,305683,128,0,305765:0:0:0:0:
64,192,305765,128,0,305847:0:0:0:0:
192,192,305847,128,2,305902:0:0:0:0:
320,192,305902,128,0,305956:0:0:0:0:
448,192,305956,1,2,0:0:0:0:
64,192,305956,1,0,0:0:0:0:
448,192,306102,128,0,306175:0:0:0:0:
64,192,306175,1,8,0:0:0:0:
192,192,306175,1,0,0:0:0:0:
320,192,306248,128,0,306321:0:0:0:0:
192,192,306285,1,0,0:0:0:0:
64,192,306285,1,8,0:0:0:0:
448,192,306394,1,2,0:0:0:0:
192,192,306394,128,0,306723:0:0:0:0:
320,192,306394,1,0,0:0:0:60:cymbal.wav
64,192,306467,1,0,0:0:0:0:
448,192,306540,1,0,0:0:0:0:
320,192,306613,1,2,0:0:0:0:
64,192,306723,128,2,306942:0:0:0:0:
448,192,306777,128,0,306860:0:0:0:0:
192,192,306832,1,8,0:0:0:0:
448,192,306942,128,0,307024:0:0:0:0:
64,192,307024,128,0,307106:0:0:0:0:
320,192,307051,1,2,0:0:0:0:
448,192,307106,128,0,307188:0:0:0:0:
192,192,307188,128,0,307270:0:0:0:0:
320,192,307270,128,2,307352:0:0:0:0:
64,192,307352,128,0,307434:0:0:0:0:
448,192,307434,128,0,307517:0:0:0:0:
192,192,307489,1,8,0:0:0:0:
192,192,307635,1,0,0:0:0:0:
64,192,307681,1,0,0:0:0:0:
320,192,307708,1,2,0:0:0:0:
448,192,307736,128,0,307845:0:0:0:0:
320,192,307845,128,0,307927:0:0:0:0:
192,192,307927,128,2,308064:0:0:0:0:
448,192,308000,1,0,0:0:0:0:
64,192,308064,128,0,308146:0:0:0:0:
320,192,308146,128,0,308292:0:0:0:0:
192,192,308146,1,0,0:0:0:0:
448,192,308146,1,8,0:0:0:0:
64,192,308292,128,0,308438:0:0:0:0:
192,192,308292,1,2,0:0:0:0:
448,192,308438,128,0,308584:0:0:0:0:
320,192,308438,1,2,0:0:0:0:
64,192,308584,1,2,0:0:0:0:
320,192,308584,1,0,0:0:0:70:cymbal.wav
192,192,308584,128,0,308730:0:0:0:0:
448,192,308657,128,0,308730:0:0:0:0:
320,192,308730,128,0,308803:0:0:0:0:
192,192,308803,128,2,308876:0:0:0:0:
64,192,308913,128,2,308986:0:0:0:0:
320,192,308949,128,0,309022:0:0:0:0:
192,192,309022,128,0,309168:0:0:0:0:
448,192,309022,1,8,0:0:0:0:
320,192,309168,128,0,309241:0:0:0:0:
192,192,309241,128,0,309323:0:0:0:0:
64,192,309241,1,2,0:0:0:0:
448,192,309323,128,0,309433:0:0:0:0:
64,192,309433,128,0,309515:0:0:0:0:
192,192,309460,1,2,0:0:0:0:
448,192,309515,128,0,309597:0:0:0:0:
192,192,309597,128,0,309679:0:0:0:0:
448,192,309679,1,8,0:0:0:0:
64,192,309679,1,0,0:0:0:0:
192,192,309761,1,0,0:0:0:0:
448,192,309825,1,0,0:0:0:0:
320,192,309898,128,0,310007:0:0:0:0:
192,192,309898,1,2,0:0:0:0:
64,192,309953,128,2,310062:0:0:0:0:
192,192,310117,128,0,310226:0:0:0:0:
320,192,310117,1,2,0:0:0:0:
448,192,310172,128,0,310281:0:0:0:0:
64,192,310336,1,8,0:0:0:0:
192,192,310336,1,0,0:0:0:0:
320,192,310336,1,0,0:0:0:0:
192,192,310482,128,0,310628:0:0:0:0:
320,192,310555,1,0,0:0:0:0:
448,192,310555,1,8,0:0:0:0:
64,192,310628,128,0,310774:0:0:0:0:
320,192,310664,1,0,0:0:0:0:
448,192,310664,1,8,0:0:0:0:
192,192,310774,1,0,0:0:0:60:cymbal.wav
448,192,310774,1,2,0:0:0:0:
320,192,310774,128,0,310993:0:0:0:0:
64,192,310847,1,0,0:0:0:0:
448,192,310920,1,0,0:0:0:0:
64,192,310993,128,2,311102:0:0:0:0:
192,192,311102,128,2,311212:0:0:0:0:
448,192,311212,128,0,311286:0:0:0:0:
64,192,311212,1,8,0:0:0:0:
320,192,311286,128,0,311360:0:0:0:0:
192,192,311360,128,0,311434:0:0:0:0:
64,192,311434,128,2,311508:0:0:0:0:
192,192,311508,128,0,311582:0:0:0:0:
320,192,311582,128,0,311656:0:0:0:0:
448,192,311656,128,2,311765:0:0:0:0:
64,192,311728,1,0,0:0:0:0:
320,192,311765,1,2,0:0:0:0:
192,192,311801,128,0,311911:0:0:0:0:
64,192,311874,1,8,0:0:0:0:
448,192,311874,1,0,0:0:0:0:
320,192,311947,128,0,312057:0:0:0:0:
64,192,312093,128,2,312169:0:0:0:0:
448,192,312093,1,0,0:0:0:0:
192,192,312169,128,0,312246:0:0:0:0:
64,192,312246,128,0,312323:0:0:0:0:
192,192,312323,128,0,312400:0:0:0:0:
448,192,312323,1,2,0:0:0:0:
320,192,312400,128,2,312477:0:0:0:0:
448,192,312477,128,0,312554:0:0:0:0:
320,192,312554,128,0,312635:0:0:0:0:
64,192,312554,1,8,0:0:0:0:
192,192,312635,128,0,312716:0:0:0:0:
64,192,312716,128,0,312797:0:0:0:0:
448,192,312797,128,0,312879:0:0:0:0:
192,192,312797,1,2,0:0:0:0:
320,192,312879,128,2,312960:0:0:0:0:
64,192,312960,1,0,0:0:0:0:
448,192,312960,128,0,313041:0:0:0:0:
192,192,313041,5,2,0:0:0:0:
320,192,313041,128,0,313127:0:0:0:0:
192,192,313214,1,2,0:0:0:0:
320,192,313214,128,0,313258:0:0:0:0:
192,192,313388,1,2,0:0:0:0:
320,192,313388,128,0,313432:0:0:0:0:
192,192,313562,1,2,0:0:0:0:
64,192,313562,1,0,0:0:0:60:cymbal.wav
320,192,313562,128,0,313612:0:0:0:0:
448,192,313562,128,0,313612:0:0:0:0:
448,192,313762,5,0,0:0:0:0:
192,192,313762,128,0,313812:0:0:0:0:
320,192,313962,1,0,0:0:0:0:
64,192,313962,128,0,314012:0:0:0:0:
320,192,314162,128,0,314220:0:0:0:0:
192,192,314162,128,0,314220:0:0:0:70:cymbal.wav
448,192,314162,1,2,0:0:0:0:
64,192,314397,1,0,0:0:0:0:
448,192,314397,128,0,314470:0:0:0:0:
64,192,314632,1,0,0:0:0:0:
320,192,314632,128,0,314735:0:0:0:0:
448,192,314867,128,2,315152:0:0:0:0:
64,192,314867,128,0,314938:0:0:0:0:
192,192,314867,128,0,314938:0:0:0:80:cymbal.wav
320,192,315152,128,0,315242:0:0:0:0:
448,192,315242,128,0,315349:0:0:0:0:
320,192,315349,128,0,315456:0:0:0:0:
192,192,315456,128,0,315617:0:0:0:0:
64,192,315724,128,0,316965:0:0:0:0:
192,192,315724,128,0,316965:0:0:0:0:
320,192,315724,128,0,316861:0:0:0:80:cymbal.wav
448,192,315724,1,2,0:0:0:0:
448,192,316939,1,4,0:0:0:0:
320,192,316965,1,4,0:0:0:0:
448,192,317172,128,0,318517:0:0:0:0:
192,192,317172,128,0,318517:0:0:0:80:cymbal.wav
320,192,317172,128,0,318620:0:0:0:0:
64,192,317172,1,2,0:0:0:0:
64,192,318620,1,2,0:0:0:0:
448,192,318620,1,0,0:0:0:0:
192,192,318620,1,0,0:0:0:0:
320,192,318724,1,2,0:0:0:0:
64,192,318827,1,0,0:0:0:0:
448,192,318827,1,2,0:0:0:0:
192,192,318930,1,2,0:0:0:0:
320,192,319034,128,2,320275:0:0:0:0:
64,192,319034,128,0,320172:0:0:0:80:cymbal.wav
448,192,319034,128,0,320275:0:0:0:0:
192,192,320249,1,4,0:0:0:0:
64,192,320275,1,4,0:0:0:0:
64,192,320482,128,0,321103:0:0:0:0:
448,192,320482,128,0,320999:0:0:0:0:
192,192,320482,128,0,321103:0:0:0:70:cymbal.wav
320,192,320482,1,2,0:0:0:0:
320,192,321103,1,2,0:0:0:0:
448,192,321103,1,0,0:0:0:0:
64,192,321206,1,2,0:0:0:0:
448,192,321310,128,0,321930:0:0:0:0:
320,192,321310,128,0,321930:0:0:0:0:
192,192,321310,128,2,321724:0:0:0:0:
64,192,321724,1,2,0:0:0:0:
192,192,321827,1,2,0:0:0:0:
64,192,321930,1,2,0:0:0:0:
320,192,322034,1,2,0:0:0:0:
192,192,322137,1,2,0:0:0:0:
64,192,322137,1,0,0:0:0:0:
448,192,322241,1,2,0:0:0:0:
64,192,322344,128,0,323586:0:0:0:0:
192,192,322344,128,0,323586:0:0:0:80:cymbal.wav
320,192,322344,128,2,323482:0:0:0:0:
448,192,323560,1,4,0:0:0:0:
320,192,323586,1,4,0:0:0:0:
448,192,323792,128,0,325137:0:0:0:80:cymbal.wav
192,192,323792,128,0,325137:0:0:0:0:
320,192,323792,128,0,325241:0:0:0:0:
64,192,323792,1,2,0:0:0:0:
64,192,325241,1,2,0:0:0:0:
448,192,325241,1,0,0:0:0:0:
192,192,325241,1,0,0:0:0:0:
320,192,325344,1,2,0:0:0:0:
64,192,325448,1,0,0:0:0:0:
448,192,325448,1,2,0:0:0:0:
192,192,325551,1,2,0:0:0:0:
320,192,325655,128,2,326172:0:0:0:0:
64,192,325655,128,0,326792:0:0:0:80:cymbal.wav
448,192,325655,128,0,326896:0:0:0:0:
192,192,326275,128,0,326767:0:0:0:0:
320,192,326275,128,2,326896:0:0:0:0:
192,192,326870,1,4,0:0:0:0:
64,192,326896,1,4,0:0:0:0:
64,192,327103,128,0,327724:0:0:0:0:
448,192,327103,128,0,327620:0:0:0:0:
192,192,327103,128,0,327724:0:0:0:70:cymbal.wav
320,192,327103,1,2,0:0:0:0:
320,192,327724,1,2,0:0:0:0:
448,192,327724,1,0,0:0:0:0:
64,192,327827,1,2,0:0:0:0:
448,192,327930,128,0,328551:0:0:0:0:
320,192,327930,128,0,328448:0:0:0:0:
192,192,327930,128,2,328344:0:0:0:0:
64,192,328344,1,2,0:0:0:0:
192,192,328448,1,8,0:0:0:0:
64,192,328551,1,0,0:0:0:0:
320,192,328551,1,8,0:0:0:0:
448,192,328655,1,0,0:0:0:0:
192,192,328655,1,8,0:0:0:0:
64,192,328758,1,8,0:0:0:0:
320,192,328758,1,0,0:0:0:0:
448,192,328861,1,8,0:0:0:0:
192,192,328965,128,0,330077:0:0:0:80:cymbal.wav
320,192,328965,128,2,330206:0:0:0:0:
64,192,328965,128,0,329301:0:0:0:0:
448,192,329379,1,4,0:0:0:0:
64,192,329405,128,4,329689:0:0:0:0:
64,192,329792,128,4,330129:0:0:0:0:
448,192,329818,1,4,0:0:0:0:
192,192,330180,1,4,0:0:0:0:
448,192,330206,1,4,0:0:0:0:
64,192,330232,1,0,0:0:0:0:
192,192,330413,128,0,331241:0:0:0:0:
448,192,330413,128,0,330930:0:0:0:80:cymbal.wav
64,192,330413,1,2,0:0:0:0:
320,192,330413,128,0,330930:0:0:0:0:
64,192,330827,1,2,0:0:0:0:
448,192,331034,128,0,331861:0:0:0:0:
64,192,331034,1,8,0:0:0:0:
320,192,331034,128,0,331137:0:0:0:0:
320,192,331241,128,0,331344:0:0:0:0:
64,192,331344,1,2,0:0:0:0:
192,192,331344,128,0,331758:0:0:0:0:
64,192,331448,1,2,0:0:0:0:
320,192,331448,128,0,331758:0:0:0:0:
64,192,331655,1,2,0:0:0:0:
320,192,331861,1,0,0:0:0:0:
64,192,331861,1,8,0:0:0:0:
192,192,331861,1,0,0:0:0:0:
448,192,331965,1,8,0:0:0:0:
64,192,332068,1,0,0:0:0:0:
320,192,332068,1,8,0:0:0:0:
192,192,332172,1,8,0:0:0:0:
320,192,332275,128,2,332792:0:0:0:0:
64,192,332275,128,0,333517:0:0:0:80:cymbal.wav
448,192,332275,128,0,332586:0:0:0:0:
192,192,332586,1,2,0:0:0:0:
192,192,332689,1,8,0:0:0:0:
448,192,332689,128,0,332999:0:0:0:0:
192,192,332896,1,2,0:0:0:0:
320,192,332896,128,0,333413:0:0:0:0:
448,192,333103,128,0,333310:0:0:0:0:
192,192,333310,1,2,0:0:0:0:
448,192,333413,1,8,0:0:0:0:
192,192,333465,1,8,0:0:0:0:
448,192,333517,1,0,0:0:0:0:
320,192,333517,1,8,0:0:0:0:
64,192,333724,128,0,334344:0:0:0:0:
192,192,333724,128,0,334241:0:0:0:70:cymbal.wav
448,192,333724,128,2,334034:0:0:0:0:
320,192,333930,1,0,0:0:0:0:
320,192,334137,1,8,0:0:0:0:
448,192,334137,1,0,0:0:0:0:
448,192,334344,1,0,0:0:0:0:
192,192,334344,1,2,0:0:0:0:
64,192,334448,1,0,0:0:0:0:
320,192,334448,1,2,0:0:0:0:
320,192,334551,128,0,334758:0:0:0:0:
448,192,334551,128,2,334758:0:0:0:0:
192,192,334551,128,0,334655:0:0:0:0:
64,192,334758,1,8,0:0:0:0:
192,192,334758,128,0,334965:0:0:0:0:
320,192,334861,128,0,335172:0:0:0:0:
448,192,334861,128,0,335379:0:0:0:0:
64,192,334965,1,2,0:0:0:0:
192,192,335068,1,8,0:0:0:0:
64,192,335172,128,2,335379:0:0:0:0:
320,192,335275,1,2,0:0:0:0:
192,192,335379,1,8,0:0:0:0:
448,192,335482,1,10,0:0:0:0:
64,192,335586,128,0,335792:0:0:0:0:
192,192,335586,128,0,335792:0:0:0:80:cymbal.wav
320,192,335586,128,2,335896:0:0:0:0:
192,192,335896,128,2,336724:0:0:0:0:
64,192,335896,128,0,336103:0:0:0:0:
448,192,335999,1,8,0:0:0:0:
320,192,335999,128,0,336724:0:0:0:0:
64,192,336206,128,2,336517:0:0:0:0:
448,192,336413,1,2,0:0:0:0:
64,192,336620,128,2,336827:0:0:0:0:
320,192,336827,1,0,0:0:0:0:
192,192,336827,1,0,0:0:0:0:
448,192,336827,1,8,0:0:0:0:
192,192,337034,128,0,337551:0:0:0:0:
320,192,337034,128,0,337758:0:0:0:80:cymbal.wav
448,192,337034,128,0,337551:0:0:0:0:
64,192,337034,1,2,0:0:0:0:
64,192,337344,1,2,0:0:0:0:
64,192,337448,1,2,0:0:0:0:
448,192,337655,128,0,337965:0:0:0:0:
192,192,337655,128,8,337965:0:0:0:0:
320,192,337861,128,2,338379:0:0:0:0:
64,192,338068,1,8,0:0:0:0:
192,192,338068,128,0,338275:0:0:0:0:
448,192,338068,128,0,338172:0:0:0:0:
64,192,338275,1,8,0:0:0:0:
448,192,338275,1,0,0:0:0:0:
192,192,338379,1,2,0:0:0:0:
320,192,338482,1,2,0:0:0:0:
448,192,338482,1,0,0:0:0:0:
192,192,338586,1,2,0:0:0:0:
448,192,338689,1,0,0:0:0:0:
64,192,338689,1,2,0:0:0:0:
192,192,338792,1,0,0:0:0:0:
320,192,338792,1,2,0:0:0:0:
64,192,338896,128,8,339827:0:0:0:0:
320,192,338896,128,0,339206:0:0:0:80:cymbal.wav
448,192,338896,128,2,339930:0:0:0:0:
192,192,339206,1,2,0:0:0:0:
320,192,339310,128,0,339517:0:0:0:0:
192,192,339310,1,8,0:0:0:0:
192,192,339517,128,2,339982:0:0:0:0:
320,192,339724,1,0,0:0:0:0:
64,192,339930,128,2,340034:0:0:0:0:
448,192,340034,1,8,0:0:0:0:
192,192,340086,1,8,0:0:0:0:
320,192,340137,1,8,0:0:0:0:
448,192,340137,1,0,0:0:0:0:
448,192,340344,128,0,340861:0:0:0:0:
320,192,340344,1,2,0:0:0:0:
192,192,340344,128,0,340655:0:0:0:0:
64,192,340344,128,0,340655:0:0:0:70:cymbal.wav
320,192,340758,1,8,0:0:0:0:
64,192,340758,128,0,340965:0:0:0:0:
192,192,340758,128,0,340965:0:0:0:0:
448,192,340965,1,2,0:0:0:0:
320,192,340965,1,0,0:0:0:0:
64,192,341068,5,2,0:0:0:0:
192,192,341172,128,2,341534:0:0:0:0:
320,192,341172,128,0,341482:0:0:0:60:cymbal.wav
448,192,341172,128,0,341430:0:0:0:0:
448,192,341586,1,2,0:0:0:0:
320,192,341586,1,0,0:0:0:0:
64,192,341689,1,8,0:0:0:0:
192,192,341689,1,0,0:0:0:0:
448,192,341758,1,0,0:0:0:0:
320,192,341792,1,2,0:0:0:0:
64,192,341861,1,0,0:0:0:0:
192,192,341930,1,2,0:0:0:0:
448,192,341948,1,0,0:0:0:0:
320,192,341999,1,0,0:0:0:0:
64,192,342051,1,0,0:0:0:0:
192,192,342103,1,2,0:0:0:0:
320,192,342155,128,0,342413:0:0:0:0:
192,192,342206,128,0,343034:0:0:0:80:cymbal.wav
448,192,342206,1,0,0:0:0:0:
64,192,342206,1,0,0:0:0:0:
64,192,342517,1,2,0:0:0:0:
320,192,342620,1,8,0:0:0:0:
448,192,342620,1,0,0:0:0:0:
320,192,342724,1,2,0:0:0:0:
64,192,342827,1,2,0:0:0:0:
448,192,342827,1,0,0:0:0:0:
448,192,342930,1,2,0:0:0:0:
320,192,343034,1,2,0:0:0:0:
64,192,343034,1,0,0:0:0:0:
64,192,343137,1,2,0:0:0:0:
448,192,343137,1,0,0:0:0:0:
192,192,343241,1,0,0:0:0:0:
320,192,343241,1,2,0:0:0:0:
192,192,343344,1,2,0:0:0:0:
320,192,343448,1,8,0:0:0:0:
448,192,343448,1,0,0:0:0:0:
64,192,343448,1,0,0:0:0:0:
192,192,343655,128,0,343965:0:0:0:0:
448,192,343655,128,0,344689:0:0:0:80:cymbal.wav
320,192,343655,1,2,0:0:0:0:
64,192,343655,1,0,0:0:0:0:
64,192,344068,1,0,0:0:0:0:
320,192,344068,1,2,0:0:0:0:
192,192,344172,1,2,0:0:0:0:
192,192,344275,1,0,0:0:0:0:
64,192,344275,1,0,0:0:0:0:
320,192,344275,1,8,0:0:0:0:
64,192,344379,1,2,0:0:0:0:
320,192,344482,1,2,0:0:0:0:
192,192,344482,1,0,0:0:0:0:
320,192,344586,1,0,0:0:0:0:
64,192,344586,1,2,0:0:0:0:
64,192,344689,1,0,0:0:0:0:
192,192,344689,1,2,0:0:0:0:
448,192,344792,1,0,0:0:0:0:
320,192,344792,1,2,0:0:0:0:
448,192,344896,1,2,0:0:0:0:
192,192,344896,1,0,0:0:0:0:
320,192,344999,1,0,0:0:0:0:
64,192,344999,1,2,0:0:0:0:
192,192,345103,1,8,0:0:0:0:
64,192,345103,1,0,0:0:0:0:
448,192,345103,1,0,0:0:0:0:
320,192,345206,1,0,0:0:0:0:
448,192,345258,1,0,0:0:0:0:
64,192,345310,1,2,0:0:0:0:
320,192,345379,1,2,0:0:0:0:
192,192,345448,1,2,0:0:0:0:
448,192,345517,1,2,0:0:0:0:
320,192,345517,128,0,346551:0:0:0:80:cymbal.wav
64,192,345517,128,0,345724:0:0:0:0:
448,192,345827,1,2,0:0:0:0:
448,192,345930,1,0,0:0:0:0:
192,192,345930,1,8,0:0:0:0:
64,192,345930,1,0,0:0:0:0:
64,192,346034,1,2,0:0:0:0:
192,192,346137,1,2,0:0:0:0:
448,192,346137,1,0,0:0:0:0:
64,192,346241,1,2,0:0:0:0:
192,192,346344,1,2,0:0:0:0:
64,192,346344,1,0,0:0:0:0:
192,192,346448,1,0,0:0:0:0:
448,192,346448,1,2,0:0:0:0:
64,192,346551,1,2,0:0:0:0:
448,192,346551,1,0,0:0:0:0:
320,192,346655,1,2,0:0:0:0:
64,192,346706,1,0,0:0:0:0:
192,192,346758,1,0,0:0:0:0:
320,192,346758,1,0,0:0:0:0:
448,192,346758,1,8,0:0:0:0:
64,192,346965,128,0,347586:0:0:0:70:cymbal.wav
192,192,346965,128,0,347379:0:0:0:0:
448,192,346965,1,2,0:0:0:0:
320,192,346965,1,0,0:0:0:0:
320,192,347172,1,0,0:0:0:0:
320,192,347379,1,0,0:0:0:0:
448,192,347379,1,8,0:0:0:0:
448,192,347482,1,2,0:0:0:0:
320,192,347586,1,0,0:0:0:0:
192,192,347586,1,2,0:0:0:0:
64,192,347689,1,2,0:0:0:0:
320,192,347792,128,2,347999:0:0:0:0:
448,192,347792,128,0,348620:0:0:0:70:cymbal.wav
64,192,347792,1,0,0:0:0:0:
192,192,347999,1,8,0:0:0:0:
64,192,347999,1,0,0:0:0:0:
320,192,348103,128,0,348413:0:0:0:0:
192,192,348103,1,8,0:0:0:0:
64,192,348206,1,2,0:0:0:0:
192,192,348310,1,8,0:0:0:0:
64,192,348413,128,2,348620:0:0:0:0:
320,192,348517,1,2,0:0:0:0:
192,192,348620,1,2,0:0:0:0:
320,192,348620,1,0,0:0:0:0:
448,192,348724,1,0,0:0:0:0:
64,192,348724,1,2,0:0:0:0:
320,192,348827,128,0,349034:0:0:0:0:
192,192,348827,128,0,349137:0:0:0:80:cymbal.wav
64,192,348827,1,0,0:0:0:0:
448,192,348827,1,2,0:0:0:0:
448,192,349034,1,0,0:0:0:0:
64,192,349137,1,0,0:0:0:0:
320,192,349137,1,2,0:0:0:0:
192,192,349241,1,8,0:0:0:0:
448,192,349241,1,0,0:0:0:0:
64,192,349292,1,0,0:0:0:0:
320,192,349344,1,2,0:0:0:0:
448,192,349396,1,0,0:0:0:0:
192,192,349448,1,2,0:0:0:0:
64,192,349448,1,0,0:0:0:0:
448,192,349499,1,0,0:0:0:0:
320,192,349551,1,2,0:0:0:0:
64,192,349603,1,0,0:0:0:0:
192,192,349655,1,0,0:0:0:0:
448,192,349655,1,2,0:0:0:0:
320,192,349706,1,0,0:0:0:0:
64,192,349758,1,2,0:0:0:0:
448,192,349810,1,0,0:0:0:0:
192,192,349861,1,2,0:0:0:0:
320,192,349861,1,0,0:0:0:0:
64,192,349913,1,0,0:0:0:0:
448,192,349965,1,2,0:0:0:0:
320,192,350017,1,0,0:0:0:0:
64,192,350068,1,0,0:0:0:0:
192,192,350068,1,8,0:0:0:0:
320,192,350275,128,0,350430:0:0:0:0:
64,192,350275,128,0,350482:0:0:0:0:
448,192,350275,1,2,0:0:0:0:
320,192,350534,1,0,0:0:0:0:
64,192,350586,1,0,0:0:0:0:
448,192,350637,1,0,0:0:0:0:
320,192,350689,1,2,0:0:0:0:
64,192,350689,1,0,0:0:0:0:
192,192,350741,1,0,0:0:0:0:
448,192,350792,1,2,0:0:0:0:
64,192,350844,1,0,0:0:0:0:
320,192,350896,1,0,0:0:0:0:
192,192,350896,1,8,0:0:0:0:
448,192,350948,1,0,0:0:0:0:
64,192,350999,1,2,0:0:0:0:
320,192,351051,1,0,0:0:0:0:
448,192,351103,1,0,0:0:0:0:
192,192,351103,1,2,0:0:0:0:
64,192,351155,1,0,0:0:0:0:
320,192,351206,1,2,0:0:0:0:
448,192,351258,1,0,0:0:0:0:
192,192,351310,1,0,0:0:0:0:
64,192,351310,1,8,0:0:0:0:
448,192,351361,1,0,0:0:0:0:
192,192,351413,1,2,0:0:0:0:
320,192,351465,1,0,0:0:0:0:
64,192,351517,1,0,0:0:0:0:
448,192,351568,1,0,0:0:0:0:
320,192,351620,1,2,0:0:0:0:
192,192,351672,1,0,0:0:0:0:
64,192,351724,1,0,0:0:0:0:
448,192,351724,1,2,0:0:0:0:
320,192,351724,1,0,0:0:0:0:
64,192,351930,1,8,0:0:0:0:
192,192,351930,1,0,0:0:0:0:
320,192,352034,1,2,0:0:0:0:
448,192,352034,1,8,0:0:0:0:
192,192,352137,1,2,0:0:0:0:
64,192,352137,128,0,352241:0:0:0:0:
448,192,352137,128,0,352344:0:0:0:80:cymbal.wav
320,192,352137,1,0,0:0:0:0:
64,192,352344,1,0,0:0:0:0:
448,192,352448,1,0,0:0:0:0:
320,192,352448,1,2,0:0:0:0:
448,192,352551,1,0,0:0:0:0:
64,192,352551,1,8,0:0:0:0:
192,192,352603,1,0,0:0:0:0:
320,192,352655,1,2,0:0:0:0:
64,192,352706,1,0,0:0:0:0:
448,192,352758,1,2,0:0:0:0:
320,192,352758,1,0,0:0:0:0:
64,192,352810,1,0,0:0:0:0:
192,192,352861,1,2,0:0:0:0:
320,192,352913,1,0,0:0:0:0:
448,192,352965,1,0,0:0:0:0:
64,192,352965,1,2,0:0:0:0:
192,192,353017,1,0,0:0:0:0:
320,192,353068,1,2,0:0:0:0:
64,192,353120,1,0,0:0:0:0:
448,192,353172,1,2,0:0:0:0:
192,192,353224,1,0,0:0:0:0:
64,192,353275,1,2,0:0:0:0:
320,192,353327,1,8,0:0:0:0:
448,192,353327,1,0,0:0:0:0:
192,192,353379,1,8,0:0:0:0:
64,192,353379,1,0,0:0:0:0:
448,192,353586,128,0,353922:0:0:0:0:
192,192,353586,128,0,353870:0:0:0:80:cymbal.wav
64,192,353586,1,0,0:0:0:0:
320,192,353586,1,2,0:0:0:0:
192,192,353974,1,8,0:0:0:0:
448,192,353999,1,0,0:0:0:0:
320,192,353999,128,8,354103:0:0:0:0:
64,192,354025,1,0,0:0:0:0:
448,192,354103,128,10,354206:0:0:0:0:
192,192,354206,1,2,0:0:0:0:
64,192,354206,128,0,354310:0:0:0:0:
320,192,354310,1,2,0:0:0:0:
192,192,354310,128,0,354413:0:0:0:0:
64,192,354413,1,2,0:0:0:0:
320,192,354413,128,0,354620:0:0:0:80:cymbal.wav
448,192,354413,128,0,354517:0:0:0:0:
64,192,354620,1,8,0:0:0:0:
448,192,354620,1,0,0:0:0:0:
448,192,354738,1,0,0:0:0:0:
64,192,354738,1,0,0:0:0:0:
192,192,354738,1,8,0:0:0:0:
320,192,354856,1,2,0:0:0:0:
192,192,354974,1,2,0:0:0:0:
64,192,354974,1,0,0:0:0:0:
448,192,355092,1,2,0:0:0:0:
64,192,355092,1,0,0:0:0:90:cymbal short.wav
320,192,355092,1,0,0:0:0:0:
64,192,355268,1,2,0:0:0:0:
448,192,355268,1,0,0:0:0:90:cymbal short.wav
192,192,355268,1,0,0:0:0:0:
192,192,355445,1,0,0:0:0:90:cymbal short.wav
320,192,355445,1,2,0:0:0:0:
448,192,355622,1,2,0:0:0:0:
320,192,355622,1,0,0:0:0:70:cymbal short.wav
64,192,355700,1,4,0:0:0:0:
192,192,355741,1,4,0:0:0:0:
64,192,355842,1,0,0:0:0:0:
448,192,355842,1,4,0:0:0:0:
320,192,355960,1,4,0:0:0:0:
192,192,356072,5,2,0:0:0:0:
64,192,356072,1,0,0:0:0:0:
320,192,356155,1,8,0:0:0:0:
448,192,356155,1,0,0:0:0:0:
192,192,356230,1,8,0:0:0:0:
448,192,356311,1,0,0:0:0:0:
64,192,356311,1,8,0:0:0:0:
192,192,356387,1,8,0:0:0:0:
448,192,356462,1,0,0:0:0:0:
320,192,356462,1,8,0:0:0:0:
64,192,356538,1,4,0:0:0:0:
448,192,356619,1,4,0:0:0:0:
64,192,356697,1,0,0:0:0:0:
192,192,356697,1,4,0:0:0:0:
320,192,356768,1,4,0:0:0:0:
64,192,356849,1,4,0:0:0:0:
448,192,356925,1,4,0:0:0:0:
320,192,357003,5,2,0:0:0:0:
192,192,357003,5,4,0:0:0:0:
64,192,357003,1,0,0:0:0:0:
192,192,357233,128,0,363698:0:0:0:0:
64,192,357233,128,0,363595:0:0:0:90:cymbal.wav
320,192,357233,128,0,363646:0:0:0:0:
448,192,357233,128,2,363595:0:0:0:0:
448,192,363750,1,0,0:0:0:0:
64,192,363750,1,4,0:0:0:0:
320,192,363801,1,2,0:0:0:0:
192,192,363853,1,2,0:0:0:0:
448,192,363905,1,8,0:0:0:0:
64,192,363905,1,0,0:0:0:0:
