osu file format v14

[General]
AudioFilename: Black Out The Alternative.mp3
AudioLeadIn: 0
PreviewTime: 221674
Countdown: 0
SampleSet: None
StackLeniency: 0.7
Mode: 3
LetterboxInBreaks: 1
SpecialStyle: 0
WidescreenStoryboard: 0

[Editor]
Bookmarks: 27202,39847,59408,118370,131611,153124,179606,241179,273706,295014,315753,355626
DistanceSpacing: 1
BeatDivisor: 12
GridSize: 4
TimelineZoom: 1.900001

[Metadata]
Title:Black Out The Alternative
TitleUnicode:Black Out The Alternative
Artist:Kotori
ArtistUnicode:ことり
Creator:Pope Gadget
Version:The Former (2015)
Source:
Tags:marathon hatsune miku vocaloid metal proggers
BeatmapID:1833915
BeatmapSetID:327178

[Difficulty]
HPDrainRate:7
CircleSize:4
OverallDifficulty:7
ApproachRate:5
SliderMultiplier:1.4
SliderTickRate:1

[Events]
//Background and Video events
0,0,"Juxtapose (Original).jpg",0,0
//Break Periods
//Storyboard Layer 0 (Background)
//Storyboard Layer 1 (Fail)
//Storyboard Layer 2 (Pass)
//Storyboard Layer 3 (Foreground)
//Storyboard Sound Samples

[TimingPoints]
700,413.793103448276,4,3,0,30,1,0
25966,400,4,3,0,30,1,0
25966,-103.51966873706,4,3,0,30,0,0
26766,461.538461538462,4,3,0,30,1,0
26766,-89.2857142857143,4,3,0,30,0,0
27227,413.793103448276,4,3,0,30,1,0
27227,-100,4,3,0,30,0,0
39847,571.428571428571,4,3,0,30,1,0
39847,-72.463768115942,4,3,0,30,0,0
40989,500,4,3,0,30,1,0
40989,-82.6446280991736,4,3,0,30,0,0
41489,428.571428571429,4,3,0,30,1,0
41489,-96.1538461538461,4,3,0,30,0,0
41917,545.454545454546,4,3,0,30,1,0
41917,-75.7575757575758,4,3,0,30,0,0
42735,413.793103448276,4,3,0,30,1,0
42735,-100,4,3,0,30,0,0
45217,487.80487804878,4,3,0,30,1,0
45217,-84.7457627118644,4,3,0,30,0,0
46192,413.793103448276,4,3,0,30,1,0
46192,-100,4,3,0,30,0,0
72674,413.793103448276,3,3,0,30,1,0
83846,413.793103448276,4,3,0,30,1,0
97087,413.793103448276,7,3,0,30,1,0
101431,413.793103448276,4,3,0,30,1,0
103086,413.793103448276,5,3,0,30,1,0
105154,413.793103448276,4,3,0,30,1,0
134947,413.793103448276,5,3,0,30,1,0
137015,413.793103448276,4,3,0,30,1,0
140325,413.793103448276,5,3,0,30,1,0
142393,413.793103448276,4,3,0,30,1,0
145703,413.793103448276,5,3,0,30,1,0
147771,413.793103448276,4,3,0,30,1,0
151081,413.793103448276,5,3,0,30,1,0
153149,413.793103448276,4,3,0,30,1,0
179631,437.956204379562,3,3,0,30,1,0
179631,-94.3396226415094,3,3,0,30,0,0
180068,-95.2380952380952,3,3,0,30,0,0
180506,-96.1538461538461,3,3,0,30,0,0
180944,-97.0873786407767,3,3,0,30,0,0
181382,-98.0392156862745,3,3,0,30,0,0
181820,-99.009900990099,3,3,0,30,0,0
182258,-100,3,3,0,30,0,0
190141,-98.0392156862745,3,3,0,30,0,0
224302,437.956204379562,5,3,0,30,1,0
226491,437.956204379562,3,3,0,30,1,0
229118,437.956204379562,5,3,0,30,1,0
231307,437.956204379562,3,3,0,30,1,0
233934,437.956204379562,5,3,0,30,1,0
236123,437.956204379562,3,3,0,30,1,0
238750,437.956204379562,5,3,0,30,1,0
239626,526.315789473684,5,3,0,30,1,0
239626,-83.3333333333333,5,3,0,30,0,0
241204,352.941176470588,4,3,0,30,1,0
241204,-116.279069767442,4,3,0,30,0,0
242439,352.941176470588,4,3,0,30,1,0
242439,-116.279069767442,4,3,0,30,0,0
243674,352.941176470588,4,3,0,30,1,0
243674,-116.279069767442,4,3,0,30,0,0
246320,352.941176470588,4,3,0,30,1,0
246320,-116.279069767442,4,3,0,30,0,0
247555,352.941176470588,4,3,0,30,1,0
247555,-116.279069767442,4,3,0,30,0,0
248790,352.941176470588,4,3,0,30,1,0
248790,-116.279069767442,4,3,0,30,0,0
251436,352.941176470588,4,3,0,30,1,0
251436,-116.279069767442,4,3,0,30,0,0
252671,352.941176470588,4,3,0,30,1,0
252671,-116.279069767442,4,3,0,30,0,0
253906,352.941176470588,4,3,0,30,1,0
253906,-116.279069767442,4,3,0,30,0,0
256552,352.941176470588,4,3,0,30,1,0
256552,-116.279069767442,4,3,0,30,0,0
257787,352.941176470588,4,3,0,30,1,0
257787,-116.279069767442,4,3,0,30,0,0
259022,352.941176470588,4,3,0,30,1,0
259022,-116.279069767442,4,3,0,30,0,0
261668,352.941176470588,4,3,0,30,1,0
261668,-116.279069767442,4,3,0,30,0,0
262903,352.941176470588,4,3,0,30,1,0
262903,-116.279069767442,4,3,0,30,0,0
264138,352.941176470588,4,3,0,30,1,0
264138,-116.279069767442,4,3,0,30,0,0
266784,352.941176470588,4,3,0,30,1,0
266784,-116.279069767442,4,3,0,30,0,0
268019,352.941176470588,3,3,0,30,1,0
268019,-116.279069767442,3,3,0,30,0,0
269077,375,4,3,0,30,1,0
269077,-111.111111111111,4,3,0,30,0,0
270396,413.793103448276,4,3,0,30,1,0
270396,-100,4,3,0,30,0,0
286947,413.793103448276,7,3,0,30,1,0
291291,413.793103448276,4,3,0,30,1,0
292946,413.793103448276,5,3,0,30,1,0
295014,437.956204379562,5,3,0,30,1,0
295014,-94.3396226415094,5,3,0,30,0,0
301583,437.956204379562,6,3,0,30,1,0
301583,-94.3396226415094,6,3,0,30,0,0
304210,437.956204379562,5,3,0,30,1,0
304210,-94.3396226415094,5,3,0,30,0,0
312969,600,5,3,0,30,1,0
312969,-66.6666666666667,5,3,0,30,0,0
313569,612.244897959184,5,3,0,30,1,0
313569,-66.6666666666667,5,3,0,30,0,0
314181,705.882352941176,5,3,0,30,1,0
314181,-60.6060606060606,5,3,0,30,0,0
314886,869.565217391304,5,3,0,30,1,0
314886,-50,5,3,0,30,0,0
315753,413.793103448276,4,3,0,30,1,0
315753,-100,4,3,0,30,0,0
354444,400,4,3,0,30,1,0
354444,-103.092783505155,4,3,0,30,0,0
354844,521.739130434783,4,3,0,30,1,0
354844,-79.3650793650794,4,3,0,30,0,0
355626,413.793103448276,4,3,0,30,1,0
355626,-100,4,3,0,30,0,0

[HitObjects]
448,192,13320,5,0,0:0:0:0:
192,192,13424,1,0,0:0:0:0:
64,192,13527,5,0,0:0:0:0:
320,192,13631,1,0,0:0:0:0:
192,192,13734,1,0,0:0:0:0:
448,192,13837,1,0,0:0:0:0:
64,192,13941,128,4,15182:0:0:0:0:
192,192,13941,128,0,15182:0:0:0:0:
448,192,14355,1,8,0:0:0:0:
320,192,14768,1,8,0:0:0:0:
448,192,15182,1,8,0:0:0:0:
320,192,15182,1,0,0:0:0:0:
192,192,15389,128,0,16837:0:0:0:0:
448,192,15389,128,4,16837:0:0:0:0:
64,192,15803,1,8,0:0:0:0:
320,192,16010,1,0,0:0:0:0:
64,192,16010,1,8,0:0:0:0:
320,192,16217,1,0,0:0:0:0:
64,192,16320,1,8,0:0:0:0:
320,192,16424,1,0,0:0:0:0:
64,192,16631,1,8,0:0:0:0:
320,192,16837,1,0,0:0:0:0:
64,192,16941,1,0,0:0:0:0:
448,192,17044,1,0,0:0:0:0:
192,192,17148,1,0,0:0:0:0:
320,192,17251,128,0,18493:0:0:0:0:
64,192,17251,128,4,18493:0:0:0:0:
448,192,17458,1,0,0:0:0:0:
192,192,17562,1,8,0:0:0:0:
192,192,17665,1,8,0:0:0:0:
448,192,17665,1,0,0:0:0:0:
192,192,17872,1,8,0:0:0:0:
448,192,18079,1,0,0:0:0:0:
448,192,18286,1,8,0:0:0:0:
192,192,18389,1,8,0:0:0:0:
448,192,18493,1,0,0:0:0:0:
448,192,18700,128,12,19320:0:0:0:0:
64,192,18700,128,12,19320:0:0:0:0:
320,192,18700,1,0,0:0:0:0:
320,192,19113,1,8,0:0:0:0:
192,192,19113,1,0,0:0:0:0:
192,192,19320,1,0,0:0:0:0:
64,192,19424,1,0,0:0:0:0:
320,192,19527,128,12,20148:0:0:0:0:
448,192,19527,128,12,20148:0:0:0:0:
192,192,19527,1,0,0:0:0:0:
192,192,19734,1,10,0:0:0:0:
64,192,19734,1,0,0:0:0:0:
192,192,19837,1,10,0:0:0:0:
64,192,19837,1,0,0:0:0:0:
192,192,20044,1,0,0:0:0:0:
64,192,20148,1,8,0:0:0:0:
448,192,20251,1,0,0:0:0:0:
192,192,20355,1,0,0:0:0:0:
448,192,20458,1,2,0:0:0:0:
64,192,20562,128,12,21803:0:0:0:0:
192,192,20562,128,12,21803:0:0:0:0:
320,192,20562,1,0,0:0:0:0:
448,192,20872,1,8,0:0:0:0:
320,192,20975,1,10,0:0:0:0:
448,192,21182,1,8,0:0:0:0:
320,192,21389,1,8,0:0:0:0:
448,192,21596,1,0,0:0:0:0:
320,192,21803,1,0,0:0:0:0:
448,192,21803,1,10,0:0:0:0:
448,192,22010,128,12,23458:0:0:0:0:
192,192,22010,128,12,23458:0:0:0:0:
64,192,22010,1,0,0:0:0:0:
64,192,22320,1,8,0:0:0:0:
64,192,22424,1,8,0:0:0:0:
64,192,22631,1,10,0:0:0:0:
320,192,22631,1,0,0:0:0:0:
320,192,22837,1,0,0:0:0:0:
320,192,23044,1,0,0:0:0:0:
64,192,23044,1,8,0:0:0:0:
320,192,23251,1,10,0:0:0:0:
320,192,23355,1,10,0:0:0:0:
64,192,23458,1,8,0:0:0:0:
320,192,23562,1,0,0:0:0:0:
448,192,23665,1,2,0:0:0:0:
64,192,23665,1,0,0:0:0:0:
192,192,23768,1,0,0:0:0:0:
64,192,23872,128,12,25113:0:0:0:0:
320,192,23872,128,12,25113:0:0:0:0:
448,192,23872,1,0,0:0:0:0:
448,192,24182,1,8,0:0:0:0:
448,192,24286,1,10,0:0:0:0:
192,192,24286,1,0,0:0:0:0:
192,192,24493,1,0,0:0:0:0:
448,192,24700,1,8,0:0:0:0:
192,192,25010,1,0,0:0:0:0:
448,192,25113,1,8,0:0:0:0:
192,192,25320,1,0,0:0:0:0:
64,192,25320,128,14,25966:0:0:0:0:
448,192,25320,128,14,25966:0:0:0:0:
192,192,25734,1,0,0:0:0:0:
320,192,25734,1,10,0:0:0:0:
192,192,25966,1,0,0:0:0:0:
320,192,26066,1,0,0:0:0:0:
192,192,26166,128,14,26566:0:0:0:0:
64,192,26166,128,14,26566:0:0:0:0:
448,192,26366,1,0,0:0:0:0:
320,192,26366,1,10,0:0:0:0:
320,192,26466,1,10,0:0:0:0:
448,192,26566,1,0,0:0:0:0:
64,192,26666,1,0,0:0:0:0:
192,192,26766,1,14,0:0:0:0:
448,192,26766,1,0,0:0:0:0:
64,192,26919,1,0,0:0:0:0:
320,192,26919,1,14,0:0:0:0:
448,192,27073,1,0,0:0:0:0:
192,192,27073,1,14,0:0:0:0:
448,192,27227,1,14,0:0:0:0:
64,192,27227,1,14,0:0:0:0:
192,192,27330,1,0,0:0:0:0:
320,192,27433,1,0,0:0:0:0:
64,192,27537,1,0,0:0:0:0:
320,192,27640,1,0,0:0:0:0:
192,192,27744,1,0,0:0:0:0:
448,192,27847,1,0,0:0:0:0:
192,192,27951,1,0,0:0:0:0:
448,192,28054,1,0,0:0:0:0:
320,192,28054,1,0,0:0:0:0:
64,192,28158,1,0,0:0:0:0:
320,192,28261,1,0,0:0:0:0:
192,192,28364,1,0,0:0:0:0:
448,192,28468,1,0,0:0:0:0:
320,192,28468,1,0,0:0:0:0:
64,192,28571,1,0,0:0:0:0:
192,192,28571,1,0,0:0:0:0:
320,192,28675,1,0,0:0:0:0:
192,192,28778,1,0,0:0:0:0:
448,192,28778,1,0,0:0:0:0:
64,192,28882,1,0,0:0:0:0:
320,192,28882,1,0,0:0:0:0:
448,192,28985,1,0,0:0:0:0:
192,192,29089,1,0,0:0:0:0:
320,192,29192,1,0,0:0:0:0:
64,192,29295,1,0,0:0:0:0:
448,192,29399,1,0,0:0:0:0:
64,192,29502,1,0,0:0:0:0:
320,192,29606,1,0,0:0:0:0:
64,192,29709,1,0,0:0:0:0:
192,192,29709,1,0,0:0:0:0:
320,192,29813,1,0,0:0:0:0:
192,192,29916,1,0,0:0:0:0:
320,192,30020,1,0,0:0:0:0:
64,192,30123,1,0,0:0:0:0:
448,192,30123,1,0,0:0:0:0:
320,192,30192,1,0,0:0:0:0:
192,192,30261,1,0,0:0:0:0:
64,192,30330,1,0,0:0:0:0:
448,192,30330,1,0,0:0:0:0:
192,192,30433,1,0,0:0:0:0:
448,192,30537,1,0,0:0:0:0:
320,192,30537,1,0,0:0:0:0:
64,192,30640,1,0,0:0:0:0:
448,192,30744,1,0,0:0:0:0:
192,192,30847,1,0,0:0:0:0:
320,192,30951,1,0,0:0:0:0:
192,192,31054,1,0,0:0:0:0:
448,192,31158,1,0,0:0:0:0:
64,192,31261,1,0,0:0:0:0:
320,192,31364,1,0,0:0:0:0:
448,192,31364,1,0,0:0:0:0:
192,192,31468,1,0,0:0:0:0:
320,192,31571,1,0,0:0:0:0:
64,192,31675,1,0,0:0:0:0:
448,192,31778,1,0,0:0:0:0:
192,192,31778,1,0,0:0:0:0:
64,192,31882,1,0,0:0:0:0:
320,192,31882,1,0,0:0:0:0:
192,192,31985,1,0,0:0:0:0:
320,192,32089,1,0,0:0:0:0:
448,192,32089,1,0,0:0:0:0:
192,192,32192,1,0,0:0:0:0:
64,192,32192,1,0,0:0:0:0:
448,192,32295,1,0,0:0:0:0:
320,192,32399,1,0,0:0:0:0:
192,192,32502,1,0,0:0:0:0:
64,192,32606,1,0,0:0:0:0:
448,192,32606,1,0,0:0:0:0:
320,192,32709,1,0,0:0:0:0:
192,192,32813,1,0,0:0:0:0:
448,192,32916,1,0,0:0:0:0:
64,192,32916,1,0,0:0:0:0:
320,192,33020,1,0,0:0:0:0:
64,192,33123,1,0,0:0:0:0:
192,192,33227,1,0,0:0:0:0:
448,192,33227,1,0,0:0:0:0:
320,192,33330,1,0,0:0:0:0:
64,192,33433,1,0,0:0:0:0:
448,192,33433,1,0,0:0:0:0:
192,192,33537,1,0,0:0:0:0:
448,192,33640,1,0,0:0:0:0:
320,192,33640,1,0,0:0:0:0:
192,192,33744,1,0,0:0:0:0:
64,192,33847,1,0,0:0:0:0:
448,192,33847,1,0,0:0:0:0:
320,192,33847,1,0,0:0:0:0:
192,192,33951,1,0,0:0:0:0:
320,192,34054,1,0,0:0:0:0:
64,192,34158,1,0,0:0:0:0:
320,192,34261,1,0,0:0:0:0:
192,192,34364,1,0,0:0:0:0:
448,192,34468,1,0,0:0:0:0:
192,192,34571,1,0,0:0:0:0:
448,192,34675,1,0,0:0:0:0:
320,192,34675,1,0,0:0:0:0:
64,192,34778,1,0,0:0:0:0:
320,192,34882,1,0,0:0:0:0:
192,192,34985,1,0,0:0:0:0:
320,192,35089,1,0,0:0:0:0:
448,192,35089,1,0,0:0:0:0:
192,192,35192,1,0,0:0:0:0:
64,192,35192,1,0,0:0:0:0:
320,192,35295,1,0,0:0:0:0:
448,192,35399,1,0,0:0:0:0:
192,192,35399,1,0,0:0:0:0:
64,192,35502,1,0,0:0:0:0:
320,192,35502,1,0,0:0:0:0:
448,192,35606,1,0,0:0:0:0:
192,192,35709,1,0,0:0:0:0:
320,192,35813,1,0,0:0:0:0:
64,192,35916,1,0,0:0:0:0:
448,192,36020,1,0,0:0:0:0:
64,192,36123,1,0,0:0:0:0:
320,192,36227,1,0,0:0:0:0:
64,192,36330,1,0,0:0:0:0:
192,192,36330,1,0,0:0:0:0:
320,192,36433,1,0,0:0:0:0:
192,192,36537,1,0,0:0:0:0:
320,192,36640,1,0,0:0:0:0:
64,192,36744,1,0,0:0:0:0:
448,192,36744,1,0,0:0:0:0:
192,192,36813,1,0,0:0:0:0:
320,192,36882,1,0,0:0:0:0:
64,192,36951,1,0,0:0:0:0:
448,192,36951,1,0,0:0:0:0:
192,192,37054,1,0,0:0:0:0:
320,192,37158,1,0,0:0:0:0:
192,192,37261,1,0,0:0:0:0:
64,192,37364,1,0,0:0:0:0:
448,192,37364,1,0,0:0:0:0:
320,192,37364,1,0,0:0:0:0:
192,192,37468,1,0,0:0:0:0:
448,192,37571,1,0,0:0:0:0:
64,192,37675,1,0,0:0:0:0:
192,192,37675,1,0,0:0:0:0:
320,192,37778,1,0,0:0:0:0:
64,192,37882,1,0,0:0:0:0:
320,192,37985,1,0,0:0:0:0:
192,192,38089,1,0,0:0:0:0:
448,192,38192,1,0,0:0:0:0:
320,192,38192,1,0,0:0:0:0:
64,192,38295,1,0,0:0:0:0:
192,192,38399,1,0,0:0:0:0:
448,192,38399,128,0,38606:0:0:0:0:
64,192,38606,1,0,0:0:0:0:
320,192,38709,1,0,0:0:0:0:
192,192,38813,1,0,0:0:0:0:
64,192,38916,128,0,39123:0:0:0:0:
448,192,38916,1,0,0:0:0:0:
192,192,39123,1,0,0:0:0:0:
448,192,39227,1,0,0:0:0:0:
320,192,39330,1,0,0:0:0:0:
192,192,39433,128,0,39640:0:0:0:0:
64,192,39433,1,0,0:0:0:0:
320,192,39640,128,0,39847:0:0:0:0:
448,192,39640,1,0,0:0:0:0:
192,192,39847,1,0,0:0:0:0:
64,192,39847,1,0,0:0:0:0:
448,192,39847,1,0,0:0:0:0:
320,192,39989,1,0,0:0:0:0:
192,192,40132,1,0,0:0:0:0:
64,192,40275,1,0,0:0:0:0:
448,192,40418,1,0,0:0:0:0:
192,192,40561,1,0,0:0:0:0:
320,192,40704,1,0,0:0:0:0:
64,192,40847,1,0,0:0:0:0:
192,192,40989,1,0,0:0:0:0:
448,192,40989,1,0,0:0:0:0:
320,192,41114,1,0,0:0:0:0:
64,192,41239,1,0,0:0:0:0:
192,192,41364,1,0,0:0:0:0:
64,192,41489,1,0,0:0:0:0:
448,192,41489,1,0,0:0:0:0:
320,192,41631,1,0,0:0:0:0:
192,192,41774,1,0,0:0:0:0:
64,192,41917,1,0,0:0:0:0:
448,192,41917,1,0,0:0:0:0:
320,192,41917,1,0,0:0:0:0:
64,192,42189,1,0,0:0:0:0:
192,192,42189,1,0,0:0:0:0:
448,192,42189,1,0,0:0:0:0:
320,192,42462,1,0,0:0:0:0:
448,192,42462,1,0,0:0:0:0:
192,192,42462,1,0,0:0:0:0:
64,192,42598,1,0,0:0:0:0:
448,192,42735,128,0,43355:0:0:0:0:
192,192,42735,128,0,43148:0:0:0:0:
192,192,43252,1,0,0:0:0:0:
320,192,43355,1,0,0:0:0:0:
64,192,43355,1,0,0:0:0:0:
448,192,43459,1,0,0:0:0:0:
192,192,43459,1,0,0:0:0:0:
64,192,43562,1,0,0:0:0:0:
320,192,43562,1,0,0:0:0:0:
64,192,43976,1,0,0:0:0:0:
448,192,43976,1,0,0:0:0:0:
192,192,44079,1,0,0:0:0:0:
320,192,44079,1,0,0:0:0:0:
448,192,44183,1,0,0:0:0:0:
64,192,44183,1,0,0:0:0:0:
192,192,44286,1,0,0:0:0:0:
320,192,44286,1,0,0:0:0:0:
64,192,44597,1,0,0:0:0:0:
192,192,44597,1,0,0:0:0:0:
320,192,44700,1,0,0:0:0:0:
448,192,44700,1,0,0:0:0:0:
192,192,44803,1,0,0:0:0:0:
64,192,44803,1,0,0:0:0:0:
320,192,44907,1,0,0:0:0:0:
448,192,44907,1,0,0:0:0:0:
64,192,45217,1,0,0:0:0:0:
320,192,45217,1,0,0:0:0:0:
448,192,45217,1,0,0:0:0:0:
320,192,45379,1,0,0:0:0:0:
192,192,45379,1,0,0:0:0:0:
320,192,45542,1,0,0:0:0:0:
64,192,45542,1,0,0:0:0:0:
448,192,45704,1,0,0:0:0:0:
192,192,45704,1,0,0:0:0:0:
64,192,45704,128,0,46192:0:0:0:0:
320,192,45867,1,0,0:0:0:0:
192,192,45867,1,0,0:0:0:0:
320,192,46030,1,0,0:0:0:0:
448,192,46030,1,0,0:0:0:0:
192,192,46192,1,0,0:0:0:0:
320,192,46192,1,0,0:0:0:0:
448,192,46192,128,0,49295:0:0:0:0:
320,192,49295,1,0,0:0:0:0:
192,192,49364,1,0,0:0:0:0:
448,192,49433,1,0,0:0:0:0:
64,192,49502,1,0,0:0:0:0:
192,192,49502,128,0,49709:0:0:0:0:
320,192,49709,1,0,0:0:0:0:
192,192,49838,1,0,0:0:0:0:
320,192,49916,128,0,50045:0:0:0:0:
192,192,50045,128,0,50226:0:0:0:0:
320,192,50226,1,0,0:0:0:0:
320,192,50433,1,0,0:0:0:0:
320,192,50640,128,0,50769:0:0:0:0:
192,192,50769,128,0,50950:0:0:0:0:
320,192,50950,1,0,0:0:0:0:
192,192,51157,128,0,51364:0:0:0:0:
320,192,51364,1,0,0:0:0:0:
192,192,51493,1,0,0:0:0:0:
320,192,51571,128,0,51709:0:0:0:0:
192,192,51709,128,0,51916:0:0:0:0:
448,192,51778,1,0,0:0:0:0:
64,192,51847,1,0,0:0:0:0:
320,192,51916,1,0,0:0:0:0:
448,192,51985,1,0,0:0:0:0:
64,192,51985,1,0,0:0:0:0:
320,192,52088,1,0,0:0:0:0:
448,192,52192,1,0,0:0:0:0:
192,192,52192,1,0,0:0:0:0:
64,192,52295,1,0,0:0:0:0:
320,192,52398,1,0,0:0:0:0:
192,192,52398,1,0,0:0:0:0:
448,192,52502,1,0,0:0:0:0:
64,192,52605,1,0,0:0:0:0:
320,192,52605,1,0,0:0:0:0:
192,192,52709,1,0,0:0:0:0:
64,192,52812,1,0,0:0:0:0:
448,192,52812,1,0,0:0:0:0:
320,192,52812,128,0,53019:0:0:0:0:
192,192,53019,1,0,0:0:0:0:
192,192,53148,1,0,0:0:0:0:
320,192,53226,128,0,53355:0:0:0:0:
64,192,53226,1,0,0:0:0:0:
192,192,53355,128,0,53536:0:0:0:0:
320,192,53536,1,0,0:0:0:0:
64,192,53640,1,0,0:0:0:0:
448,192,53640,1,0,0:0:0:0:
320,192,53743,1,0,0:0:0:0:
320,192,53950,128,0,54079:0:0:0:0:
64,192,54054,1,0,0:0:0:0:
192,192,54079,128,0,54260:0:0:0:0:
320,192,54260,1,0,0:0:0:0:
192,192,54467,128,0,54674:0:0:0:0:
448,192,54467,1,0,0:0:0:0:
64,192,54467,1,0,0:0:0:0:
320,192,54674,1,0,0:0:0:0:
192,192,54804,1,0,0:0:0:0:
320,192,54881,128,0,55010:0:0:0:0:
448,192,54881,1,0,0:0:0:0:
192,192,55010,128,0,55192:0:0:0:0:
320,192,55192,1,0,0:0:0:0:
448,192,55295,1,0,0:0:0:0:
64,192,55295,1,0,0:0:0:0:
320,192,55398,1,0,0:0:0:0:
320,192,55605,128,0,55709:0:0:0:0:
448,192,55709,1,0,0:0:0:0:
192,192,55709,1,0,0:0:0:0:
64,192,55709,1,0,0:0:0:0:
64,192,55812,128,0,55916:0:0:0:0:
448,192,55916,128,0,56123:0:0:0:0:
192,192,56123,128,0,56329:0:0:0:0:
64,192,56123,1,0,0:0:0:0:
320,192,56123,1,0,0:0:0:0:
320,192,56329,1,0,0:0:0:0:
192,192,56459,1,0,0:0:0:0:
320,192,56536,128,0,56666:0:0:0:0:
64,192,56536,1,0,0:0:0:0:
448,192,56536,1,0,0:0:0:0:
192,192,56666,128,0,56847:0:0:0:0:
320,192,56847,1,0,0:0:0:0:
64,192,56950,1,0,0:0:0:0:
448,192,56950,1,0,0:0:0:0:
320,192,57054,1,0,0:0:0:0:
320,192,57260,128,0,57390:0:0:0:0:
448,192,57364,1,0,0:0:0:0:
192,192,57390,128,0,57571:0:0:0:0:
320,192,57571,1,0,0:0:0:0:
192,192,57778,128,0,57985:0:0:0:0:
64,192,57778,1,0,0:0:0:0:
448,192,57778,1,0,0:0:0:0:
320,192,57985,1,0,0:0:0:0:
192,192,58114,1,0,0:0:0:0:
320,192,58192,128,0,58321:0:0:0:0:
64,192,58192,1,0,0:0:0:0:
192,192,58321,128,0,58502:0:0:0:0:
64,192,58502,1,0,0:0:0:0:
320,192,58605,1,0,0:0:0:0:
448,192,58605,1,0,0:0:0:0:
64,192,58674,1,0,0:0:0:0:
192,192,58743,1,0,0:0:0:0:
448,192,58812,1,0,0:0:0:0:
64,192,58881,1,0,0:0:0:0:
320,192,58950,1,0,0:0:0:0:
192,192,59019,1,0,0:0:0:0:
448,192,59019,1,0,0:0:0:0:
192,192,59226,1,0,0:0:0:0:
320,192,59329,1,0,0:0:0:0:
64,192,59433,1,0,0:0:0:0:
448,192,59433,1,0,0:0:0:0:
192,192,59433,1,0,0:0:0:0:
320,192,59640,1,0,0:0:0:0:
64,192,59743,1,0,0:0:0:0:
192,192,59847,1,0,0:0:0:0:
448,192,59847,1,0,0:0:0:0:
64,192,59950,1,0,0:0:0:0:
320,192,60157,1,0,0:0:0:0:
64,192,60157,1,0,0:0:0:0:
320,192,60364,1,0,0:0:0:0:
64,192,60364,1,0,0:0:0:0:
192,192,60571,1,0,0:0:0:0:
64,192,60674,1,0,0:0:0:0:
448,192,60674,1,0,0:0:0:0:
192,192,60881,128,0,61192:0:0:0:0:
64,192,60985,1,0,0:0:0:0:
320,192,61088,1,0,0:0:0:0:
448,192,61088,1,0,0:0:0:0:
320,192,61295,128,0,61502:0:0:0:0:
64,192,61295,1,0,0:0:0:0:
192,192,61398,1,0,0:0:0:0:
64,192,61502,1,0,0:0:0:0:
448,192,61502,1,0,0:0:0:0:
320,192,61709,128,0,61916:0:0:0:0:
64,192,61709,1,0,0:0:0:0:
448,192,61812,1,0,0:0:0:0:
192,192,61916,128,0,62226:0:0:0:0:
448,192,62019,1,0,0:0:0:0:
448,192,62226,1,0,0:0:0:0:
64,192,62329,128,0,62743:0:0:0:0:
320,192,62329,1,0,0:0:0:0:
448,192,62433,1,0,0:0:0:0:
192,192,62536,1,0,0:0:0:0:
448,192,62536,1,0,0:0:0:0:
320,192,62640,1,0,0:0:0:0:
192,192,62743,1,0,0:0:0:0:
448,192,62743,1,0,0:0:0:0:
64,192,62950,1,0,0:0:0:0:
192,192,63054,1,0,0:0:0:0:
320,192,63157,1,0,0:0:0:0:
64,192,63157,1,0,0:0:0:0:
448,192,63157,1,0,0:0:0:0:
192,192,63260,1,0,0:0:0:0:
192,192,63467,1,0,0:0:0:0:
448,192,63467,1,0,0:0:0:0:
448,192,63674,1,0,0:0:0:0:
192,192,63674,1,0,0:0:0:0:
320,192,63881,1,0,0:0:0:0:
192,192,63985,1,0,0:0:0:0:
64,192,63985,1,0,0:0:0:0:
192,192,64192,128,0,64605:0:0:0:0:
320,192,64295,1,0,0:0:0:0:
64,192,64398,1,0,0:0:0:0:
448,192,64398,1,0,0:0:0:0:
448,192,64605,128,0,64812:0:0:0:0:
192,192,64709,1,0,0:0:0:0:
64,192,64812,1,0,0:0:0:0:
320,192,64812,128,0,65019:0:0:0:0:
448,192,64916,1,0,0:0:0:0:
64,192,65019,128,0,65329:0:0:0:0:
192,192,65123,1,0,0:0:0:0:
320,192,65123,1,0,0:0:0:0:
448,192,65226,1,0,0:0:0:0:
320,192,65226,1,0,0:0:0:0:
192,192,65329,1,0,0:0:0:0:
448,192,65433,128,0,65743:0:0:0:0:
320,192,65433,1,0,0:0:0:0:
192,192,65536,1,0,0:0:0:0:
64,192,65640,1,0,0:0:0:0:
320,192,65640,1,0,0:0:0:0:
192,192,65743,1,0,0:0:0:0:
320,192,65847,1,0,0:0:0:0:
448,192,65847,1,0,0:0:0:0:
192,192,65950,1,0,0:0:0:0:
64,192,66054,1,0,0:0:0:0:
448,192,66054,1,0,0:0:0:0:
320,192,66054,1,0,0:0:0:0:
192,192,66260,1,0,0:0:0:0:
448,192,66364,1,0,0:0:0:0:
64,192,66467,1,0,0:0:0:0:
320,192,66467,1,0,0:0:0:0:
448,192,66571,1,0,0:0:0:0:
448,192,66778,1,0,0:0:0:0:
192,192,66778,1,0,0:0:0:0:
448,192,66985,1,0,0:0:0:0:
192,192,66985,1,0,0:0:0:0:
320,192,67192,1,0,0:0:0:0:
64,192,67295,1,0,0:0:0:0:
448,192,67295,1,0,0:0:0:0:
192,192,67398,1,0,0:0:0:0:
320,192,67502,128,0,67812:0:0:0:0:
192,192,67605,1,0,0:0:0:0:
448,192,67709,1,0,0:0:0:0:
64,192,67709,1,0,0:0:0:0:
192,192,67916,128,0,68123:0:0:0:0:
64,192,67916,1,0,0:0:0:0:
448,192,68019,1,0,0:0:0:0:
64,192,68123,1,0,0:0:0:0:
320,192,68123,128,0,68329:0:0:0:0:
448,192,68226,1,0,0:0:0:0:
192,192,68329,128,0,68640:0:0:0:0:
64,192,68433,1,0,0:0:0:0:
64,192,68640,1,0,0:0:0:0:
320,192,68640,128,0,68950:0:0:0:0:
448,192,68847,1,0,0:0:0:0:
64,192,68950,1,0,0:0:0:0:
192,192,68950,1,0,0:0:0:0:
448,192,69054,1,0,0:0:0:0:
64,192,69157,1,0,0:0:0:0:
320,192,69157,1,0,0:0:0:0:
192,192,69260,1,0,0:0:0:0:
64,192,69364,1,0,0:0:0:0:
320,192,69364,1,0,0:0:0:0:
448,192,69364,1,0,0:0:0:0:
320,192,69571,1,0,0:0:0:0:
192,192,69674,1,0,0:0:0:0:
320,192,69778,1,0,0:0:0:0:
64,192,69778,1,0,0:0:0:0:
448,192,69778,1,0,0:0:0:0:
192,192,69881,1,0,0:0:0:0:
320,192,70088,1,0,0:0:0:0:
64,192,70088,1,0,0:0:0:0:
192,192,70192,1,0,0:0:0:0:
448,192,70295,1,0,0:0:0:0:
64,192,70295,1,0,0:0:0:0:
320,192,70502,1,0,0:0:0:0:
448,192,70605,1,0,0:0:0:0:
192,192,70605,1,0,0:0:0:0:
320,192,70812,128,0,71226:0:0:0:0:
192,192,70916,1,0,0:0:0:0:
448,192,71019,1,0,0:0:0:0:
64,192,71019,1,0,0:0:0:0:
64,192,71226,128,0,71433:0:0:0:0:
448,192,71329,1,0,0:0:0:0:
320,192,71433,1,0,0:0:0:0:
192,192,71433,128,0,71640:0:0:0:0:
64,192,71536,1,0,0:0:0:0:
448,192,71640,128,0,72054:0:0:0:0:
64,192,71743,1,0,0:0:0:0:
192,192,71847,1,0,0:0:0:0:
320,192,71847,1,0,0:0:0:0:
64,192,71950,1,0,0:0:0:0:
192,192,72054,1,0,0:0:0:0:
64,192,72157,1,0,0:0:0:0:
320,192,72157,1,0,0:0:0:0:
448,192,72260,1,0,0:0:0:0:
192,192,72260,1,0,0:0:0:0:
64,192,72467,1,0,0:0:0:0:
448,192,72467,1,0,0:0:0:0:
192,192,72571,1,0,0:0:0:0:
320,192,72571,1,0,0:0:0:0:
448,192,72674,1,0,0:0:0:0:
64,192,72674,1,0,0:0:0:0:
320,192,72985,1,0,0:0:0:0:
448,192,73088,1,0,0:0:0:0:
64,192,73088,1,0,0:0:0:0:
192,192,73295,128,0,73709:0:0:0:0:
64,192,73502,1,0,0:0:0:0:
320,192,73812,1,0,0:0:0:0:
64,192,73812,1,0,0:0:0:0:
448,192,73847,128,0,74226:0:0:0:0:
192,192,73916,1,0,0:0:0:0:
64,192,74123,1,0,0:0:0:0:
320,192,74329,1,0,0:0:0:0:
448,192,74380,128,0,75932:0:0:0:0:
192,192,74536,1,0,0:0:0:0:
64,192,74536,1,0,0:0:0:0:
320,192,74640,1,0,0:0:0:0:
64,192,74640,1,0,0:0:0:0:
192,192,74743,1,0,0:0:0:0:
320,192,74847,1,0,0:0:0:0:
64,192,74950,128,0,75985:0:0:0:0:
192,192,74950,1,0,0:0:0:0:
320,192,75054,1,0,0:0:0:0:
192,192,75157,1,0,0:0:0:0:
192,192,75364,1,0,0:0:0:0:
320,192,75364,1,0,0:0:0:0:
320,192,75467,1,0,0:0:0:0:
192,192,75778,1,0,0:0:0:0:
320,192,75881,1,0,0:0:0:0:
192,192,76088,1,0,0:0:0:0:
320,192,76192,1,0,0:0:0:0:
448,192,76295,1,0,0:0:0:0:
64,192,76295,1,0,0:0:0:0:
192,192,76398,1,0,0:0:0:0:
448,192,76502,1,0,0:0:0:0:
320,192,76605,1,0,0:0:0:0:
192,192,76605,1,0,0:0:0:0:
64,192,76709,1,0,0:0:0:0:
448,192,76709,1,0,0:0:0:0:
320,192,76812,1,0,0:0:0:0:
192,192,76916,1,0,0:0:0:0:
320,192,77019,1,0,0:0:0:0:
448,192,77123,1,0,0:0:0:0:
64,192,77123,1,0,0:0:0:0:
192,192,77226,1,0,0:0:0:0:
320,192,77329,1,0,0:0:0:0:
64,192,77329,1,0,0:0:0:0:
448,192,77433,1,0,0:0:0:0:
192,192,77433,1,0,0:0:0:0:
320,192,77502,1,0,0:0:0:0:
192,192,77571,1,0,0:0:0:0:
64,192,77640,1,0,0:0:0:0:
320,192,77743,1,0,0:0:0:0:
192,192,77847,1,0,0:0:0:0:
448,192,77847,1,0,0:0:0:0:
64,192,77950,1,0,0:0:0:0:
448,192,78053,1,0,0:0:0:0:
192,192,78054,1,0,0:0:0:0:
320,192,78123,1,0,0:0:0:0:
448,192,78192,1,0,0:0:0:0:
192,192,78260,1,0,0:0:0:0:
64,192,78260,1,0,0:0:0:0:
192,192,78570,1,0,0:0:0:0:
320,192,78674,128,0,78984:0:0:0:0:
64,192,78674,128,0,79087:0:0:0:0:
448,192,78674,1,0,0:0:0:0:
192,192,78984,1,0,0:0:0:0:
320,192,79087,128,0,79191:0:0:0:0:
64,192,79191,1,0,0:0:0:0:
192,192,79294,1,0,0:0:0:0:
448,192,79398,128,0,79605:0:0:0:0:
64,192,79398,1,0,0:0:0:0:
320,192,79398,1,0,0:0:0:0:
64,192,79501,1,0,0:0:0:0:
320,192,79605,1,0,0:0:0:0:
192,192,79708,128,0,79915:0:0:0:0:
320,192,79915,128,0,80122:0:0:0:0:
64,192,79915,1,0,0:0:0:0:
192,192,80122,1,0,0:0:0:0:
448,192,80122,1,0,0:0:0:0:
64,192,80225,128,0,80432:0:0:0:0:
192,192,80225,1,0,0:0:0:0:
448,192,80329,1,0,0:0:0:0:
192,192,80432,1,0,0:0:0:0:
320,192,80536,1,0,0:0:0:0:
192,192,80639,128,0,80742:0:0:0:0:
448,192,80639,1,0,0:0:0:0:
64,192,80742,128,0,80846:0:0:0:0:
320,192,80846,128,0,80949:0:0:0:0:
192,192,80949,128,0,81053:0:0:0:0:
64,192,80949,1,0,0:0:0:0:
320,192,81053,128,0,81260:0:0:0:0:
448,192,81053,1,0,0:0:0:0:
448,192,81260,128,0,81363:0:0:0:0:
192,192,81363,128,0,81467:0:0:0:0:
320,192,81467,128,0,81777:0:0:0:0:
64,192,81467,1,0,0:0:0:0:
448,192,81467,1,0,0:0:0:0:
192,192,81570,1,0,0:0:0:0:
64,192,81777,1,0,0:0:0:0:
192,192,81880,1,0,0:0:0:0:
448,192,81880,1,0,0:0:0:0:
320,192,81984,128,0,82087:0:0:0:0:
64,192,82087,128,0,82191:0:0:0:0:
192,192,82191,128,0,82294:0:0:0:0:
448,192,82191,1,0,0:0:0:0:
448,192,82294,128,0,82398:0:0:0:0:
320,192,82398,128,0,82501:0:0:0:0:
192,192,82501,128,0,82605:0:0:0:0:
64,192,82605,128,0,82708:0:0:0:0:
192,192,82708,128,0,82811:0:0:0:0:
448,192,82708,1,0,0:0:0:0:
320,192,82811,128,0,82915:0:0:0:0:
192,192,82915,128,0,83018:0:0:0:0:
64,192,82915,1,0,0:0:0:0:
320,192,83018,128,0,83122:0:0:0:0:
448,192,83018,1,0,0:0:0:0:
448,192,83122,128,0,83199:0:0:0:0:
192,192,83174,128,0,83251:0:0:0:0:
64,192,83225,128,0,83303:0:0:0:0:
448,192,83277,128,0,83355:0:0:0:0:
320,192,83329,128,0,83406:0:0:0:0:
64,192,83380,128,0,83458:0:0:0:0:
192,192,83432,128,0,83501:0:0:0:0:
448,192,83501,128,0,83570:0:0:0:0:
320,192,83570,128,0,83639:0:0:0:0:
192,192,83639,128,0,83742:0:0:0:0:
320,192,83742,1,0,0:0:0:0:
64,192,83742,128,0,83846:0:0:0:0:
448,192,83846,1,0,0:0:0:0:
192,192,83846,1,0,0:0:0:0:
320,192,84052,1,0,0:0:0:0:
64,192,84156,1,0,0:0:0:0:
192,192,84259,1,0,0:0:0:0:
448,192,84259,1,0,0:0:0:0:
64,192,84363,1,0,0:0:0:0:
192,192,84570,1,0,0:0:0:0:
448,192,84570,1,0,0:0:0:0:
192,192,84777,1,0,0:0:0:0:
448,192,84777,1,0,0:0:0:0:
320,192,84983,1,0,0:0:0:0:
64,192,85087,1,0,0:0:0:0:
448,192,85087,1,0,0:0:0:0:
320,192,85294,128,0,85708:0:0:0:0:
448,192,85397,1,0,0:0:0:0:
64,192,85501,1,0,0:0:0:0:
192,192,85501,1,0,0:0:0:0:
192,192,85708,128,0,85811:0:0:0:0:
448,192,85708,1,0,0:0:0:0:
64,192,85811,1,0,0:0:0:0:
448,192,85914,1,0,0:0:0:0:
320,192,85914,128,0,86018:0:0:0:0:
192,192,86121,128,0,86328:0:0:0:0:
448,192,86121,1,0,0:0:0:0:
64,192,86225,1,0,0:0:0:0:
320,192,86328,128,0,86639:0:0:0:0:
64,192,86432,1,0,0:0:0:0:
64,192,86639,1,0,0:0:0:0:
448,192,86742,128,0,87156:0:0:0:0:
192,192,86742,1,0,0:0:0:0:
64,192,86846,1,0,0:0:0:0:
64,192,86949,1,0,0:0:0:0:
320,192,86949,1,0,0:0:0:0:
192,192,87052,1,0,0:0:0:0:
64,192,87156,1,0,0:0:0:0:
320,192,87156,1,0,0:0:0:0:
448,192,87363,1,0,0:0:0:0:
320,192,87466,1,0,0:0:0:0:
192,192,87570,1,0,0:0:0:0:
64,192,87570,1,0,0:0:0:0:
448,192,87570,1,0,0:0:0:0:
320,192,87673,1,0,0:0:0:0:
320,192,87880,1,0,0:0:0:0:
64,192,87880,1,0,0:0:0:0:
320,192,88087,1,0,0:0:0:0:
64,192,88087,1,0,0:0:0:0:
192,192,88294,1,0,0:0:0:0:
448,192,88397,1,0,0:0:0:0:
320,192,88397,1,0,0:0:0:0:
320,192,88604,128,0,89018:0:0:0:0:
192,192,88708,1,0,0:0:0:0:
64,192,88811,1,0,0:0:0:0:
448,192,88811,1,0,0:0:0:0:
64,192,89018,128,0,89225:0:0:0:0:
320,192,89121,1,0,0:0:0:0:
448,192,89225,1,0,0:0:0:0:
192,192,89225,128,0,89432:0:0:0:0:
448,192,89432,128,0,89742:0:0:0:0:
192,192,89535,1,0,0:0:0:0:
320,192,89535,1,0,0:0:0:0:
192,192,89639,1,0,0:0:0:0:
64,192,89639,1,0,0:0:0:0:
320,192,89742,1,0,0:0:0:0:
64,192,89846,128,0,90156:0:0:0:0:
192,192,89846,1,0,0:0:0:0:
320,192,89949,1,0,0:0:0:0:
192,192,90052,1,0,0:0:0:0:
448,192,90052,1,0,0:0:0:0:
320,192,90156,1,0,0:0:0:0:
192,192,90259,1,0,0:0:0:0:
64,192,90259,1,0,0:0:0:0:
320,192,90363,1,0,0:0:0:0:
192,192,90466,1,0,0:0:0:0:
64,192,90466,1,0,0:0:0:0:
448,192,90466,1,0,0:0:0:0:
320,192,90673,1,0,0:0:0:0:
64,192,90777,1,0,0:0:0:0:
448,192,90880,1,0,0:0:0:0:
192,192,90880,1,0,0:0:0:0:
64,192,90983,1,0,0:0:0:0:
320,192,91190,1,0,0:0:0:0:
64,192,91190,1,0,0:0:0:0:
64,192,91397,1,0,0:0:0:0:
320,192,91397,1,0,0:0:0:0:
192,192,91604,1,0,0:0:0:0:
448,192,91708,1,0,0:0:0:0:
64,192,91708,1,0,0:0:0:0:
320,192,91811,1,0,0:0:0:0:
192,192,91914,128,0,92328:0:0:0:0:
320,192,92018,1,0,0:0:0:0:
448,192,92121,1,0,0:0:0:0:
64,192,92121,1,0,0:0:0:0:
320,192,92328,128,0,92535:0:0:0:0:
448,192,92328,1,0,0:0:0:0:
64,192,92432,1,0,0:0:0:0:
448,192,92535,1,0,0:0:0:0:
192,192,92535,128,0,92742:0:0:0:0:
64,192,92639,1,0,0:0:0:0:
320,192,92742,128,0,92949:0:0:0:0:
448,192,92846,1,0,0:0:0:0:
192,192,93052,128,0,93259:0:0:0:0:
448,192,93052,1,0,0:0:0:0:
448,192,93259,1,0,0:0:0:0:
64,192,93363,128,0,93673:0:0:0:0:
320,192,93466,1,0,0:0:0:0:
192,192,93570,1,0,0:0:0:0:
448,192,93570,1,0,0:0:0:0:
320,192,93673,1,0,0:0:0:0:
448,192,93777,1,0,0:0:0:0:
192,192,93777,1,0,0:0:0:0:
64,192,93777,1,0,0:0:0:0:
192,192,93983,1,0,0:0:0:0:
320,192,94087,1,0,0:0:0:0:
64,192,94190,1,0,0:0:0:0:
448,192,94190,1,0,0:0:0:0:
192,192,94190,1,0,0:0:0:0:
320,192,94294,1,0,0:0:0:0:
192,192,94501,1,0,0:0:0:0:
448,192,94501,1,0,0:0:0:0:
320,192,94604,1,0,0:0:0:0:
64,192,94708,1,0,0:0:0:0:
448,192,94708,1,0,0:0:0:0:
192,192,94914,1,0,0:0:0:0:
320,192,95018,1,0,0:0:0:0:
64,192,95018,1,0,0:0:0:0:
448,192,95121,1,0,0:0:0:0:
192,192,95225,128,0,95535:0:0:0:0:
320,192,95328,1,0,0:0:0:0:
64,192,95432,1,0,0:0:0:0:
448,192,95432,1,0,0:0:0:0:
448,192,95639,128,0,95742:0:0:0:0:
64,192,95742,1,0,0:0:0:0:
192,192,95846,1,0,0:0:0:0:
320,192,95846,128,0,95949:0:0:0:0:
448,192,95949,1,0,0:0:0:0:
64,192,96052,128,0,96466:0:0:0:0:
192,192,96259,1,0,0:0:0:0:
448,192,96259,1,0,0:0:0:0:
320,192,96466,1,0,0:0:0:0:
192,192,96535,1,0,0:0:0:0:
64,192,96604,1,0,0:0:0:0:
448,192,96673,1,0,0:0:0:0:
320,192,96742,1,0,0:0:0:0:
64,192,96811,1,0,0:0:0:0:
448,192,96880,1,0,0:0:0:0:
192,192,96949,1,0,0:0:0:0:
64,192,97018,1,0,0:0:0:0:
320,192,97087,1,0,0:0:0:0:
448,192,97087,128,0,97293:0:0:0:0:
64,192,97293,128,0,97500:0:0:0:0:
320,192,97500,128,0,97707:0:0:0:0:
192,192,97500,1,0,0:0:0:0:
64,192,97707,128,0,97914:0:0:0:0:
192,192,97914,128,0,98224:0:0:0:0:
448,192,97914,1,0,0:0:0:0:
64,192,98224,128,0,98535:0:0:0:0:
320,192,98224,1,0,0:0:0:0:
448,192,98224,1,0,0:0:0:0:
192,192,98535,1,0,0:0:0:0:
448,192,98535,1,0,0:0:0:0:
448,192,98742,128,0,98949:0:0:0:0:
192,192,98949,128,0,99155:0:0:0:0:
64,192,98949,1,0,0:0:0:0:
448,192,99155,128,0,99362:0:0:0:0:
320,192,99362,128,0,99569:0:0:0:0:
192,192,99362,1,0,0:0:0:0:
64,192,99569,1,0,0:0:0:0:
192,192,99673,1,0,0:0:0:0:
448,192,99673,1,0,0:0:0:0:
320,192,99880,1,0,0:0:0:0:
448,192,99983,128,0,100190:0:0:0:0:
64,192,99983,1,0,0:0:0:0:
64,192,100190,128,0,100397:0:0:0:0:
320,192,100397,128,0,100604:0:0:0:0:
448,192,100397,1,0,0:0:0:0:
64,192,100604,128,0,100811:0:0:0:0:
192,192,100811,128,0,101121:0:0:0:0:
448,192,100811,1,0,0:0:0:0:
64,192,101121,128,0,101431:0:0:0:0:
448,192,101121,1,0,0:0:0:0:
320,192,101121,1,0,0:0:0:0:
320,192,101431,1,0,0:0:0:0:
448,192,101431,1,0,0:0:0:0:
192,192,101534,1,0,0:0:0:0:
64,192,101534,1,0,0:0:0:0:
320,192,101637,1,0,0:0:0:0:
448,192,101637,1,0,0:0:0:0:
192,192,101741,1,0,0:0:0:0:
64,192,101741,1,0,0:0:0:0:
448,192,101741,1,0,0:0:0:0:
320,192,102051,1,0,0:0:0:0:
192,192,102051,1,0,0:0:0:0:
64,192,102155,1,0,0:0:0:0:
448,192,102155,1,0,0:0:0:0:
192,192,102258,1,0,0:0:0:0:
320,192,102258,1,0,0:0:0:0:
64,192,102362,1,0,0:0:0:0:
192,192,102362,1,0,0:0:0:0:
448,192,102362,1,0,0:0:0:0:
64,192,102672,1,0,0:0:0:0:
320,192,102672,1,0,0:0:0:0:
448,192,102775,1,0,0:0:0:0:
192,192,102775,1,0,0:0:0:0:
64,192,102879,1,0,0:0:0:0:
320,192,102879,1,0,0:0:0:0:
192,192,102982,1,0,0:0:0:0:
448,192,102982,1,0,0:0:0:0:
320,192,102982,1,0,0:0:0:0:
64,192,103086,1,0,0:0:0:0:
320,192,103189,1,0,0:0:0:0:
192,192,103293,1,0,0:0:0:0:
448,192,103293,1,0,0:0:0:0:
320,192,103396,1,0,0:0:0:0:
64,192,103396,1,0,0:0:0:0:
64,192,103499,1,0,0:0:0:0:
448,192,103499,1,0,0:0:0:0:
192,192,103499,1,0,0:0:0:0:
64,192,103810,1,0,0:0:0:0:
192,192,103810,1,0,0:0:0:0:
448,192,103913,1,0,0:0:0:0:
320,192,103913,1,0,0:0:0:0:
192,192,104017,1,0,0:0:0:0:
64,192,104017,1,0,0:0:0:0:
64,192,104120,1,0,0:0:0:0:
448,192,104120,1,0,0:0:0:0:
320,192,104223,1,0,0:0:0:0:
192,192,104327,1,0,0:0:0:0:
448,192,104327,1,0,0:0:0:0:
64,192,104465,1,0,0:0:0:0:
192,192,104465,1,0,0:0:0:0:
64,192,104603,1,0,0:0:0:0:
448,192,104603,1,0,0:0:0:0:
320,192,104603,1,0,0:0:0:0:
64,192,104741,1,0,0:0:0:0:
192,192,104741,1,0,0:0:0:0:
448,192,104879,1,0,0:0:0:0:
192,192,104879,1,0,0:0:0:0:
320,192,105017,1,0,0:0:0:0:
64,192,105017,1,0,0:0:0:0:
448,192,105017,1,0,0:0:0:0:
448,192,105155,1,0,0:0:0:0:
192,192,105155,1,0,0:0:0:0:
64,192,105155,1,0,0:0:0:0:
192,192,105360,1,0,0:0:0:0:
320,192,105360,1,0,0:0:0:0:
64,192,105464,1,0,0:0:0:0:
448,192,105567,128,0,105981:0:0:0:0:
192,192,105671,1,0,0:0:0:0:
320,192,105774,1,0,0:0:0:0:
64,192,105774,1,0,0:0:0:0:
192,192,105878,1,0,0:0:0:0:
320,192,105981,128,0,106395:0:0:0:0:
64,192,106085,1,0,0:0:0:0:
192,192,106188,1,0,0:0:0:0:
448,192,106188,1,0,0:0:0:0:
64,192,106291,1,0,0:0:0:0:
192,192,106395,128,0,106809:0:0:0:0:
448,192,106498,1,0,0:0:0:0:
64,192,106602,1,0,0:0:0:0:
320,192,106602,1,0,0:0:0:0:
448,192,106705,1,0,0:0:0:0:
64,192,106809,128,0,107222:0:0:0:0:
320,192,106912,1,0,0:0:0:0:
448,192,107016,1,0,0:0:0:0:
192,192,107016,1,0,0:0:0:0:
320,192,107119,1,0,0:0:0:0:
448,192,107222,128,0,107429:0:0:0:0:
192,192,107326,1,0,0:0:0:0:
320,192,107429,1,0,0:0:0:0:
64,192,107429,1,0,0:0:0:0:
448,192,107533,1,0,0:0:0:0:
320,192,107636,128,0,107843:0:0:0:0:
192,192,107740,1,0,0:0:0:0:
448,192,107843,1,0,0:0:0:0:
64,192,107843,1,0,0:0:0:0:
320,192,107947,1,0,0:0:0:0:
192,192,108050,128,0,108257:0:0:0:0:
448,192,108154,1,0,0:0:0:0:
320,192,108257,1,0,0:0:0:0:
64,192,108257,1,0,0:0:0:0:
192,192,108360,1,0,0:0:0:0:
448,192,108360,1,0,0:0:0:0:
64,192,108464,128,0,108671:0:0:0:0:
320,192,108464,1,0,0:0:0:0:
192,192,108567,1,0,0:0:0:0:
320,192,108671,1,0,0:0:0:0:
448,192,108671,1,0,0:0:0:0:
64,192,108774,1,0,0:0:0:0:
320,192,108878,1,0,0:0:0:0:
192,192,108981,1,0,0:0:0:0:
64,192,109085,1,0,0:0:0:0:
320,192,109085,1,0,0:0:0:0:
448,192,109085,1,0,0:0:0:0:
192,192,109188,1,0,0:0:0:0:
448,192,109291,1,0,0:0:0:0:
64,192,109395,1,0,0:0:0:0:
192,192,109498,1,0,0:0:0:0:
320,192,109498,1,0,0:0:0:0:
448,192,109498,1,0,0:0:0:0:
64,192,109705,1,0,0:0:0:0:
320,192,109705,1,0,0:0:0:0:
192,192,109809,1,0,0:0:0:0:
320,192,109912,1,0,0:0:0:0:
192,192,110016,1,0,0:0:0:0:
448,192,110119,1,0,0:0:0:0:
320,192,110119,1,0,0:0:0:0:
64,192,110222,1,0,0:0:0:0:
192,192,110326,1,0,0:0:0:0:
320,192,110429,1,0,0:0:0:0:
448,192,110533,1,0,0:0:0:0:
192,192,110533,1,0,0:0:0:0:
64,192,110533,1,0,0:0:0:0:
320,192,110636,1,0,0:0:0:0:
64,192,110740,1,0,0:0:0:0:
448,192,110740,1,0,0:0:0:0:
192,192,110843,1,0,0:0:0:0:
320,192,110947,1,0,0:0:0:0:
448,192,110947,1,0,0:0:0:0:
64,192,111050,1,0,0:0:0:0:
448,192,111154,1,0,0:0:0:0:
192,192,111154,1,0,0:0:0:0:
64,192,111257,1,0,0:0:0:0:
192,192,111360,1,0,0:0:0:0:
320,192,111360,1,0,0:0:0:0:
448,192,111360,1,0,0:0:0:0:
64,192,111567,1,0,0:0:0:0:
320,192,111567,1,0,0:0:0:0:
448,192,111567,1,0,0:0:0:0:
192,192,111774,128,0,113429:0:0:0:0:
448,192,111774,128,0,113429:0:0:0:0:
64,192,111774,1,0,0:0:0:0:
320,192,112188,1,0,0:0:0:0:
64,192,112188,1,0,0:0:0:0:
320,192,112498,1,0,0:0:0:0:
64,192,112602,1,0,0:0:0:0:
64,192,112809,1,0,0:0:0:0:
64,192,113016,1,0,0:0:0:0:
320,192,113016,1,0,0:0:0:0:
320,192,113429,128,0,114257:0:0:0:0:
64,192,113429,128,0,114257:0:0:0:0:
192,192,113843,1,0,0:0:0:0:
448,192,113843,128,0,114050:0:0:0:0:
192,192,114050,1,0,0:0:0:0:
448,192,114154,1,0,0:0:0:0:
192,192,114257,128,0,114464:0:0:0:0:
64,192,114464,128,0,115085:0:0:0:0:
448,192,114464,128,0,115085:0:0:0:0:
320,192,114671,128,0,114878:0:0:0:0:
192,192,114671,1,0,0:0:0:0:
192,192,114878,1,0,0:0:0:0:
320,192,115085,128,0,115291:0:0:0:0:
192,192,115085,128,0,115360:0:0:0:0:
448,192,115291,1,0,0:0:0:0:
320,192,115360,1,0,0:0:0:0:
192,192,115429,1,0,0:0:0:0:
64,192,115498,1,0,0:0:0:0:
448,192,115498,1,0,0:0:0:0:
192,192,115602,1,0,0:0:0:0:
448,192,115705,1,0,0:0:0:0:
320,192,115809,1,0,0:0:0:0:
192,192,115912,1,0,0:0:0:0:
64,192,115912,1,0,0:0:0:0:
320,192,116016,1,0,0:0:0:0:
448,192,116119,1,0,0:0:0:0:
192,192,116222,1,0,0:0:0:0:
320,192,116326,1,0,0:0:0:0:
448,192,116326,1,0,0:0:0:0:
64,192,116326,1,0,0:0:0:0:
192,192,116429,1,0,0:0:0:0:
64,192,116533,1,0,0:0:0:0:
320,192,116636,1,0,0:0:0:0:
192,192,116740,1,0,0:0:0:0:
448,192,116740,1,0,0:0:0:0:
64,192,116843,1,0,0:0:0:0:
448,192,116947,1,0,0:0:0:0:
320,192,117050,1,0,0:0:0:0:
192,192,117154,1,0,0:0:0:0:
64,192,117154,1,0,0:0:0:0:
448,192,117154,1,0,0:0:0:0:
320,192,117257,1,0,0:0:0:0:
64,192,117360,1,0,0:0:0:0:
192,192,117464,1,0,0:0:0:0:
448,192,117567,1,0,0:0:0:0:
320,192,117567,1,0,0:0:0:0:
192,192,117671,1,0,0:0:0:0:
448,192,117774,1,0,0:0:0:0:
64,192,117774,1,0,0:0:0:0:
192,192,117878,1,0,0:0:0:0:
64,192,117981,1,0,0:0:0:0:
448,192,117981,1,0,0:0:0:0:
320,192,117981,1,0,0:0:0:0:
448,192,118188,1,0,0:0:0:0:
64,192,118188,1,0,0:0:0:0:
192,192,118291,1,0,0:0:0:0:
320,192,118291,1,0,0:0:0:0:
448,192,118395,1,0,0:0:0:0:
64,192,118395,1,0,0:0:0:0:
448,192,118602,1,0,0:0:0:0:
320,192,118602,128,0,118809:0:0:0:0:
192,192,118809,128,0,119016:0:0:0:0:
64,192,118912,1,0,0:0:0:0:
448,192,119016,1,0,0:0:0:0:
320,192,119016,128,0,119222:0:0:0:0:
192,192,119222,1,0,0:0:0:0:
320,192,119429,1,0,0:0:0:0:
64,192,119429,128,0,119636:0:0:0:0:
192,192,119636,128,0,119843:0:0:0:0:
448,192,119740,1,0,0:0:0:0:
64,192,119843,1,0,0:0:0:0:
320,192,119843,128,0,120050:0:0:0:0:
448,192,120050,1,0,0:0:0:0:
64,192,120257,1,0,0:0:0:0:
192,192,120257,128,0,120464:0:0:0:0:
448,192,120464,128,0,120671:0:0:0:0:
320,192,120567,1,0,0:0:0:0:
64,192,120671,1,0,0:0:0:0:
192,192,120671,128,0,120878:0:0:0:0:
448,192,120878,1,0,0:0:0:0:
320,192,121085,1,0,0:0:0:0:
64,192,121085,128,0,121291:0:0:0:0:
448,192,121291,128,0,121498:0:0:0:0:
192,192,121395,1,0,0:0:0:0:
320,192,121498,1,0,0:0:0:0:
64,192,121498,128,0,121705:0:0:0:0:
192,192,121705,1,0,0:0:0:0:
448,192,121912,1,0,0:0:0:0:
64,192,121912,128,0,122119:0:0:0:0:
192,192,122119,128,0,122326:0:0:0:0:
320,192,122222,1,0,0:0:0:0:
448,192,122326,128,0,122533:0:0:0:0:
64,192,122326,1,0,0:0:0:0:
320,192,122533,1,0,0:0:0:0:
192,192,122740,1,0,0:0:0:0:
64,192,122740,128,0,122947:0:0:0:0:
320,192,122843,1,0,0:0:0:0:
192,192,122947,128,0,123154:0:0:0:0:
448,192,122947,1,0,0:0:0:0:
320,192,123154,128,0,123360:0:0:0:0:
64,192,123154,1,0,0:0:0:0:
192,192,123257,1,0,0:0:0:0:
448,192,123360,1,0,0:0:0:0:
64,192,123360,1,0,0:0:0:0:
320,192,123464,1,0,0:0:0:0:
192,192,123567,128,0,123774:0:0:0:0:
64,192,123671,1,0,0:0:0:0:
320,192,123774,1,0,0:0:0:0:
448,192,123774,128,0,123981:0:0:0:0:
64,192,123878,1,0,0:0:0:0:
320,192,123981,128,0,124188:0:0:0:0:
192,192,124085,1,0,0:0:0:0:
64,192,124188,1,0,0:0:0:0:
448,192,124188,1,0,0:0:0:0:
320,192,124291,1,0,0:0:0:0:
448,192,124395,128,0,124602:0:0:0:0:
192,192,124395,1,0,0:0:0:0:
64,192,124498,1,0,0:0:0:0:
320,192,124602,1,0,0:0:0:0:
192,192,124602,128,0,124809:0:0:0:0:
64,192,124809,1,0,0:0:0:0:
320,192,124809,1,0,0:0:0:0:
448,192,124912,1,0,0:0:0:0:
192,192,124912,1,0,0:0:0:0:
320,192,125016,1,0,0:0:0:0:
64,192,125016,1,0,0:0:0:0:
448,192,125429,1,0,0:0:0:0:
64,192,125429,1,0,0:0:0:0:
192,192,125533,1,0,0:0:0:0:
320,192,125636,1,0,0:0:0:0:
192,192,125843,1,0,0:0:0:0:
448,192,126050,1,0,0:0:0:0:
320,192,126154,1,0,0:0:0:0:
448,192,126257,1,0,0:0:0:0:
192,192,126257,1,0,0:0:0:0:
320,192,126671,1,0,0:0:0:0:
64,192,126671,1,0,0:0:0:0:
192,192,126774,1,0,0:0:0:0:
320,192,126878,1,0,0:0:0:0:
64,192,127085,1,0,0:0:0:0:
448,192,127085,1,0,0:0:0:0:
192,192,127291,1,0,0:0:0:0:
320,192,127395,1,0,0:0:0:0:
64,192,127395,1,0,0:0:0:0:
448,192,127498,1,0,0:0:0:0:
192,192,127498,1,0,0:0:0:0:
320,192,127602,1,0,0:0:0:0:
192,192,127705,1,0,0:0:0:0:
64,192,127809,1,0,0:0:0:0:
192,192,127912,1,0,0:0:0:0:
448,192,127912,1,0,0:0:0:0:
192,192,128119,1,0,0:0:0:0:
320,192,128119,1,0,0:0:0:0:
64,192,128222,1,0,0:0:0:0:
448,192,128222,1,0,0:0:0:0:
192,192,128326,1,0,0:0:0:0:
320,192,128360,128,0,128636:0:0:0:0:
320,192,128740,1,0,0:0:0:0:
64,192,128740,1,0,0:0:0:0:
448,192,128740,1,0,0:0:0:0:
192,192,128843,1,0,0:0:0:0:
320,192,128947,1,0,0:0:0:0:
64,192,129050,1,0,0:0:0:0:
192,192,129154,1,0,0:0:0:0:
448,192,129360,1,0,0:0:0:0:
64,192,129360,1,0,0:0:0:0:
320,192,129464,1,0,0:0:0:0:
448,192,129567,1,0,0:0:0:0:
64,192,129567,1,0,0:0:0:0:
192,192,129567,1,0,0:0:0:0:
320,192,129774,1,0,0:0:0:0:
192,192,129878,1,0,0:0:0:0:
320,192,129981,1,0,0:0:0:0:
64,192,129981,1,0,0:0:0:0:
448,192,130016,128,0,130291:0:0:0:0:
448,192,130395,1,0,0:0:0:0:
64,192,130395,1,0,0:0:0:0:
192,192,130395,1,0,0:0:0:0:
320,192,130602,1,0,0:0:0:0:
192,192,130705,1,0,0:0:0:0:
448,192,130705,1,0,0:0:0:0:
320,192,130809,1,0,0:0:0:0:
64,192,130809,1,0,0:0:0:0:
320,192,131016,1,0,0:0:0:0:
64,192,131016,1,0,0:0:0:0:
192,192,131119,1,0,0:0:0:0:
448,192,131222,1,0,0:0:0:0:
64,192,131222,1,0,0:0:0:0:
320,192,131222,1,0,0:0:0:0:
320,192,131360,1,0,0:0:0:0:
64,192,131360,1,0,0:0:0:0:
320,192,131498,128,0,131636:0:0:0:0:
64,192,131636,128,0,131843:0:0:0:0:
448,192,131636,1,0,0:0:0:0:
192,192,131636,128,0,131843:0:0:0:0:
320,192,132257,1,0,0:0:0:0:
64,192,132257,128,0,132464:0:0:0:0:
448,192,132257,128,0,132464:0:0:0:0:
320,192,132878,1,0,0:0:0:0:
448,192,132878,128,0,133085:0:0:0:0:
192,192,132878,128,0,133085:0:0:0:0:
320,192,133498,1,0,0:0:0:0:
448,192,133498,128,0,133912:0:0:0:0:
64,192,133498,128,0,133705:0:0:0:0:
192,192,133912,1,0,0:0:0:0:
64,192,133912,128,0,134119:0:0:0:0:
320,192,133912,128,0,134119:0:0:0:0:
192,192,134533,1,0,0:0:0:0:
64,192,134533,128,0,134740:0:0:0:0:
448,192,134533,128,0,134740:0:0:0:0:
448,192,135153,128,0,135360:0:0:0:0:
320,192,135153,128,0,135360:0:0:0:0:
64,192,135153,1,0,0:0:0:0:
64,192,135774,128,0,136188:0:0:0:0:
448,192,135774,1,0,0:0:0:0:
320,192,135774,128,0,135981:0:0:0:0:
192,192,136188,128,0,136602:0:0:0:0:
448,192,136188,1,0,0:0:0:0:
64,192,136291,1,0,0:0:0:0:
448,192,136395,1,0,0:0:0:0:
320,192,136395,1,0,0:0:0:0:
64,192,136602,128,0,136912:0:0:0:0:
448,192,136602,128,0,136912:0:0:0:0:
320,192,136809,1,0,0:0:0:0:
192,192,136912,1,0,0:0:0:0:
64,192,137015,1,0,0:0:0:0:
320,192,137015,128,0,137221:0:0:0:0:
448,192,137015,128,0,137221:0:0:0:0:
192,192,137118,1,0,0:0:0:0:
64,192,137221,1,0,0:0:0:0:
320,192,137325,1,0,0:0:0:0:
192,192,137428,1,0,0:0:0:0:
320,192,137532,1,0,0:0:0:0:
448,192,137635,1,0,0:0:0:0:
64,192,137635,128,0,137842:0:0:0:0:
192,192,137635,128,0,137842:0:0:0:0:
320,192,137739,1,0,0:0:0:0:
448,192,137842,1,0,0:0:0:0:
192,192,137946,1,0,0:0:0:0:
320,192,138049,1,0,0:0:0:0:
64,192,138152,1,0,0:0:0:0:
320,192,138256,1,0,0:0:0:0:
448,192,138256,128,0,138463:0:0:0:0:
192,192,138256,128,0,138463:0:0:0:0:
64,192,138359,1,0,0:0:0:0:
320,192,138463,1,0,0:0:0:0:
448,192,138566,1,0,0:0:0:0:
192,192,138670,1,0,0:0:0:0:
320,192,138773,1,0,0:0:0:0:
64,192,138877,1,0,0:0:0:0:
448,192,138877,128,0,139187:0:0:0:0:
192,192,138877,128,0,139290:0:0:0:0:
64,192,139290,1,0,0:0:0:0:
320,192,139290,128,0,139497:0:0:0:0:
448,192,139290,128,0,139497:0:0:0:0:
192,192,139394,1,0,0:0:0:0:
64,192,139497,1,0,0:0:0:0:
320,192,139601,1,0,0:0:0:0:
448,192,139704,1,0,0:0:0:0:
192,192,139808,1,0,0:0:0:0:
448,192,139911,1,0,0:0:0:0:
320,192,139911,128,0,140118:0:0:0:0:
64,192,139911,128,0,140118:0:0:0:0:
192,192,140015,1,0,0:0:0:0:
448,192,140118,1,0,0:0:0:0:
320,192,140221,1,0,0:0:0:0:
64,192,140325,1,0,0:0:0:0:
192,192,140428,1,0,0:0:0:0:
320,192,140531,1,0,0:0:0:0:
64,192,140531,128,0,140738:0:0:0:0:
448,192,140531,128,0,140738:0:0:0:0:
192,192,140635,1,0,0:0:0:0:
320,192,140738,1,0,0:0:0:0:
448,192,140842,1,0,0:0:0:0:
320,192,140945,1,0,0:0:0:0:
192,192,141049,1,0,0:0:0:0:
448,192,141152,1,0,0:0:0:0:
64,192,141152,128,0,141566:0:0:0:0:
320,192,141152,128,0,141462:0:0:0:0:
448,192,141566,1,0,0:0:0:0:
320,192,141566,1,0,0:0:0:0:
192,192,141566,128,0,141773:0:0:0:0:
64,192,141669,1,0,0:0:0:0:
448,192,141773,1,0,0:0:0:0:
320,192,141773,1,0,0:0:0:0:
448,192,141980,128,0,142393:0:0:0:0:
64,192,141980,128,0,142393:0:0:0:0:
320,192,141980,1,0,0:0:0:0:
192,192,142187,1,0,0:0:0:0:
320,192,142187,1,0,0:0:0:0:
192,192,142393,128,0,142806:0:0:0:0:
320,192,142703,1,0,0:0:0:0:
448,192,142806,1,0,0:0:0:0:
64,192,142806,1,0,0:0:0:0:
64,192,143013,128,0,143220:0:0:0:0:
192,192,143220,128,0,143427:0:0:0:0:
320,192,143427,128,0,143634:0:0:0:0:
448,192,143427,1,0,0:0:0:0:
64,192,143427,1,0,0:0:0:0:
192,192,143634,1,0,0:0:0:0:
448,192,143841,128,0,143944:0:0:0:0:
320,192,143944,128,0,144048:0:0:0:0:
192,192,144048,128,0,144255:0:0:0:0:
448,192,144048,1,0,0:0:0:0:
320,192,144255,128,0,144461:0:0:0:0:
64,192,144461,128,0,144565:0:0:0:0:
448,192,144461,1,0,0:0:0:0:
192,192,144565,128,0,144668:0:0:0:0:
320,192,144668,128,0,145082:0:0:0:0:
64,192,144668,1,0,0:0:0:0:
192,192,144979,1,0,0:0:0:0:
64,192,145082,1,0,0:0:0:0:
448,192,145082,1,0,0:0:0:0:
64,192,145289,1,0,0:0:0:0:
448,192,145289,1,0,0:0:0:0:
320,192,145341,1,0,0:0:0:0:
192,192,145393,128,0,145703:0:0:0:0:
320,192,145703,1,0,0:0:0:0:
448,192,145703,1,0,0:0:0:0:
64,192,145703,1,0,0:0:0:0:
64,192,145909,1,0,0:0:0:0:
192,192,145944,1,0,0:0:0:0:
448,192,145978,128,0,146116:0:0:0:0:
320,192,146116,128,0,146323:0:0:0:0:
64,192,146116,1,0,0:0:0:0:
192,192,146323,128,0,146530:0:0:0:0:
320,192,146530,128,0,146737:0:0:0:0:
448,192,146530,1,0,0:0:0:0:
64,192,146530,1,0,0:0:0:0:
192,192,146737,128,0,146944:0:0:0:0:
64,192,146737,1,0,0:0:0:0:
448,192,146737,1,0,0:0:0:0:
448,192,146944,128,0,147047:0:0:0:0:
320,192,146944,1,0,0:0:0:0:
64,192,147047,128,0,147151:0:0:0:0:
448,192,147151,128,0,147358:0:0:0:0:
320,192,147151,1,0,0:0:0:0:
192,192,147358,128,0,147565:0:0:0:0:
64,192,147358,1,0,0:0:0:0:
320,192,147565,128,0,147771:0:0:0:0:
64,192,147565,1,0,0:0:0:0:
448,192,147668,1,0,0:0:0:0:
192,192,147771,128,0,148184:0:0:0:0:
64,192,147771,1,0,0:0:0:0:
320,192,148081,1,0,0:0:0:0:
448,192,148184,1,0,0:0:0:0:
64,192,148184,1,0,0:0:0:0:
64,192,148391,128,0,148598:0:0:0:0:
192,192,148598,128,0,148805:0:0:0:0:
448,192,148805,1,0,0:0:0:0:
320,192,148805,128,0,149012:0:0:0:0:
64,192,148805,1,0,0:0:0:0:
192,192,149012,1,0,0:0:0:0:
448,192,149219,128,0,149322:0:0:0:0:
320,192,149322,128,0,149426:0:0:0:0:
448,192,149426,1,0,0:0:0:0:
192,192,149426,128,0,149633:0:0:0:0:
320,192,149633,128,0,149839:0:0:0:0:
448,192,149839,1,0,0:0:0:0:
64,192,149839,128,0,149943:0:0:0:0:
192,192,149943,128,0,150046:0:0:0:0:
320,192,150046,128,0,150460:0:0:0:0:
64,192,150046,1,0,0:0:0:0:
192,192,150357,1,0,0:0:0:0:
64,192,150460,1,0,0:0:0:0:
448,192,150460,1,0,0:0:0:0:
448,192,150667,1,0,0:0:0:0:
64,192,150667,1,0,0:0:0:0:
192,192,150667,128,0,151081:0:0:0:0:
320,192,151081,1,0,0:0:0:0:
64,192,151081,1,0,0:0:0:0:
448,192,151081,1,0,0:0:0:0:
64,192,151287,1,0,0:0:0:0:
448,192,151287,1,0,0:0:0:0:
320,192,151339,128,0,151494:0:0:0:0:
64,192,151494,128,0,151701:0:0:0:0:
448,192,151494,1,0,0:0:0:0:
192,192,151598,1,0,0:0:0:0:
320,192,151701,128,0,151908:0:0:0:0:
448,192,151701,1,0,0:0:0:0:
448,192,151908,128,0,152322:0:0:0:0:
64,192,152115,1,0,0:0:0:0:
192,192,152115,1,0,0:0:0:0:
320,192,152322,128,0,152736:0:0:0:0:
448,192,152529,1,0,0:0:0:0:
64,192,152632,1,0,0:0:0:0:
192,192,152736,128,0,153149:0:0:0:0:
448,192,152736,1,0,0:0:0:0:
64,192,153149,128,0,154804:0:0:0:0:
320,192,153149,1,0,0:0:0:0:
448,192,153149,1,0,0:0:0:0:
192,192,153252,1,0,0:0:0:0:
448,192,153355,1,0,0:0:0:0:
192,192,153459,1,0,0:0:0:0:
320,192,153562,1,0,0:0:0:0:
192,192,153666,1,0,0:0:0:0:
320,192,153769,1,0,0:0:0:0:
448,192,153873,1,0,0:0:0:0:
192,192,153976,1,0,0:0:0:0:
320,192,153976,1,0,0:0:0:0:
448,192,154080,1,0,0:0:0:0:
192,192,154183,1,0,0:0:0:0:
448,192,154286,1,0,0:0:0:0:
192,192,154390,1,0,0:0:0:0:
320,192,154493,1,0,0:0:0:0:
192,192,154597,1,0,0:0:0:0:
320,192,154700,1,0,0:0:0:0:
448,192,154804,1,0,0:0:0:0:
192,192,154804,1,0,0:0:0:0:
64,192,154907,1,0,0:0:0:0:
320,192,155011,1,0,0:0:0:0:
192,192,155114,1,0,0:0:0:0:
448,192,155114,1,0,0:0:0:0:
64,192,155217,1,0,0:0:0:0:
320,192,155321,1,0,0:0:0:0:
64,192,155424,1,0,0:0:0:0:
448,192,155424,1,0,0:0:0:0:
192,192,155528,1,0,0:0:0:0:
320,192,155631,1,0,0:0:0:0:
448,192,155631,1,0,0:0:0:0:
192,192,155735,1,0,0:0:0:0:
64,192,155838,1,0,0:0:0:0:
192,192,155942,1,0,0:0:0:0:
448,192,155942,1,0,0:0:0:0:
320,192,156045,1,0,0:0:0:0:
64,192,156045,1,0,0:0:0:0:
64,192,156252,1,0,0:0:0:0:
320,192,156252,1,0,0:0:0:0:
192,192,156355,1,0,0:0:0:0:
64,192,156459,1,0,0:0:0:0:
448,192,156459,1,0,0:0:0:0:
320,192,156459,1,0,0:0:0:0:
192,192,156562,1,0,0:0:0:0:
448,192,156666,1,0,0:0:0:0:
64,192,156769,1,0,0:0:0:0:
320,192,156769,1,0,0:0:0:0:
192,192,156873,1,0,0:0:0:0:
320,192,156976,1,0,0:0:0:0:
448,192,157080,1,0,0:0:0:0:
64,192,157080,1,0,0:0:0:0:
192,192,157183,1,0,0:0:0:0:
320,192,157286,1,0,0:0:0:0:
448,192,157286,1,0,0:0:0:0:
64,192,157390,1,0,0:0:0:0:
320,192,157493,1,0,0:0:0:0:
192,192,157597,1,0,0:0:0:0:
64,192,157700,1,0,0:0:0:0:
448,192,157700,1,0,0:0:0:0:
320,192,157804,1,0,0:0:0:0:
192,192,157907,1,0,0:0:0:0:
320,192,158011,1,0,0:0:0:0:
448,192,158114,1,0,0:0:0:0:
64,192,158114,1,0,0:0:0:0:
192,192,158217,1,0,0:0:0:0:
64,192,158321,1,0,0:0:0:0:
448,192,158424,1,0,0:0:0:0:
320,192,158528,1,0,0:0:0:0:
64,192,158528,1,0,0:0:0:0:
192,192,158528,1,0,0:0:0:0:
448,192,158838,1,0,0:0:0:0:
192,192,158838,1,0,0:0:0:0:
64,192,158838,1,0,0:0:0:0:
64,192,159149,1,0,0:0:0:0:
320,192,159149,1,0,0:0:0:0:
448,192,159149,1,0,0:0:0:0:
192,192,159355,1,0,0:0:0:0:
64,192,159355,1,0,0:0:0:0:
320,192,159459,1,0,0:0:0:0:
448,192,159459,1,0,0:0:0:0:
192,192,159562,1,0,0:0:0:0:
64,192,159562,1,0,0:0:0:0:
448,192,159666,1,0,0:0:0:0:
320,192,159769,1,0,0:0:0:0:
192,192,159769,1,0,0:0:0:0:
64,192,159769,128,0,160080:0:0:0:0:
448,192,159873,1,0,0:0:0:0:
320,192,159976,1,0,0:0:0:0:
192,192,160080,1,0,0:0:0:0:
448,192,160080,1,0,0:0:0:0:
64,192,160183,1,0,0:0:0:0:
192,192,160286,1,0,0:0:0:0:
64,192,160390,1,0,0:0:0:0:
320,192,160390,1,0,0:0:0:0:
448,192,160493,1,0,0:0:0:0:
320,192,160597,1,0,0:0:0:0:
192,192,160597,1,0,0:0:0:0:
64,192,160597,1,0,0:0:0:0:
448,192,160700,1,0,0:0:0:0:
192,192,160804,1,0,0:0:0:0:
320,192,160907,1,0,0:0:0:0:
448,192,161011,1,0,0:0:0:0:
64,192,161011,1,0,0:0:0:0:
320,192,161114,1,0,0:0:0:0:
192,192,161217,1,0,0:0:0:0:
64,192,161321,1,0,0:0:0:0:
320,192,161424,1,0,0:0:0:0:
448,192,161424,128,0,161735:0:0:0:0:
192,192,161528,1,0,0:0:0:0:
64,192,161631,1,0,0:0:0:0:
192,192,161735,1,0,0:0:0:0:
320,192,161735,1,0,0:0:0:0:
64,192,161838,1,0,0:0:0:0:
448,192,161838,1,0,0:0:0:0:
192,192,161942,1,0,0:0:0:0:
320,192,162045,1,0,0:0:0:0:
448,192,162045,1,0,0:0:0:0:
192,192,162149,1,0,0:0:0:0:
64,192,162252,1,0,0:0:0:0:
320,192,162252,1,0,0:0:0:0:
448,192,162252,1,0,0:0:0:0:
64,192,162459,1,0,0:0:0:0:
320,192,162562,1,0,0:0:0:0:
192,192,162562,1,0,0:0:0:0:
448,192,162666,1,0,0:0:0:0:
64,192,162666,1,0,0:0:0:0:
320,192,162769,1,0,0:0:0:0:
448,192,162873,1,0,0:0:0:0:
192,192,162873,1,0,0:0:0:0:
64,192,162976,1,0,0:0:0:0:
448,192,163080,1,0,0:0:0:0:
320,192,163080,1,0,0:0:0:0:
64,192,163183,1,0,0:0:0:0:
192,192,163286,1,0,0:0:0:0:
448,192,163286,1,0,0:0:0:0:
320,192,163286,128,0,163597:0:0:0:0:
192,192,163597,1,0,0:0:0:0:
64,192,163700,1,0,0:0:0:0:
320,192,163700,1,0,0:0:0:0:
448,192,163700,1,0,0:0:0:0:
192,192,163804,1,0,0:0:0:0:
448,192,163907,1,0,0:0:0:0:
192,192,164011,1,0,0:0:0:0:
64,192,164011,1,0,0:0:0:0:
320,192,164011,1,0,0:0:0:0:
448,192,164114,1,0,0:0:0:0:
192,192,164217,1,0,0:0:0:0:
64,192,164321,1,0,0:0:0:0:
192,192,164424,1,0,0:0:0:0:
64,192,164528,1,0,0:0:0:0:
320,192,164528,1,0,0:0:0:0:
448,192,164528,1,0,0:0:0:0:
448,192,164735,1,0,0:0:0:0:
192,192,164735,1,0,0:0:0:0:
64,192,164838,1,0,0:0:0:0:
320,192,164942,1,0,0:0:0:0:
448,192,164942,1,0,0:0:0:0:
192,192,164942,128,0,165252:0:0:0:0:
320,192,165149,1,0,0:0:0:0:
64,192,165252,1,0,0:0:0:0:
448,192,165252,1,0,0:0:0:0:
320,192,165355,1,0,0:0:0:0:
192,192,165355,1,0,0:0:0:0:
64,192,165459,1,0,0:0:0:0:
448,192,165562,1,0,0:0:0:0:
192,192,165666,1,0,0:0:0:0:
320,192,165666,1,0,0:0:0:0:
448,192,165769,1,0,0:0:0:0:
192,192,165873,1,0,0:0:0:0:
448,192,165976,1,0,0:0:0:0:
320,192,165976,128,0,166114:0:0:0:0:
64,192,166114,1,0,0:0:0:0:
192,192,166114,128,0,166252:0:0:0:0:
448,192,166252,1,0,0:0:0:0:
320,192,166252,128,0,166390:0:0:0:0:
64,192,166390,1,0,0:0:0:0:
192,192,166390,1,0,0:0:0:0:
448,192,166390,1,0,0:0:0:0:
320,192,166493,1,0,0:0:0:0:
192,192,166597,1,0,0:0:0:0:
64,192,166597,1,0,0:0:0:0:
320,192,166700,1,0,0:0:0:0:
448,192,166804,1,0,0:0:0:0:
192,192,166804,1,0,0:0:0:0:
64,192,166907,1,0,0:0:0:0:
320,192,167011,1,0,0:0:0:0:
448,192,167011,1,0,0:0:0:0:
192,192,167114,1,0,0:0:0:0:
320,192,167217,1,0,0:0:0:0:
64,192,167217,1,0,0:0:0:0:
448,192,167321,1,0,0:0:0:0:
192,192,167424,1,0,0:0:0:0:
320,192,167424,1,0,0:0:0:0:
64,192,167528,1,0,0:0:0:0:
448,192,167631,1,0,0:0:0:0:
192,192,167631,1,0,0:0:0:0:
320,192,167735,1,0,0:0:0:0:
192,192,167838,1,0,0:0:0:0:
64,192,167838,1,0,0:0:0:0:
320,192,167942,1,0,0:0:0:0:
192,192,168045,1,0,0:0:0:0:
448,192,168045,1,0,0:0:0:0:
64,192,168149,1,0,0:0:0:0:
320,192,168252,1,0,0:0:0:0:
192,192,168252,1,0,0:0:0:0:
448,192,168355,1,0,0:0:0:0:
320,192,168459,1,0,0:0:0:0:
64,192,168459,1,0,0:0:0:0:
448,192,168562,1,0,0:0:0:0:
64,192,168666,1,0,0:0:0:0:
192,192,168666,1,0,0:0:0:0:
320,192,168769,1,0,0:0:0:0:
64,192,168873,1,0,0:0:0:0:
448,192,168873,1,0,0:0:0:0:
192,192,168976,1,0,0:0:0:0:
448,192,169080,1,0,0:0:0:0:
320,192,169080,1,0,0:0:0:0:
64,192,169183,1,0,0:0:0:0:
448,192,169286,1,0,0:0:0:0:
192,192,169286,1,0,0:0:0:0:
320,192,169390,1,0,0:0:0:0:
192,192,169493,1,0,0:0:0:0:
64,192,169493,1,0,0:0:0:0:
320,192,169597,1,0,0:0:0:0:
64,192,169700,1,0,0:0:0:0:
448,192,169700,1,0,0:0:0:0:
320,192,169804,1,0,0:0:0:0:
64,192,169907,1,0,0:0:0:0:
192,192,169907,1,0,0:0:0:0:
320,192,170011,1,0,0:0:0:0:
448,192,170114,1,0,0:0:0:0:
192,192,170114,1,0,0:0:0:0:
64,192,170217,1,0,0:0:0:0:
320,192,170321,1,0,0:0:0:0:
448,192,170321,1,0,0:0:0:0:
192,192,170424,1,0,0:0:0:0:
64,192,170528,1,0,0:0:0:0:
320,192,170528,1,0,0:0:0:0:
448,192,170631,1,0,0:0:0:0:
320,192,170735,1,0,0:0:0:0:
192,192,170735,1,0,0:0:0:0:
64,192,170838,1,0,0:0:0:0:
448,192,170942,1,0,0:0:0:0:
192,192,170942,1,0,0:0:0:0:
64,192,171045,1,0,0:0:0:0:
448,192,171149,1,0,0:0:0:0:
320,192,171149,1,0,0:0:0:0:
192,192,171252,1,0,0:0:0:0:
64,192,171355,1,0,0:0:0:0:
320,192,171355,1,0,0:0:0:0:
448,192,171459,1,0,0:0:0:0:
64,192,171562,1,0,0:0:0:0:
192,192,171562,1,0,0:0:0:0:
320,192,171666,1,0,0:0:0:0:
448,192,171769,1,0,0:0:0:0:
64,192,171769,1,0,0:0:0:0:
320,192,171873,1,0,0:0:0:0:
192,192,171976,1,0,0:0:0:0:
64,192,171976,1,0,0:0:0:0:
448,192,172080,1,0,0:0:0:0:
320,192,172183,1,0,0:0:0:0:
64,192,172183,1,0,0:0:0:0:
192,192,172286,1,0,0:0:0:0:
320,192,172390,1,0,0:0:0:0:
448,192,172390,1,0,0:0:0:0:
192,192,172493,1,0,0:0:0:0:
320,192,172597,1,0,0:0:0:0:
64,192,172597,1,0,0:0:0:0:
448,192,172700,1,0,0:0:0:0:
320,192,172804,1,0,0:0:0:0:
192,192,172804,1,0,0:0:0:0:
64,192,172907,1,0,0:0:0:0:
192,192,173011,1,0,0:0:0:0:
320,192,173011,1,0,0:0:0:0:
448,192,173011,1,0,0:0:0:0:
64,192,173114,1,0,0:0:0:0:
448,192,173217,1,0,0:0:0:0:
320,192,173217,1,0,0:0:0:0:
192,192,173321,1,0,0:0:0:0:
64,192,173424,1,0,0:0:0:0:
320,192,173424,1,0,0:0:0:0:
448,192,173528,1,0,0:0:0:0:
64,192,173631,1,0,0:0:0:0:
192,192,173631,1,0,0:0:0:0:
320,192,173735,1,0,0:0:0:0:
448,192,173838,1,0,0:0:0:0:
192,192,173838,1,0,0:0:0:0:
64,192,173942,1,0,0:0:0:0:
320,192,174045,1,0,0:0:0:0:
192,192,174045,1,0,0:0:0:0:
448,192,174149,1,0,0:0:0:0:
320,192,174252,1,0,0:0:0:0:
64,192,174252,1,0,0:0:0:0:
192,192,174355,1,0,0:0:0:0:
448,192,174459,1,0,0:0:0:0:
320,192,174459,1,0,0:0:0:0:
192,192,174562,1,0,0:0:0:0:
64,192,174666,1,0,0:0:0:0:
320,192,174666,1,0,0:0:0:0:
448,192,174769,1,0,0:0:0:0:
320,192,174873,1,0,0:0:0:0:
192,192,174873,1,0,0:0:0:0:
64,192,174976,1,0,0:0:0:0:
192,192,175080,1,0,0:0:0:0:
448,192,175080,1,0,0:0:0:0:
64,192,175183,1,0,0:0:0:0:
448,192,175286,1,0,0:0:0:0:
320,192,175286,1,0,0:0:0:0:
192,192,175390,1,0,0:0:0:0:
448,192,175493,1,0,0:0:0:0:
64,192,175493,1,0,0:0:0:0:
320,192,175597,1,0,0:0:0:0:
192,192,175700,1,0,0:0:0:0:
64,192,175700,1,0,0:0:0:0:
448,192,175804,1,0,0:0:0:0:
64,192,175907,1,0,0:0:0:0:
320,192,175907,1,0,0:0:0:0:
192,192,176011,1,0,0:0:0:0:
320,192,176114,1,0,0:0:0:0:
448,192,176114,1,0,0:0:0:0:
192,192,176217,1,0,0:0:0:0:
64,192,176321,1,0,0:0:0:0:
448,192,176321,1,0,0:0:0:0:
192,192,176424,1,0,0:0:0:0:
448,192,176528,1,0,0:0:0:0:
320,192,176528,1,0,0:0:0:0:
192,192,176631,1,0,0:0:0:0:
320,192,176735,1,0,0:0:0:0:
64,192,176735,1,0,0:0:0:0:
448,192,176838,1,0,0:0:0:0:
64,192,176942,1,0,0:0:0:0:
192,192,176942,1,0,0:0:0:0:
320,192,177045,1,0,0:0:0:0:
192,192,177149,1,0,0:0:0:0:
448,192,177149,1,0,0:0:0:0:
64,192,177252,1,0,0:0:0:0:
320,192,177355,1,0,0:0:0:0:
192,192,177355,1,0,0:0:0:0:
448,192,177459,1,0,0:0:0:0:
320,192,177562,1,0,0:0:0:0:
64,192,177562,128,0,177666:0:0:0:0:
192,192,177666,1,0,0:0:0:0:
320,192,177769,1,0,0:0:0:0:
448,192,177769,1,0,0:0:0:0:
64,192,177873,1,0,0:0:0:0:
320,192,177976,1,0,0:0:0:0:
448,192,177976,1,0,0:0:0:0:
64,192,178080,1,0,0:0:0:0:
192,192,178183,1,0,0:0:0:0:
448,192,178286,1,0,0:0:0:0:
64,192,178286,1,0,0:0:0:0:
320,192,178390,1,0,0:0:0:0:
192,192,178390,1,0,0:0:0:0:
448,192,178493,1,0,0:0:0:0:
64,192,178597,1,0,0:0:0:0:
192,192,178700,1,0,0:0:0:0:
320,192,178804,1,0,0:0:0:0:
448,192,178804,1,0,0:0:0:0:
64,192,178804,1,0,0:0:0:0:
192,192,178907,1,0,0:0:0:0:
448,192,179011,1,0,0:0:0:0:
320,192,179114,1,0,0:0:0:0:
64,192,179217,1,0,0:0:0:0:
448,192,179217,1,0,0:0:0:0:
192,192,179217,128,0,179355:0:0:0:0:
448,192,179355,1,0,0:0:0:0:
320,192,179355,128,0,179493:0:0:0:0:
192,192,179493,128,0,179631:0:0:0:0:
64,192,179493,1,0,0:0:0:0:
320,192,179631,1,0,0:0:0:0:
448,192,179631,1,0,0:0:0:0:
64,192,179631,128,0,182258:0:0:0:0:
192,192,182258,128,0,182477:0:0:0:0:
64,192,182477,128,0,183572:0:0:0:0:
192,192,182696,1,0,0:0:0:0:
320,192,182915,1,0,0:0:0:0:
448,192,183134,1,0,0:0:0:0:
320,192,183353,1,0,0:0:0:0:
192,192,183572,128,0,183791:0:0:0:0:
64,192,183791,128,0,184886:0:0:0:0:
192,192,184010,1,0,0:0:0:0:
320,192,184229,1,0,0:0:0:0:
448,192,184448,1,0,0:0:0:0:
320,192,184667,1,0,0:0:0:0:
192,192,184886,128,0,185105:0:0:0:0:
64,192,185105,128,0,186200:0:0:0:0:
192,192,185324,1,0,0:0:0:0:
320,192,185543,1,0,0:0:0:0:
448,192,185762,1,0,0:0:0:0:
320,192,185981,1,0,0:0:0:0:
192,192,186200,128,0,186419:0:0:0:0:
64,192,186419,128,0,187514:0:0:0:0:
192,192,186638,1,0,0:0:0:0:
320,192,186857,1,0,0:0:0:0:
448,192,187076,1,0,0:0:0:0:
320,192,187295,1,0,0:0:0:0:
192,192,187514,128,0,187733:0:0:0:0:
64,192,187733,128,0,188828:0:0:0:0:
192,192,187952,1,0,0:0:0:0:
320,192,188171,1,0,0:0:0:0:
448,192,188390,1,0,0:0:0:0:
320,192,188609,1,0,0:0:0:0:
192,192,188828,128,0,189047:0:0:0:0:
64,192,189047,128,0,190141:0:0:0:0:
192,192,189266,1,0,0:0:0:0:
320,192,189485,1,0,0:0:0:0:
448,192,189703,1,0,0:0:0:0:
320,192,189922,1,0,0:0:0:0:
448,192,190141,128,0,190360:0:0:0:0:
192,192,190141,1,0,0:0:0:0:
320,192,190178,1,0,0:0:0:0:
320,192,190360,1,0,0:0:0:0:
448,192,190579,128,0,190798:0:0:0:0:
64,192,190579,1,0,0:0:0:0:
320,192,190798,1,0,0:0:0:0:
448,192,191017,1,0,0:0:0:0:
192,192,191017,1,0,0:0:0:0:
320,192,191236,1,0,0:0:0:0:
64,192,191455,1,0,0:0:0:0:
448,192,191455,1,0,0:0:0:0:
192,192,191674,1,0,0:0:0:0:
320,192,191893,1,0,0:0:0:0:
64,192,191893,1,0,0:0:0:0:
448,192,192112,1,0,0:0:0:0:
320,192,192331,1,0,0:0:0:0:
64,192,192331,1,0,0:0:0:0:
64,192,192550,1,0,0:0:0:0:
320,192,192660,1,0,0:0:0:0:
192,192,192769,128,0,192988:0:0:0:0:
448,192,192769,1,0,0:0:0:0:
64,192,192769,1,0,0:0:0:0:
192,192,193207,128,0,193426:0:0:0:0:
448,192,193207,1,0,0:0:0:0:
320,192,193426,128,0,193645:0:0:0:0:
64,192,193645,1,0,0:0:0:0:
320,192,193864,128,0,194083:0:0:0:0:
448,192,194083,128,0,194302:0:0:0:0:
64,192,194083,1,0,0:0:0:0:
192,192,194083,1,0,0:0:0:0:
448,192,194521,128,0,194740:0:0:0:0:
192,192,194521,1,0,0:0:0:0:
64,192,194740,128,0,194959:0:0:0:0:
320,192,194959,1,0,0:0:0:0:
64,192,195178,128,0,195397:0:0:0:0:
192,192,195397,128,0,195616:0:0:0:0:
320,192,195397,1,0,0:0:0:0:
448,192,195433,1,0,0:0:0:0:
64,192,195616,1,0,0:0:0:0:
192,192,195835,128,0,196054:0:0:0:0:
448,192,195835,1,0,0:0:0:0:
320,192,196054,1,0,0:0:0:0:
192,192,196273,128,0,196492:0:0:0:0:
64,192,196273,1,0,0:0:0:0:
320,192,196492,1,0,0:0:0:0:
448,192,196711,1,0,0:0:0:0:
64,192,196711,1,0,0:0:0:0:
192,192,196930,1,0,0:0:0:0:
320,192,197149,1,0,0:0:0:0:
64,192,197149,1,0,0:0:0:0:
448,192,197368,1,0,0:0:0:0:
64,192,197587,1,0,0:0:0:0:
320,192,197587,1,0,0:0:0:0:
64,192,197806,1,0,0:0:0:0:
320,192,197915,1,0,0:0:0:0:
192,192,198025,1,0,0:0:0:0:
448,192,198025,128,0,198244:0:0:0:0:
64,192,198025,1,0,0:0:0:0:
448,192,198463,128,0,198682:0:0:0:0:
64,192,198463,1,0,0:0:0:0:
320,192,198682,128,0,198901:0:0:0:0:
64,192,198901,1,0,0:0:0:0:
320,192,199120,128,0,199339:0:0:0:0:
448,192,199339,1,0,0:0:0:0:
192,192,199339,128,0,199558:0:0:0:0:
64,192,199339,1,0,0:0:0:0:
192,192,199776,128,0,199995:0:0:0:0:
448,192,199776,1,0,0:0:0:0:
320,192,199995,1,0,0:0:0:0:
448,192,199995,1,0,0:0:0:0:
64,192,200105,1,0,0:0:0:0:
192,192,200105,1,0,0:0:0:0:
320,192,200214,1,0,0:0:0:0:
448,192,200214,1,0,0:0:0:0:
192,192,200433,1,0,0:0:0:0:
64,192,200433,1,0,0:0:0:0:
448,192,200652,128,0,200871:0:0:0:0:
320,192,200652,1,0,0:0:0:0:
192,192,200689,1,0,0:0:0:0:
64,192,200871,1,0,0:0:0:0:
192,192,201090,1,0,0:0:0:0:
448,192,201090,128,0,201309:0:0:0:0:
320,192,201309,1,0,0:0:0:0:
192,192,201528,1,0,0:0:0:0:
448,192,201528,1,0,0:0:0:0:
320,192,201747,1,0,0:0:0:0:
64,192,201747,1,0,0:0:0:0:
448,192,201966,1,0,0:0:0:0:
64,192,201966,1,0,0:0:0:0:
192,192,201966,1,0,0:0:0:0:
192,192,202185,1,0,0:0:0:0:
64,192,202404,1,0,0:0:0:0:
320,192,202404,1,0,0:0:0:0:
448,192,202623,1,0,0:0:0:0:
320,192,202842,1,0,0:0:0:0:
64,192,202842,1,0,0:0:0:0:
192,192,203061,1,0,0:0:0:0:
192,192,203280,128,0,203499:0:0:0:0:
448,192,203280,1,0,0:0:0:0:
448,192,203718,1,0,0:0:0:0:
192,192,203718,128,0,203937:0:0:0:0:
320,192,203937,128,0,204156:0:0:0:0:
64,192,203937,1,0,0:0:0:0:
192,192,204156,1,0,0:0:0:0:
320,192,204375,128,0,204594:0:0:0:0:
64,192,204375,1,0,0:0:0:0:
448,192,204594,128,0,204813:0:0:0:0:
64,192,204594,1,0,0:0:0:0:
192,192,204594,1,0,0:0:0:0:
448,192,205032,128,0,205251:0:0:0:0:
192,192,205032,1,0,0:0:0:0:
64,192,205251,128,0,205470:0:0:0:0:
320,192,205470,128,0,205908:0:0:0:0:
64,192,205689,128,0,205908:0:0:0:0:
192,192,205908,128,0,206127:0:0:0:0:
448,192,205944,1,0,0:0:0:0:
64,192,206127,1,0,0:0:0:0:
448,192,206346,1,0,0:0:0:0:
192,192,206346,1,0,0:0:0:0:
320,192,206565,1,0,0:0:0:0:
64,192,206784,1,0,0:0:0:0:
192,192,206784,1,0,0:0:0:0:
320,192,207003,1,0,0:0:0:0:
448,192,207222,1,0,0:0:0:0:
64,192,207222,1,0,0:0:0:0:
320,192,207222,1,0,0:0:0:0:
192,192,207441,1,0,0:0:0:0:
64,192,207660,1,0,0:0:0:0:
320,192,207660,1,0,0:0:0:0:
448,192,207879,1,0,0:0:0:0:
64,192,208098,1,0,0:0:0:0:
320,192,208098,1,0,0:0:0:0:
192,192,208317,1,0,0:0:0:0:
64,192,208536,1,0,0:0:0:0:
448,192,208536,128,0,208755:0:0:0:0:
192,192,208536,1,0,0:0:0:0:
448,192,208974,128,0,209193:0:0:0:0:
64,192,208974,1,0,0:0:0:0:
320,192,209193,128,0,209412:0:0:0:0:
192,192,209193,1,0,0:0:0:0:
64,192,209412,1,0,0:0:0:0:
320,192,209631,128,0,209849:0:0:0:0:
448,192,209631,1,0,0:0:0:0:
448,192,209849,1,0,0:0:0:0:
192,192,209849,128,0,210068:0:0:0:0:
64,192,209849,1,0,0:0:0:0:
192,192,210287,128,0,210506:0:0:0:0:
320,192,210287,1,0,0:0:0:0:
320,192,210506,1,0,0:0:0:0:
448,192,210506,1,0,0:0:0:0:
64,192,210506,1,0,0:0:0:0:
192,192,210725,1,0,0:0:0:0:
448,192,210725,1,0,0:0:0:0:
320,192,210944,1,0,0:0:0:0:
64,192,210944,1,0,0:0:0:0:
64,192,211163,1,0,0:0:0:0:
448,192,211163,128,0,213572:0:0:0:0:
192,192,211218,1,0,0:0:0:0:
320,192,211273,1,0,0:0:0:0:
64,192,211601,1,0,0:0:0:0:
192,192,211820,1,0,0:0:0:0:
320,192,212039,1,0,0:0:0:0:
64,192,212258,1,0,0:0:0:0:
64,192,212477,1,0,0:0:0:0:
320,192,212477,1,0,0:0:0:0:
64,192,212915,1,0,0:0:0:0:
192,192,213134,1,0,0:0:0:0:
320,192,213353,1,0,0:0:0:0:
64,192,213572,1,0,0:0:0:0:
448,192,213791,128,0,214010:0:0:0:0:
64,192,213791,128,0,214667:0:0:0:0:
448,192,214229,1,0,0:0:0:0:
320,192,214448,128,0,214667:0:0:0:0:
448,192,214667,1,0,0:0:0:0:
192,192,214886,1,0,0:0:0:0:
192,192,215105,128,0,215324:0:0:0:0:
64,192,215105,1,0,0:0:0:0:
448,192,215105,1,0,0:0:0:0:
192,192,215543,1,0,0:0:0:0:
64,192,215762,128,0,215981:0:0:0:0:
448,192,215981,1,0,0:0:0:0:
320,192,215981,128,0,216419:0:0:0:0:
64,192,216419,1,0,0:0:0:0:
448,192,216419,1,0,0:0:0:0:
192,192,216474,1,0,0:0:0:0:
320,192,216528,1,0,0:0:0:0:
64,192,216857,1,0,0:0:0:0:
320,192,216857,1,0,0:0:0:0:
192,192,217076,1,0,0:0:0:0:
448,192,217295,1,0,0:0:0:0:
64,192,217295,1,0,0:0:0:0:
320,192,217514,1,0,0:0:0:0:
320,192,217733,1,0,0:0:0:0:
448,192,217733,1,0,0:0:0:0:
64,192,217733,1,0,0:0:0:0:
192,192,218171,1,0,0:0:0:0:
448,192,218171,1,0,0:0:0:0:
320,192,218390,1,0,0:0:0:0:
64,192,218609,1,0,0:0:0:0:
448,192,218609,1,0,0:0:0:0:
192,192,218828,1,0,0:0:0:0:
64,192,219047,1,0,0:0:0:0:
192,192,219047,128,0,219266:0:0:0:0:
448,192,219266,1,0,0:0:0:0:
192,192,219485,128,0,219703:0:0:0:0:
320,192,219703,128,0,219922:0:0:0:0:
448,192,219703,1,0,0:0:0:0:
64,192,219922,1,0,0:0:0:0:
320,192,220141,128,0,220360:0:0:0:0:
448,192,220141,1,0,0:0:0:0:
448,192,220360,128,0,220579:0:0:0:0:
192,192,220360,1,0,0:0:0:0:
64,192,220360,1,0,0:0:0:0:
448,192,220798,128,0,221017:0:0:0:0:
192,192,220798,1,0,0:0:0:0:
192,192,221017,1,0,0:0:0:0:
64,192,221017,1,0,0:0:0:0:
320,192,221127,1,0,0:0:0:0:
448,192,221127,1,0,0:0:0:0:
192,192,221236,1,0,0:0:0:0:
64,192,221236,1,0,0:0:0:0:
320,192,221346,1,0,0:0:0:0:
448,192,221346,1,0,0:0:0:0:
192,192,221455,1,0,0:0:0:0:
320,192,221565,1,0,0:0:0:0:
192,192,221674,128,0,221893:0:0:0:0:
448,192,221674,1,0,0:0:0:0:
64,192,221674,1,0,0:0:0:0:
320,192,221893,128,0,222112:0:0:0:0:
448,192,222112,128,0,222331:0:0:0:0:
64,192,222331,128,0,222550:0:0:0:0:
320,192,222331,1,0,0:0:0:0:
192,192,222550,128,0,222769:0:0:0:0:
448,192,222769,128,0,222988:0:0:0:0:
320,192,222769,1,0,0:0:0:0:
320,192,222988,128,0,223207:0:0:0:0:
64,192,222988,1,0,0:0:0:0:
192,192,223207,128,0,223426:0:0:0:0:
320,192,223426,128,0,223645:0:0:0:0:
64,192,223645,128,0,223864:0:0:0:0:
448,192,223645,1,0,0:0:0:0:
192,192,223864,128,0,224083:0:0:0:0:
448,192,223864,1,0,0:0:0:0:
64,192,224083,128,0,224302:0:0:0:0:
320,192,224083,1,0,0:0:0:0:
448,192,224083,1,0,0:0:0:0:
448,192,224193,1,0,0:0:0:0:
320,192,224302,1,0,0:0:0:0:
192,192,224302,128,0,224520:0:0:0:0:
320,192,224520,128,0,224739:0:0:0:0:
448,192,224739,128,0,224958:0:0:0:0:
64,192,224958,128,0,225177:0:0:0:0:
320,192,224958,1,0,0:0:0:0:
192,192,225177,128,0,225396:0:0:0:0:
448,192,225396,128,0,225615:0:0:0:0:
320,192,225396,1,0,0:0:0:0:
320,192,225615,1,0,0:0:0:0:
64,192,225615,1,0,0:0:0:0:
64,192,225761,1,0,0:0:0:0:
320,192,225761,1,0,0:0:0:0:
320,192,225907,1,0,0:0:0:0:
64,192,225907,1,0,0:0:0:0:
320,192,226053,1,0,0:0:0:0:
192,192,226053,1,0,0:0:0:0:
192,192,226199,1,0,0:0:0:0:
64,192,226199,1,0,0:0:0:0:
448,192,226345,1,0,0:0:0:0:
320,192,226345,1,0,0:0:0:0:
192,192,226491,128,0,226709:0:0:0:0:
448,192,226491,1,0,0:0:0:0:
64,192,226491,1,0,0:0:0:0:
320,192,226709,128,0,226928:0:0:0:0:
448,192,226928,128,0,227147:0:0:0:0:
192,192,226928,1,0,0:0:0:0:
64,192,227147,128,0,227366:0:0:0:0:
320,192,227147,1,0,0:0:0:0:
192,192,227366,128,0,227585:0:0:0:0:
448,192,227585,128,0,227804:0:0:0:0:
320,192,227585,1,0,0:0:0:0:
320,192,227804,128,0,228023:0:0:0:0:
64,192,227804,1,0,0:0:0:0:
192,192,228023,128,0,228242:0:0:0:0:
320,192,228242,128,0,228461:0:0:0:0:
64,192,228242,1,0,0:0:0:0:
64,192,228461,128,0,228680:0:0:0:0:
448,192,228461,1,0,0:0:0:0:
192,192,228680,128,0,228899:0:0:0:0:
448,192,228680,1,0,0:0:0:0:
64,192,228899,128,0,229118:0:0:0:0:
320,192,228899,1,0,0:0:0:0:
448,192,228899,1,0,0:0:0:0:
448,192,229009,1,0,0:0:0:0:
192,192,229118,128,0,229336:0:0:0:0:
320,192,229118,1,0,0:0:0:0:
320,192,229336,128,0,229555:0:0:0:0:
448,192,229555,128,0,229774:0:0:0:0:
192,192,229555,1,0,0:0:0:0:
64,192,229774,128,0,229993:0:0:0:0:
320,192,229774,1,0,0:0:0:0:
192,192,229993,128,0,230212:0:0:0:0:
448,192,230212,128,0,230431:0:0:0:0:
320,192,230212,1,0,0:0:0:0:
320,192,230431,128,0,230650:0:0:0:0:
192,192,230431,1,0,0:0:0:0:
448,192,230650,1,0,0:0:0:0:
64,192,230650,1,0,0:0:0:0:
192,192,230760,1,0,0:0:0:0:
320,192,230760,1,0,0:0:0:0:
448,192,230869,1,0,0:0:0:0:
64,192,230979,1,0,0:0:0:0:
192,192,230979,1,0,0:0:0:0:
320,192,231088,1,0,0:0:0:0:
448,192,231088,1,0,0:0:0:0:
192,192,231198,1,0,0:0:0:0:
64,192,231198,1,0,0:0:0:0:
448,192,231307,1,0,0:0:0:0:
320,192,231307,128,0,231525:0:0:0:0:
64,192,231307,1,0,0:0:0:0:
192,192,231525,128,0,231744:0:0:0:0:
64,192,231744,128,0,231963:0:0:0:0:
192,192,231963,1,0,0:0:0:0:
448,192,231963,128,0,232182:0:0:0:0:
320,192,232182,128,0,232401:0:0:0:0:
64,192,232401,128,0,232620:0:0:0:0:
192,192,232401,1,0,0:0:0:0:
448,192,232620,1,0,0:0:0:0:
192,192,232620,128,0,232839:0:0:0:0:
320,192,232839,128,0,233058:0:0:0:0:
192,192,233058,128,0,233277:0:0:0:0:
448,192,233277,128,0,233496:0:0:0:0:
64,192,233277,1,0,0:0:0:0:
64,192,233496,1,0,0:0:0:0:
320,192,233496,128,0,233715:0:0:0:0:
192,192,233715,1,0,0:0:0:0:
64,192,233715,1,0,0:0:0:0:
448,192,233715,128,0,233934:0:0:0:0:
64,192,233825,1,0,0:0:0:0:
320,192,233934,128,0,234152:0:0:0:0:
192,192,233934,1,0,0:0:0:0:
192,192,234152,128,0,234371:0:0:0:0:
64,192,234371,128,0,234590:0:0:0:0:
448,192,234590,128,0,234809:0:0:0:0:
192,192,234590,1,0,0:0:0:0:
320,192,234809,128,0,235028:0:0:0:0:
64,192,235028,128,0,235247:0:0:0:0:
192,192,235028,1,0,0:0:0:0:
192,192,235247,1,0,0:0:0:0:
448,192,235247,1,0,0:0:0:0:
192,192,235393,1,0,0:0:0:0:
448,192,235393,1,0,0:0:0:0:
448,192,235539,1,0,0:0:0:0:
192,192,235539,1,0,0:0:0:0:
192,192,235685,1,0,0:0:0:0:
320,192,235685,1,0,0:0:0:0:
320,192,235831,1,0,0:0:0:0:
448,192,235831,1,0,0:0:0:0:
192,192,235977,1,0,0:0:0:0:
64,192,235977,1,0,0:0:0:0:
448,192,236123,1,0,0:0:0:0:
64,192,236123,1,0,0:0:0:0:
320,192,236123,128,0,236341:0:0:0:0:
192,192,236341,128,0,236560:0:0:0:0:
320,192,236560,1,0,0:0:0:0:
64,192,236560,128,0,236779:0:0:0:0:
192,192,236779,1,0,0:0:0:0:
448,192,236779,128,0,236998:0:0:0:0:
320,192,236998,128,0,237217:0:0:0:0:
64,192,237217,128,0,237436:0:0:0:0:
192,192,237217,1,0,0:0:0:0:
448,192,237436,1,0,0:0:0:0:
192,192,237436,128,0,237655:0:0:0:0:
320,192,237655,128,0,237874:0:0:0:0:
192,192,237874,128,0,238093:0:0:0:0:
448,192,237874,1,0,0:0:0:0:
64,192,238093,1,0,0:0:0:0:
448,192,238093,128,0,238312:0:0:0:0:
320,192,238312,128,0,238531:0:0:0:0:
64,192,238312,1,0,0:0:0:0:
64,192,238531,1,0,0:0:0:0:
192,192,238531,1,0,0:0:0:0:
448,192,238531,128,0,238750:0:0:0:0:
192,192,238641,1,0,0:0:0:0:
64,192,238750,1,0,0:0:0:0:
320,192,238750,128,0,238969:0:0:0:0:
192,192,238969,128,0,239188:0:0:0:0:
320,192,239188,128,0,239407:0:0:0:0:
448,192,239188,1,0,0:0:0:0:
64,192,239407,128,0,239626:0:0:0:0:
192,192,239407,1,0,0:0:0:0:
192,192,239626,128,0,239889:0:0:0:0:
448,192,239626,1,0,0:0:0:0:
64,192,239889,1,0,0:0:0:0:
448,192,239889,128,0,240136:0:0:0:0:
320,192,240136,128,0,240382:0:0:0:0:
64,192,240136,1,0,0:0:0:0:
64,192,240382,1,0,0:0:0:0:
192,192,240382,128,0,240645:0:0:0:0:
320,192,240503,1,0,0:0:0:0:
448,192,240503,1,0,0:0:0:0:
64,192,240645,128,0,240908:0:0:0:0:
192,192,240722,1,0,0:0:0:0:
320,192,240810,1,0,0:0:0:0:
448,192,240908,128,0,241204:0:0:0:0:
192,192,240908,1,0,0:0:0:0:
64,192,241056,1,0,0:0:0:0:
320,192,241204,128,0,241380:0:0:0:0:
192,192,241204,128,0,241380:0:0:0:0:
320,192,242439,1,0,0:0:0:0:
64,192,242439,128,0,242615:0:0:0:0:
448,192,242439,128,0,242615:0:0:0:0:
192,192,243674,1,0,0:0:0:0:
64,192,243674,128,0,243851:0:0:0:0:
320,192,243674,128,0,243851:0:0:0:0:
192,192,246144,1,0,0:0:0:0:
320,192,246232,1,0,0:0:0:0:
192,192,246320,1,0,0:0:0:0:
64,192,246320,128,0,246496:0:0:0:0:
448,192,246320,128,0,246496:0:0:0:0:
320,192,247555,1,0,0:0:0:0:
192,192,247555,128,0,247731:0:0:0:0:
448,192,247555,128,0,247731:0:0:0:0:
448,192,248790,1,0,0:0:0:0:
64,192,248790,128,0,248967:0:0:0:0:
320,192,248790,128,0,248967:0:0:0:0:
192,192,250554,1,0,0:0:0:0:
320,192,250642,1,0,0:0:0:0:
192,192,250730,1,0,0:0:0:0:
64,192,250730,1,0,0:0:0:0:
320,192,250819,1,0,0:0:0:0:
448,192,250819,1,0,0:0:0:0:
64,192,250907,1,0,0:0:0:0:
320,192,250995,1,0,0:0:0:0:
448,192,251083,128,0,251172:0:0:0:0:
192,192,251083,1,0,0:0:0:0:
64,192,251172,128,0,251260:0:0:0:0:
320,192,251172,1,0,0:0:0:0:
192,192,251260,128,0,251348:0:0:0:0:
448,192,251260,1,0,0:0:0:0:
320,192,251348,128,0,251436:0:0:0:0:
64,192,251436,1,0,0:0:0:0:
192,192,251436,1,0,0:0:0:0:
448,192,251436,1,0,0:0:0:0:
320,192,251612,1,0,0:0:0:0:
448,192,251788,1,0,0:0:0:0:
192,192,251788,1,0,0:0:0:0:
64,192,251788,1,0,0:0:0:0:
320,192,251965,1,0,0:0:0:0:
64,192,252053,1,0,0:0:0:0:
320,192,252141,1,0,0:0:0:0:
192,192,252318,1,0,0:0:0:0:
448,192,252494,1,0,0:0:0:0:
320,192,252494,1,0,0:0:0:0:
64,192,252494,1,0,0:0:0:0:
448,192,252671,128,0,252759:0:0:0:0:
64,192,252759,128,0,252847:0:0:0:0:
448,192,252847,1,0,0:0:0:0:
320,192,253024,1,0,0:0:0:0:
192,192,253024,1,0,0:0:0:0:
64,192,253024,1,0,0:0:0:0:
320,192,253200,1,0,0:0:0:0:
192,192,253288,1,0,0:0:0:0:
64,192,253377,1,0,0:0:0:0:
320,192,253553,1,0,0:0:0:0:
448,192,253553,1,0,0:0:0:0:
192,192,253553,1,0,0:0:0:0:
192,192,253730,1,0,0:0:0:0:
448,192,253906,128,0,254083:0:0:0:0:
320,192,254083,1,0,0:0:0:0:
192,192,254259,1,0,0:0:0:0:
64,192,254259,1,0,0:0:0:0:
448,192,254259,1,0,0:0:0:0:
320,192,254436,1,0,0:0:0:0:
192,192,254524,1,0,0:0:0:0:
64,192,254612,1,0,0:0:0:0:
448,192,254612,1,0,0:0:0:0:
320,192,254612,1,0,0:0:0:0:
192,192,254788,1,0,0:0:0:0:
64,192,254965,1,0,0:0:0:0:
320,192,255141,1,0,0:0:0:0:
448,192,255141,1,0,0:0:0:0:
192,192,255317,1,0,0:0:0:0:
64,192,255317,1,0,0:0:0:0:
320,192,255493,1,0,0:0:0:0:
192,192,255670,1,0,0:0:0:0:
320,192,255846,1,0,0:0:0:0:
64,192,255846,1,0,0:0:0:0:
192,192,256023,1,0,0:0:0:0:
448,192,256023,128,0,256552:0:0:0:0:
192,192,256199,1,0,0:0:0:0:
192,192,256376,1,0,0:0:0:0:
320,192,256464,1,0,0:0:0:0:
192,192,256552,1,0,0:0:0:0:
64,192,256552,1,0,0:0:0:0:
320,192,256728,1,0,0:0:0:0:
192,192,256904,1,0,0:0:0:0:
64,192,256904,1,0,0:0:0:0:
448,192,256904,1,0,0:0:0:0:
320,192,257081,1,0,0:0:0:0:
64,192,257169,1,0,0:0:0:0:
192,192,257257,1,0,0:0:0:0:
64,192,257434,1,0,0:0:0:0:
448,192,257610,1,0,0:0:0:0:
320,192,257610,1,0,0:0:0:0:
192,192,257610,1,0,0:0:0:0:
192,192,257787,128,0,257875:0:0:0:0:
320,192,257875,128,0,257963:0:0:0:0:
192,192,257963,1,0,0:0:0:0:
192,192,258140,1,0,0:0:0:0:
64,192,258140,1,0,0:0:0:0:
448,192,258140,1,0,0:0:0:0:
192,192,258316,1,0,0:0:0:0:
320,192,258316,1,0,0:0:0:0:
64,192,258404,1,0,0:0:0:0:
448,192,258493,1,0,0:0:0:0:
320,192,258669,1,0,0:0:0:0:
192,192,258669,1,0,0:0:0:0:
64,192,258669,1,0,0:0:0:0:
448,192,258846,1,0,0:0:0:0:
320,192,259022,128,0,259110:0:0:0:0:
64,192,259022,1,0,0:0:0:0:
192,192,259110,128,0,259199:0:0:0:0:
320,192,259199,1,0,0:0:0:0:
192,192,259375,1,0,0:0:0:0:
448,192,259375,1,0,0:0:0:0:
64,192,259375,1,0,0:0:0:0:
320,192,259552,1,0,0:0:0:0:
64,192,259640,1,0,0:0:0:0:
192,192,259728,1,0,0:0:0:0:
320,192,259728,1,0,0:0:0:0:
448,192,259728,1,0,0:0:0:0:
64,192,259904,1,0,0:0:0:0:
192,192,259904,1,0,0:0:0:0:
192,192,260081,1,0,0:0:0:0:
320,192,260081,1,0,0:0:0:0:
320,192,260257,1,0,0:0:0:0:
448,192,260257,1,0,0:0:0:0:
448,192,260433,1,0,0:0:0:0:
192,192,260433,1,0,0:0:0:0:
320,192,260609,1,0,0:0:0:0:
64,192,260609,1,0,0:0:0:0:
64,192,260786,1,0,0:0:0:0:
192,192,260786,1,0,0:0:0:0:
320,192,260874,1,0,0:0:0:0:
448,192,260962,1,0,0:0:0:0:
64,192,260963,1,0,0:0:0:0:
192,192,261051,1,0,0:0:0:0:
320,192,261139,1,0,0:0:0:0:
448,192,261139,1,0,0:0:0:0:
64,192,261227,1,0,0:0:0:0:
320,192,261316,1,0,0:0:0:0:
192,192,261316,1,0,0:0:0:0:
448,192,261404,1,0,0:0:0:0:
64,192,261492,1,0,0:0:0:0:
192,192,261492,1,0,0:0:0:0:
320,192,261580,1,0,0:0:0:0:
448,192,261668,1,0,0:0:0:0:
64,192,261669,1,0,0:0:0:0:
320,192,261844,1,0,0:0:0:0:
448,192,262020,1,0,0:0:0:0:
192,192,262020,1,0,0:0:0:0:
64,192,262020,1,0,0:0:0:0:
320,192,262197,1,0,0:0:0:0:
320,192,262373,1,0,0:0:0:0:
192,192,262373,1,0,0:0:0:0:
192,192,262550,1,0,0:0:0:0:
448,192,262726,1,0,0:0:0:0:
320,192,262726,1,0,0:0:0:0:
64,192,262726,1,0,0:0:0:0:
320,192,262903,1,0,0:0:0:0:
192,192,262903,1,0,0:0:0:0:
448,192,263079,1,0,0:0:0:0:
64,192,263079,1,0,0:0:0:0:
64,192,263256,1,0,0:0:0:0:
192,192,263256,1,0,0:0:0:0:
320,192,263256,1,0,0:0:0:0:
320,192,263432,1,0,0:0:0:0:
192,192,263520,1,0,0:0:0:0:
64,192,263609,1,0,0:0:0:0:
320,192,263785,1,0,0:0:0:0:
448,192,263785,1,0,0:0:0:0:
192,192,263785,1,0,0:0:0:0:
192,192,263962,1,0,0:0:0:0:
64,192,264138,1,0,0:0:0:0:
448,192,264138,1,0,0:0:0:0:
320,192,264315,1,0,0:0:0:0:
192,192,264491,1,0,0:0:0:0:
64,192,264491,1,0,0:0:0:0:
448,192,264491,1,0,0:0:0:0:
320,192,264668,1,0,0:0:0:0:
64,192,264668,1,0,0:0:0:0:
192,192,264756,1,0,0:0:0:0:
64,192,264844,1,0,0:0:0:0:
448,192,264844,1,0,0:0:0:0:
320,192,264844,1,0,0:0:0:0:
192,192,265020,1,0,0:0:0:0:
64,192,265197,1,0,0:0:0:0:
448,192,265373,1,0,0:0:0:0:
320,192,265373,1,0,0:0:0:0:
64,192,265549,1,0,0:0:0:0:
192,192,265549,1,0,0:0:0:0:
320,192,265725,1,0,0:0:0:0:
192,192,265725,1,0,0:0:0:0:
64,192,265902,1,0,0:0:0:0:
448,192,265902,1,0,0:0:0:0:
64,192,266078,1,0,0:0:0:0:
320,192,266078,1,0,0:0:0:0:
192,192,266255,1,0,0:0:0:0:
448,192,266255,128,0,266784:0:0:0:0:
192,192,266431,1,0,0:0:0:0:
192,192,266608,1,0,0:0:0:0:
64,192,266608,1,0,0:0:0:0:
320,192,266696,1,0,0:0:0:0:
192,192,266784,1,0,0:0:0:0:
64,192,266784,1,0,0:0:0:0:
320,192,266960,1,0,0:0:0:0:
64,192,267136,1,0,0:0:0:0:
448,192,267136,1,0,0:0:0:0:
192,192,267136,1,0,0:0:0:0:
320,192,267313,1,0,0:0:0:0:
448,192,267313,1,0,0:0:0:0:
64,192,267401,1,0,0:0:0:0:
192,192,267489,1,0,0:0:0:0:
320,192,267489,1,0,0:0:0:0:
64,192,267666,1,0,0:0:0:0:
320,192,267842,1,0,0:0:0:0:
448,192,267842,1,0,0:0:0:0:
192,192,267842,1,0,0:0:0:0:
192,192,268019,1,0,0:0:0:0:
64,192,268019,1,0,0:0:0:0:
320,192,268107,1,0,0:0:0:0:
192,192,268195,1,0,0:0:0:0:
448,192,268195,1,0,0:0:0:0:
320,192,268283,1,0,0:0:0:0:
448,192,268371,1,0,0:0:0:0:
64,192,268371,1,0,0:0:0:0:
192,192,268460,1,0,0:0:0:0:
320,192,268548,1,0,0:0:0:0:
64,192,268548,1,0,0:0:0:0:
192,192,268636,1,0,0:0:0:0:
448,192,268724,1,0,0:0:0:0:
320,192,268724,1,0,0:0:0:0:
64,192,268724,1,0,0:0:0:0:
192,192,268901,1,0,0:0:0:0:
64,192,269077,1,0,0:0:0:0:
448,192,269077,1,0,0:0:0:0:
320,192,269264,1,0,0:0:0:0:
64,192,269264,1,0,0:0:0:0:
320,192,269452,1,0,0:0:0:0:
448,192,269452,1,0,0:0:0:0:
192,192,269452,1,0,0:0:0:0:
320,192,269592,1,0,0:0:0:0:
448,192,269592,1,0,0:0:0:0:
192,192,269709,1,0,0:0:0:0:
64,192,269709,1,0,0:0:0:0:
320,192,269827,1,0,0:0:0:0:
448,192,269827,1,0,0:0:0:0:
320,192,270014,1,0,0:0:0:0:
192,192,270014,1,0,0:0:0:0:
64,192,270014,1,0,0:0:0:0:
64,192,270202,1,0,0:0:0:0:
448,192,270202,1,0,0:0:0:0:
320,192,270202,1,0,0:0:0:0:
192,192,270396,1,0,0:0:0:0:
448,192,270396,1,0,0:0:0:0:
320,192,270602,1,0,0:0:0:0:
64,192,270602,1,0,0:0:0:0:
64,192,270809,1,0,0:0:0:0:
320,192,270809,1,0,0:0:0:0:
64,192,271016,1,0,0:0:0:0:
320,192,271085,1,0,0:0:0:0:
192,192,271154,1,0,0:0:0:0:
448,192,271223,1,0,0:0:0:0:
64,192,271223,1,0,0:0:0:0:
320,192,271430,1,0,0:0:0:0:
448,192,271430,1,0,0:0:0:0:
64,192,271430,1,0,0:0:0:0:
192,192,271637,1,0,0:0:0:0:
448,192,271637,1,0,0:0:0:0:
448,192,271844,1,0,0:0:0:0:
192,192,271844,1,0,0:0:0:0:
320,192,272051,1,0,0:0:0:0:
448,192,272051,1,0,0:0:0:0:
64,192,272051,1,0,0:0:0:0:
192,192,272258,1,0,0:0:0:0:
320,192,272258,1,0,0:0:0:0:
320,192,272464,1,0,0:0:0:0:
192,192,272464,1,0,0:0:0:0:
64,192,272671,1,0,0:0:0:0:
192,192,272740,1,0,0:0:0:0:
320,192,272809,1,0,0:0:0:0:
448,192,272878,1,0,0:0:0:0:
64,192,272878,1,0,0:0:0:0:
192,192,273085,1,0,0:0:0:0:
64,192,273085,1,0,0:0:0:0:
192,192,273396,1,0,0:0:0:0:
320,192,273396,1,0,0:0:0:0:
448,192,273706,1,0,0:0:0:0:
192,192,273706,1,0,0:0:0:0:
64,192,273706,1,0,0:0:0:0:
320,192,273913,1,0,0:0:0:0:
64,192,274016,1,0,0:0:0:0:
192,192,274120,1,0,0:0:0:0:
448,192,274120,1,0,0:0:0:0:
64,192,274223,1,0,0:0:0:0:
192,192,274430,1,0,0:0:0:0:
448,192,274430,1,0,0:0:0:0:
192,192,274637,1,0,0:0:0:0:
448,192,274637,1,0,0:0:0:0:
192,192,274844,1,0,0:0:0:0:
64,192,274947,1,0,0:0:0:0:
448,192,274947,1,0,0:0:0:0:
320,192,274947,1,0,0:0:0:0:
192,192,275051,1,0,0:0:0:0:
320,192,275154,128,0,275568:0:0:0:0:
448,192,275258,1,0,0:0:0:0:
192,192,275361,1,0,0:0:0:0:
64,192,275361,1,0,0:0:0:0:
192,192,275568,128,0,275775:0:0:0:0:
448,192,275568,1,0,0:0:0:0:
64,192,275671,1,0,0:0:0:0:
448,192,275775,1,0,0:0:0:0:
320,192,275775,128,0,275982:0:0:0:0:
448,192,275982,1,0,0:0:0:0:
192,192,275982,128,0,276189:0:0:0:0:
64,192,276085,1,0,0:0:0:0:
64,192,276292,1,0,0:0:0:0:
320,192,276292,128,0,276602:0:0:0:0:
64,192,276499,1,0,0:0:0:0:
192,192,276602,1,0,0:0:0:0:
448,192,276602,128,0,277016:0:0:0:0:
64,192,276706,1,0,0:0:0:0:
64,192,276809,1,0,0:0:0:0:
320,192,276809,1,0,0:0:0:0:
192,192,276913,1,0,0:0:0:0:
64,192,277016,1,0,0:0:0:0:
320,192,277016,1,0,0:0:0:0:
448,192,277223,1,0,0:0:0:0:
320,192,277327,1,0,0:0:0:0:
448,192,277430,1,0,0:0:0:0:
192,192,277430,1,0,0:0:0:0:
64,192,277430,1,0,0:0:0:0:
320,192,277533,1,0,0:0:0:0:
64,192,277740,1,0,0:0:0:0:
320,192,277740,1,0,0:0:0:0:
64,192,277947,1,0,0:0:0:0:
320,192,277947,1,0,0:0:0:0:
192,192,278154,1,0,0:0:0:0:
448,192,278258,1,0,0:0:0:0:
320,192,278258,1,0,0:0:0:0:
64,192,278361,1,0,0:0:0:0:
320,192,278464,128,0,278878:0:0:0:0:
448,192,278464,1,0,0:0:0:0:
192,192,278568,1,0,0:0:0:0:
448,192,278671,1,0,0:0:0:0:
64,192,278671,1,0,0:0:0:0:
64,192,278878,128,0,279085:0:0:0:0:
320,192,278982,1,0,0:0:0:0:
192,192,279085,128,0,279292:0:0:0:0:
448,192,279085,1,0,0:0:0:0:
448,192,279292,128,0,279706:0:0:0:0:
192,192,279396,1,0,0:0:0:0:
320,192,279396,1,0,0:0:0:0:
192,192,279499,1,0,0:0:0:0:
64,192,279499,1,0,0:0:0:0:
320,192,279602,1,0,0:0:0:0:
192,192,279706,1,0,0:0:0:0:
64,192,279706,128,0,280016:0:0:0:0:
320,192,279809,1,0,0:0:0:0:
448,192,279913,1,0,0:0:0:0:
192,192,279913,1,0,0:0:0:0:
320,192,280016,1,0,0:0:0:0:
192,192,280120,1,0,0:0:0:0:
64,192,280120,1,0,0:0:0:0:
320,192,280223,1,0,0:0:0:0:
448,192,280327,1,0,0:0:0:0:
64,192,280327,1,0,0:0:0:0:
192,192,280327,1,0,0:0:0:0:
320,192,280533,1,0,0:0:0:0:
64,192,280637,1,0,0:0:0:0:
192,192,280740,1,0,0:0:0:0:
448,192,280740,1,0,0:0:0:0:
320,192,280740,1,0,0:0:0:0:
64,192,280844,1,0,0:0:0:0:
64,192,281051,1,0,0:0:0:0:
320,192,281051,1,0,0:0:0:0:
64,192,281258,1,0,0:0:0:0:
320,192,281258,1,0,0:0:0:0:
192,192,281464,1,0,0:0:0:0:
64,192,281568,1,0,0:0:0:0:
320,192,281568,1,0,0:0:0:0:
448,192,281671,1,0,0:0:0:0:
192,192,281775,128,0,282189:0:0:0:0:
320,192,281878,1,0,0:0:0:0:
64,192,281982,1,0,0:0:0:0:
448,192,281982,1,0,0:0:0:0:
320,192,282189,128,0,282396:0:0:0:0:
448,192,282189,1,0,0:0:0:0:
64,192,282292,1,0,0:0:0:0:
192,192,282396,128,0,282602:0:0:0:0:
448,192,282396,1,0,0:0:0:0:
320,192,282602,128,0,282809:0:0:0:0:
64,192,282602,1,0,0:0:0:0:
448,192,282706,1,0,0:0:0:0:
192,192,282913,128,0,283120:0:0:0:0:
448,192,282913,1,0,0:0:0:0:
448,192,283120,1,0,0:0:0:0:
64,192,283223,128,0,283533:0:0:0:0:
320,192,283327,1,0,0:0:0:0:
192,192,283430,1,0,0:0:0:0:
448,192,283430,1,0,0:0:0:0:
320,192,283533,1,0,0:0:0:0:
64,192,283637,1,0,0:0:0:0:
448,192,283637,1,0,0:0:0:0:
192,192,283637,1,0,0:0:0:0:
192,192,283844,1,0,0:0:0:0:
320,192,283947,1,0,0:0:0:0:
448,192,284051,1,0,0:0:0:0:
192,192,284051,1,0,0:0:0:0:
64,192,284051,1,0,0:0:0:0:
320,192,284154,1,0,0:0:0:0:
192,192,284361,1,0,0:0:0:0:
448,192,284361,1,0,0:0:0:0:
64,192,284568,1,0,0:0:0:0:
448,192,284568,1,0,0:0:0:0:
192,192,284775,1,0,0:0:0:0:
64,192,284878,1,0,0:0:0:0:
320,192,284878,1,0,0:0:0:0:
448,192,284982,1,0,0:0:0:0:
64,192,285085,128,0,285396:0:0:0:0:
192,192,285085,1,0,0:0:0:0:
320,192,285189,1,0,0:0:0:0:
448,192,285292,1,0,0:0:0:0:
192,192,285292,1,0,0:0:0:0:
192,192,285499,128,0,285602:0:0:0:0:
448,192,285499,1,0,0:0:0:0:
64,192,285602,1,0,0:0:0:0:
320,192,285706,128,0,285809:0:0:0:0:
448,192,285706,1,0,0:0:0:0:
192,192,285809,1,0,0:0:0:0:
448,192,285913,128,0,286327:0:0:0:0:
64,192,285913,1,0,0:0:0:0:
320,192,286016,1,0,0:0:0:0:
192,192,286016,1,0,0:0:0:0:
192,192,286223,1,0,0:0:0:0:
64,192,286223,1,0,0:0:0:0:
320,192,286327,1,0,0:0:0:0:
192,192,286396,1,0,0:0:0:0:
64,192,286464,1,0,0:0:0:0:
448,192,286533,1,0,0:0:0:0:
320,192,286602,1,0,0:0:0:0:
64,192,286671,1,0,0:0:0:0:
448,192,286740,1,0,0:0:0:0:
192,192,286809,1,0,0:0:0:0:
64,192,286878,1,0,0:0:0:0:
320,192,286940,1,0,0:0:0:0:
448,192,286940,128,0,287147:0:0:0:0:
64,192,287147,128,0,287354:0:0:0:0:
192,192,287354,1,0,0:0:0:0:
320,192,287354,128,0,287561:0:0:0:0:
64,192,287561,128,0,287768:0:0:0:0:
448,192,287768,1,0,0:0:0:0:
192,192,287768,128,0,288078:0:0:0:0:
448,192,288078,1,0,0:0:0:0:
320,192,288078,1,0,0:0:0:0:
64,192,288078,128,0,288389:0:0:0:0:
192,192,288389,1,0,0:0:0:0:
448,192,288389,1,0,0:0:0:0:
448,192,288595,128,0,288802:0:0:0:0:
192,192,288802,128,0,289009:0:0:0:0:
64,192,288802,1,0,0:0:0:0:
448,192,289009,128,0,289216:0:0:0:0:
192,192,289216,1,0,0:0:0:0:
320,192,289216,128,0,289423:0:0:0:0:
64,192,289423,1,0,0:0:0:0:
192,192,289526,1,0,0:0:0:0:
448,192,289526,1,0,0:0:0:0:
320,192,289733,1,0,0:0:0:0:
64,192,289837,1,0,0:0:0:0:
448,192,289837,128,0,290044:0:0:0:0:
64,192,290044,128,0,290251:0:0:0:0:
320,192,290251,128,0,290457:0:0:0:0:
448,192,290251,1,0,0:0:0:0:
64,192,290457,128,0,290664:0:0:0:0:
448,192,290664,1,0,0:0:0:0:
192,192,290671,128,0,290981:0:0:0:0:
64,192,290981,128,0,291336:0:0:0:0:
448,192,290981,1,0,0:0:0:0:
320,192,290981,1,0,0:0:0:0:
448,192,291284,1,0,0:0:0:0:
320,192,291284,1,0,0:0:0:0:
64,192,291388,1,0,0:0:0:0:
192,192,291388,1,0,0:0:0:0:
448,192,291491,1,0,0:0:0:0:
320,192,291491,1,0,0:0:0:0:
192,192,291595,1,0,0:0:0:0:
64,192,291595,1,0,0:0:0:0:
448,192,291595,1,0,0:0:0:0:
192,192,291905,1,0,0:0:0:0:
320,192,291905,1,0,0:0:0:0:
448,192,292008,1,0,0:0:0:0:
64,192,292008,1,0,0:0:0:0:
320,192,292112,1,0,0:0:0:0:
192,192,292112,1,0,0:0:0:0:
192,192,292215,1,0,0:0:0:0:
448,192,292215,1,0,0:0:0:0:
64,192,292215,1,0,0:0:0:0:
320,192,292526,1,0,0:0:0:0:
64,192,292526,1,0,0:0:0:0:
192,192,292629,1,0,0:0:0:0:
448,192,292629,1,0,0:0:0:0:
320,192,292733,1,0,0:0:0:0:
64,192,292733,1,0,0:0:0:0:
448,192,292836,1,0,0:0:0:0:
192,192,292836,1,0,0:0:0:0:
320,192,292836,1,0,0:0:0:0:
64,192,292939,1,0,0:0:0:0:
320,192,293043,1,0,0:0:0:0:
448,192,293146,1,0,0:0:0:0:
192,192,293146,1,0,0:0:0:0:
320,192,293250,1,0,0:0:0:0:
64,192,293250,1,0,0:0:0:0:
448,192,293353,1,0,0:0:0:0:
192,192,293353,1,0,0:0:0:0:
64,192,293353,1,0,0:0:0:0:
192,192,293663,1,0,0:0:0:0:
64,192,293663,1,0,0:0:0:0:
448,192,293767,1,0,0:0:0:0:
320,192,293767,1,0,0:0:0:0:
192,192,293870,1,0,0:0:0:0:
64,192,293870,1,0,0:0:0:0:
64,192,293974,1,0,0:0:0:0:
448,192,293974,1,0,0:0:0:0:
320,192,293974,1,0,0:0:0:0:
192,192,294077,1,0,0:0:0:0:
64,192,294187,1,0,0:0:0:0:
320,192,294187,1,0,0:0:0:0:
320,192,294325,1,0,0:0:0:0:
448,192,294325,1,0,0:0:0:0:
64,192,294463,1,0,0:0:0:0:
192,192,294463,1,0,0:0:0:0:
448,192,294463,1,0,0:0:0:0:
192,192,294601,1,0,0:0:0:0:
320,192,294601,1,0,0:0:0:0:
64,192,294739,1,0,0:0:0:0:
192,192,294739,1,0,0:0:0:0:
320,192,294877,1,0,0:0:0:0:
448,192,294877,1,0,0:0:0:0:
64,192,294877,1,0,0:0:0:0:
64,192,295014,1,0,0:0:0:0:
192,192,295014,1,0,0:0:0:0:
448,192,295014,1,0,0:0:0:0:
320,192,295232,1,0,0:0:0:0:
192,192,295451,1,0,0:0:0:0:
192,192,295670,1,0,0:0:0:0:
448,192,295670,1,0,0:0:0:0:
64,192,295889,1,0,0:0:0:0:
64,192,296108,1,0,0:0:0:0:
192,192,296327,1,0,0:0:0:0:
448,192,296327,1,0,0:0:0:0:
320,192,296546,1,0,0:0:0:0:
64,192,296765,1,0,0:0:0:0:
448,192,296765,1,0,0:0:0:0:
320,192,296911,1,0,0:0:0:0:
192,192,297057,1,0,0:0:0:0:
64,192,297203,1,0,0:0:0:0:
448,192,297203,1,0,0:0:0:0:
320,192,297422,1,0,0:0:0:0:
192,192,297641,1,0,0:0:0:0:
192,192,297860,1,0,0:0:0:0:
448,192,297860,1,0,0:0:0:0:
64,192,298079,1,0,0:0:0:0:
64,192,298298,1,0,0:0:0:0:
192,192,298517,1,0,0:0:0:0:
448,192,298517,1,0,0:0:0:0:
320,192,298736,1,0,0:0:0:0:
448,192,298955,1,0,0:0:0:0:
64,192,298955,1,0,0:0:0:0:
192,192,299174,1,0,0:0:0:0:
64,192,299174,1,0,0:0:0:0:
448,192,299284,1,0,0:0:0:0:
320,192,299284,1,0,0:0:0:0:
448,192,299393,1,0,0:0:0:0:
64,192,299393,1,0,0:0:0:0:
192,192,299393,1,0,0:0:0:0:
320,192,299612,1,0,0:0:0:0:
64,192,299722,1,0,0:0:0:0:
448,192,299831,1,0,0:0:0:0:
320,192,299831,1,0,0:0:0:0:
192,192,299831,1,0,0:0:0:0:
192,192,300050,1,0,0:0:0:0:
64,192,300269,1,0,0:0:0:0:
320,192,300378,1,0,0:0:0:0:
448,192,300488,1,0,0:0:0:0:
64,192,300488,1,0,0:0:0:0:
192,192,300488,1,0,0:0:0:0:
192,192,300707,1,0,0:0:0:0:
320,192,300926,1,0,0:0:0:0:
448,192,301145,1,0,0:0:0:0:
64,192,301145,1,0,0:0:0:0:
192,192,301145,1,0,0:0:0:0:
320,192,301291,1,0,0:0:0:0:
192,192,301437,1,0,0:0:0:0:
64,192,301579,1,0,0:0:0:0:
448,192,301579,1,0,0:0:0:0:
320,192,301798,1,0,0:0:0:0:
448,192,301908,1,0,0:0:0:0:
64,192,302017,1,0,0:0:0:0:
192,192,302017,1,0,0:0:0:0:
320,192,302017,1,0,0:0:0:0:
448,192,302127,1,0,0:0:0:0:
192,192,302236,1,0,0:0:0:0:
320,192,302236,1,0,0:0:0:0:
64,192,302455,1,0,0:0:0:0:
320,192,302565,1,0,0:0:0:0:
448,192,302674,1,0,0:0:0:0:
64,192,302674,1,0,0:0:0:0:
192,192,302674,1,0,0:0:0:0:
320,192,302784,1,0,0:0:0:0:
64,192,302893,1,0,0:0:0:0:
448,192,302893,1,0,0:0:0:0:
320,192,303112,1,0,0:0:0:0:
192,192,303222,1,0,0:0:0:0:
64,192,303334,1,0,0:0:0:0:
448,192,303362,1,0,0:0:0:0:
320,192,303362,1,0,0:0:0:0:
320,192,303499,1,0,0:0:0:0:
192,192,303499,1,0,0:0:0:0:
192,192,303632,1,0,0:0:0:0:
64,192,303632,1,0,0:0:0:0:
64,192,303769,1,0,0:0:0:0:
448,192,303769,128,0,304206:0:0:0:0:
320,192,303769,1,0,0:0:0:0:
64,192,304206,1,0,0:0:0:0:
320,192,304206,128,0,304644:0:0:0:0:
448,192,304535,1,0,0:0:0:0:
192,192,304644,1,0,0:0:0:0:
64,192,304644,1,0,0:0:0:0:
320,192,304863,1,0,0:0:0:0:
192,192,304973,1,0,0:0:0:0:
448,192,305082,1,0,0:0:0:0:
320,192,305192,1,0,0:0:0:0:
64,192,305301,1,0,0:0:0:0:
320,192,305383,1,0,0:0:0:0:
192,192,305438,1,0,0:0:0:0:
320,192,305520,1,0,0:0:0:0:
448,192,305602,1,0,0:0:0:0:
320,192,305657,1,0,0:0:0:0:
192,192,305739,1,0,0:0:0:0:
64,192,305821,1,0,0:0:0:0:
192,192,305958,1,0,0:0:0:0:
448,192,306095,1,0,0:0:0:0:
320,192,306095,1,0,0:0:0:0:
64,192,306259,1,0,0:0:0:0:
192,192,306259,1,0,0:0:0:0:
448,192,306396,1,0,0:0:0:0:
320,192,306396,128,0,306724:0:0:0:0:
448,192,306724,128,0,307491:0:0:0:0:
64,192,306724,1,0,0:0:0:0:
192,192,306834,1,0,0:0:0:0:
320,192,306834,1,0,0:0:0:0:
64,192,307053,1,0,0:0:0:0:
320,192,307272,1,0,0:0:0:0:
192,192,307491,1,0,0:0:0:0:
64,192,307491,1,0,0:0:0:0:
448,192,307713,128,0,307932:0:0:0:0:
320,192,307932,128,0,308042:0:0:0:0:
64,192,307932,1,0,0:0:0:0:
192,192,308042,128,0,308151:0:0:0:0:
448,192,308151,1,0,0:0:0:0:
64,192,308151,128,0,308297:0:0:0:0:
192,192,308297,128,0,308443:0:0:0:0:
448,192,308443,128,0,308589:0:0:0:0:
320,192,308586,128,0,309681:0:0:0:0:
64,192,308586,1,0,0:0:0:0:
448,192,308914,1,0,0:0:0:0:
64,192,309024,1,0,0:0:0:0:
192,192,309024,1,0,0:0:0:0:
448,192,309243,1,0,0:0:0:0:
64,192,309462,1,0,0:0:0:0:
448,192,309571,1,0,0:0:0:0:
192,192,309681,1,0,0:0:0:0:
64,192,309681,1,0,0:0:0:0:
64,192,309900,128,0,310119:0:0:0:0:
320,192,309900,1,0,0:0:0:0:
192,192,310119,128,0,310338:0:0:0:0:
448,192,310119,1,0,0:0:0:0:
64,192,310228,1,0,0:0:0:0:
320,192,310338,1,0,0:0:0:0:
448,192,310338,1,0,0:0:0:0:
192,192,310502,128,0,310666:0:0:0:0:
448,192,310557,1,0,0:0:0:0:
320,192,310557,1,0,0:0:0:0:
64,192,310666,128,0,310776:0:0:0:0:
320,192,310666,1,0,0:0:0:0:
448,192,310666,1,0,0:0:0:0:
448,192,310776,128,0,310995:0:0:0:0:
192,192,310776,1,0,0:0:0:0:
192,192,310993,1,0,0:0:0:0:
448,192,311106,1,0,0:0:0:0:
64,192,311207,1,0,0:0:0:0:
192,192,311289,1,0,0:0:0:0:
320,192,311362,1,0,0:0:0:0:
448,192,311435,1,0,0:0:0:0:
192,192,311508,1,0,0:0:0:0:
320,192,311581,1,0,0:0:0:0:
64,192,311654,1,0,0:0:0:0:
320,192,311800,1,0,0:0:0:0:
192,192,311946,1,0,0:0:0:0:
448,192,312092,1,0,0:0:0:0:
64,192,312165,1,0,0:0:0:0:
320,192,312238,1,0,0:0:0:0:
448,192,312311,1,0,0:0:0:0:
192,192,312384,1,0,0:0:0:0:
64,192,312457,1,0,0:0:0:0:
320,192,312530,1,0,0:0:0:0:
448,192,312603,1,0,0:0:0:0:
192,192,312695,1,0,0:0:0:0:
64,192,312777,1,0,0:0:0:0:
320,192,312887,1,0,0:0:0:0:
192,192,313044,1,0,0:0:0:0:
448,192,313044,1,0,0:0:0:0:
320,192,313219,1,0,0:0:0:0:
64,192,313219,1,0,0:0:0:0:
448,192,313381,1,0,0:0:0:0:
192,192,313381,1,0,0:0:0:0:
320,192,313569,1,0,0:0:0:0:
448,192,313569,1,0,0:0:0:0:
64,192,313569,1,0,0:0:0:0:
192,192,313773,1,0,0:0:0:0:
320,192,313773,1,0,0:0:0:0:
64,192,313977,1,0,0:0:0:0:
192,192,313977,1,0,0:0:0:0:
192,192,314181,1,0,0:0:0:0:
448,192,314181,1,0,0:0:0:0:
448,192,314416,1,0,0:0:0:0:
64,192,314416,1,0,0:0:0:0:
64,192,314651,1,0,0:0:0:0:
320,192,314651,1,0,0:0:0:0:
448,192,314886,128,0,315175:0:0:0:0:
64,192,314886,1,0,0:0:0:0:
192,192,314886,1,0,0:0:0:0:
192,192,315175,1,0,0:0:0:0:
320,192,315248,1,0,0:0:0:0:
192,192,315320,1,0,0:0:0:0:
64,192,315465,128,0,315683:0:0:0:0:
192,192,315753,128,0,316994:0:0:0:0:
64,192,315753,128,0,316994:0:0:0:0:
448,192,315753,1,0,0:0:0:0:
320,192,316994,1,0,0:0:0:0:
448,192,317201,128,0,318649:0:0:0:0:
192,192,317201,128,0,318649:0:0:0:0:
64,192,317201,1,0,0:0:0:0:
320,192,318649,1,0,0:0:0:0:
64,192,318753,1,0,0:0:0:0:
192,192,318856,1,0,0:0:0:0:
448,192,318959,1,0,0:0:0:0:
192,192,319063,1,0,0:0:0:0:
320,192,319063,128,0,320304:0:0:0:0:
64,192,319063,128,0,320304:0:0:0:0:
192,192,320304,1,0,0:0:0:0:
64,192,320511,128,0,321132:0:0:0:0:
448,192,320511,128,0,321132:0:0:0:0:
320,192,320511,1,0,0:0:0:0:
192,192,321132,1,0,0:0:0:0:
64,192,321235,1,0,0:0:0:0:
448,192,321339,128,0,321753:0:0:0:0:
320,192,321339,128,0,321753:0:0:0:0:
64,192,321753,1,0,0:0:0:0:
448,192,321856,1,0,0:0:0:0:
192,192,321959,128,0,322166:0:0:0:0:
320,192,321959,128,0,322166:0:0:0:0:
64,192,322063,1,0,0:0:0:0:
448,192,322166,1,0,0:0:0:0:
320,192,322270,1,0,0:0:0:0:
192,192,322373,128,0,323615:0:0:0:0:
64,192,322373,128,0,323615:0:0:0:0:
448,192,322373,1,0,0:0:0:0:
320,192,323615,1,0,0:0:0:0:
448,192,323821,128,0,325270:0:0:0:0:
192,192,323821,128,0,325270:0:0:0:0:
64,192,323821,1,0,0:0:0:0:
320,192,325270,1,0,0:0:0:0:
64,192,325373,1,0,0:0:0:0:
448,192,325477,1,0,0:0:0:0:
192,192,325580,1,0,0:0:0:0:
64,192,325684,128,0,326925:0:0:0:0:
320,192,325684,128,0,326304:0:0:0:0:
448,192,325684,1,0,0:0:0:0:
192,192,326304,1,0,0:0:0:0:
448,192,326304,128,0,326925:0:0:0:0:
320,192,326925,1,0,0:0:0:0:
192,192,326925,1,0,0:0:0:0:
64,192,327132,128,0,327753:0:0:0:0:
192,192,327132,128,0,327753:0:0:0:0:
320,192,327132,1,0,0:0:0:0:
448,192,327753,1,0,0:0:0:0:
64,192,327856,1,0,0:0:0:0:
320,192,327959,128,0,328373:0:0:0:0:
448,192,327959,128,0,328373:0:0:0:0:
192,192,328373,1,0,0:0:0:0:
64,192,328373,128,0,328477:0:0:0:0:
320,192,328477,1,0,0:0:0:0:
448,192,328477,128,0,328580:0:0:0:0:
192,192,328580,1,0,0:0:0:0:
64,192,328580,128,0,328684:0:0:0:0:
320,192,328684,1,0,0:0:0:0:
448,192,328684,128,0,328787:0:0:0:0:
192,192,328787,1,0,0:0:0:0:
64,192,328787,128,0,328890:0:0:0:0:
320,192,328890,1,0,0:0:0:0:
448,192,328890,128,0,328994:0:0:0:0:
64,192,328994,128,0,330235:0:0:0:0:
192,192,328994,128,0,330235:0:0:0:0:
448,192,329408,1,0,0:0:0:0:
320,192,329821,1,0,0:0:0:0:
320,192,330235,1,0,0:0:0:0:
448,192,330442,128,0,331890:0:0:0:0:
192,192,330442,128,0,331890:0:0:0:0:
64,192,330442,1,0,0:0:0:0:
64,192,330856,1,0,0:0:0:0:
320,192,331063,1,0,0:0:0:0:
64,192,331063,1,0,0:0:0:0:
320,192,331270,1,0,0:0:0:0:
64,192,331373,1,0,0:0:0:0:
320,192,331477,1,0,0:0:0:0:
64,192,331684,1,0,0:0:0:0:
320,192,331890,1,0,0:0:0:0:
64,192,331994,1,0,0:0:0:0:
448,192,332097,1,0,0:0:0:0:
192,192,332201,1,0,0:0:0:0:
64,192,332304,128,0,333546:0:0:0:0:
320,192,332304,128,0,333546:0:0:0:0:
448,192,332304,1,0,0:0:0:0:
448,192,332511,1,0,0:0:0:0:
192,192,332615,1,0,0:0:0:0:
192,192,332718,1,0,0:0:0:0:
448,192,332718,1,0,0:0:0:0:
192,192,332925,1,0,0:0:0:0:
448,192,333132,1,0,0:0:0:0:
448,192,333442,1,0,0:0:0:0:
192,192,333494,1,0,0:0:0:0:
448,192,333546,1,0,0:0:0:0:
448,192,333753,128,0,334373:0:0:0:0:
320,192,333753,1,0,0:0:0:0:
64,192,333753,128,0,334373:0:0:0:0:
320,192,334166,1,0,0:0:0:0:
192,192,334166,1,0,0:0:0:0:
192,192,334373,1,0,0:0:0:0:
64,192,334477,1,0,0:0:0:0:
448,192,334580,128,0,334994:0:0:0:0:
320,192,334580,128,0,334994:0:0:0:0:
192,192,334580,1,0,0:0:0:0:
192,192,334787,1,0,0:0:0:0:
64,192,334787,1,0,0:0:0:0:
64,192,334890,1,0,0:0:0:0:
192,192,334890,1,0,0:0:0:0:
64,192,335097,1,0,0:0:0:0:
320,192,335201,128,0,335408:0:0:0:0:
192,192,335201,128,0,335408:0:0:0:0:
448,192,335304,1,0,0:0:0:0:
64,192,335408,1,0,0:0:0:0:
320,192,335511,1,0,0:0:0:0:
448,192,335615,1,0,0:0:0:0:
64,192,335615,128,0,336856:0:0:0:0:
192,192,335615,128,0,336856:0:0:0:0:
448,192,335925,1,0,0:0:0:0:
320,192,336028,1,0,0:0:0:0:
448,192,336235,1,0,0:0:0:0:
320,192,336442,1,0,0:0:0:0:
320,192,336649,1,0,0:0:0:0:
448,192,336856,1,0,0:0:0:0:
320,192,336856,1,0,0:0:0:0:
192,192,337063,128,0,338511:0:0:0:0:
448,192,337063,128,0,338511:0:0:0:0:
64,192,337373,1,0,0:0:0:0:
64,192,337477,1,0,0:0:0:0:
64,192,337684,1,0,0:0:0:0:
320,192,337684,1,0,0:0:0:0:
320,192,337890,1,0,0:0:0:0:
64,192,338097,1,0,0:0:0:0:
320,192,338097,1,0,0:0:0:0:
320,192,338304,1,0,0:0:0:0:
320,192,338408,1,0,0:0:0:0:
64,192,338511,1,0,0:0:0:0:
320,192,338615,1,0,0:0:0:0:
64,192,338718,1,0,0:0:0:0:
448,192,338718,1,0,0:0:0:0:
192,192,338821,1,0,0:0:0:0:
320,192,338925,128,0,339339:0:0:0:0:
64,192,338925,128,0,340166:0:0:0:0:
448,192,338925,1,0,0:0:0:0:
448,192,339235,1,0,0:0:0:0:
448,192,339339,1,0,0:0:0:0:
192,192,339339,1,0,0:0:0:0:
192,192,339546,128,0,339959:0:0:0:0:
448,192,339753,1,0,0:0:0:0:
448,192,340063,1,0,0:0:0:0:
192,192,340115,1,0,0:0:0:0:
448,192,340166,1,0,0:0:0:0:
448,192,340373,128,0,340994:0:0:0:0:
192,192,340373,1,0,0:0:0:0:
64,192,340373,128,0,340994:0:0:0:0:
192,192,340787,1,0,0:0:0:0:
320,192,340787,1,0,0:0:0:0:
320,192,340994,1,0,0:0:0:0:
192,192,341097,1,0,0:0:0:0:
320,192,341201,128,0,341511:0:0:0:0:
448,192,341201,128,0,341615:0:0:0:0:
64,192,341201,1,0,0:0:0:0:
320,192,341615,128,0,342235:0:0:0:0:
64,192,341615,1,0,0:0:0:0:
192,192,341615,128,0,342132:0:0:0:0:
448,192,341821,1,0,0:0:0:0:
448,192,341977,1,0,0:0:0:0:
448,192,342132,1,0,0:0:0:0:
192,192,342235,128,0,342649:0:0:0:0:
64,192,342235,128,0,342649:0:0:0:0:
448,192,342649,1,0,0:0:0:0:
320,192,342649,1,0,0:0:0:0:
64,192,342753,1,0,0:0:0:0:
192,192,342856,1,0,0:0:0:0:
448,192,342856,1,0,0:0:0:0:
320,192,342959,1,0,0:0:0:0:
64,192,343063,1,0,0:0:0:0:
448,192,343063,1,0,0:0:0:0:
320,192,343166,1,0,0:0:0:0:
192,192,343270,1,0,0:0:0:0:
64,192,343373,1,0,0:0:0:0:
192,192,343425,1,0,0:0:0:0:
320,192,343477,1,0,0:0:0:0:
448,192,343477,1,0,0:0:0:0:
192,192,343684,128,0,344097:0:0:0:0:
448,192,343684,128,0,344097:0:0:0:0:
64,192,343684,1,0,0:0:0:0:
64,192,344097,1,0,0:0:0:0:
64,192,344304,1,0,0:0:0:0:
448,192,344304,1,0,0:0:0:0:
192,192,344304,1,0,0:0:0:0:
320,192,344408,1,0,0:0:0:0:
448,192,344511,1,0,0:0:0:0:
192,192,344511,1,0,0:0:0:0:
64,192,344615,1,0,0:0:0:0:
320,192,344718,1,0,0:0:0:0:
64,192,344718,1,0,0:0:0:0:
448,192,344821,1,0,0:0:0:0:
64,192,344925,1,0,0:0:0:0:
192,192,344925,1,0,0:0:0:0:
448,192,345028,1,0,0:0:0:0:
320,192,345132,1,0,0:0:0:0:
64,192,345132,1,0,0:0:0:0:
448,192,345235,1,0,0:0:0:0:
320,192,345339,1,0,0:0:0:0:
64,192,345339,1,0,0:0:0:0:
192,192,345442,1,0,0:0:0:0:
320,192,345546,128,0,345959:0:0:0:0:
64,192,345546,128,0,345959:0:0:0:0:
448,192,345753,1,0,0:0:0:0:
448,192,345959,1,0,0:0:0:0:
192,192,345959,1,0,0:0:0:0:
64,192,346063,1,0,0:0:0:0:
192,192,346166,1,0,0:0:0:0:
320,192,346270,1,0,0:0:0:0:
448,192,346373,1,0,0:0:0:0:
64,192,346373,1,0,0:0:0:0:
320,192,346477,1,0,0:0:0:0:
192,192,346580,1,0,0:0:0:0:
64,192,346684,1,0,0:0:0:0:
192,192,346735,1,0,0:0:0:0:
448,192,346787,1,0,0:0:0:0:
320,192,346787,1,0,0:0:0:0:
320,192,346994,1,0,0:0:0:0:
448,192,346994,128,0,347615:0:0:0:0:
64,192,346994,128,0,347615:0:0:0:0:
192,192,347408,1,0,0:0:0:0:
320,192,347408,1,0,0:0:0:0:
192,192,347615,1,0,0:0:0:0:
64,192,347718,1,0,0:0:0:0:
320,192,347821,128,0,348856:0:0:0:0:
448,192,347821,128,0,348442:0:0:0:0:
64,192,348028,1,0,0:0:0:0:
192,192,348028,1,0,0:0:0:0:
64,192,348132,1,0,0:0:0:0:
192,192,348132,1,0,0:0:0:0:
192,192,348339,1,0,0:0:0:0:
64,192,348442,1,0,0:0:0:0:
448,192,348546,1,0,0:0:0:0:
192,192,348649,1,0,0:0:0:0:
448,192,348753,1,0,0:0:0:0:
64,192,348856,128,0,350097:0:0:0:0:
192,192,348856,128,0,350097:0:0:0:0:
320,192,349063,1,0,0:0:0:0:
320,192,349270,1,0,0:0:0:0:
448,192,349270,1,0,0:0:0:0:
448,192,349477,1,0,0:0:0:0:
320,192,349684,1,0,0:0:0:0:
448,192,349890,1,0,0:0:0:0:
320,192,349994,1,0,0:0:0:0:
320,192,350097,1,0,0:0:0:0:
448,192,350097,1,0,0:0:0:0:
448,192,350304,128,0,351753:0:0:0:0:
192,192,350304,128,0,351753:0:0:0:0:
64,192,350615,1,0,0:0:0:0:
64,192,350718,1,0,0:0:0:0:
64,192,350925,1,0,0:0:0:0:
320,192,350925,1,0,0:0:0:0:
320,192,351132,1,0,0:0:0:0:
64,192,351235,1,0,0:0:0:0:
320,192,351339,1,0,0:0:0:0:
64,192,351339,1,0,0:0:0:0:
320,192,351546,1,0,0:0:0:0:
320,192,351649,1,0,0:0:0:0:
64,192,351753,1,0,0:0:0:0:
320,192,351856,1,0,0:0:0:0:
448,192,351959,1,0,0:0:0:0:
64,192,351959,1,0,0:0:0:0:
192,192,352063,1,0,0:0:0:0:
64,192,352166,128,0,353408:0:0:0:0:
320,192,352166,128,0,353408:0:0:0:0:
448,192,352477,1,0,0:0:0:0:
448,192,352580,1,0,0:0:0:0:
192,192,352580,1,0,0:0:0:0:
192,192,352787,1,0,0:0:0:0:
448,192,352994,1,0,0:0:0:0:
192,192,353097,1,0,0:0:0:0:
448,192,353201,1,0,0:0:0:0:
192,192,353304,1,0,0:0:0:0:
448,192,353356,1,0,0:0:0:0:
192,192,353408,1,0,0:0:0:0:
192,192,353615,1,0,0:0:0:0:
448,192,353615,128,0,354235:0:0:0:0:
64,192,353615,128,0,354235:0:0:0:0:
320,192,353615,1,0,0:0:0:0:
320,192,354028,1,0,0:0:0:0:
192,192,354028,1,0,0:0:0:0:
192,192,354235,1,0,0:0:0:0:
320,192,354339,1,0,0:0:0:0:
64,192,354444,128,0,354844:0:0:0:0:
192,192,354444,128,0,354844:0:0:0:0:
448,192,354644,1,0,0:0:0:0:
320,192,354644,1,0,0:0:0:0:
320,192,354744,1,0,0:0:0:0:
448,192,354744,1,0,0:0:0:0:
448,192,354844,1,0,0:0:0:0:
320,192,354974,1,0,0:0:0:0:
64,192,355104,1,0,0:0:0:0:
192,192,355104,1,0,0:0:0:0:
448,192,355104,1,0,0:0:0:0:
64,192,355278,1,0,0:0:0:0:
192,192,355278,1,0,0:0:0:0:
448,192,355278,1,0,0:0:0:0:
448,192,355452,1,0,0:0:0:0:
192,192,355452,1,0,0:0:0:0:
64,192,355452,1,0,0:0:0:0:
64,192,355626,1,0,0:0:0:0:
320,192,355626,1,0,0:0:0:0:
192,192,355703,1,0,0:0:0:0:
320,192,355755,1,0,0:0:0:0:
448,192,355832,1,0,0:0:0:0:
320,192,355962,1,0,0:0:0:0:
64,192,356074,1,0,0:0:0:0:
192,192,356108,1,0,0:0:0:0:
320,192,356143,1,0,0:0:0:0:
448,192,356143,1,0,0:0:0:0:
192,192,356220,1,0,0:0:0:0:
320,192,356298,1,0,0:0:0:0:
64,192,356298,1,0,0:0:0:0:
448,192,356376,1,0,0:0:0:0:
192,192,356453,1,0,0:0:0:0:
320,192,356531,1,0,0:0:0:0:
64,192,356582,1,0,0:0:0:0:
320,192,356686,1,0,0:0:0:0:
192,192,356763,1,0,0:0:0:0:
448,192,356867,1,0,0:0:0:0:
320,192,356936,1,0,0:0:0:0:
192,192,357005,1,0,0:0:0:0:
64,192,357005,1,0,0:0:0:0:
448,192,357005,1,0,0:0:0:0:
320,192,357281,1,0,0:0:0:0:
192,192,357281,1,0,0:0:0:0:
448,192,357281,128,0,363746:0:0:0:0:
64,192,357281,128,0,363901:0:0:0:0:
192,192,363746,1,0,0:0:0:0:
320,192,363798,1,0,0:0:0:0:
448,192,363850,1,0,0:0:0:0:
192,192,363901,1,0,0:0:0:0:
