osu file format v14

[General]
AudioFilename: audio.mp3
AudioLeadIn: 0
PreviewTime: 72851
Countdown: 0
SampleSet: Soft
StackLeniency: 0.3
Mode: 0
LetterboxInBreaks: 0
WidescreenStoryboard: 1

[Editor]
Bookmarks: 12239,14688,15301,15913,18362,20811,22648,30454,39025,39944,40250,50199,53872,55097,62443,66117,66576,67035,67495,71014,73463,75300,80198,82648,85096,88158,93056,102546,102852,105300,105912,106525,107750,108974,110198,119995,128719,129637,137137,138208,138514,138821,139127,139433,149382,153668,153897,154127,154280,164076,168974,173259,173872,176627,178769,181218,182749,184892,185351,185810,186269,187188,192238,202034,206932,209381,210606,210912,211218,211524,211830,219789,221626,224075,224381,224687,224994,225300,226524,230810,231422,233871,243667,247953,248718
DistanceSpacing: 1.5
BeatDivisor: 4
GridSize: 4
TimelineZoom: 1.9

[Metadata]
Title:Kagome
TitleUnicode:かごめ
Artist:Kotone
ArtistUnicode:天神子兎音
Creator:Kyle73
Version:Lost Rhyme
Source:
Tags:Tenjin Kotone Japanese rock j-rock jrock virtual youtuber vtuber Sparhten Amiya coco cococolaco loli catgirl captin1
BeatmapID:2394336
BeatmapSetID:1146727

[Difficulty]
HPDrainRate:6.5
CircleSize:4
OverallDifficulty:9.3
ApproachRate:9.5
SliderMultiplier:1.73
SliderTickRate:1

[Events]
//Background and Video events
0,0,"kgm.jpg",0,0
//Break Periods
2,120194,128194
2,192438,200897
//Storyboard Layer 0 (Background)
//Storyboard Layer 1 (Fail)
//Storyboard Layer 2 (Pass)
//Storyboard Layer 3 (Foreground)
//Storyboard Layer 4 (Overlay)
//Storyboard Sound Samples

[TimingPoints]
1503,313.725490196079,4,2,1,40,1,0
1503,-270.27027027027,4,2,1,40,0,0
2444,306.122448979592,4,2,1,40,1,0
2444,-270.27027027027,4,2,1,40,0,0
4892,-270.27027027027,4,2,1,40,0,0
5352,-270.27027027027,4,2,1,40,0,0
9178,-370.37037037037,4,2,1,40,0,0
12239,-270.27027027027,4,2,1,40,0,0
15301,-370.37037037037,4,2,1,40,0,0
15913,-588.235294117647,4,2,1,40,0,0
16831,-588.235294117647,4,2,1,5,0,0
17750,-588.235294117647,4,2,1,40,0,0
18362,-270.27027027027,4,2,1,40,0,0
19586,-270.27027027027,4,2,1,50,0,0
20199,-270.27027027027,4,2,1,60,0,0
20811,-50,4,2,1,73,0,0
26168,-80,4,2,1,73,0,0
26627,-50,4,2,1,73,0,0
27546,-80,4,2,1,73,0,0
27852,-50,4,2,1,73,0,0
29995,-80,4,2,1,73,0,0
30454,-136.986301369863,4,2,2,50,0,0
30607,-136.986301369863,4,2,1,50,0,0
38260,-80,3,2,1,50,0,0
38566,-100,3,2,1,50,0,0
39025,-100,3,2,1,50,0,0
39944,-80,3,2,2,50,0,0
40250,-100,4,2,1,60,0,0
50199,-111.111111111111,4,2,1,50,0,0
54484,-80,4,2,1,50,0,0
55097,306.122448979592,3,2,1,60,1,0
55097,-100,3,2,1,60,0,0
62443,-125,3,2,1,60,0,0
66117,-166.666666666667,3,2,1,60,0,0
66576,-166.666666666667,3,2,2,60,0,0
66882,-166.666666666667,3,2,1,60,0,0
67035,-166.666666666667,3,2,2,60,0,0
67341,-166.666666666667,3,2,1,60,0,0
67494,-166.666666666667,3,2,2,60,0,0
67571,-166.666666666667,3,2,1,60,0,0
67954,-80,3,2,1,60,0,0
68413,-90.9090909090909,3,2,1,70,0,0
68566,306.122448979592,4,2,1,70,1,0
68872,-90.9090909090909,4,2,1,70,0,0
71014,-90.9090909090909,4,2,1,70,0,0
71933,-270.27027027027,3,2,1,70,0,0
73463,-57.8034682080925,3,2,2,70,0,0
73770,-80,3,2,2,70,0,0
78361,-57.8034682080925,3,2,2,70,0,0
78668,-80,3,2,2,70,0,0
83259,-57.8034682080925,3,2,2,70,0,0
83566,-80,3,2,2,70,0,0
87851,-66.6666666666667,3,2,2,70,0,0
88157,-80,3,2,2,70,0,0
88463,-80,3,2,1,60,0,0
89382,-80,3,2,1,70,0,0
92520,-80,3,2,1,75,0,0
93055,-80,3,2,2,73,0,0
93056,-80,3,2,2,73,0,0
97341,-66.6666666666667,3,2,2,73,0,0
97647,-80,3,2,2,73,0,0
102239,-66.6666666666667,3,2,2,73,0,0
102851,-80,3,2,2,60,0,0
103463,-90.9090909090909,3,2,2,60,0,0
105300,-111.111111111111,3,2,2,60,0,0
106984,-111.111111111111,3,2,2,73,0,0
108974,-111.111111111111,3,2,2,60,0,0
110198,-50,4,2,1,73,0,0
115555,-80,4,2,1,73,0,0
116014,-50,4,2,1,73,0,0
116933,-80,4,2,1,73,0,0
117239,-50,4,2,1,73,0,0
119382,-80,4,2,1,73,0,0
119994,-136.986301369863,4,2,2,73,0,0
128719,-136.986301369863,4,2,1,50,0,0
129637,-111.111111111111,3,2,1,50,0,0
137749,-66.6666666666667,3,2,1,55,0,0
138514,-100,3,2,1,55,0,0
138821,-57.8034682080925,3,2,1,55,0,0
139433,-100,3,2,1,60,0,0
146474,-100,3,2,1,60,0,0
146627,-136.986301369863,3,2,1,60,0,0
146933,-100,3,2,1,60,0,0
149382,-111.111111111111,3,2,1,50,0,0
153668,-83.3333333333333,3,2,1,60,0,0
153897,-66.6666666666667,3,2,1,60,0,0
154280,-90.9090909090909,3,2,1,73,0,0
159484,-66.6666666666667,3,2,1,73,0,0
159790,-90.9090909090909,3,2,1,73,0,0
161321,-66.6666666666667,3,2,1,73,0,0
161627,-90.9090909090909,3,2,1,73,0,0
163157,-66.6666666666667,3,2,1,73,0,0
164076,-90.9090909090909,3,2,1,73,0,0
168055,-66.6666666666667,3,2,1,73,0,0
168361,-80,3,2,1,73,0,0
168974,-90.9090909090909,3,2,1,73,0,0
170657,-80,3,2,1,73,0,0
172494,-66.6666666666667,3,2,1,73,0,0
172953,-80,3,2,1,73,0,0
173872,306.122448979592,3,2,1,60,1,0
173872,-100,3,2,1,60,0,0
177239,-100,3,2,0,60,0,0
177545,-100,3,2,1,60,0,0
179382,-100,3,2,2,60,0,0
179688,-100,3,2,1,60,0,0
184892,-166.666666666667,3,2,1,60,0,0
185351,-166.666666666667,3,2,1,70,0,0
185657,-166.666666666667,3,2,1,70,0,0
185810,-166.666666666667,3,2,2,70,0,0
186116,-166.666666666667,3,2,1,60,0,0
186269,-166.666666666667,3,2,2,70,0,0
186346,-166.666666666667,3,2,1,60,0,0
186729,-80,3,2,1,60,0,0
187188,-90.9090909090909,3,2,1,60,0,0
187341,306.122448979592,4,2,1,60,1,0
187647,-90.9090909090909,3,2,1,60,0,0
192238,-270.27027027027,4,2,1,40,0,0
201422,-200,4,2,1,40,0,0
206932,-80,4,2,1,60,0,0
209381,-80,4,2,1,73,0,0
209994,-66.6666666666667,4,2,1,73,0,0
210606,-136.986301369863,4,2,1,40,0,0
210835,-136.986301369863,4,2,1,40,0,0
210912,-100,4,2,1,40,0,0
211142,-100,4,2,1,40,0,0
211218,-80,4,2,1,40,0,0
211448,-80,4,2,1,40,0,0
211524,-66.6666666666667,4,2,1,40,0,0
211754,-66.6666666666667,4,2,1,40,0,0
211830,-80,3,2,2,75,0,0
216115,-66.6666666666667,3,2,2,75,0,0
216421,-80,3,2,2,75,0,0
221013,-66.6666666666667,3,2,2,75,0,0
221625,-80,3,2,2,75,0,0
221626,-80,3,2,2,60,0,0
222237,-90.9090909090909,3,2,2,60,0,0
224074,-111.111111111111,3,2,2,60,0,0
225759,-111.111111111111,3,2,2,75,0,0
226677,-111.111111111111,3,2,1,60,0,0
231422,-111.111111111111,3,2,2,37,0,0
233871,-50,4,2,1,75,0,0
239228,-80,4,2,1,75,0,0
239687,-50,4,2,1,75,0,0
240606,-80,4,2,1,75,0,0
240912,-50,4,2,1,75,0,0
243055,-80,4,2,1,75,0,0
243667,-136.986301369863,4,2,2,40,0,0
247953,-136.986301369863,4,2,1,60,0,0
248183,-136.986301369863,4,2,1,70,0,0
248412,-136.986301369863,4,2,1,80,0,0

[Colours]
Combo1 : 255,0,0
Combo2 : 210,210,210
Combo3 : 128,128,128
Combo4 : 184,202,245
Combo5 : 201,167,239
Combo6 : 79,79,255
Combo7 : 151,0,151
Combo8 : 249,188,62

[HitObjects]
500,55,1503,5,2,0:0:0:0:
442,139,1816,1,2,0:0:0:0:
476,222,2130,1,2,0:0:0:0:
468,229,2444,6,0,P|424:246|392:281,1,96.0150023441163,2|0,0:0|0:0,0:0:0:0:
350,353,3056,2,0,P|336:308|319:263,1,96.0150023441163,2|0,0:0|0:0,0:0:0:0:
243,181,3668,2,0,P|274:171|304:160,1,64.0100015627442,2|0,0:0|0:0,0:0:0:0:
362,57,4127,2,0,P|376:102|393:147,1,96.0150023441163,2|2,0:0|0:0,0:0:0:0:
332,318,4892,101,2,0:0:0:0:
365,233,5352,1,2,0:0:0:0:
394,147,5811,1,2,0:0:0:0:
398,138,6117,1,2,0:0:0:0:
398,138,6729,1,2,0:0:0:0:
394,147,7035,1,2,0:0:0:0:
351,222,7341,6,0,B|295:213|320:203|260:194,1,96.0150023441163,2|0,0:0|0:0,0:0:0:0:
163,143,7954,2,0,B|183:195|162:179|184:235,1,96.0150023441163,2|0,0:0|0:0,0:0:0:0:
188,346,8566,2,0,B|223:302|219:328|257:281,1,96.0150023441163,2|0,0:0|0:0,0:0:0:0:
261,194,9178,2,0,P|257:153|252:112,1,81.7425019956665,2|0,0:0|0:0,0:0:0:0:
251,100,9790,1,2,0:0:0:0:
251,100,10250,101,2,0:0:0:0:
326,46,10403,1,2,0:0:0:0:
176,154,10632,1,2,0:0:0:0:
251,100,10862,1,2,0:0:0:0:
162,73,11015,2,0,P|116:82|70:92,1,93.4200022807618,2|2,0:0|0:0,0:0:0:0:
171,63,11933,1,2,0:0:0:0:
205,140,12239,6,0,P|204:92|179:52,1,96.0150023441163,2|0,0:0|0:0,0:0:0:0:
113,119,12852,2,0,P|67:131|21:144,1,96.0150023441163,2|0,0:0|0:0,0:0:0:0:
136,203,13464,1,2,0:0:0:0:
136,203,14076,1,2,0:0:0:0:
134,212,14382,1,2,0:0:0:0:
102,299,14535,1,0,0:0:0:0:
100,308,14612,1,0,0:0:0:0:
98,317,14688,102,0,P|67:326|36:335,1,64.0100015627442,2|0,0:0|0:0,0:0:0:0:
134,212,15301,6,0,P|111:205|89:198,1,46.7100011403809,2|0,0:0|0:0,0:0:0:0:
378,212,15913,102,0,P|420:199|461:184,1,88.2300005385132,2|0,0:0|0:0,0:0:0:0:
413,317,17750,5,2,0:0:0:0:
256,192,18056,1,2,0:0:0:0:
413,317,18362,2,0,P|444:326|475:335,1,64.0100015627442,2|0,0:0|0:0,0:0:0:0:
366,205,18974,102,0,B|324:235|340:240|299:273,1,96.0150023441163,2|0,0:0|0:0,0:0:0:0:
233,363,19586,2,0,B|226:311|213:322|207:270,1,96.0150023441163,2|0,0:0|0:0,0:0:0:0:
163,170,20199,2,0,B|209:189|206:173|255:192,1,96.0150023441163,2|0,0:0|0:0,0:0:0:0:
447,198,20811,86,0,P|366:213|346:292,1,173,6|0,3:1|0:0,0:0:0:0:
192,363,21040,2,0,B|202:301|202:301|238:277|238:277|253:212,1,173,6|0,3:1|0:0,0:0:0:0:
256,193,21270,1,6,3:1:0:0:
138,101,21423,37,8,1:0:0:0:
141,115,21500,1,8,1:0:0:0:
144,129,21576,1,8,1:0:0:0:
148,143,21653,1,8,1:0:0:0:
158,212,21729,86,0,B|35:232|35:232|81:248,1,173,6|0,3:1|0:0,0:0:0:0:
229,382,21959,2,0,P|263:306|345:292,1,173,6|0,3:1|0:0,0:0:0:0:
359,299,22188,1,6,3:1:0:0:
436,91,22341,21,8,1:0:0:0:
441,121,22418,1,8,0:0:0:0:
459,146,22495,1,8,0:0:0:0:
486,159,22571,1,8,0:0:0:0:
511,150,22648,69,8,1:0:0:0:
441,121,22724,1,8,0:0:0:0:
369,116,22801,1,8,0:0:0:0:
296,133,22877,1,8,0:0:0:0:
288,148,22954,5,8,1:0:0:0:
252,173,23030,1,8,0:0:0:0:
210,183,23107,1,8,0:0:0:0:
167,180,23183,1,8,0:0:0:0:
126,163,23260,102,0,B|55:134|55:134|81:226,1,173,6|0,3:1|0:0,0:0:0:0:
24,347,23489,2,0,B|68:335|68:335|87:322|87:322|114:339|114:339|185:332,1,173,6|0,3:1|0:0,0:0:0:0:
203,329,23719,1,6,3:1:0:0:
398,367,23872,37,8,1:0:0:0:
381,353,23949,1,8,0:0:0:0:
368,336,24025,1,8,0:0:0:0:
360,316,24102,1,8,0:0:0:0:
367,242,24178,86,0,B|401:181|401:181|367:83,1,173,6|0,3:1|0:0,0:0:0:0:
137,186,24408,2,0,B|173:144|223:143|223:143|246:170|289:173,1,173,6|0,3:1|0:0,0:0:0:0:
305,175,24637,1,6,3:1:0:0:
219,367,24790,21,8,1:0:0:0:
207,349,24867,1,8,0:0:0:0:
203,328,24944,1,8,0:0:0:0:
209,307,25020,1,8,0:0:0:0:
223,290,25097,69,8,1:0:0:0:
158,262,25173,1,8,0:0:0:0:
88,255,25250,1,8,0:0:0:0:
20,270,25326,1,8,1:0:0:0:
14,253,25403,5,8,1:0:0:0:
53,236,25479,1,8,0:0:0:0:
96,232,25556,1,8,0:0:0:0:
138,241,25632,1,8,0:0:0:0:
179,272,25709,102,0,B|260:281|260:281|295:259|295:259|304:286|318:302,1,173,6|0,3:1|0:0,0:0:0:0:
329,320,25938,1,6,3:1:0:0:
329,320,26015,1,8,1:0:0:0:
497,363,26168,2,0,B|520:239|459:270|485:150,1,216.25,6|2,3:1|3:1,0:0:0:0:
480,139,26551,1,0,3:0:0:0:
480,139,26627,6,0,B|438:115|397:113|397:113|365:132|335:172,1,173,10|0,3:1|0:0,0:0:0:0:
243,330,26857,2,0,B|298:315|298:315|330:320|330:320|353:299|353:299|405:287,1,173,2|0,3:1|0:0,0:0:0:0:
420,284,27086,2,0,L|436:339,2,57.6666666666667,2|0|0,3:1|0:0|0:0,0:0:0:0:
494,234,27239,5,8,1:0:0:0:
397,113,27392,1,2,0:0:0:0:
399,127,27469,1,2,0:0:0:0:
401,141,27546,6,0,B|406:174|411:164|414:193,3,54.0625,2|2|2|2,0:0|0:0|3:2|0:0,0:0:0:0:
471,49,27852,70,0,B|490:88|490:88|484:131,1,86.5,8|2,1:0|0:0,0:0:0:0:
320,170,28005,2,0,B|301:131|301:131|307:88,1,86.5,2|0,0:0|0:0,0:0:0:0:
397,113,28158,6,0,B|357:126|357:126|336:146|336:146|239:178,1,173,6|0,3:1|0:0,0:0:0:0:
226,188,28387,1,2,3:1:0:0:
226,188,28464,1,8,1:0:0:0:
56,308,28617,2,0,B|84:262|84:262|76:200|22:164,1,173,6|2,3:1|0:0,0:0:0:0:
311,18,28923,1,2,3:1:0:0:
311,18,29000,1,0,3:0:0:0:
311,18,29076,102,0,B|300:79|300:79|253:111|253:111|243:164,1,173,6|0,3:1|0:0,0:0:0:0:
192,358,29306,2,0,B|217:317|266:301|266:301|291:324|337:326,1,173,6|0,3:1|0:0,0:0:0:0:
354,323,29535,1,6,3:1:0:0:
442,86,29688,1,8,1:0:0:0:
395,226,29841,1,8,3:2:0:0:
402,205,29918,1,8,3:2:0:0:
409,184,29995,6,0,P|413:210|417:237,1,54.0625,10|0,1:0|0:0,0:0:0:0:
310,310,30148,102,0,P|306:283|302:257,1,54.0625,10|0,1:0|0:0,0:0:0:0:
174,198,30301,6,0,P|178:224|182:251,1,54.0625,10|0,1:0|0:0,0:0:0:0:
11,364,30454,38,0,B|78:364|56:334|129:327,1,126.290003468659,4|2,0:0|0:0,0:0:0:0:
196,279,30913,1,2,0:0:0:0:
266,322,31066,1,2,0:0:0:0:
340,283,31219,1,2,0:0:0:0:
340,283,31372,1,2,0:0:0:0:
452,354,31525,1,2,0:0:0:0:
434,258,31678,6,0,P|442:195|450:132,1,126.290003468659,2|2,0:0|0:0,0:0:0:0:
344,102,32137,2,0,P|348:133|352:165,1,63.1450017343293,2|0,0:0|0:0,0:0:0:0:
258,303,32444,2,0,P|262:334|266:366,1,63.1450017343293,2|0,0:0|0:0,0:0:0:0:
285,219,32750,1,2,0:0:0:0:
285,219,33056,102,0,P|223:214|178:255,1,126.290003468659,2|0,0:0|0:0,0:0:0:0:
60,361,33515,1,2,0:0:0:0:
44,284,33668,2,0,P|37:253|31:222,1,63.1450017343293,2|0,0:0|0:0,0:0:0:0:
44,284,34127,1,2,3:2:0:0:
60,361,34280,5,8,0:0:0:0:
60,361,34892,2,0,P|91:365|122:370,1,63.1450017343293,2|0,0:0|0:0,0:0:0:0:
60,177,35199,2,0,P|91:172|123:167,1,63.1450017343293,2|0,0:0|0:0,0:0:0:0:
14,253,35505,102,0,B|63:260|63:260|83:280|83:280|130:288,1,126.290003468659,2|0,3:2|0:0,0:0:0:0:
273,356,35964,2,0,B|254:310|254:310|261:282|261:282|245:238,1,126.290003468659,2|0,0:0|0:0,0:0:0:0:
212,83,36423,1,2,0:0:0:0:
212,83,36729,6,0,B|181:121|181:121|154:129|154:129|124:166,1,126.290003468659,8|0,0:0|0:0,0:0:0:0:
10,22,37188,2,0,B|85:19|57:50|131:48,1,126.290003468659,2|0,0:0|0:0,0:0:0:0:
208,203,37648,2,0,B|204:236|204:236|213:264,1,63.1450017343293,2|0,0:0|0:0,0:0:0:0:
410,247,37954,102,0,B|414:214|414:214|405:186,1,63.1450017343293,2|0,0:0|0:0,0:0:0:0:
309,225,38260,2,0,L|311:251,8,27.03125,8|0|8|0|8|0|8|0|8,0:0|0:0|0:0|0:0|0:0|0:0|0:0|0:0|0:0,0:0:0:0:
247,363,38719,1,2,3:2:0:0:
483,123,39025,5,4,1:0:0:0:
483,123,39331,2,0,B|402:135|438:153|359:161,1,129.75,2|0,0:0|0:0,0:0:0:0:
364,173,39637,2,0,L|371:200,2,28.8333333333333,2|2|2,0:0|0:0|0:0,0:0:0:0:
254,269,39944,2,0,L|261:295,6,27.03125,2|0|0|0|0|0|0,0:0|0:0|0:0|0:0|0:0|0:0|0:0,0:0:0:0:
257,257,40250,6,0,B|197:277|197:277|175:312|175:312|111:336,1,173,12|0,1:0|3:0,0:0:0:0:
23,167,40709,1,8,1:0:0:0:
106,239,40862,1,2,0:0:0:0:
106,239,40938,1,10,0:0:0:0:
106,239,41015,1,10,3:2:0:0:
161,156,41168,1,2,3:2:0:0:
21,291,41321,1,8,1:0:0:0:
143,336,41474,6,0,B|195:341|195:341|216:353|216:353|312:360,1,173,2|0,3:2|3:0,0:0:0:0:
445,251,41933,2,0,P|434:292|422:334,1,86.5,8|2,1:0|0:0,0:0:0:0:
423,351,42163,1,10,0:0:0:0:
423,351,42239,1,10,3:2:0:0:
505,173,42392,1,0,3:0:0:0:
335,273,42546,2,0,P|293:280|250:287,1,86.5,8|0,1:0|3:0,0:0:0:0:
469,265,42852,101,2,3:2:0:0:
392,177,43005,1,0,3:0:0:0:
511,39,43158,2,0,P|469:46|426:53,1,86.5,8|2,1:0|0:0,0:0:0:0:
416,60,43387,1,10,0:0:0:0:
416,60,43464,1,10,3:2:0:0:
245,132,43617,1,0,3:0:0:0:
392,177,43770,1,8,1:0:0:0:
220,18,43923,1,8,3:2:0:0:
220,18,44229,5,8,3:2:0:0:
200,25,44306,1,2,3:2:0:0:
180,32,44382,1,10,3:2:0:0:
52,135,44535,1,8,3:2:0:0:
32,142,44612,1,2,3:2:0:0:
12,149,44688,1,10,3:2:0:0:
71,21,44841,101,0,3:0:0:0:
153,128,44995,1,8,1:0:0:0:
7,268,45148,1,0,3:0:0:0:
86,219,45301,6,0,B|101:260|101:260|91:301,1,86.5,0|0,3:0|0:0,0:0:0:0:
7,268,45607,1,8,1:0:0:0:
174,362,45760,1,2,0:0:0:0:
174,362,45836,1,10,0:0:0:0:
174,362,45913,1,10,3:2:0:0:
254,268,46066,1,0,3:0:0:0:
373,320,46219,1,8,1:0:0:0:
281,358,46372,1,8,0:0:0:0:
407,249,46525,102,0,B|416:204|416:204|402:165,1,86.5,2|0,0:0|3:0,0:0:0:0:
307,6,46831,2,0,B|298:51|298:51|311:89,1,86.5,8|2,1:0|0:0,0:0:0:0:
311,89,47061,1,10,0:0:0:0:
311,89,47137,1,10,3:2:0:0:
403,166,47290,1,0,3:0:0:0:
323,208,47444,2,0,P|280:218|238:228,1,86.5,8|0,1:0|0:0,0:0:0:0:
391,48,47750,6,0,B|341:73|288:63|288:63|273:89|236:102,1,173,14|8,1:0|1:0,0:0:0:0:
86,158,48209,1,2,0:0:0:0:
86,158,48285,1,8,0:0:0:0:
86,158,48362,1,0,3:0:0:0:
43,59,48515,1,0,3:0:0:0:
154,97,48668,1,8,1:0:0:0:
173,221,48821,1,2,0:0:0:0:
173,221,48898,1,2,0:0:0:0:
173,221,48974,1,4,1:0:0:0:
86,157,49127,101,8,0:0:0:0:
130,122,49204,1,8,0:0:0:0:
187,117,49280,1,8,1:0:0:0:
237,144,49357,1,8,0:0:0:0:
269,190,49433,1,8,0:0:0:0:
272,247,49510,1,8,0:0:0:0:
245,298,49586,5,10,1:0:0:0:
232,312,49663,1,8,0:0:0:0:
229,332,49739,1,8,0:0:0:0:
235,351,49816,1,8,0:0:0:0:
249,365,49892,1,10,1:0:0:0:
268,372,49969,1,8,0:0:0:0:
287,371,50046,1,8,0:0:0:0:
303,360,50122,1,8,0:0:0:0:
343,282,50199,70,0,B|430:288|395:326|486:332,1,155.699995248413,14|0,0:1|3:0,0:0:0:0:
427,193,50658,1,2,0:0:0:0:
427,193,50811,2,0,P|388:188|349:183,1,77.8499976242066,0|2,3:0|0:0,0:0:0:0:
419,374,51117,2,0,P|380:378|341:383,1,77.8499976242066,0|2,3:0|0:0,0:0:0:0:
187,270,51423,6,0,P|265:276|342:282,1,155.699995248413,0|0,3:0|3:0,0:0:0:0:
291,116,51882,1,2,0:0:0:0:
291,116,52035,2,0,B|266:151|266:151|269:185,1,77.8499976242066,0|2,3:0|0:0,0:0:0:0:
440,290,52341,2,0,B|465:255|465:255|461:220,1,77.8499976242066,0|2,3:0|0:0,0:0:0:0:
485,46,52648,102,0,P|414:73|392:145,1,155.699995248413,0|0,3:0|3:0,0:0:0:0:
235,272,53107,2,0,P|196:275|157:278,1,77.8499976242066,2|0,0:0|3:0,0:0:0:0:
269,185,53413,1,2,0:0:0:0:
340,252,53566,1,0,3:0:0:0:
311,345,53719,1,2,0:0:0:0:
311,345,53872,6,0,P|272:353|235:362,1,77.8499976242066,0|0,3:0|3:0,0:0:0:0:
86,286,54178,2,0,P|48:295|10:304,1,77.8499976242066,8|0,0:0|3:0,0:0:0:0:
161,220,54484,6,0,B|182:252|182:252|183:285,2,72.0833333333333,8|8|8,1:0|0:0|0:0,0:0:0:0:
50,197,54790,5,8,0:0:0:0:
3,132,54892,1,8,0:0:0:0:
36,60,54995,1,8,0:0:0:0:
96,123,55097,70,0,B|133:118|133:118|161:123|161:123|197:101|197:101|218:108|218:108|261:106,1,173,12|2,1:0|0:0,0:0:0:0:
416,191,55556,1,8,1:0:0:0:
320,284,55709,2,0,P|305:243|314:201,1,86.5,2|0,0:0|3:0,0:0:0:0:
375,17,56015,2,0,P|389:57|380:99,1,86.5,8|0,0:0|3:0,0:0:0:0:
222,190,56321,1,2,0:0:0:0:
119,127,56474,1,8,0:0:0:0:
0,264,56627,1,2,0:0:0:0:
100,311,56780,1,8,0:0:0:0:
100,311,56857,1,8,0:0:0:0:
100,311,56933,6,0,B|112:262|112:262|98:228,1,86.5,2|0,0:0|0:0,0:0:0:0:
85,39,57239,2,0,B|72:87|72:87|86:121,1,86.5,2|8,0:0|0:0,0:0:0:0:
170,86,57545,1,2,0:0:0:0:
222,161,57699,1,0,3:0:0:0:
193,247,57852,1,8,1:0:0:0:
0,222,58005,2,0,P|41:211|83:200,1,86.5,0|0,3:0|0:0,0:0:0:0:
0,356,58311,2,0,P|41:366|83:377,1,86.5,8|2,0:0|0:0,0:0:0:0:
280,252,58617,1,8,0:0:0:0:
289,243,58693,1,8,0:0:0:0:
293,233,58770,102,0,B|195:238|224:274|129:285,1,173,12|2,1:0|0:0,0:0:0:0:
217,73,59229,1,8,0:0:0:0:
217,73,59382,2,0,P|204:113|213:155,1,86.5,2|0,0:0|3:0,0:0:0:0:
377,267,59688,2,0,P|385:225|373:184,1,86.5,12|0,1:0|3:0,0:0:0:0:
293,233,59994,1,2,0:0:0:0:
296,327,60148,1,8,0:0:0:0:
387,356,60301,1,2,0:0:0:0:
462,278,60454,1,8,0:0:0:0:
465,288,60530,1,8,0:0:0:0:
469,299,60607,5,2,0:0:0:0:
512,205,60760,1,0,3:0:0:0:
445,132,60913,1,2,0:0:0:0:
477,52,61066,1,8,0:0:0:0:
365,64,61219,1,2,0:0:0:0:
367,175,61372,1,8,0:0:0:0:
365,175,61449,102,0,P|345:180|324:187,1,43.25,8|2,0:0|3:2,0:0:0:0:
445,213,61678,1,8,0:0:0:0:
456,172,61755,1,8,0:0:0:0:
444,131,61831,1,8,0:0:0:0:
365,64,61984,1,8,0:0:0:0:
262,128,62137,1,8,3:0:0:0:
174,73,62290,1,8,3:0:0:0:
19,181,62443,6,0,B|19:158|27:134|27:134|117:123,1,138.4,12|2,1:0|0:0,0:0:0:0:
177,191,62903,1,8,0:0:0:0:
127,270,63056,1,2,0:0:0:0:
35,256,63209,1,0,3:0:0:0:
256,368,63362,1,10,0:0:0:0:
283,149,63515,1,0,3:0:0:0:
283,149,63821,101,8,0:0:0:0:
267,293,63974,2,0,P|270:258|273:224,1,69.2,2|8,0:0|0:0,0:0:0:0:
273,224,64204,1,8,0:0:0:0:
273,224,64280,1,2,3:2:0:0:
256,368,64586,1,2,0:0:0:0:
370,326,64739,1,8,0:0:0:0:
370,326,64816,1,0,3:0:0:0:
370,326,64892,1,2,0:0:0:0:
471,349,65045,1,0,3:0:0:0:
512,227,65199,5,12,1:0:0:0:
260,371,65428,1,2,3:2:0:0:
260,371,65505,1,8,0:0:0:0:
142,326,65658,1,8,0:0:0:0:
121,330,65734,1,8,0:0:0:0:
101,335,65811,1,8,1:0:0:0:
81,340,65887,1,8,1:0:0:0:
61,344,65964,1,8,0:0:0:0:
40,349,66040,1,8,0:0:0:0:
5,284,66117,54,0,B|-16:233|-16:233|-5:185,1,103.799996832275,12|8,1:0|1:0,0:0:0:0:
507,100,66576,2,0,B|528:151|528:151|517:199,1,103.799996832275,4|8,3:0|0:0,0:0:0:0:
512,218,66959,1,0,3:0:0:0:
512,218,67035,5,4,3:0:0:0:
432,157,67188,1,0,3:0:0:0:
390,243,67341,1,0,3:0:0:0:
256,192,67494,5,4,3:0:0:0:
122,243,67648,1,8,3:0:0:0:
107,238,67724,1,8,3:0:0:0:
91,243,67801,1,8,0:0:0:0:
76,237,67877,1,8,0:0:0:0:
54,239,67954,70,0,P|26:239|-1:239,1,54.0625,8|0,1:0|0:0,0:0:0:0:
77,89,68107,2,0,B|69:120|69:120|75:141,1,54.0625,8|8,0:0|0:0,0:0:0:0:
219,339,68260,2,0,B|227:308|227:308|220:286,1,54.0625,8|8,0:0|0:0,0:0:0:0:
256,192,68413,86,0,B|316:193|363:174|363:174|380:210|414:235,1,190.300005807495,12|0,1:0|3:0,0:0:0:0:
341,369,68872,2,0,B|317:328|317:328|322:280,1,95.1500029037476,8|0,1:0|3:0,0:0:0:0:
405,83,69178,1,8,0:0:0:0:
479,144,69331,1,0,3:0:0:0:
454,4,69484,1,8,1:0:0:0:
285,101,69637,6,0,B|215:121|215:121|193:158|193:158|122:180,1,190.300005807495,4|0,3:1|3:0,0:0:0:0:
33,348,70096,2,0,B|9:307|9:307|14:259,1,95.1500029037476,8|8,1:0|0:0,0:0:0:0:
24,245,70326,1,8,0:0:0:0:
24,245,70402,1,8,0:0:0:0:
126,84,70555,1,0,3:0:0:0:
285,199,70708,1,8,1:0:0:0:
174,289,70861,5,8,3:0:0:0:
163,298,70938,1,8,3:0:0:0:
152,307,71014,5,12,1:0:0:0:
311,177,71168,1,0,3:0:0:0:
470,47,71321,1,0,3:0:0:0:
414,283,71474,101,8,1:0:0:0:
298,188,71627,1,0,3:0:0:0:
182,94,71780,1,0,3:0:0:0:
285,199,71933,38,0,B|295:255|295:255|288:279|288:279|296:324,1,128.020003125488,4|0,1:0|0:0,0:0:0:0:
298,188,72851,101,0,0:0:0:0:
311,177,73157,1,0,0:0:0:0:
203,244,73463,86,0,B|117:254|117:254|66:291,1,149.645003653442,6|0,1:2|0:0,0:0:0:0:
15,203,73693,1,0,3:0:0:0:
0,194,73770,2,0,P|1:166|2:140,1,54.0625,2|0,1:0|0:0,0:0:0:0:
196,48,73923,1,8,1:0:0:0:
95,4,74076,2,0,B|86:60|86:60|106:107,1,108.125,2|0,1:0|3:0,0:0:0:0:
204,229,74382,1,8,1:0:0:0:
299,158,74535,1,0,3:0:0:0:
452,279,74688,85,6,3:1:0:0:
422,148,74841,1,8,1:0:0:0:
300,318,74994,1,0,3:0:0:0:
303,184,75147,1,0,3:0:0:0:
424,356,75300,22,0,P|427:329|430:302,1,54.0625,10|0,1:0|0:0,0:0:0:0:
445,171,75453,1,0,3:0:0:0:
178,44,75606,86,0,P|182:71|185:98,1,54.0625,10|0,1:0|0:0,0:0:0:0:
204,229,75759,1,0,3:0:0:0:
23,116,75912,22,0,B|107:136|107:136|124:178|124:178|206:198,1,216.25,6|2,3:1|3:1,0:0:0:0:
463,287,76372,1,8,1:0:0:0:
335,367,76525,2,0,P|321:315|326:261,1,108.125,2|0,3:1|3:0,0:0:0:0:
476,35,76831,2,0,P|489:86|484:140,1,108.125,10|0,1:0|3:0,0:0:0:0:
427,198,77060,1,0,3:0:0:0:
412,194,77137,86,0,P|385:190|358:185,1,54.0625,2|0,3:1|0:0,0:0:0:0:
182,89,77290,1,12,1:0:0:0:
314,274,77443,1,0,3:0:0:0:
184,238,77596,1,0,3:0:0:0:
273,137,77749,2,0,B|288:86|288:86|269:34,1,108.125,10|0,1:0|0:0,0:0:0:0:
93,190,78055,2,0,B|78:241|78:241|97:293,1,108.125,10|0,1:0|0:0,0:0:0:0:
162,354,78285,1,0,3:0:0:0:
174,363,78361,22,0,B|220:358|220:358|245:369|245:369|320:358,1,149.645003653442,6|0,3:1|0:0,0:0:0:0:
329,271,78591,1,0,3:0:0:0:
314,274,78668,2,0,P|287:278|260:283,1,54.0625,0|0,3:0|0:0,0:0:0:0:
62,371,78821,1,10,1:0:0:0:
184,238,78974,2,0,P|195:185|181:134,1,108.125,2|0,3:1|3:0,0:0:0:0:
420,9,79280,2,0,P|409:62|423:113,1,108.125,10|0,1:0|3:0,0:0:0:0:
512,278,79586,85,2,3:1:0:0:
313,139,79739,1,8,1:0:0:0:
279,309,79892,1,0,3:0:0:0:
423,113,80045,1,2,3:1:0:0:
162,23,80198,22,0,B|153:47|153:47|157:75,1,54.0625,10|0,1:0|0:0,0:0:0:0:
226,177,80351,1,0,3:0:0:0:
487,267,80504,86,0,B|495:242|495:242|491:214,1,54.0625,10|0,1:0|0:0,0:0:0:0:
423,113,80657,1,0,3:0:0:0:
279,309,80810,21,14,1:0:0:0:
512,359,80963,1,0,3:0:0:0:
394,262,81117,1,0,3:0:0:0:
183,359,81270,5,14,1:0:0:0:
332,127,81423,1,0,3:0:0:0:
279,309,81576,1,0,3:0:0:0:
152,108,81729,101,14,1:0:0:0:
394,262,81882,1,0,3:0:0:0:
194,266,82035,1,0,3:0:0:0:
317,104,82188,5,14,1:0:0:0:
482,338,82341,1,0,3:0:0:0:
306,212,82494,1,0,3:0:0:0:
209,289,82647,6,0,P|155:299|102:310,1,108.125,14|0,1:0|0:0,0:0:0:0:
214,69,82953,2,0,P|161:59|108:49,1,108.125,14|0,1:0|0:0,0:0:0:0:
160,181,83259,86,0,B|205:181|205:181|233:195|233:195|257:187|257:187|306:187,1,149.645003653442,6|0,1:2|3:0,0:0:0:0:
396,143,83489,1,0,3:0:0:0:
394,128,83566,2,0,P|389:101|384:74,1,54.0625,2|0,1:0|0:0,0:0:0:0:
511,213,83719,1,8,1:0:0:0:
399,378,83872,2,0,B|385:324|385:324|402:274,1,108.125,2|0,1:0|3:0,0:0:0:0:
507,2,84178,2,0,B|521:56|521:56|503:105,1,108.125,8|0,1:0|3:0,0:0:0:0:
305,187,84484,85,6,3:1:0:0:
486,333,84637,1,8,1:0:0:0:
302,282,84790,1,0,0:0:0:0:
507,136,84943,1,0,3:0:0:0:
402,274,85096,22,0,P|404:247|407:220,1,54.0625,10|0,1:0|0:0,0:0:0:0:
421,85,85249,1,0,3:0:0:0:
219,220,85402,86,0,P|217:193|214:166,1,54.0625,10|0,1:0|0:0,0:0:0:0:
200,31,85555,1,0,3:0:0:0:
1,214,85708,22,0,P|53:201|106:190,1,108.125,6|0,3:1|3:0,0:0:0:0:
274,61,86014,1,2,3:1:0:0:
126,1,86168,1,8,1:0:0:0:
360,117,86321,2,0,B|375:65|375:65|360:13,1,108.125,2|0,3:1|3:0,0:0:0:0:
152,267,86627,2,0,B|137:319|137:319|151:370,1,108.125,10|0,1:0|3:0,0:0:0:0:
197,88,86933,85,2,3:1:0:0:
360,222,87086,1,12,1:0:0:0:
152,267,87239,1,0,3:0:0:0:
394,115,87392,1,0,3:0:0:0:
280,15,87545,2,0,P|290:67|300:121,1,108.125,10|0,1:0|3:0,0:0:0:0:
283,328,87851,22,0,B|335:246|335:246|431:260,1,194.625007424355,10|0,1:0|3:0,0:0:0:0:
457,271,88157,1,6,3:1:0:0:
457,271,88463,21,8,0:0:0:0:
372,212,88617,1,0,3:0:0:0:
280,257,88770,1,8,0:0:0:0:
115,310,88923,1,0,3:0:0:0:
184,234,89076,1,8,0:0:0:0:
367,316,89229,1,0,3:0:0:0:
457,271,89382,21,8,3:2:0:0:
215,322,89535,1,0,3:0:0:0:
184,234,89688,5,8,3:2:0:0:
456,367,89841,1,8,3:2:0:0:
372,212,89994,5,8,0:0:0:0:
82,324,90147,1,8,3:2:0:0:
79,135,90300,5,8,0:0:0:0:
367,316,90453,1,8,3:2:0:0:
321,121,90606,5,4,1:0:0:0:
63,342,90759,1,8,0:0:0:0:
63,342,90836,1,8,0:0:0:0:
63,342,90912,1,8,3:2:0:0:
0,184,91066,5,8,3:0:0:0:
46,172,91142,1,0,3:0:0:0:
93,161,91219,1,8,0:0:0:0:
141,150,91295,1,8,0:0:0:0:
188,138,91372,1,8,0:0:0:0:
376,31,91525,1,8,3:0:0:0:
129,46,91678,101,8,0:0:0:0:
129,46,91754,1,8,0:0:0:0:
129,46,91831,1,4,1:0:0:0:
296,267,91984,5,8,0:0:0:0:
296,267,92060,1,8,0:0:0:0:
296,267,92137,1,8,0:0:0:0:
478,18,92290,102,0,P|480:44|483:71,1,54.0625,8|0,0:0|0:0,0:0:0:0:
390,143,92443,1,8,1:0:0:0:
341,162,92520,1,8,1:0:0:0:
293,142,92596,1,8,1:0:0:0:
272,94,92673,1,8,1:0:0:0:
265,74,92749,5,8,1:0:0:0:
189,52,92826,1,8,1:0:0:0:
113,72,92902,1,8,1:0:0:0:
57,127,92979,1,8,1:0:0:0:
23,206,93055,102,0,B|7:261|7:261|25:308,1,108.125,6|0,1:2|3:0,0:0:0:0:
25,308,93285,1,2,0:0:0:0:
25,308,93361,1,2,1:0:0:0:
293,225,93514,1,2,3:1:0:0:
121,367,93668,2,0,B|141:281|141:281|183:268|183:268|204:185,1,216.25,2|8,1:0|1:0,0:0:0:0:
128,1,94127,85,0,3:0:0:0:
111,31,94203,1,0,3:0:0:0:
131,60,94280,2,0,P|184:69|237:78,1,108.125,6|0,3:1|3:0,0:0:0:0:
256,88,94509,1,0,3:0:0:0:
256,88,94586,1,2,1:0:0:0:
511,128,94739,2,0,P|409:146|368:242,1,216.25,0|0,3:0|3:0,0:0:0:0:
142,380,95198,2,0,B|179:322|179:322|144:235,1,162.1875,8|0,1:0|0:0,0:0:0:0:
136,220,95504,22,0,P|82:217|28:214,1,108.125,2|0,3:1|3:0,0:0:0:0:
118,99,95734,1,0,3:0:0:0:
118,99,95810,2,0,P|172:96|226:93,1,108.125,2|0,1:0|3:0,0:0:0:0:
385,22,96117,1,2,1:0:0:0:
470,160,96270,1,0,3:0:0:0:
368,291,96423,2,0,B|334:185|334:185|350:136,1,162.1875,10|0,1:0|3:0,0:0:0:0:
363,123,96729,86,0,B|279:147|321:174|226:206,1,162.1875,2|0,3:1|3:0,0:0:0:0:
210,215,97035,1,10,1:0:0:0:
55,350,97188,1,0,3:0:0:0:
94,186,97341,2,0,P|105:216|116:246,2,64.8750024747849,2|0|0,1:0|3:0|3:0,0:0:0:0:
198,376,97647,2,0,B|216:323|239:304|239:304|271:301|315:315,1,162.1875,8|0,1:0|0:0,0:0:0:0:
330,327,97953,22,0,B|378:269|378:269|357:184,1,162.1875,2|0,3:1|3:0,0:0:0:0:
350,167,98259,1,10,1:0:0:0:
163,70,98412,1,2,3:1:0:0:
241,11,98566,2,0,B|265:57|265:57|250:111,1,108.125,2|0,0:0|3:0,0:0:0:0:
141,278,98872,2,0,B|117:232|117:232|131:177,1,108.125,10|0,1:0|3:0,0:0:0:0:
142,167,99101,1,0,3:0:0:0:
142,167,99178,85,2,3:1:0:0:
27,273,99331,1,0,3:0:0:0:
27,273,99407,1,0,3:0:0:0:
27,273,99484,1,10,1:0:0:0:
75,96,99637,1,0,3:0:0:0:
219,219,99790,2,0,P|272:227|325:235,1,108.125,2|0,1:0|3:0,0:0:0:0:
492,283,100096,1,10,1:0:0:0:
385,120,100249,1,2,0:0:0:0:
469,72,100402,22,0,B|416:112|406:167|406:167|422:209,1,162.1875,2|0,3:1|3:0,0:0:0:0:
430,224,100708,1,10,1:0:0:0:
340,359,100861,1,0,3:0:0:0:
340,359,100938,1,0,3:0:0:0:
340,359,101014,2,0,P|286:363|232:368,1,108.125,2|0,1:0|3:0,0:0:0:0:
55,299,101321,1,10,1:0:0:0:
175,121,101474,1,0,3:0:0:0:
175,121,101550,1,0,3:0:0:0:
175,121,101627,86,0,B|127:173|127:173|156:259,1,162.1875,6|0,3:1|3:0,0:0:0:0:
160,276,101933,2,0,P|109:295|59:315,1,108.125,6|0,1:0|3:0,0:0:0:0:
263,154,102239,1,6,3:1:0:0:
384,224,102392,1,8,1:0:0:0:
384,224,102469,1,8,1:0:0:0:
384,224,102545,2,0,B|393:257|393:257|388:287,1,64.8750024747849,8|8,1:0|1:0,0:0:0:0:
257,384,102698,2,0,B|248:351|248:351|252:320,1,64.8750024747849,8|8,1:0|1:0,0:0:0:0:
308,261,102851,102,0,B|221:276|258:307|161:325,1,162.1875,4|0,3:1|0:0,0:0:0:0:
145,327,103157,1,2,3:2:0:0:
49,248,103310,1,0,0:0:0:0:
49,248,103463,2,0,P|30:204|39:158,1,95.1500029037476,2|0,3:2|0:0,0:0:0:0:
105,76,103770,1,2,3:2:0:0:
231,168,103923,1,8,1:0:0:0:
231,168,103999,1,0,3:0:0:0:
231,168,104076,6,0,P|278:161|325:156,1,95.1500029037476,2|0,3:2|0:0,0:0:0:0:
384,64,104382,2,0,P|336:58|289:52,1,95.1500029037476,2|0,3:2|0:0,0:0:0:0:
443,1,104688,1,2,3:2:0:0:
475,80,104841,1,8,1:0:0:0:
417,143,104994,1,0,3:0:0:0:
512,297,105147,1,8,1:0:0:0:
512,297,105224,1,0,3:0:0:0:
512,297,105300,102,0,B|431:303|431:303|377:355,1,155.699995248413,4|0,1:0|3:0,0:0:0:0:
0,297,105912,2,0,B|81:303|81:303|135:355,1,155.699995248413,4|0,1:0|3:0,0:0:0:0:
256,8,106525,38,0,B|258:49|258:49|246:75|246:75|256:107|256:107|256:160,1,155.699995248413,4|0,1:0|3:0,0:0:0:0:
189,240,106984,1,0,1:0:0:0:
360,278,107137,1,8,1:0:0:0:
135,355,107290,1,8,1:0:0:0:
357,184,107443,1,8,1:0:0:0:
127,99,107596,1,8,1:0:0:0:
256,312,107749,5,4,1:3:0:0:
512,191,108974,101,4,1:0:0:0:
279,30,109586,21,4,0:0:0:0:
279,30,110198,86,0,B|225:41|225:41|193:39|193:39|172:60|172:60|118:75,1,173,6|0,3:1|0:0,0:0:0:0:
103,85,110428,1,2,3:1:0:0:
103,85,110504,2,0,B|90:129|90:129|103:167,1,86.5,8|0,0:0|0:0,0:0:0:0:
40,348,110657,2,0,B|80:286|130:270|130:270|179:284,1,173,2|2,3:1|0:0,0:0:0:0:
436,359,110963,1,2,3:1:0:0:
412,349,111040,1,0,3:0:0:0:
388,339,111117,6,0,B|421:272|421:272|391:178,1,173,10|0,3:1|0:0,0:0:0:0:
472,21,111346,2,0,B|419:39|419:39|397:73|397:73|324:98,1,173,2|0,3:1|0:0,0:0:0:0:
309,105,111576,1,2,3:1:0:0:
72,130,111729,21,8,1:0:0:0:
78,153,111805,1,2,0:0:0:0:
85,175,111882,1,2,0:0:0:0:
92,197,111958,1,2,0:0:0:0:
99,219,112035,69,2,0:0:0:0:
162,189,112111,1,2,0:0:0:0:
235,187,112188,1,2,3:2:0:0:
300,210,112264,1,2,0:0:0:0:
307,225,112341,5,8,1:0:0:0:
339,251,112418,1,2,0:0:0:0:
380,264,112494,1,2,0:0:0:0:
423,262,112571,1,2,0:0:0:0:
460,232,112647,102,0,B|473:148|473:148|392:178,1,173,6|0,3:1|0:0,0:0:0:0:
197,353,112877,1,2,3:1:0:0:
197,353,112953,2,0,B|229:315|272:316|272:316|307:350|348:346,1,173,8|2,1:0|3:1,0:0:0:0:
87,235,113259,1,2,0:0:0:0:
244,63,113412,1,8,0:0:0:0:
222,60,113489,1,8,0:0:0:0:
201,58,113566,6,0,B|195:112|156:148|156:148|186:177|192:205,1,173,2|0,3:1|0:0,0:0:0:0:
47,378,113795,2,0,B|102:345|127:306|127:306|151:328|186:329,1,173,2|0,3:1|0:0,0:0:0:0:
203,334,114025,1,2,3:1:0:0:
426,369,114178,21,12,1:0:0:0:
445,340,114254,1,8,0:0:0:0:
447,305,114331,1,8,0:0:0:0:
430,275,114407,1,8,0:0:0:0:
421,249,114484,69,8,1:0:0:0:
374,189,114560,1,8,0:0:0:0:
372,115,114637,1,8,0:0:0:0:
407,53,114713,1,8,0:0:0:0:
414,37,114790,5,8,1:0:0:0:
375,55,114867,1,8,0:0:0:0:
331,57,114943,1,8,0:0:0:0:
291,43,115020,1,8,0:0:0:0:
261,12,115096,102,0,B|208:31|208:31|179:27|179:27|95:54,1,173,6|0,3:1|0:0,0:0:0:0:
83,64,115326,1,2,3:1:0:0:
83,64,115402,2,0,B|59:105|59:105|66:143,1,86.5,8|0,1:0|0:0,0:0:0:0:
95,282,115555,2,0,B|146:259|189:254|189:254|205:203|166:142,1,216.25,2|2,3:1|3:1,0:0:0:0:
164,127,115938,1,0,3:0:0:0:
164,127,116014,6,0,B|251:98|251:98|285:171,1,173,10|0,3:1|0:0,0:0:0:0:
502,282,116244,2,0,B|454:270|421:272|421:272|396:292|376:350,1,173,2|0,3:1|0:0,0:0:0:0:
365,356,116474,2,0,L|308:345,2,57.6666666666667,2|0|0,3:1|0:0|0:0,0:0:0:0:
256,262,116627,5,8,1:0:0:0:
436,134,116780,1,2,0:0:0:0:
436,134,116856,1,2,0:0:0:0:
436,134,116933,6,0,B|408:132|403:138|382:137,3,54.0625,2|2|0|2,0:0|0:0|3:0|0:0,0:0:0:0:
300,88,117239,70,0,B|286:136|286:136|297:171,1,86.5,8|2,1:0|0:0,0:0:0:0:
482,294,117392,2,0,B|496:246|496:246|484:210,1,86.5,2|0,0:0|0:0,0:0:0:0:
399,244,117545,6,0,B|329:258|329:258|307:281|307:281|239:297,1,173,14|0,3:1|0:0,0:0:0:0:
219,305,117775,1,2,3:1:0:0:
219,305,117851,1,8,1:0:0:0:
22,371,118004,2,0,B|51:329|48:288|48:288|78:316|125:315,1,173,2|2,3:1|0:0,0:0:0:0:
19,158,118310,1,2,3:1:0:0:
19,158,118387,1,2,0:0:0:0:
19,158,118463,102,0,B|113:166|89:218|172:229,1,173,14|0,2:1|0:0,0:0:0:0:
307,372,118693,2,0,B|326:310|326:310|365:288|365:288|383:227,1,173,2|0,3:1|0:0,0:0:0:0:
390,211,118923,1,2,3:1:0:0:
512,44,119076,1,8,1:0:0:0:
480,57,119152,1,2,3:2:0:0:
448,71,119229,1,2,3:2:0:0:
417,85,119305,1,2,3:2:0:0:
386,99,119382,6,0,P|359:94|332:89,1,54.0625,2|8,3:1|0:0,0:0:0:0:
154,137,119535,102,0,P|180:141|207:146,1,54.0625,10|8,1:0|0:0,0:0:0:0:
358,247,119688,6,0,P|331:242|304:237,1,54.0625,10|8,1:0|0:0,0:0:0:0:
126,285,119841,102,0,P|152:289|179:294,1,54.0625,10|8,1:0|0:0,0:0:0:0:
427,344,119994,5,4,0:0:0:0:
254,10,128719,6,0,B|243:87|264:57|256:135,1,126.290003468659,0|0,3:0|1:0,0:0:0:0:
255,135,129101,1,8,0:0:0:0:
255,135,129178,1,8,0:0:0:0:
328,197,129331,1,8,3:0:0:0:
314,281,129484,1,8,1:0:0:0:
235,231,129637,22,0,B|175:254|175:254|160:288|160:288|110:310,1,155.699995248413,4|2,1:0|0:0,0:0:0:0:
250,334,130096,1,0,3:1:0:0:
341,313,130249,1,2,0:0:0:0:
417,368,130402,1,0,3:1:0:0:
507,337,130555,1,2,0:0:0:0:
430,261,130708,1,0,3:1:0:0:
457,168,130861,6,0,P|469:244|482:321,1,155.699995248413,2|2,0:0|0:0,0:0:0:0:
341,313,131321,2,0,B|323:256|323:256|343:202,1,116.77499643631,0|0,3:0|0:0,0:0:0:0:
346,181,131627,1,0,3:0:0:0:
373,91,131780,1,2,0:0:0:0:
299,42,131933,1,0,3:0:0:0:
299,42,132086,1,8,0:0:0:0:
126,165,132239,102,0,B|215:161|176:125|274:124,1,155.699995248413,2|0,3:2|3:0,0:0:0:0:
298,41,132698,1,2,0:0:0:0:
222,29,132851,2,0,P|260:38|299:42,1,77.8499976242066,0|2,3:0|0:0,0:0:0:0:
222,242,133157,2,0,P|259:232|298:229,1,77.8499976242066,0|2,3:0|0:0,0:0:0:0:
433,169,133463,5,0,3:0:0:0:
373,91,133617,1,2,0:0:0:0:
460,37,133770,1,0,3:0:0:0:
359,73,133923,1,2,0:0:0:0:
419,187,134076,2,0,P|426:225|435:263,1,77.8499976242066,0|2,3:0|0:0,0:0:0:0:
336,383,134382,2,0,P|343:344|352:306,1,77.8499976242066,0|2,3:0|0:0,0:0:0:0:
227,277,134688,102,0,P|152:284|114:348,1,155.699995248413,2|0,3:2|3:0,0:0:0:0:
11,248,135147,1,0,3:0:0:0:
11,248,135300,2,0,B|-4:209|-4:209|0:173,1,77.8499976242066,0|0,3:1|3:0,0:0:0:0:
124,34,135606,2,0,B|139:73|139:73|135:108,1,77.8499976242066,0|0,3:1|3:0,0:0:0:0:
214,195,135912,6,0,P|252:188|290:181,1,77.8499976242066,2|0,3:2|3:0,0:0:0:0:
451,100,136219,1,0,0:0:0:0:
377,50,136372,1,2,0:0:0:0:
377,50,136525,2,0,P|359:84|364:122,1,77.8499976242066,0|0,3:1|3:0,0:0:0:0:
511,224,136831,2,0,P|515:262|498:296,1,77.8499976242066,0|0,3:1|3:0,0:0:0:0:
378,350,137137,69,8,1:0:0:0:
352,329,137213,1,8,0:0:0:0:
324,313,137290,1,8,0:0:0:0:
295,300,137367,1,8,0:0:0:0:
263,292,137443,1,8,1:0:0:0:
231,289,137520,1,8,0:0:0:0:
199,290,137596,1,8,0:0:0:0:
167,295,137673,1,8,0:0:0:0:
135,304,137749,6,0,P|130:273|125:241,1,64.8750024747849,8|8,0:0|0:0,0:0:0:0:
395,191,137902,2,0,P|400:159|405:127,1,64.8750024747849,8|8,0:0|0:0,0:0:0:0:
135,77,138055,2,0,P|129:45|124:13,1,64.8750024747849,8|8,0:0|0:0,0:0:0:0:
408,21,138208,102,0,B|334:45|334:45|317:84|317:84|245:106,1,194.625007424355,10|0,1:0|0:0,0:0:0:0:
241,119,138514,6,0,B|250:167|250:167|260:173|260:173|246:178|246:178|256:185|256:185|267:225,1,129.75,2|0,1:0|0:0,0:0:0:0:
274,248,138821,70,0,L|279:266,12,18.7056254566803,2|0|0|0|0|0|0|0|0|0|0|0|0,1:0|0:0|0:0|0:0|0:0|0:0|0:0|0:0|0:0|0:0|0:0|0:0|0:0,0:0:0:0:
268,226,139127,6,0,B|218:235|218:235|192:255|192:255|149:229|149:229|127:251|127:251|69:265,1,224.467505480164,2|0,1:0|0:0,0:0:0:0:
54,273,139433,70,0,B|98:195|84:143|84:143|60:115,1,173,14|2,1:0|0:0,0:0:0:0:
161,20,139892,1,8,1:0:0:0:
262,135,140045,1,2,0:0:0:0:
262,135,140122,1,0,3:0:0:0:
262,135,140198,1,2,3:2:0:0:
166,109,140351,1,2,3:2:0:0:
54,273,140504,1,8,1:0:0:0:
159,223,140657,6,0,B|224:243|224:243|246:275|246:275|309:294,1,173,2|2,3:2|0:0,0:0:0:0:
471,358,141117,2,0,P|460:316|450:273,1,86.5,8|2,1:0|0:0,0:0:0:0:
323,139,141423,2,0,P|334:97|344:54,1,86.5,2|0,3:2|0:0,0:0:0:0:
456,46,141729,1,8,1:0:0:0:
508,184,141882,1,2,0:0:0:0:
508,184,141958,1,0,3:0:0:0:
508,184,142035,102,0,B|419:186|419:186|353:238,1,173,2|8,3:2|1:0,0:0:0:0:
166,306,142494,1,2,0:0:0:0:
236,229,142647,2,0,P|257:266|263:308,1,86.5,2|0,3:2|3:0,0:0:0:0:
388,343,142953,1,8,1:0:0:0:
462,237,143106,1,2,3:2:0:0:
352,115,143259,6,0,P|309:124|267:134,1,86.5,0|2,0:0|0:0,0:0:0:0:
419,31,143566,2,0,B|451:64|451:64|456:104,1,86.5,8|0,1:0|0:0,0:0:0:0:
346,269,143872,1,2,3:2:0:0:
401,186,144025,1,2,0:0:0:0:
477,250,144178,1,8,1:0:0:0:
291,351,144331,1,8,0:0:0:0:
270,346,144407,1,8,0:0:0:0:
249,341,144484,102,0,B|196:321|196:321|86:360,1,173,0|8,3:0|1:0,0:0:0:0:
0,248,144943,1,2,0:0:0:0:
0,248,145096,2,0,P|41:234|82:221,1,86.5,2|0,3:2|3:0,0:0:0:0:
210,75,145402,2,0,P|251:61|292:48,1,86.5,8|0,1:0|0:0,0:0:0:0:
117,22,145708,6,0,P|98:60|102:102,1,86.5,2|0,0:0|3:0,0:0:0:0:
386,301,146014,2,0,P|404:262|400:220,1,86.5,8|2,1:0|0:0,0:0:0:0:
339,115,146321,1,2,3:2:0:0:
227,229,146474,1,0,3:0:0:0:
227,229,146550,1,0,3:0:0:0:
227,229,146627,2,0,P|181:241|135:254,1,94.7175026014939,8|0,1:0|0:0,0:0:0:0:
85,346,146933,102,0,B|107:302|106:267|106:267|72:235|61:189,1,173,14|8,1:0|1:0,0:0:0:0:
157,46,147392,1,2,0:0:0:0:
256,236,147545,1,0,3:0:0:0:
160,151,147698,1,0,3:0:0:0:
160,151,147775,1,0,3:0:0:0:
160,151,147851,2,0,P|201:139|243:126,1,86.5,8|0,1:0|3:0,0:0:0:0:
266,125,148081,1,8,0:0:0:0:
266,125,148157,1,4,1:0:0:0:
167,26,148310,5,8,0:0:0:0:
117,30,148387,1,8,0:0:0:0:
72,53,148463,1,8,1:0:0:0:
41,93,148540,1,8,0:0:0:0:
29,142,148617,1,8,0:0:0:0:
37,192,148693,1,8,0:0:0:0:
63,234,148770,101,10,1:0:0:0:
82,229,148846,1,8,0:0:0:0:
100,230,148923,1,8,0:0:0:0:
118,236,148999,1,8,0:0:0:0:
133,246,149076,1,10,1:0:0:0:
145,259,149152,1,8,0:0:0:0:
154,276,149229,1,8,0:0:0:0:
158,294,149305,1,8,0:0:0:0:
212,354,149382,86,0,B|272:329|272:329|289:302|289:302|342:278,1,155.699995248413,14|0,3:1|3:0,0:0:0:0:
486,294,149841,1,2,0:0:0:0:
486,294,149994,2,0,P|477:256|468:218,1,77.8499976242066,0|2,3:0|0:0,0:0:0:0:
322,196,150300,2,0,P|330:158|339:120,1,77.8499976242066,0|2,3:0|0:0,0:0:0:0:
410,6,150606,6,0,B|397:104|428:73|414:159,1,155.699995248413,0|0,3:0|3:0,0:0:0:0:
494,322,151066,1,2,0:0:0:0:
494,322,151219,2,0,P|456:331|418:340,1,77.8499976242066,0|2,3:0|0:0,0:0:0:0:
301,288,151525,2,0,P|263:297|225:306,1,77.8499976242066,0|2,3:0|0:0,0:0:0:0:
304,115,151831,102,0,B|327:146|327:146|329:185,1,77.8499976242066,4|2,3:1|0:0,0:0:0:0:
225,306,152137,1,0,3:0:0:0:
238,182,152290,2,0,P|200:192|163:203,1,77.8499976242066,2|0,0:0|3:0,0:0:0:0:
16,312,152596,1,2,0:0:0:0:
68,230,152749,2,0,P|67:191|54:154,1,77.8499976242066,0|2,3:0|0:0,0:0:0:0:
150,8,153055,21,8,0:0:0:0:
161,54,153132,1,8,0:0:0:0:
194,89,153208,1,8,0:0:0:0:
241,102,153285,1,8,0:0:0:0:
287,89,153361,5,8,0:0:0:0:
333,77,153438,1,8,0:0:0:0:
379,90,153514,1,8,0:0:0:0:
413,125,153591,1,8,0:0:0:0:
423,172,153668,22,0,B|413:220|413:220|433:270,1,103.799996832275,10|0,1:0|0:0,0:0:0:0:
441,285,153897,2,0,B|402:285|375:297|375:297|369:325|342:349,1,129.75000494957,2|0,3:1|0:0,0:0:0:0:
291,282,154127,1,2,3:1:0:0:
127,358,154280,102,0,P|79:354|32:351,1,95.1500029037476,14|0,1:0|3:0,0:0:0:0:
202,229,154586,1,8,0:0:0:0:
111,169,154739,1,8,0:0:0:0:
111,169,154816,1,8,0:0:0:0:
111,169,154892,2,0,B|91:216|91:216|101:258,1,95.1500029037476,0|0,3:0|3:0,0:0:0:0:
257,360,155198,1,8,0:0:0:0:
202,229,155351,86,0,B|309:229|280:277|381:282,1,190.300005807495,8|0,3:2|3:0,0:0:0:0:
484,164,155810,2,0,P|471:117|460:71,1,95.1500029037476,8|0,0:0|3:0,0:0:0:0:
458,58,156040,1,8,0:0:0:0:
458,58,156117,1,0,3:0:0:0:
374,173,156270,1,0,3:0:0:0:
226,25,156423,1,8,0:0:0:0:
341,57,156576,1,8,0:0:0:0:
131,119,156729,22,0,P|83:123|36:128,1,95.1500029037476,2|0,0:0|3:0,0:0:0:0:
221,263,157035,2,0,P|243:221|244:174,1,95.1500029037476,8|0,0:0|3:0,0:0:0:0:
243,161,157264,1,8,0:0:0:0:
243,161,157341,1,0,3:0:0:0:
87,300,157494,1,0,3:0:0:0:
156,197,157647,1,8,0:0:0:0:
337,330,157800,1,8,3:2:0:0:
244,272,157953,85,2,0:0:0:0:
201,373,158106,1,0,3:0:0:0:
375,218,158259,2,0,P|422:225|468:232,1,95.1500029037476,8|0,0:0|0:0,0:0:0:0:
491,240,158489,1,8,0:0:0:0:
491,240,158566,1,0,3:0:0:0:
337,330,158719,1,0,3:0:0:0:
454,134,158872,1,8,0:0:0:0:
512,350,159025,1,0,3:0:0:0:
290,247,159178,22,0,B|239:250|239:250|201:272,1,95.1500029037476,14|0,1:0|3:0,0:0:0:0:
39,368,159484,2,0,B|98:335|98:335|102:273|65:214,1,194.625007424355,8|0,0:0|0:0,0:0:0:0:
54,199,159790,1,0,3:0:0:0:
195,51,159943,1,0,3:0:0:0:
107,3,160096,1,8,0:0:0:0:
114,103,160249,86,0,B|188:87|188:87|236:133,1,142.725004355621,8|0,3:2|0:0,0:0:0:0:
257,152,160555,1,0,3:0:0:0:
167,195,160708,2,0,P|180:241|193:286,1,95.1500029037476,10|2,0:0|0:0,0:0:0:0:
203,309,160938,1,8,0:0:0:0:
203,309,161014,1,0,3:0:0:0:
108,378,161168,1,0,3:0:0:0:
294,271,161321,2,0,B|344:286|391:262|391:262|402:314|445:335,1,194.625007424355,8|0,0:0|0:0,0:0:0:0:
459,349,161627,22,0,B|481:303|481:303|474:259,1,95.1500029037476,2|0,3:2|3:0,0:0:0:0:
407,41,161933,2,0,B|385:87|385:87|391:130,1,95.1500029037476,8|2,0:0|0:0,0:0:0:0:
401,152,162162,1,8,0:0:0:0:
401,152,162239,1,0,3:0:0:0:
324,261,162392,1,0,3:0:0:0:
487,108,162545,1,8,0:0:0:0:
407,41,162698,86,0,B|337:63|337:63|317:103|317:103|248:126,1,190.300005807495,8|0,3:2|3:0,0:0:0:0:
0,107,163157,2,0,B|64:88|96:32|96:32|119:57|156:67,1,194.625007424355,14|0,1:0|0:0,0:0:0:0:
156,84,163463,2,0,P|151:116|148:148,1,64.8750024747849,8|8,0:0|0:0,0:0:0:0:
103,251,163617,37,8,0:0:0:0:
151,282,163693,1,8,0:0:0:0:
208,275,163770,1,8,0:0:0:0:
246,233,163846,1,8,0:0:0:0:
285,191,163923,1,8,0:0:0:0:
342,183,163999,1,8,0:0:0:0:
390,215,164076,101,14,1:0:0:0:
308,314,164229,1,0,3:0:0:0:
380,97,164382,1,8,1:2:0:0:
510,178,164535,1,2,0:0:0:0:
510,178,164611,1,8,0:0:0:0:
510,178,164688,1,0,3:0:0:0:
387,240,164841,1,0,3:0:0:0:
466,99,164994,2,0,B|484:52|484:52|468:9,1,95.1500029037476,8|0,0:0|3:0,0:0:0:0:
354,118,165300,86,0,P|308:125|261:134,1,95.1500029037476,2|0,0:0|3:0,0:0:0:0:
71,235,165606,1,8,3:2:0:0:
154,89,165759,1,2,0:0:0:0:
154,89,165836,1,8,0:0:0:0:
154,89,165912,1,0,3:0:0:0:
68,28,166066,1,0,3:0:0:0:
199,5,166219,1,8,0:0:0:0:
260,133,166372,22,0,P|265:157|270:180,2,47.5750014518738,2|0|2,0:0|0:0|3:2,0:0:0:0:
196,283,166678,1,0,3:0:0:0:
301,379,166831,2,0,B|313:334|313:334|299:287,1,95.1500029037476,8|0,3:2|0:0,0:0:0:0:
296,274,167060,1,8,0:0:0:0:
296,274,167137,1,0,3:0:0:0:
168,183,167290,1,0,0:0:0:0:
81,368,167443,1,8,0:0:0:0:
196,283,167596,86,0,B|260:263|260:263|288:268|288:268|307:246|307:246|369:225,1,190.300005807495,2|0,3:2|3:0,0:0:0:0:
469,50,168055,2,0,B|439:84|424:134|424:134|466:159|477:213,1,194.625007424355,8|0,3:2|0:0,0:0:0:0:
486,240,168361,53,8,0:0:0:0:
432,296,168463,5,8,0:0:0:0:
355,279,168566,5,8,0:0:0:0:
333,255,168668,5,8,0:0:0:0:
256,237,168770,5,8,3:0:0:0:
203,294,168872,5,8,3:0:0:0:
188,270,168974,6,0,B|132:283|93:261|93:261|96:304|61:345,1,190.300005807495,6|2,3:1|0:0,0:0:0:0:
119,95,169433,2,0,B|148:131|148:131|145:179,1,95.1500029037476,8|0,0:0|0:0,0:0:0:0:
52,165,169739,1,0,3:0:0:0:
191,35,169892,1,8,0:0:0:0:
256,237,170045,1,0,3:0:0:0:
145,180,170198,85,2,0:0:0:0:
294,78,170351,1,8,1:0:0:0:
84,18,170504,1,0,3:0:0:0:
176,64,170657,38,2,L|184:89,7,27.03125
191,35,170963,101,8,0:0:0:0:
346,163,171117,1,2,0:0:0:0:
158,270,171270,1,0,3:0:0:0:
310,53,171423,85,8,0:0:0:0:
433,263,171576,1,0,3:0:0:0:
236,189,171729,1,2,0:0:0:0:
465,97,171882,1,8,0:0:0:0:
465,97,171958,1,8,0:0:0:0:
465,97,172035,2,0,B|418:115|418:115|407:128|407:128|369:142,1,108.125,12|0,1:0|3:0,0:0:0:0:
158,270,172341,1,2,0:0:0:0:
346,355,172494,22,0,B|318:293|318:293|269:277|269:277|243:207,1,194.625007424355,8|0,1:0|0:0,0:0:0:0:
236,189,172800,1,0,3:0:0:0:
63,328,172953,2,0,P|115:314|167:300,1,108.125,12|0,1:0|0:0,0:0:0:0:
187,301,173183,1,0,3:0:0:0:
187,301,173259,85,8,0:0:0:0:
333,209,173412,1,0,3:0:0:0:
441,338,173566,1,8,3:2:0:0:
299,373,173719,1,0,3:0:0:0:
305,347,173795,1,0,3:0:0:0:
311,321,173872,86,0,B|251:337|210:318|210:318|187:342|147:346,1,173,12|0,1:0|0:0,0:0:0:0:
42,215,174331,1,8,1:0:0:0:
133,166,174484,2,0,B|144:210|144:210|136:249,1,86.5,2|0,0:0|3:0,0:0:0:0:
47,112,174790,2,0,B|36:68|36:68|43:28,1,86.5,8|0,0:0|3:0,0:0:0:0:
42,215,175096,1,2,0:0:0:0:
138,63,175249,1,8,0:0:0:0:
239,130,175402,1,2,0:0:0:0:
350,94,175555,1,8,0:0:0:0:
350,94,175632,1,8,0:0:0:0:
350,94,175708,6,0,P|392:89|433:75,1,86.5,2|0,0:0|0:0,0:0:0:0:
349,290,176014,2,0,P|392:294|433:308,1,86.5,2|8,0:0|0:0,0:0:0:0:
505,187,176320,2,0,P|462:189|419:192,1,86.5,2|0,0:0|3:0,0:0:0:0:
258,201,176627,5,8,0:0:0:0:
229,237,176729,1,8,0:0:0:0:
230,283,176831,1,8,0:0:0:0:
182,365,176933,5,8,3:0:0:0:
165,321,177035,1,8,3:0:0:0:
124,299,177137,1,8,3:0:0:0:
77,217,177239,5,4,3:0:0:0:
124,224,177341,1,4,3:0:0:0:
164,199,177443,1,4,3:0:0:0:
211,127,177545,54,0,P|295:122|348:187,1,173,4|2,1:3|0:0,0:0:0:0:
482,272,178004,1,8,1:0:0:0:
379,371,178157,2,0,P|370:328|375:286,1,86.5,2|0,0:0|3:0,0:0:0:0:
452,70,178463,2,0,P|460:112|455:154,1,86.5,4|0,1:3|0:0,0:0:0:0:
284,216,178769,21,8,3:2:0:0:
258,220,178846,1,8,3:2:0:0:
232,225,178923,1,8,3:2:0:0:
207,229,178999,1,8,3:2:0:0:
184,257,179076,5,8,3:0:0:0:
163,253,179152,1,8,0:3:0:0:
143,249,179229,1,8,0:3:0:0:
122,245,179305,1,8,0:3:0:0:
60,200,179382,86,0,B|16:249|20:315|20:315|55:346,1,173,4|2,1:0|0:0,0:0:0:0:
184,257,179841,1,8,1:0:0:0:
269,331,179994,1,2,0:0:0:0:
172,367,180147,101,0,3:0:0:0:
172,367,180224,1,8,0:0:0:0:
172,367,180300,1,4,1:3:0:0:
316,242,180453,5,8,0:0:0:0:
316,242,180530,1,8,0:0:0:0:
316,242,180606,1,8,0:0:0:0:
185,186,180759,101,8,0:0:0:0:
306,128,180912,1,8,3:2:0:0:
212,74,181065,1,8,3:2:0:0:
256,0,181218,6,0,B|239:105|280:70|265:170,1,173,4|0,1:3|0:0,0:0:0:0:
371,238,181678,1,8,0:0:0:0:
256,307,181831,1,2,0:0:0:0:
141,238,181984,1,0,3:0:0:0:
371,146,182137,2,0,B|378:104|378:104|366:61,1,86.5,12|0,1:0|3:0,0:0:0:0:
141,238,182443,2,0,B|133:279|133:279|145:322,1,86.5,8|0,0:0|3:0,0:0:0:0:
256,381,182749,85,8,0:0:0:0:
270,354,182826,1,8,0:0:0:0:
272,324,182902,1,8,0:0:0:0:
270,294,182979,1,8,0:0:0:0:
256,267,183055,1,8,1:3:0:0:
89,159,183361,1,2,0:0:0:0:
366,62,183667,1,2,0:0:0:0:
152,0,183974,70,0,P|149:43|143:86,1,86.5,12|0,1:0|3:0,0:0:0:0:
360,384,184280,2,0,B|354:336|354:336|368:300,1,86.5,12|0,1:0|3:0,0:0:0:0:
256,192,184586,1,12,1:0:0:0:
226,204,184662,1,8,0:0:0:0:
196,216,184739,1,8,0:0:0:0:
166,229,184815,1,8,0:0:0:0:
127,297,184892,6,0,P|77:311|29:332,1,103.799996832275,12|8,1:0|1:0,0:0:0:0:
385,87,185351,2,0,B|434:83|434:83|479:53,1,103.799996832275,4|8,3:0|0:2,0:0:0:0:
488,36,185734,1,8,0:0:0:0:
488,36,185810,5,4,3:0:0:0:
371,2,185963,1,0,3:0:0:0:
293,96,186116,1,0,3:0:0:0:
117,33,186269,5,4,3:0:0:0:
153,207,186423,1,8,0:0:0:0:
163,193,186499,1,8,0:0:0:0:
165,177,186576,1,8,0:0:0:0:
176,166,186652,1,8,0:0:0:0:
187,151,186729,70,0,B|195:125|195:125|191:98,1,54.0625,8|0,1:0|0:0,0:0:0:0:
18,170,186882,2,0,P|44:173|71:176,1,54.0625,8|0,0:0|0:0,0:0:0:0:
263,268,187035,2,0,P|236:271|209:274,1,54.0625,8|8,0:0|0:0,0:0:0:0:
16,330,187188,86,0,B|64:292|125:291|125:291|132:329|163:349,1,190.300005807495,12|0,1:0|3:0,0:0:0:0:
25,199,187647,2,0,P|12:152|0:106,1,95.1500029037476,8|0,1:0|0:0,0:0:0:0:
77,15,187953,1,8,0:0:0:0:
160,86,188106,1,0,3:0:0:0:
25,199,188259,1,8,1:0:0:0:
160,86,188412,6,0,B|266:98|241:146|334:154,1,190.300005807495,4|0,3:1|3:0,0:0:0:0:
455,27,188871,2,0,B|432:70|432:70|443:115,1,95.1500029037476,8|8,1:0|0:0,0:0:0:0:
453,134,189101,1,8,0:0:0:0:
453,134,189177,1,8,0:0:0:0:
322,278,189330,1,0,3:0:0:0:
415,335,189483,2,0,B|438:292|438:292|426:246,1,95.1500029037476,8|0,1:0|3:0,0:0:0:0:
71,45,189789,21,12,1:0:0:0:
205,161,189943,1,0,3:0:0:0:
338,276,190096,1,0,3:0:0:0:
353,39,190249,101,8,1:0:0:0:
193,174,190402,1,0,3:0:0:0:
33,309,190555,1,0,3:0:0:0:
256,75,190708,5,4,1:0:0:0:
256,192,190784,12,2,192238,0:0:0:0:
371,44,201422,5,2,3:2:0:0:
469,122,201728,1,2,0:0:0:0:
354,173,202034,1,2,0:0:0:0:
366,153,202264,5,2,0:0:0:0:
444,239,202494,1,0,3:0:0:0:
361,319,202647,1,2,0:0:0:0:
349,339,202953,102,0,P|317:346|285:352,1,64.875,2|0,0:0|0:0,0:0:0:0:
285,352,203259,1,2,0:0:0:0:
170,278,203565,1,2,0:0:0:0:
170,278,203718,2,0,P|179:235|189:193,1,86.5,2|0,0:0|0:0,0:0:0:0:
74,219,204177,2,0,P|67:187|59:155,1,64.875,2|0,0:0|0:0,0:0:0:0:
59,155,204483,5,2,3:2:0:0:
175,77,204789,1,2,0:0:0:0:
309,113,205096,1,2,0:0:0:0:
344,247,205402,1,2,0:0:0:0:
344,247,205708,102,0,P|332:289|338:331,1,86.5,2|0,0:0|0:0,0:0:0:0:
173,330,206320,2,0,P|179:288|168:247,1,86.5,2|0,0:0|0:0,0:0:0:0:
167,246,206932,22,0,P|114:258|61:270,1,108.125,4|0,3:1|0:0,0:0:0:0:
163,92,207238,1,0,3:0:0:0:
175,114,207392,1,2,0:0:0:0:
302,254,207545,1,0,3:0:0:0:
314,232,207698,1,2,0:0:0:0:
344,138,207851,2,0,P|397:125|450:113,1,108.125,0|0,3:0|0:0,0:0:0:0:
281,17,208157,5,0,3:0:0:0:
273,41,208310,1,2,0:0:0:0:
167,246,208463,1,0,3:0:0:0:
175,270,208616,1,2,0:0:0:0:
167,138,208769,102,0,B|137:93|137:93|141:39,1,108.125,0|2,3:0|0:0,0:0:0:0:
344,246,209075,2,0,B|375:291|375:291|370:344,1,108.125,4|2,3:1|0:0,0:0:0:0:
214,376,209381,21,4,3:1:0:0:
180,328,209458,1,8,0:0:0:0:
175,270,209534,1,8,0:0:0:0:
200,217,209611,1,8,0:0:0:0:
247,184,209687,5,8,1:0:0:0:
296,151,209764,1,8,0:0:0:0:
320,97,209841,1,8,0:0:0:0:
316,40,209917,1,8,0:0:0:0:
265,12,209994,6,0,P|257:43|250:75,1,64.8750024747849,8|8,1:0|0:0,0:0:0:0:
441,159,210147,2,0,P|448:190|455:222,1,64.8750024747849,8|8,0:0|0:0,0:0:0:0:
286,333,210300,5,8,1:0:0:0:
257,338,210376,1,8,0:0:0:0:
228,344,210453,1,8,0:0:0:0:
200,349,210529,1,8,3:2:0:0:
122,364,210606,6,0,B|101:323|101:323|110:275,1,94.7175026014939,10|0,3:1|0:0,0:0:0:0:
179,136,210912,6,0,B|199:184|199:184|216:193|216:193|207:251,1,129.75,2|0,1:0|0:0,0:0:0:0:
286,333,211218,54,0,B|319:323|319:323|342:326|342:326|364:313|364:313|440:293,1,162.1875,2|0,1:0|0:0,0:0:0:0:
207,251,211524,22,0,B|171:262|171:262|141:256|141:256|120:287|120:287|87:282|87:282|34:303,1,194.625007424355,2|0,1:0|0:0,0:0:0:0:
20,308,211830,102,0,P|23:254|26:200,1,108.125,6|0,1:2|3:0,0:0:0:0:
32,185,212060,1,0,3:0:0:0:
32,185,212136,1,2,1:0:0:0:
185,25,212289,1,2,3:1:0:0:
5,26,212443,2,0,B|83:50|83:50|107:104|107:104|176:133,1,216.25,2|8,1:0|1:0,0:0:0:0:
396,272,212902,85,0,3:0:0:0:
411,241,212978,1,0,3:0:0:0:
396,209,213055,2,0,P|343:221|291:234,1,108.125,6|0,3:1|3:0,0:0:0:0:
274,245,213284,1,0,3:0:0:0:
274,245,213361,1,2,1:0:0:0:
23,243,213514,2,0,B|131:218|131:218|195:301,1,216.25,0|0,3:0|3:0,0:0:0:0:
401,370,213973,2,0,B|387:322|387:322|392:294|392:294|367:214,1,162.1875,8|0,1:0|0:0,0:0:0:0:
359,197,214279,22,0,B|337:145|337:145|343:93,1,108.125,2|0,3:1|3:0,0:0:0:0:
479,7,214509,1,0,3:0:0:0:
479,7,214585,2,0,B|500:58|500:58|494:110,1,108.125,2|0,1:0|3:0,0:0:0:0:
303,297,214892,1,2,1:0:0:0:
512,369,215045,1,0,3:0:0:0:
454,229,215198,2,0,B|394:243|394:243|377:256|377:256|355:254|355:254|298:265,1,162.1875,10|0,1:0|3:0,0:0:0:0:
277,268,215504,86,0,B|225:269|199:253|199:253|193:283|154:320,1,162.1875,2|0,3:1|3:0,0:0:0:0:
140,337,215810,1,10,1:0:0:0:
0,210,215963,1,0,3:0:0:0:
100,128,216116,2,0,B|110:165|110:165|102:190,2,64.8750024747849,2|0|0,1:0|1:0|3:0,0:0:0:0:
208,0,216422,2,0,B|191:51|191:51|220:155,1,162.1875,8|0,1:0|0:0,0:0:0:0:
225,178,216728,22,0,B|316:180|297:219|379:223,1,162.1875,2|0,3:1|3:0,0:0:0:0:
400,222,217034,1,10,1:0:0:0:
512,90,217187,1,2,3:1:0:0:
425,25,217341,2,0,B|402:75|402:75|415:126,1,108.125,2|0,0:0|3:0,0:0:0:0:
500,349,217647,2,0,B|523:299|523:299|509:247,1,108.125,10|0,1:0|3:0,0:0:0:0:
505,231,217876,1,0,3:0:0:0:
505,231,217953,85,2,3:1:0:0:
310,94,218106,1,0,3:0:0:0:
310,94,218182,1,0,3:0:0:0:
310,94,218259,1,8,1:0:0:0:
245,328,218412,1,0,3:0:0:0:
393,202,218565,2,0,P|339:208|285:215,1,108.125,2|0,1:0|3:0,0:0:0:0:
61,292,218871,1,10,1:0:0:0:
155,128,219024,1,2,0:0:0:0:
78,52,219177,22,0,B|108:81|123:122|123:122|92:145|90:191,1,162.1875,2|0,3:1|3:0,0:0:0:0:
99,210,219483,1,10,1:0:0:0:
268,353,219636,1,0,3:0:0:0:
268,353,219713,1,0,3:0:0:0:
268,353,219789,2,0,P|320:341|373:329,1,108.125,2|0,1:0|3:0,0:0:0:0:
449,128,220096,1,10,1:0:0:0:
512,238,220249,1,0,3:0:0:0:
512,238,220325,1,0,3:0:0:0:
512,238,220402,86,0,B|464:249|420:220|420:220|391:233|355:220,1,162.1875,6|0,3:1|3:0,0:0:0:0:
332,217,220708,2,0,B|322:162|322:162|344:114,1,108.125,6|2,2:1|0:0,0:0:0:0:
243,15,221014,1,6,3:1:0:0:
78,160,221167,1,8,1:0:0:0:
78,160,221244,1,8,1:0:0:0:
78,160,221320,2,0,B|69:125|69:125|72:96,1,64.8750024747849,8|0,1:0|0:0,0:0:0:0:
200,194,221473,2,0,B|209:229|209:229|205:257,1,64.8750024747849,8|8,1:0|1:0,0:0:0:0:
47,323,221626,102,0,B|92:323|123:298|123:298|136:333|181:350,1,162.1875,4|0,3:1|0:0,0:0:0:0:
201,358,221932,1,2,3:2:0:0:
386,268,222085,1,0,0:0:0:0:
386,268,222238,2,0,B|406:313|406:313|397:358,1,95.1500029037476,2|0,3:2|0:0,0:0:0:0:
301,326,222545,1,2,3:2:0:0:
410,173,222698,1,8,1:0:0:0:
410,173,222774,1,0,3:0:0:0:
409,173,222851,6,0,P|361:166|314:161,1,95.1500029037476,2|0,3:2|0:0,0:0:0:0:
179,73,223157,2,0,P|226:67|273:61,1,95.1500029037476,2|0,3:2|0:0,0:0:0:0:
112,8,223463,1,2,3:2:0:0:
86,115,223616,1,8,1:0:0:0:
198,167,223769,1,2,3:2:0:0:
50,335,223922,1,8,1:0:0:0:
50,335,223999,1,0,3:0:0:0:
50,335,224075,102,0,B|106:318|106:318|158:343,1,116.77499643631,4|0,1:0|0:0,0:0:0:0:
325,320,224381,2,0,B|308:264|308:264|333:211,1,116.77499643631,0|0,3:0|0:0,0:0:0:0:
310,45,224687,2,0,B|254:62|254:62|201:36,1,116.77499643631,4|0,1:0|0:0,0:0:0:0:
35,60,224994,2,0,B|52:116|52:116|26:168,1,116.77499643631,0|0,3:0|0:0,0:0:0:0:
183,192,225300,37,4,1:0:0:0:
183,192,225606,21,0,3:0:0:0:
325,320,225759,1,0,3:0:0:0:
75,358,225912,1,8,1:0:0:0:
317,181,226065,1,8,1:0:0:0:
142,96,226218,101,8,1:0:0:0:
406,246,226371,1,8,1:0:0:0:
203,361,226524,1,4,1:3:0:0:
203,361,226677,102,0,P|196:322|191:283,1,77.8499976242066,0|0,3:0|0:0,0:0:0:0:
317,181,226983,1,0,3:0:0:0:
317,181,227136,2,0,P|323:142|328:103,1,77.8499976242066,4|0,1:0|3:0,0:0:0:0:
191,77,227596,85,0,3:0:0:0:
194,96,227672,1,0,3:0:0:0:
197,115,227749,1,0,3:2:0:0:
179,0,227902,1,0,3:0:0:0:
179,0,228208,21,0,3:0:0:0:
328,104,228361,1,4,1:3:0:0:
92,224,228514,1,0,3:0:0:0:
92,224,228973,85,0,3:2:0:0:
436,310,229126,1,0,3:0:0:0:
436,310,229432,21,0,3:0:0:0:
60,375,229585,1,4,1:0:0:0:
256,192,229738,1,0,3:0:0:0:
256,192,230045,85,8,0:0:0:0:
253,211,230121,1,8,0:0:0:0:
250,230,230198,1,4,1:0:0:0:
274,116,230351,1,0,3:0:0:0:
168,376,230657,37,0,3:0:0:0:
168,376,230810,1,8,1:0:0:0:
345,263,230963,1,8,0:0:0:0:
175,146,231116,1,8,1:0:0:0:
256,0,231269,1,8,0:0:0:0:
44,335,233259,5,4,0:0:0:0:
44,335,233871,86,0,B|63:272|63:272|103:253|103:253|119:192,1,173,6|0,3:1|0:0,0:0:0:0:
126,174,234101,1,2,3:1:0:0:
126,174,234177,2,0,P|83:179|40:184,1,86.5,8|0,1:0|0:0,0:0:0:0:
135,71,234330,2,0,P|213:98|230:179,1,173,2|2,3:1|0:0,0:0:0:0:
471,348,234636,1,2,3:1:0:0:
454,328,234713,1,2,0:0:0:0:
437,308,234789,6,0,B|381:292|316:311|316:311|287:352,1,173,10|0,3:1|0:0,0:0:0:0:
53,306,235019,2,0,B|101:298|133:265|133:265|143:310|182:327,1,173,2|0,3:1|0:0,0:0:0:0:
206,334,235249,1,2,3:1:0:0:
365,152,235402,21,8,1:0:0:0:
359,130,235478,1,2,0:0:0:0:
353,109,235555,1,2,0:0:0:0:
347,87,235631,1,2,0:0:0:0:
342,66,235708,69,2,0:0:0:0:
269,40,235784,1,2,0:0:0:0:
197,66,235861,1,2,3:2:0:0:
156,130,235937,1,2,0:0:0:0:
154,147,236014,5,8,1:0:0:0:
129,184,236091,1,2,0:0:0:0:
87,199,236167,1,2,0:0:0:0:
44,184,236244,1,2,0:0:0:0:
14,149,236320,102,0,B|-12:200|0:258|0:258|55:282,1,173,6|0,3:1|0:0,0:0:0:0:
216,322,236550,1,2,3:1:0:0:
216,322,236626,2,0,B|123:328|155:370|57:381,1,173,8|2,1:0|3:1,0:0:0:0:
325,242,236932,1,2,0:0:0:0:
510,356,237085,1,8,0:0:0:0:
510,356,237162,1,8,0:0:0:0:
510,356,237238,6,0,B|465:277|465:277|485:198,1,173,2|0,3:1|0:0,0:0:0:0:
375,42,237468,2,0,P|291:36|238:101,1,173,2|0,3:1|0:0,0:0:0:0:
239,124,237698,1,2,3:1:0:0:
47,370,237851,21,12,1:0:0:0:
55,347,237927,1,8,0:0:0:0:
64,324,238004,1,8,0:0:0:0:
72,303,238080,1,8,0:0:0:0:
82,280,238157,69,8,1:0:0:0:
149,308,238233,1,8,0:0:0:0:
222,297,238310,1,8,0:0:0:0:
277,247,238386,1,8,0:0:0:0:
291,236,238463,5,8,1:0:0:0:
263,202,238539,1,8,0:0:0:0:
250,161,238616,1,8,0:0:0:0:
252,119,238693,1,8,0:0:0:0:
277,84,238769,102,0,B|216:99|216:99|187:136|187:136|127:156,1,173,6|0,3:1|0:0,0:0:0:0:
107,164,238999,1,2,3:1:0:0:
107,164,239075,2,0,B|89:120|89:120|96:80,1,86.5,8|0,1:0|0:0,0:0:0:0:
15,280,239228,2,0,B|107:277|145:248|145:248|157:293|192:309,1,216.25,2|2,3:1|3:1,0:0:0:0:
207,324,239611,1,0,3:0:0:0:
207,324,239687,6,0,B|258:304|296:313|296:313|316:351|359:358,1,173,10|0,3:1|0:0,0:0:0:0:
512,248,239917,2,0,B|498:203|470:174|470:174|432:171|386:194,1,173,2|0,3:1|0:0,0:0:0:0:
382,212,240147,2,0,L|371:268,2,57.6666666666667,2|0|0,3:1|0:0|0:0,0:0:0:0:
297,118,240300,5,8,1:0:0:0:
447,0,240453,1,2,0:0:0:0:
451,24,240529,1,2,0:0:0:0:
456,49,240606,6,0,B|431:49|427:61|403:62,3,54.0625,2|2|0|2,0:0|0:0|3:0|0:0,0:0:0:0:
319,10,240912,70,0,B|302:52|302:52|312:92,1,86.5,8|2,1:0|0:0,0:0:0:0:
475,223,241065,2,0,B|491:180|491:180|481:140,1,86.5,2|2,0:0|0:0,0:0:0:0:
351,201,241218,6,0,B|252:213|294:255|194:265,1,173,6|0,3:1|0:0,0:0:0:0:
176,273,241448,1,2,3:1:0:0:
176,273,241524,1,8,1:0:0:0:
21,321,241677,2,0,B|59:218|59:218|39:157,1,173,2|0,3:1|0:0,0:0:0:0:
268,347,241983,1,2,3:1:0:0:
268,347,242060,1,0,3:0:0:0:
268,347,242136,102,0,B|324:344|367:307|367:307|389:336|418:343,1,173,14|0,2:1|3:0,0:0:0:0:
442,355,242366,1,2,0:0:0:0:
442,355,242443,1,0,3:0:0:0:
249,169,242596,1,2,3:1:0:0:
478,49,242749,1,8,1:0:0:0:
402,177,242902,1,8,3:2:0:0:
402,177,242978,1,2,0:0:0:0:
402,177,243055,6,0,P|400:203|396:230,1,54.0625,10|8,1:0|0:0,0:0:0:0:
247,374,243208,102,0,P|244:347|240:320,1,54.0625,10|8,1:0|0:0,0:0:0:0:
212,130,243361,6,0,P|214:156|218:183,1,54.0625,10|8,1:0|0:0,0:0:0:0:
58,327,243514,102,0,P|60:300|64:273,1,54.0625,10|8,1:0|0:0,0:0:0:0:
93,171,243667,21,6,0:0:0:0:
133,99,243820,1,2,0:0:0:0:
45,99,243973,1,2,0:0:0:0:
9,179,244126,1,0,3:0:0:0:
93,171,244279,1,2,0:0:0:0:
93,171,244585,5,0,3:0:0:0:
164,234,244738,1,2,0:0:0:0:
254,202,244892,1,2,0:0:0:0:
255,183,245045,1,2,0:0:0:0:
71,265,245198,1,2,0:0:0:0:
71,265,245504,101,2,0:0:0:0:
164,234,245657,1,2,0:0:0:0:
241,302,245810,1,2,0:0:0:0:
241,301,245886,2,0,P|243:316|246:332,2,31.5725008671646,0|2|0,0:0|0:0|0:0,0:0:0:0:
147,325,246116,5,0,3:0:0:0:
146,344,246269,1,2,0:0:0:0:
71,265,246422,1,2,0:0:0:0:
70,246,246575,1,0,3:0:0:0:
29,355,246728,1,2,0:0:0:0:
29,355,247034,101,0,3:0:0:0:
147,325,247187,1,2,0:0:0:0:
71,265,247341,1,2,0:0:0:0:
164,234,247494,1,2,0:0:0:0:
241,301,247647,1,2,0:0:0:0:
241,301,247953,5,8,3:1:0:0:
510,190,248182,101,8,3:1:0:0:
72,64,248412,101,8,3:1:0:0:
