osu file format v14

[General]
AudioFilename: audio.ogg
AudioLeadIn: 0
PreviewTime: 73431
Countdown: 0
SampleSet: Normal
StackLeniency: 0.7
Mode: 1
LetterboxInBreaks: 0
WidescreenStoryboard: 0

[Editor]
Bookmarks: 19138,99138,113921,216529
DistanceSpacing: 0.1
BeatDivisor: 8
GridSize: 32
TimelineZoom: 2.599999

[Metadata]
Title:Erase
TitleUnicode:Erase
Artist:Kotone
ArtistUnicode:Kotone
Creator:Cynplytholowazy
Version:Void
Source:
Tags:Japanese Rock JRock J-Rock Resist 天神 子兎音 Tenjin Kotone VirtualYoutuber Virtual Youtuber Vtuber Deguchi Ryo 出口遼 Mutsuki Shuhei 睦月周平 iRedi
BeatmapID:3957908
BeatmapSetID:1917974

[Difficulty]
HPDrainRate:6
CircleSize:10
OverallDifficulty:7.5
ApproachRate:10
SliderMultiplier:1.4
SliderTickRate:1

[Events]
//Background and Video events
0,0,"maxresdefault.jpg",0,30
//Break Periods
//Storyboard Layer 0 (Background)
//Storyboard Layer 1 (Fail)
//Storyboard Layer 2 (Pass)
//Storyboard Layer 3 (Foreground)
//Storyboard Layer 4 (Overlay)
//Storyboard Sound Samples

[TimingPoints]
-3470,434.782608695652,4,1,0,50,1,0
-3470,-80,4,1,0,50,0,0
12179,-80,4,1,0,50,0,0
12613,-76.1967356775112,4,1,0,50,0,0
13048,-72.7310748640736,4,1,0,50,0,0
13160,-80,4,1,0,80,0,0
13266,-71.1102024125946,4,1,0,80,0,0
13338,-70.5906230972194,4,1,0,80,0,0
13411,-70.0715221114133,4,1,0,80,0,0
13483,-69.5669566956696,4,1,0,80,0,0
13592,-68.816778789078,4,1,0,80,0,0
13918,-66.6666666666667,4,1,0,80,0,0
19138,434.782608695652,4,1,0,80,1,0
19138,-50,4,1,0,80,0,0
33485,-55.5555555555556,4,1,0,80,0,0
35659,-60.6060606060606,4,1,0,80,0,0
37398,-66.6666666666667,4,1,0,80,0,0
46746,-60.6060606060606,4,1,0,80,0,0
47181,-60.6060606060606,4,1,0,70,0,0
61094,-74.0740740740741,4,1,0,50,0,0
67724,-66.6666666666667,4,1,0,60,0,0
69464,-66.6666666666667,4,1,0,65,0,0
71203,-50,4,1,0,70,0,0
71308,-66.6666666666667,4,1,0,70,0,0
71526,-65.3030587352224,4,1,0,70,0,0
71634,-64.6479658183169,4,1,0,70,0,0
71743,-64,4,1,0,70,0,0
71852,-63.3648943918427,4,1,0,70,0,0
71961,-62.7422698999369,4,1,0,70,0,0
72069,-62.1373091688242,4,1,0,70,0,0
72178,-61.5384615384615,4,1,0,70,0,0
72287,-60.951046501445,4,1,0,70,0,0
72395,-60.3799774442613,4,1,0,70,0,0
72504,-59.8143691990375,4,1,0,70,0,0
72613,-59.2592592592593,4,1,0,70,0,0
72721,-58.719311566692,4,1,0,70,0,0
72830,-58.1842501253971,4,1,0,70,0,0
72939,-57.6588517935548,4,1,0,70,0,0
73048,-57.1428571428571,4,1,0,70,0,0
73920,-50,4,1,0,80,0,0
74790,-50,4,1,0,80,0,1
88920,-57.1428571428571,4,1,0,80,0,1
95659,-50,4,1,0,80,0,0
96094,-57.1428571428571,4,1,0,80,0,0
97398,-50,4,1,0,80,0,0
98377,-57.1428571428571,4,1,0,80,0,0
99137,434.782608695652,4,1,0,80,1,8
99138,434.782608695652,4,1,0,80,1,0
99138,-50,4,1,0,80,0,0
113921,434.782608695652,4,1,0,80,1,0
113921,-50,4,1,0,80,0,0
114138,-66.6666666666667,4,1,0,60,0,0
126529,-50,4,1,0,60,0,0
127725,-60.6060606060606,4,1,0,70,0,0
183268,-57.1428571428571,4,1,0,80,0,0
184355,-66.6666666666667,4,1,0,80,0,0
184899,-57.1428571428571,4,1,0,80,0,0
185116,-66.6666666666667,4,1,0,80,0,0
185334,-57.1428571428571,4,1,0,80,0,0
185551,-66.6666666666667,4,1,0,80,0,0
186910,-57.1428571428571,4,1,0,80,0,0
187399,-66.6666666666667,4,1,0,80,0,0
188917,-64.0044166359956,4,1,0,80,0,0
189026,-62.7458055204763,4,1,0,80,0,0
189244,-60.3714632876237,4,1,0,80,0,0
189352,-59.2605213835406,4,1,0,80,0,0
189570,-57.1381632988336,4,1,0,80,0,0
189642,-56.4702062023056,4,1,0,80,0,0
189715,-55.808729139923,4,1,0,80,0,0
189787,-55.1713197969543,4,1,0,80,0,0
189896,-54.2335880243256,4,1,0,80,0,0
190004,-53.3353780095077,4,1,0,80,0,0
190077,-52.7449196239005,4,1,0,80,0,0
190149,-52.1752175217522,4,1,0,80,0,0
190222,-51.6100311618935,4,1,0,80,0,0
190331,-50.7885514018692,4,1,0,80,0,0
190442,-50,4,1,0,80,0,1
195442,-50,4,1,0,80,0,0
197399,-50,4,1,0,80,0,1
203920,-50,4,1,0,80,0,0
204355,-50,4,1,0,80,0,1
211312,-50,4,1,0,80,0,0
211747,-57.1428571428571,4,1,0,80,0,0
213051,-50,4,1,0,80,0,0
216529,434.782608695652,4,1,0,80,1,0
216529,-50,4,1,0,80,0,0

[HitObjects]
256,192,3486,5,2,0:0:0:0:
256,192,3812,1,2,0:0:0:0:
256,192,4138,1,0,0:0:0:0:
256,192,4356,1,2,0:0:0:0:
256,192,4682,1,2,0:0:0:0:
256,192,5008,1,0,0:0:0:0:
256,192,5225,1,2,0:0:0:0:
256,192,5443,1,0,0:0:0:0:
256,192,5660,1,2,0:0:0:0:
256,192,5877,1,2,0:0:0:0:
256,192,6095,1,0,0:0:0:0:
256,192,6529,1,0,0:0:0:0:
256,192,6747,1,0,0:0:0:0:
256,192,6964,1,2,0:0:0:0:
256,192,7290,1,0,0:0:0:0:
256,192,7616,1,0,0:0:0:0:
256,192,7834,1,2,0:0:0:0:
256,192,8160,1,2,0:0:0:0:
256,192,8486,1,0,0:0:0:0:
256,192,8703,1,2,0:0:0:0:
256,192,9029,1,0,0:0:0:0:
256,192,9356,1,0,0:0:0:0:
256,192,9573,1,2,0:0:0:0:
256,192,9790,1,2,0:0:0:0:
256,192,10008,1,0,0:0:0:0:
256,192,10225,1,0,0:0:0:0:
256,192,10443,1,2,0:0:0:0:
256,192,10769,1,2,0:0:0:0:
256,192,11095,1,0,0:0:0:0:
256,192,11312,1,2,0:0:0:0:
256,192,11638,1,0,0:0:0:0:
256,192,11964,1,0,0:0:0:0:
256,192,12182,1,2,0:0:0:0:
256,192,12616,1,2,0:0:0:0:
256,192,13051,1,2,0:0:0:0:
256,192,13269,1,0,0:0:0:0:
256,192,13341,1,0,0:0:0:0:
256,192,13414,1,0,0:0:0:0:
256,192,13486,1,2,0:0:0:0:
256,192,13595,1,0,0:0:0:0:
256,192,13921,1,0,0:0:0:0:
256,192,14029,1,0,0:0:0:0:
256,192,14138,1,6,0:0:0:0:
256,192,14356,1,0,0:0:0:0:
256,192,14464,1,6,0:0:0:0:
256,192,14682,1,0,0:0:0:0:
256,192,14790,1,6,0:0:0:0:
256,192,15008,1,0,0:0:0:0:
256,192,15116,1,6,0:0:0:0:
256,192,15334,1,0,0:0:0:0:
256,192,15443,1,6,0:0:0:0:
256,192,17182,1,2,0:0:0:0:
256,192,17254,1,2,0:0:0:0:
256,192,17327,1,2,0:0:0:0:
256,192,17399,1,0,0:0:0:0:
256,192,17616,1,2,0:0:0:0:
256,192,17725,1,0,0:0:0:0:
256,192,17943,1,2,0:0:0:0:
256,192,18051,1,0,0:0:0:0:
256,192,18160,1,6,0:0:0:0:
256,192,19138,1,2,0:0:0:0:
256,192,19246,1,0,0:0:0:0:
256,192,19301,1,0,0:0:0:0:
256,192,19355,1,0,0:0:0:0:
256,192,19409,1,0,0:0:0:0:
256,192,19464,1,2,0:0:0:0:
256,192,19572,1,0,0:0:0:0:
256,192,19681,1,2,0:0:0:0:
256,192,19735,1,2,0:0:0:0:
256,192,19790,1,0,0:0:0:0:
256,192,19898,1,2,0:0:0:0:
256,192,19953,1,0,0:0:0:0:
256,192,20007,1,0,0:0:0:0:
256,192,20061,1,0,0:0:0:0:
256,192,20116,1,2,0:0:0:0:
256,192,20224,1,0,0:0:0:0:
256,192,20333,1,2,0:0:0:0:
256,192,20388,1,0,0:0:0:0:
256,192,20442,1,2,0:0:0:0:
256,192,20496,1,2,0:0:0:0:
256,192,20551,1,0,0:0:0:0:
256,192,20605,1,0,0:0:0:0:
256,192,20659,1,2,0:0:0:0:
256,192,20768,1,0,0:0:0:0:
256,192,20877,1,2,0:0:0:0:
256,192,20985,1,0,0:0:0:0:
256,192,21040,1,0,0:0:0:0:
256,192,21094,1,0,0:0:0:0:
256,192,21148,1,0,0:0:0:0:
256,192,21203,1,2,0:0:0:0:
256,192,21311,1,0,0:0:0:0:
256,192,21420,1,2,0:0:0:0:
256,192,21474,1,2,0:0:0:0:
256,192,21529,1,0,0:0:0:0:
256,192,21583,1,0,0:0:0:0:
256,192,21637,1,2,0:0:0:0:
256,192,21746,1,0,0:0:0:0:
256,192,21855,1,2,0:0:0:0:
256,192,21909,1,2,0:0:0:0:
256,192,21963,1,0,0:0:0:0:
256,192,22018,1,2,0:0:0:0:
256,192,22072,1,0,0:0:0:0:
256,192,22127,1,0,0:0:0:0:
256,192,22181,1,2,0:0:0:0:
256,192,22290,1,0,0:0:0:0:
256,192,22344,1,0,0:0:0:0:
256,192,22398,1,2,0:0:0:0:
256,192,22507,1,0,0:0:0:0:
256,192,22616,1,2,0:0:0:0:
256,192,22724,1,0,0:0:0:0:
256,192,22779,1,0,0:0:0:0:
256,192,22833,1,0,0:0:0:0:
256,192,22887,1,0,0:0:0:0:
256,192,22942,1,2,0:0:0:0:
256,192,23050,1,0,0:0:0:0:
256,192,23159,1,2,0:0:0:0:
256,192,23213,1,2,0:0:0:0:
256,192,23268,1,0,0:0:0:0:
256,192,23376,1,2,0:0:0:0:
256,192,23431,1,0,0:0:0:0:
256,192,23485,1,0,0:0:0:0:
256,192,23539,1,0,0:0:0:0:
256,192,23594,1,2,0:0:0:0:
256,192,23702,1,0,0:0:0:0:
256,192,23811,1,2,0:0:0:0:
256,192,23866,1,0,0:0:0:0:
256,192,23920,1,2,0:0:0:0:
256,192,23974,1,2,0:0:0:0:
256,192,24029,1,0,0:0:0:0:
256,192,24083,1,0,0:0:0:0:
256,192,24137,1,2,0:0:0:0:
256,192,24246,1,0,0:0:0:0:
256,192,24355,1,2,0:0:0:0:
256,192,24463,1,0,0:0:0:0:
256,192,24518,1,0,0:0:0:0:
256,192,24572,1,0,0:0:0:0:
256,192,24626,1,0,0:0:0:0:
256,192,24681,1,2,0:0:0:0:
256,192,24789,1,0,0:0:0:0:
256,192,24898,1,2,0:0:0:0:
256,192,24952,1,2,0:0:0:0:
256,192,25007,1,0,0:0:0:0:
256,192,25061,1,0,0:0:0:0:
256,192,25115,1,2,0:0:0:0:
256,192,25224,1,0,0:0:0:0:
256,192,25333,1,2,0:0:0:0:
256,192,25387,1,2,0:0:0:0:
256,192,25441,1,0,0:0:0:0:
256,192,25496,1,2,0:0:0:0:
256,192,25550,1,0,0:0:0:0:
256,192,25605,1,0,0:0:0:0:
256,192,25659,1,2,0:0:0:0:
256,192,25732,1,2,0:0:0:0:
256,192,25804,1,2,0:0:0:0:
256,192,25877,1,0,0:0:0:0:
256,192,25985,1,0,0:0:0:0:
256,192,26094,1,2,0:0:0:0:
256,192,26203,1,2,0:0:0:0:
256,192,26311,1,0,0:0:0:0:
256,192,26384,1,0,0:0:0:0:
256,192,26456,1,0,0:0:0:0:
256,192,26529,1,2,0:0:0:0:
256,192,26637,1,0,0:0:0:0:
256,192,26692,1,0,0:0:0:0:
256,192,26746,1,0,0:0:0:0:
256,192,26801,1,0,0:0:0:0:
256,192,26855,1,2,0:0:0:0:
256,192,26964,1,0,0:0:0:0:
256,192,27018,1,0,0:0:0:0:
256,192,27072,1,2,0:0:0:0:
256,192,27126,1,2,0:0:0:0:
256,192,27181,1,2,0:0:0:0:
256,192,27289,1,0,0:0:0:0:
256,192,27398,1,2,0:0:0:0:
256,192,27453,1,0,0:0:0:0:
256,192,27507,1,2,0:0:0:0:
256,192,27561,1,2,0:0:0:0:
256,192,27616,1,0,0:0:0:0:
256,192,27670,1,0,0:0:0:0:
256,192,27724,1,2,0:0:0:0:
256,192,27833,1,0,0:0:0:0:
256,192,27942,1,2,0:0:0:0:
256,192,28050,1,0,0:0:0:0:
256,192,28105,1,0,0:0:0:0:
256,192,28159,1,0,0:0:0:0:
256,192,28213,1,0,0:0:0:0:
256,192,28268,1,2,0:0:0:0:
256,192,28376,1,0,0:0:0:0:
256,192,28485,1,2,0:0:0:0:
256,192,28539,1,2,0:0:0:0:
256,192,28594,1,0,0:0:0:0:
256,192,28648,1,0,0:0:0:0:
256,192,28702,1,2,0:0:0:0:
256,192,28811,1,0,0:0:0:0:
256,192,28920,1,2,0:0:0:0:
256,192,28974,1,2,0:0:0:0:
256,192,29028,1,0,0:0:0:0:
256,192,29083,1,2,0:0:0:0:
256,192,29137,1,0,0:0:0:0:
256,192,29192,1,0,0:0:0:0:
256,192,29246,1,2,0:0:0:0:
256,192,29355,1,0,0:0:0:0:
256,192,29409,1,0,0:0:0:0:
256,192,29463,1,2,0:0:0:0:
256,192,29572,1,0,0:0:0:0:
256,192,29681,1,2,0:0:0:0:
256,192,29789,1,0,0:0:0:0:
256,192,29844,1,0,0:0:0:0:
256,192,29898,1,0,0:0:0:0:
256,192,29952,1,0,0:0:0:0:
256,192,30007,1,2,0:0:0:0:
256,192,30115,1,0,0:0:0:0:
256,192,30224,1,2,0:0:0:0:
256,192,30278,1,2,0:0:0:0:
256,192,30333,1,0,0:0:0:0:
256,192,30441,1,2,0:0:0:0:
256,192,30496,1,0,0:0:0:0:
256,192,30550,1,0,0:0:0:0:
256,192,30604,1,0,0:0:0:0:
256,192,30659,1,2,0:0:0:0:
256,192,30767,1,0,0:0:0:0:
256,192,30876,1,2,0:0:0:0:
256,192,30931,1,0,0:0:0:0:
256,192,30985,1,2,0:0:0:0:
256,192,31039,1,2,0:0:0:0:
256,192,31094,1,0,0:0:0:0:
256,192,31148,1,0,0:0:0:0:
256,192,31202,1,2,0:0:0:0:
256,192,31311,1,0,0:0:0:0:
256,192,31420,1,2,0:0:0:0:
256,192,31528,1,0,0:0:0:0:
256,192,31583,1,0,0:0:0:0:
256,192,31637,1,0,0:0:0:0:
256,192,31691,1,0,0:0:0:0:
256,192,31746,1,2,0:0:0:0:
256,192,31854,1,0,0:0:0:0:
256,192,31963,1,2,0:0:0:0:
256,192,32017,1,2,0:0:0:0:
256,192,32072,1,0,0:0:0:0:
256,192,32180,1,2,0:0:0:0:
256,192,32289,1,0,0:0:0:0:
256,192,32344,1,0,0:0:0:0:
256,192,32398,1,2,0:0:0:0:
256,192,32506,1,0,0:0:0:0:
256,192,32615,1,2,0:0:0:0:
256,192,32724,1,2,0:0:0:0:
256,192,32833,1,0,0:0:0:0:
256,192,32942,1,0,0:0:0:0:
256,192,33051,1,6,0:0:0:0:
256,192,34572,1,6,0:0:0:0:
256,192,36094,1,0,0:0:0:0:
256,192,36311,1,6,0:0:0:0:
256,192,37616,1,2,0:0:0:0:
256,192,37833,1,0,0:0:0:0:
256,192,38051,1,6,0:0:0:0:
256,192,38485,1,0,0:0:0:0:
256,192,38703,1,0,0:0:0:0:
256,192,38920,1,6,0:0:0:0:
256,192,39355,1,6,0:0:0:0:
256,192,40007,1,6,0:0:0:0:
256,192,41094,1,6,0:0:0:0:
256,192,41311,1,6,0:0:0:0:
256,192,41529,1,4,0:0:0:0:
256,192,43051,1,0,0:0:0:0:
256,192,43268,1,6,0:0:0:0:
256,192,43920,1,0,0:0:0:0:
256,192,44137,1,6,0:0:0:0:
256,192,44572,1,2,0:0:0:0:
256,192,44790,1,0,0:0:0:0:
256,192,45007,1,6,0:0:0:0:
256,192,45442,1,0,0:0:0:0:
256,192,45659,1,0,0:0:0:0:
256,192,45877,1,6,0:0:0:0:
256,192,46964,1,6,0:0:0:0:
256,192,47398,1,0,0:0:0:0:
256,192,47616,1,2,0:0:0:0:
256,192,47724,1,0,0:0:0:0:
256,192,47833,1,2,0:0:0:0:
256,192,48051,1,0,0:0:0:0:
256,192,48268,1,2,0:0:0:0:
256,192,48485,1,4,0:0:0:0:
256,192,48920,1,0,0:0:0:0:
256,192,49137,1,2,0:0:0:0:
256,192,49355,1,0,0:0:0:0:
256,192,49464,1,2,0:0:0:0:
256,192,49572,1,2,0:0:0:0:
256,192,49681,1,0,0:0:0:0:
256,192,49790,1,2,0:0:0:0:
256,192,50007,1,0,0:0:0:0:
256,192,50224,1,6,0:0:0:0:
256,192,50659,1,2,0:0:0:0:
256,192,50768,1,0,0:0:0:0:
256,192,50877,1,2,0:0:0:0:
256,192,51094,1,0,0:0:0:0:
256,192,51203,1,0,0:0:0:0:
256,192,51311,1,2,0:0:0:0:
256,192,51420,1,0,0:0:0:0:
256,192,51529,1,2,0:0:0:0:
256,192,51746,1,0,0:0:0:0:
256,192,51964,1,6,0:0:0:0:
256,192,52398,1,0,0:0:0:0:
256,192,52507,1,0,0:0:0:0:
256,192,52616,1,0,0:0:0:0:
256,192,52833,1,6,0:0:0:0:
256,192,53268,1,0,0:0:0:0:
256,192,53377,1,0,0:0:0:0:
256,192,53485,1,2,0:0:0:0:
256,192,53594,1,0,0:0:0:0:
256,192,53920,1,6,0:0:0:0:
256,192,54355,1,0,0:0:0:0:
256,192,54572,1,2,0:0:0:0:
256,192,54681,1,0,0:0:0:0:
256,192,54790,1,2,0:0:0:0:
256,192,54898,1,0,0:0:0:0:
256,192,55007,1,2,0:0:0:0:
256,192,55224,1,0,0:0:0:0:
256,192,55442,1,6,0:0:0:0:
256,192,55877,1,0,0:0:0:0:
256,192,55985,1,0,0:0:0:0:
256,192,56094,1,2,0:0:0:0:
256,192,56311,1,0,0:0:0:0:
256,192,56420,1,0,0:0:0:0:
256,192,56529,1,2,0:0:0:0:
256,192,56637,1,2,0:0:0:0:
256,192,56746,1,0,0:0:0:0:
256,192,56964,1,2,0:0:0:0:
256,192,57290,1,2,0:0:0:0:
256,192,57398,1,4,0:0:0:0:
256,192,57616,1,0,0:0:0:0:
256,192,57833,1,2,0:0:0:0:
256,192,58051,1,0,0:0:0:0:
256,192,58159,1,0,0:0:0:0:
256,192,58268,1,2,0:0:0:0:
256,192,58377,1,0,0:0:0:0:
256,192,58485,1,2,0:0:0:0:
256,192,58594,1,2,0:0:0:0:
256,192,58703,1,0,0:0:0:0:
256,192,58920,1,6,0:0:0:0:
256,192,59355,1,0,0:0:0:0:
256,192,59464,1,0,0:0:0:0:
256,192,59572,1,2,0:0:0:0:
256,192,59790,1,0,0:0:0:0:
256,192,60007,1,2,0:0:0:0:
256,192,60170,1,0,0:0:0:0:
256,192,60224,1,2,0:0:0:0:
256,192,60333,1,0,0:0:0:0:
256,192,60442,1,2,0:0:0:0:
256,192,60551,1,2,0:0:0:0:
256,192,60659,1,0,0:0:0:0:
256,192,60768,1,0,0:0:0:0:
256,192,60877,1,6,0:0:0:0:
256,192,62181,1,0,0:0:0:0:
256,192,62398,1,2,0:0:0:0:
256,192,62833,1,0,0:0:0:0:
256,192,63051,1,0,0:0:0:0:
256,192,63268,1,2,0:0:0:0:
256,192,64355,1,0,0:0:0:0:
256,192,64790,1,2,0:0:0:0:
256,192,65224,1,0,0:0:0:0:
256,192,65659,1,0,0:0:0:0:
256,192,65877,1,2,0:0:0:0:
256,192,66311,1,0,0:0:0:0:
256,192,66529,1,2,0:0:0:0:
256,192,66964,1,2,0:0:0:0:
256,192,67181,1,0,0:0:0:0:
256,192,67398,1,2,0:0:0:0:
256,192,67616,1,2,0:0:0:0:
256,192,67833,1,4,0:0:0:0:
256,192,68051,1,0,0:0:0:0:
256,192,68268,1,2,0:0:0:0:
256,192,68485,1,0,0:0:0:0:
256,192,68594,1,0,0:0:0:0:
256,192,68703,1,2,0:0:0:0:
256,192,68920,1,0,0:0:0:0:
256,192,69137,1,2,0:0:0:0:
256,192,69355,1,2,0:0:0:0:
256,192,69572,1,4,0:0:0:0:
256,192,69790,1,0,0:0:0:0:
256,192,70007,1,2,0:0:0:0:
256,192,70224,1,0,0:0:0:0:
256,192,70442,1,2,0:0:0:0:
256,192,70659,1,2,0:0:0:0:
256,192,70877,1,0,0:0:0:0:
256,192,71094,1,2,0:0:0:0:
256,192,71311,1,4,0:0:0:0:
256,192,71529,1,2,0:0:0:0:
256,192,71637,1,2,0:0:0:0:
256,192,71746,1,0,0:0:0:0:
256,192,71855,1,0,0:0:0:0:
256,192,71964,1,0,0:0:0:0:
256,192,72072,1,0,0:0:0:0:
256,192,72181,1,2,0:0:0:0:
256,192,72290,1,0,0:0:0:0:
256,192,72398,1,2,0:0:0:0:
256,192,72507,1,2,0:0:0:0:
256,192,72616,1,0,0:0:0:0:
256,192,72724,1,0,0:0:0:0:
256,192,72833,1,0,0:0:0:0:
256,192,72942,1,2,0:0:0:0:
256,192,74137,1,2,0:0:0:0:
256,192,74210,1,2,0:0:0:0:
256,192,74282,1,2,0:0:0:0:
256,192,74355,1,0,0:0:0:0:
256,192,74464,1,0,0:0:0:0:
256,192,74572,1,2,0:0:0:0:
256,192,74681,1,2,0:0:0:0:
256,192,74790,1,4,0:0:0:0:
256,192,75007,1,2,0:0:0:0:
256,192,75116,1,0,0:0:0:0:
256,192,75170,1,0,0:0:0:0:
256,192,75224,1,2,0:0:0:0:
256,192,75333,1,0,0:0:0:0:
256,192,75442,1,2,0:0:0:0:
256,192,75496,1,2,0:0:0:0:
256,192,75551,1,0,0:0:0:0:
256,192,75605,1,0,0:0:0:0:
256,192,75659,1,2,0:0:0:0:
256,192,75768,1,0,0:0:0:0:
256,192,75822,1,0,0:0:0:0:
256,192,75877,1,0,0:0:0:0:
256,192,75985,1,2,0:0:0:0:
256,192,76040,1,2,0:0:0:0:
256,192,76094,1,2,0:0:0:0:
256,192,76148,1,2,0:0:0:0:
256,192,76203,1,0,0:0:0:0:
256,192,76311,1,2,0:0:0:0:
256,192,76420,1,0,0:0:0:0:
256,192,76474,1,0,0:0:0:0:
256,192,76529,1,2,0:0:0:0:
256,192,76583,1,0,0:0:0:0:
256,192,76637,1,0,0:0:0:0:
256,192,76692,1,0,0:0:0:0:
256,192,76746,1,2,0:0:0:0:
256,192,76801,1,2,0:0:0:0:
256,192,76855,1,2,0:0:0:0:
256,192,76909,1,2,0:0:0:0:
256,192,76964,1,0,0:0:0:0:
256,192,77072,1,2,0:0:0:0:
256,192,77127,1,2,0:0:0:0:
256,192,77181,1,0,0:0:0:0:
256,192,77235,1,0,0:0:0:0:
256,192,77290,1,0,0:0:0:0:
256,192,77398,1,2,0:0:0:0:
256,192,77453,1,2,0:0:0:0:
256,192,77507,1,2,0:0:0:0:
256,192,77561,1,2,0:0:0:0:
256,192,77616,1,0,0:0:0:0:
256,192,77724,1,2,0:0:0:0:
256,192,77779,1,2,0:0:0:0:
256,192,77833,1,2,0:0:0:0:
256,192,77942,1,0,0:0:0:0:
256,192,77996,1,0,0:0:0:0:
256,192,78051,1,2,0:0:0:0:
256,192,78105,1,0,0:0:0:0:
256,192,78159,1,0,0:0:0:0:
256,192,78214,1,0,0:0:0:0:
256,192,78268,1,2,0:0:0:0:
256,192,78377,1,0,0:0:0:0:
256,192,78485,1,2,0:0:0:0:
256,192,78540,1,2,0:0:0:0:
256,192,78594,1,0,0:0:0:0:
256,192,78648,1,0,0:0:0:0:
256,192,78703,1,2,0:0:0:0:
256,192,78811,1,0,0:0:0:0:
256,192,78920,1,2,0:0:0:0:
256,192,78974,1,2,0:0:0:0:
256,192,79029,1,0,0:0:0:0:
256,192,79083,1,0,0:0:0:0:
256,192,79137,1,0,0:0:0:0:
256,192,79246,1,2,0:0:0:0:
256,192,79355,1,0,0:0:0:0:
256,192,79409,1,0,0:0:0:0:
256,192,79464,1,0,0:0:0:0:
256,192,79518,1,0,0:0:0:0:
256,192,79572,1,2,0:0:0:0:
256,192,79627,1,2,0:0:0:0:
256,192,79681,1,0,0:0:0:0:
256,192,79735,1,0,0:0:0:0:
256,192,79790,1,2,0:0:0:0:
256,192,79844,1,0,0:0:0:0:
256,192,79898,1,0,0:0:0:0:
256,192,79953,1,0,0:0:0:0:
256,192,80007,1,2,0:0:0:0:
256,192,80116,1,0,0:0:0:0:
256,192,80224,1,2,0:0:0:0:
256,192,80279,1,2,0:0:0:0:
256,192,80333,1,2,0:0:0:0:
256,192,80387,1,2,0:0:0:0:
256,192,80442,1,0,0:0:0:0:
256,192,80551,1,2,0:0:0:0:
256,192,80605,1,2,0:0:0:0:
256,192,80659,1,2,0:0:0:0:
256,192,80768,1,0,0:0:0:0:
256,192,80822,1,0,0:0:0:0:
256,192,80877,1,2,0:0:0:0:
256,192,80931,1,0,0:0:0:0:
256,192,80985,1,0,0:0:0:0:
256,192,81040,1,0,0:0:0:0:
256,192,81094,1,2,0:0:0:0:
256,192,81148,1,2,0:0:0:0:
256,192,81203,1,2,0:0:0:0:
256,192,81257,1,2,0:0:0:0:
256,192,81311,1,0,0:0:0:0:
256,192,81420,1,0,0:0:0:0:
256,192,81529,1,2,0:0:0:0:
256,192,81637,1,2,0:0:0:0:
256,192,81746,1,4,0:0:0:0:
256,192,81964,1,2,0:0:0:0:
256,192,82072,1,0,0:0:0:0:
256,192,82127,1,0,0:0:0:0:
256,192,82181,1,2,0:0:0:0:
256,192,82290,1,0,0:0:0:0:
256,192,82398,1,2,0:0:0:0:
256,192,82453,1,0,0:0:0:0:
256,192,82507,1,0,0:0:0:0:
256,192,82561,1,0,0:0:0:0:
256,192,82616,1,2,0:0:0:0:
256,192,82724,1,0,0:0:0:0:
256,192,82779,1,0,0:0:0:0:
256,192,82833,1,2,0:0:0:0:
256,192,82887,1,2,0:0:0:0:
256,192,82942,1,2,0:0:0:0:
256,192,82996,1,2,0:0:0:0:
256,192,83051,1,0,0:0:0:0:
256,192,83159,1,2,0:0:0:0:
256,192,83214,1,2,0:0:0:0:
256,192,83268,1,2,0:0:0:0:
256,192,83377,1,0,0:0:0:0:
256,192,83485,1,2,0:0:0:0:
256,192,83540,1,2,0:0:0:0:
256,192,83594,1,0,0:0:0:0:
256,192,83648,1,2,0:0:0:0:
256,192,83703,1,0,0:0:0:0:
256,192,83757,1,0,0:0:0:0:
256,192,83811,1,2,0:0:0:0:
256,192,83920,1,0,0:0:0:0:
256,192,83974,1,0,0:0:0:0:
256,192,84029,1,2,0:0:0:0:
256,192,84083,1,0,0:0:0:0:
256,192,84137,1,2,0:0:0:0:
256,192,84192,1,2,0:0:0:0:
256,192,84246,1,0,0:0:0:0:
256,192,84301,1,0,0:0:0:0:
256,192,84355,1,2,0:0:0:0:
256,192,84409,1,2,0:0:0:0:
256,192,84464,1,2,0:0:0:0:
256,192,84518,1,2,0:0:0:0:
256,192,84572,1,0,0:0:0:0:
256,192,84681,1,2,0:0:0:0:
256,192,84790,1,0,0:0:0:0:
256,192,84862,1,0,0:0:0:0:
256,192,84935,1,2,0:0:0:0:
256,192,85007,1,2,0:0:0:0:
256,192,85080,1,2,0:0:0:0:
256,192,85152,1,2,0:0:0:0:
256,192,85224,1,0,0:0:0:0:
256,192,85333,1,2,0:0:0:0:
256,192,85387,1,2,0:0:0:0:
256,192,85442,1,2,0:0:0:0:
256,192,85551,1,0,0:0:0:0:
256,192,85605,1,0,0:0:0:0:
256,192,85659,1,2,0:0:0:0:
256,192,85714,1,0,0:0:0:0:
256,192,85768,1,2,0:0:0:0:
256,192,85822,1,2,0:0:0:0:
256,192,85877,1,0,0:0:0:0:
256,192,85931,1,0,0:0:0:0:
256,192,85985,1,2,0:0:0:0:
256,192,86040,1,0,0:0:0:0:
256,192,86094,1,2,0:0:0:0:
256,192,86203,1,0,0:0:0:0:
256,192,86311,1,2,0:0:0:0:
256,192,86420,1,2,0:0:0:0:
256,192,86529,1,0,0:0:0:0:
256,192,86746,1,6,0:0:0:0:
256,192,87181,1,0,0:0:0:0:
256,192,87253,1,0,0:0:0:0:
256,192,87326,1,0,0:0:0:0:
256,192,87398,1,2,0:0:0:0:
256,192,87616,1,4,0:0:0:0:
256,192,88051,1,0,0:0:0:0:
256,192,88159,1,0,0:0:0:0:
256,192,88268,1,2,0:0:0:0:
256,192,88485,1,0,0:0:0:0:
256,192,88703,1,6,0:0:0:0:
256,192,89029,1,0,0:0:0:0:
256,192,89137,1,2,0:0:0:0:
256,192,89355,1,0,0:0:0:0:
256,192,89572,1,6,0:0:0:0:
256,192,89898,1,2,0:0:0:0:
256,192,90007,1,2,0:0:0:0:
256,192,90224,1,0,0:0:0:0:
256,192,90442,1,6,0:0:0:0:
256,192,90659,1,2,0:0:0:0:
256,192,90877,1,0,0:0:0:0:
256,192,91094,1,0,0:0:0:0:
256,192,91311,1,6,0:0:0:0:
256,192,91637,1,0,0:0:0:0:
256,192,91746,1,2,0:0:0:0:
256,192,91964,1,0,0:0:0:0:
256,192,92181,1,6,0:0:0:0:
256,192,92507,1,0,0:0:0:0:
256,192,92616,1,2,0:0:0:0:
256,192,92833,1,0,0:0:0:0:
256,192,93051,1,6,0:0:0:0:
256,192,93377,1,2,0:0:0:0:
256,192,93485,1,2,0:0:0:0:
256,192,93703,1,0,0:0:0:0:
256,192,93920,1,6,0:0:0:0:
256,192,94246,1,0,0:0:0:0:
256,192,94355,1,0,0:0:0:0:
256,192,94572,1,0,0:0:0:0:
256,192,94790,1,6,0:0:0:0:
256,192,95007,1,0,0:0:0:0:
256,192,95224,1,2,0:0:0:0:
256,192,95442,1,2,0:0:0:0:
256,192,95659,1,4,0:0:0:0:
256,192,96420,1,0,0:0:0:0:
256,192,96529,1,2,0:0:0:0:
256,192,97398,1,6,0:0:0:0:
256,192,97724,1,6,0:0:0:0:
256,192,98485,1,0,0:0:0:0:
256,192,98558,1,0,0:0:0:0:
256,192,98630,1,0,0:0:0:0:
256,192,98703,1,2,0:0:0:0:
256,192,98811,1,0,0:0:0:0:
256,192,99138,1,2,0:0:0:0:
256,192,99246,1,0,0:0:0:0:
256,192,99301,1,0,0:0:0:0:
256,192,99355,1,0,0:0:0:0:
256,192,99409,1,0,0:0:0:0:
256,192,99464,1,2,0:0:0:0:
256,192,99572,1,0,0:0:0:0:
256,192,99681,1,2,0:0:0:0:
256,192,99735,1,2,0:0:0:0:
256,192,99790,1,0,0:0:0:0:
256,192,99898,1,2,0:0:0:0:
256,192,99953,1,0,0:0:0:0:
256,192,100007,1,0,0:0:0:0:
256,192,100061,1,0,0:0:0:0:
256,192,100116,1,2,0:0:0:0:
256,192,100224,1,0,0:0:0:0:
256,192,100333,1,2,0:0:0:0:
256,192,100388,1,0,0:0:0:0:
256,192,100442,1,2,0:0:0:0:
256,192,100496,1,2,0:0:0:0:
256,192,100551,1,0,0:0:0:0:
256,192,100605,1,0,0:0:0:0:
256,192,100659,1,2,0:0:0:0:
256,192,100768,1,0,0:0:0:0:
256,192,100877,1,2,0:0:0:0:
256,192,100985,1,0,0:0:0:0:
256,192,101040,1,0,0:0:0:0:
256,192,101094,1,0,0:0:0:0:
256,192,101148,1,0,0:0:0:0:
256,192,101203,1,2,0:0:0:0:
256,192,101311,1,0,0:0:0:0:
256,192,101420,1,2,0:0:0:0:
256,192,101474,1,2,0:0:0:0:
256,192,101529,1,0,0:0:0:0:
256,192,101583,1,0,0:0:0:0:
256,192,101637,1,2,0:0:0:0:
256,192,101746,1,0,0:0:0:0:
256,192,101855,1,2,0:0:0:0:
256,192,101909,1,2,0:0:0:0:
256,192,101963,1,0,0:0:0:0:
256,192,102018,1,2,0:0:0:0:
256,192,102072,1,0,0:0:0:0:
256,192,102127,1,0,0:0:0:0:
256,192,102181,1,2,0:0:0:0:
256,192,102290,1,0,0:0:0:0:
256,192,102344,1,0,0:0:0:0:
256,192,102398,1,2,0:0:0:0:
256,192,102507,1,0,0:0:0:0:
256,192,102616,1,2,0:0:0:0:
256,192,102724,1,0,0:0:0:0:
256,192,102779,1,0,0:0:0:0:
256,192,102833,1,0,0:0:0:0:
256,192,102887,1,0,0:0:0:0:
256,192,102942,1,2,0:0:0:0:
256,192,103050,1,0,0:0:0:0:
256,192,103159,1,2,0:0:0:0:
256,192,103213,1,2,0:0:0:0:
256,192,103268,1,0,0:0:0:0:
256,192,103376,1,2,0:0:0:0:
256,192,103431,1,0,0:0:0:0:
256,192,103485,1,0,0:0:0:0:
256,192,103539,1,0,0:0:0:0:
256,192,103594,1,2,0:0:0:0:
256,192,103702,1,0,0:0:0:0:
256,192,103811,1,2,0:0:0:0:
256,192,103866,1,0,0:0:0:0:
256,192,103920,1,2,0:0:0:0:
256,192,103974,1,2,0:0:0:0:
256,192,104029,1,0,0:0:0:0:
256,192,104083,1,0,0:0:0:0:
256,192,104137,1,2,0:0:0:0:
256,192,104246,1,0,0:0:0:0:
256,192,104355,1,2,0:0:0:0:
256,192,104463,1,0,0:0:0:0:
256,192,104518,1,0,0:0:0:0:
256,192,104572,1,0,0:0:0:0:
256,192,104626,1,0,0:0:0:0:
256,192,104681,1,2,0:0:0:0:
256,192,104789,1,0,0:0:0:0:
256,192,104898,1,2,0:0:0:0:
256,192,104952,1,2,0:0:0:0:
256,192,105007,1,0,0:0:0:0:
256,192,105061,1,0,0:0:0:0:
256,192,105115,1,2,0:0:0:0:
256,192,105224,1,0,0:0:0:0:
256,192,105333,1,2,0:0:0:0:
256,192,105387,1,2,0:0:0:0:
256,192,105441,1,0,0:0:0:0:
256,192,105496,1,2,0:0:0:0:
256,192,105550,1,0,0:0:0:0:
256,192,105605,1,0,0:0:0:0:
256,192,105659,1,2,0:0:0:0:
256,192,105732,1,2,0:0:0:0:
256,192,105804,1,2,0:0:0:0:
256,192,105877,1,0,0:0:0:0:
256,192,105949,1,0,0:0:0:0:
256,192,106022,1,0,0:0:0:0:
256,192,106094,1,2,0:0:0:0:
256,192,106203,1,0,0:0:0:0:
256,192,106311,1,2,0:0:0:0:
256,192,106384,1,2,0:0:0:0:
256,192,106456,1,2,0:0:0:0:
256,192,106529,1,0,0:0:0:0:
256,192,106637,1,2,0:0:0:0:
256,192,106692,1,2,0:0:0:0:
256,192,106746,1,0,0:0:0:0:
256,192,106800,1,0,0:0:0:0:
256,192,106855,1,2,0:0:0:0:
256,192,106963,1,0,0:0:0:0:
256,192,107018,1,0,0:0:0:0:
256,192,107072,1,0,0:0:0:0:
256,192,107126,1,0,0:0:0:0:
256,192,107181,1,2,0:0:0:0:
256,192,107289,1,0,0:0:0:0:
256,192,107398,1,2,0:0:0:0:
256,192,107453,1,0,0:0:0:0:
256,192,107507,1,2,0:0:0:0:
256,192,107561,1,2,0:0:0:0:
256,192,107616,1,0,0:0:0:0:
256,192,107670,1,0,0:0:0:0:
256,192,107724,1,2,0:0:0:0:
256,192,107833,1,0,0:0:0:0:
256,192,107942,1,2,0:0:0:0:
256,192,108050,1,0,0:0:0:0:
256,192,108105,1,0,0:0:0:0:
256,192,108159,1,0,0:0:0:0:
256,192,108213,1,0,0:0:0:0:
256,192,108268,1,2,0:0:0:0:
256,192,108376,1,0,0:0:0:0:
256,192,108485,1,2,0:0:0:0:
256,192,108539,1,2,0:0:0:0:
256,192,108594,1,0,0:0:0:0:
256,192,108648,1,0,0:0:0:0:
256,192,108702,1,2,0:0:0:0:
256,192,108811,1,0,0:0:0:0:
256,192,108920,1,2,0:0:0:0:
256,192,108974,1,2,0:0:0:0:
256,192,109028,1,0,0:0:0:0:
256,192,109083,1,2,0:0:0:0:
256,192,109137,1,0,0:0:0:0:
256,192,109192,1,0,0:0:0:0:
256,192,109246,1,2,0:0:0:0:
256,192,109355,1,0,0:0:0:0:
256,192,109409,1,0,0:0:0:0:
256,192,109463,1,2,0:0:0:0:
256,192,109572,1,0,0:0:0:0:
256,192,109681,1,2,0:0:0:0:
256,192,109789,1,0,0:0:0:0:
256,192,109844,1,0,0:0:0:0:
256,192,109898,1,0,0:0:0:0:
256,192,109952,1,0,0:0:0:0:
256,192,110007,1,2,0:0:0:0:
256,192,110115,1,0,0:0:0:0:
256,192,110224,1,2,0:0:0:0:
256,192,110278,1,2,0:0:0:0:
256,192,110333,1,0,0:0:0:0:
256,192,110388,1,0,0:0:0:0:
256,192,110441,1,2,0:0:0:0:
256,192,110551,1,0,0:0:0:0:
256,192,110659,1,2,0:0:0:0:
256,192,110714,1,2,0:0:0:0:
256,192,110768,1,0,0:0:0:0:
256,192,110876,1,2,0:0:0:0:
256,192,110931,1,2,0:0:0:0:
256,192,110985,1,2,0:0:0:0:
256,192,111094,1,0,0:0:0:0:
256,192,111148,1,0,0:0:0:0:
256,192,111202,1,2,0:0:0:0:
256,192,111257,1,0,0:0:0:0:
256,192,111311,1,2,0:0:0:0:
256,192,111420,1,0,0:0:0:0:
256,192,111528,1,2,0:0:0:0:
256,192,111583,1,2,0:0:0:0:
256,192,111637,1,2,0:0:0:0:
256,192,111691,1,2,0:0:0:0:
256,192,111746,1,0,0:0:0:0:
256,192,111854,1,2,0:0:0:0:
256,192,111963,1,0,0:0:0:0:
256,192,112017,1,0,0:0:0:0:
256,192,112072,1,0,0:0:0:0:
256,192,112180,1,2,0:0:0:0:
256,192,112289,1,0,0:0:0:0:
256,192,112344,1,0,0:0:0:0:
256,192,112398,1,2,0:0:0:0:
256,192,112506,1,0,0:0:0:0:
256,192,112615,1,2,0:0:0:0:
256,192,112724,1,0,0:0:0:0:
256,192,112833,1,2,0:0:0:0:
256,192,112942,1,2,0:0:0:0:
256,192,113051,1,0,0:0:0:0:
256,192,113195,1,0,0:0:0:0:
256,192,113340,1,0,0:0:0:0:
256,192,113485,1,2,0:0:0:0:
256,192,113630,1,2,0:0:0:0:
256,192,113775,1,2,0:0:0:0:
256,192,113921,1,4,0:0:0:0:
256,192,115442,1,2,0:0:0:0:
256,192,116964,1,0,0:0:0:0:
256,192,117181,1,2,0:0:0:0:
256,192,118921,1,2,0:0:0:0:
256,192,119355,1,0,0:0:0:0:
256,192,119790,1,2,0:0:0:0:
256,192,120225,1,2,0:0:0:0:
256,192,120660,1,0,0:0:0:0:
256,192,120877,1,2,0:0:0:0:
256,192,122399,1,2,0:0:0:0:
256,192,123268,1,2,0:0:0:0:
256,192,123921,1,0,0:0:0:0:
256,192,124138,1,2,0:0:0:0:
256,192,124790,1,0,0:0:0:0:
256,192,125007,1,2,0:0:0:0:
256,192,125660,1,0,0:0:0:0:
256,192,125877,1,2,0:0:0:0:
256,192,126747,8,2,127617,0:0:0:0:
256,192,127834,5,6,0:0:0:0:
256,192,128268,1,0,0:0:0:0:
256,192,128486,1,2,0:0:0:0:
256,192,128594,1,0,0:0:0:0:
256,192,128703,1,2,0:0:0:0:
256,192,128921,1,0,0:0:0:0:
256,192,129138,1,2,0:0:0:0:
256,192,129355,1,4,0:0:0:0:
256,192,129790,1,0,0:0:0:0:
256,192,130007,1,2,0:0:0:0:
256,192,130225,1,0,0:0:0:0:
256,192,130334,1,2,0:0:0:0:
256,192,130442,1,2,0:0:0:0:
256,192,130551,1,0,0:0:0:0:
256,192,130660,1,2,0:0:0:0:
256,192,130877,1,0,0:0:0:0:
256,192,131094,1,6,0:0:0:0:
256,192,131529,1,2,0:0:0:0:
256,192,131638,1,0,0:0:0:0:
256,192,131747,1,2,0:0:0:0:
256,192,131964,1,0,0:0:0:0:
256,192,132073,1,0,0:0:0:0:
256,192,132181,1,2,0:0:0:0:
256,192,132290,1,0,0:0:0:0:
256,192,132399,1,2,0:0:0:0:
256,192,132616,1,0,0:0:0:0:
256,192,132834,1,6,0:0:0:0:
256,192,133268,1,0,0:0:0:0:
256,192,133377,1,0,0:0:0:0:
256,192,133486,1,0,0:0:0:0:
256,192,133703,1,6,0:0:0:0:
256,192,134138,1,0,0:0:0:0:
256,192,134247,1,0,0:0:0:0:
256,192,134355,1,2,0:0:0:0:
256,192,134464,1,0,0:0:0:0:
256,192,134790,1,6,0:0:0:0:
256,192,135225,1,0,0:0:0:0:
256,192,135442,1,2,0:0:0:0:
256,192,135551,1,0,0:0:0:0:
256,192,135660,1,2,0:0:0:0:
256,192,135768,1,0,0:0:0:0:
256,192,135877,1,2,0:0:0:0:
256,192,136094,1,0,0:0:0:0:
256,192,136312,1,6,0:0:0:0:
256,192,136747,1,0,0:0:0:0:
256,192,136855,1,0,0:0:0:0:
256,192,136964,1,2,0:0:0:0:
256,192,137181,1,0,0:0:0:0:
256,192,137290,1,0,0:0:0:0:
256,192,137399,1,2,0:0:0:0:
256,192,137507,1,2,0:0:0:0:
256,192,137616,1,0,0:0:0:0:
256,192,137834,1,2,0:0:0:0:
256,192,138160,1,2,0:0:0:0:
256,192,138268,1,4,0:0:0:0:
256,192,138486,1,0,0:0:0:0:
256,192,138703,1,2,0:0:0:0:
256,192,138921,1,0,0:0:0:0:
256,192,139029,1,0,0:0:0:0:
256,192,139138,1,2,0:0:0:0:
256,192,139247,1,0,0:0:0:0:
256,192,139355,1,2,0:0:0:0:
256,192,139464,1,2,0:0:0:0:
256,192,139573,1,0,0:0:0:0:
256,192,139790,1,6,0:0:0:0:
256,192,140225,1,0,0:0:0:0:
256,192,140334,1,0,0:0:0:0:
256,192,140442,1,2,0:0:0:0:
256,192,140660,1,0,0:0:0:0:
256,192,140877,1,2,0:0:0:0:
256,192,141040,1,0,0:0:0:0:
256,192,141094,1,2,0:0:0:0:
256,192,141203,1,0,0:0:0:0:
256,192,141312,1,2,0:0:0:0:
256,192,141421,1,2,0:0:0:0:
256,192,141529,1,0,0:0:0:0:
256,192,141638,1,0,0:0:0:0:
256,192,141747,1,6,0:0:0:0:
256,192,142399,1,0,0:0:0:0:
256,192,142616,1,2,0:0:0:0:
256,192,142834,1,0,0:0:0:0:
256,192,142942,1,0,0:0:0:0:
256,192,143051,1,0,0:0:0:0:
256,192,143268,1,2,0:0:0:0:
256,192,143703,1,0,0:0:0:0:
256,192,143812,1,0,0:0:0:0:
256,192,143921,1,2,0:0:0:0:
256,192,144138,1,0,0:0:0:0:
256,192,144355,1,2,0:0:0:0:
256,192,144790,1,2,0:0:0:0:
256,192,145007,1,2,0:0:0:0:
256,192,145225,1,4,0:0:0:0:
256,192,145660,1,2,0:0:0:0:
256,192,145768,1,2,0:0:0:0:
256,192,145877,1,0,0:0:0:0:
256,192,145986,1,0,0:0:0:0:
256,192,146094,1,2,0:0:0:0:
256,192,146312,1,0,0:0:0:0:
256,192,146529,1,0,0:0:0:0:
256,192,146747,1,2,0:0:0:0:
256,192,147181,1,0,0:0:0:0:
256,192,147399,1,2,0:0:0:0:
256,192,147544,1,2,0:0:0:0:
256,192,147689,1,0,0:0:0:0:
256,192,147834,1,2,0:0:0:0:
256,192,147978,1,0,0:0:0:0:
256,192,148123,1,0,0:0:0:0:
256,192,148268,1,2,0:0:0:0:
256,192,148413,1,2,0:0:0:0:
256,192,148558,1,2,0:0:0:0:
256,192,148703,1,4,0:0:0:0:
256,192,149138,1,2,0:0:0:0:
256,192,149355,1,0,0:0:0:0:
256,192,149464,1,0,0:0:0:0:
256,192,149573,1,2,0:0:0:0:
256,192,149790,1,0,0:0:0:0:
256,192,150007,1,2,0:0:0:0:
256,192,150225,1,2,0:0:0:0:
256,192,150660,1,0,0:0:0:0:
256,192,150768,1,0,0:0:0:0:
256,192,150877,1,2,0:0:0:0:
256,192,151094,1,0,0:0:0:0:
256,192,151312,1,2,0:0:0:0:
256,192,151529,1,2,0:0:0:0:
256,192,151638,1,2,0:0:0:0:
256,192,151747,1,0,0:0:0:0:
256,192,151819,1,0,0:0:0:0:
256,192,151892,1,0,0:0:0:0:
256,192,151964,1,2,0:0:0:0:
256,192,152181,1,4,0:0:0:0:
256,192,152399,1,2,0:0:0:0:
256,192,152507,1,2,0:0:0:0:
256,192,152616,1,0,0:0:0:0:
256,192,152834,1,2,0:0:0:0:
256,192,153051,1,2,0:0:0:0:
256,192,153160,1,2,0:0:0:0:
256,192,153268,1,0,0:0:0:0:
256,192,153377,1,0,0:0:0:0:
256,192,153486,1,2,0:0:0:0:
256,192,153703,1,4,0:0:0:0:
256,192,154138,1,2,0:0:0:0:
256,192,154355,1,0,0:0:0:0:
256,192,154464,1,0,0:0:0:0:
256,192,154573,1,0,0:0:0:0:
256,192,154681,1,2,0:0:0:0:
256,192,154790,1,2,0:0:0:0:
256,192,155116,1,0,0:0:0:0:
256,192,155225,1,2,0:0:0:0:
256,192,155442,1,0,0:0:0:0:
256,192,155551,1,0,0:0:0:0:
256,192,155660,1,6,0:0:0:0:
256,192,155877,1,2,0:0:0:0:
256,192,155986,1,0,0:0:0:0:
256,192,156312,1,0,0:0:0:0:
256,192,156421,1,0,0:0:0:0:
256,192,156529,1,2,0:0:0:0:
256,192,156747,1,0,0:0:0:0:
256,192,156855,1,2,0:0:0:0:
256,192,157073,1,0,0:0:0:0:
256,192,157181,1,2,0:0:0:0:
256,192,157290,1,0,0:0:0:0:
256,192,157399,1,2,0:0:0:0:
256,192,157616,1,2,0:0:0:0:
256,192,157725,1,0,0:0:0:0:
256,192,158051,1,0,0:0:0:0:
256,192,158160,1,0,0:0:0:0:
256,192,158268,1,2,0:0:0:0:
256,192,158486,1,0,0:0:0:0:
256,192,158594,1,2,0:0:0:0:
256,192,158812,1,2,0:0:0:0:
256,192,158921,1,0,0:0:0:0:
256,192,159029,1,0,0:0:0:0:
256,192,159138,1,2,0:0:0:0:
256,192,159355,1,2,0:0:0:0:
256,192,159464,1,0,0:0:0:0:
256,192,159573,1,2,0:0:0:0:
256,192,159790,1,0,0:0:0:0:
256,192,159899,1,0,0:0:0:0:
256,192,160007,1,2,0:0:0:0:
256,192,160225,1,0,0:0:0:0:
256,192,160334,1,2,0:0:0:0:
256,192,160660,1,0,0:0:0:0:
256,192,160768,1,0,0:0:0:0:
256,192,160877,1,2,0:0:0:0:
256,192,161094,1,0,0:0:0:0:
256,192,161203,1,2,0:0:0:0:
256,192,161312,1,0,0:0:0:0:
256,192,161529,1,0,0:0:0:0:
256,192,161747,1,2,0:0:0:0:
256,192,161964,1,2,0:0:0:0:
256,192,162073,1,0,0:0:0:0:
256,192,162181,1,2,0:0:0:0:
256,192,162399,1,0,0:0:0:0:
256,192,162507,1,0,0:0:0:0:
256,192,162616,1,6,0:0:0:0:
256,192,162834,1,2,0:0:0:0:
256,192,162942,1,0,0:0:0:0:
256,192,163268,1,0,0:0:0:0:
256,192,163377,1,0,0:0:0:0:
256,192,163486,1,2,0:0:0:0:
256,192,163703,1,0,0:0:0:0:
256,192,163812,1,2,0:0:0:0:
256,192,164029,1,0,0:0:0:0:
256,192,164138,1,2,0:0:0:0:
256,192,164247,1,0,0:0:0:0:
256,192,164355,1,2,0:0:0:0:
256,192,164573,1,2,0:0:0:0:
256,192,164681,1,0,0:0:0:0:
256,192,165007,1,0,0:0:0:0:
256,192,165116,1,0,0:0:0:0:
256,192,165225,1,2,0:0:0:0:
256,192,165442,1,2,0:0:0:0:
256,192,165551,1,2,0:0:0:0:
256,192,165768,1,0,0:0:0:0:
256,192,165877,1,0,0:0:0:0:
256,192,165986,1,0,0:0:0:0:
256,192,166094,1,2,0:0:0:0:
256,192,166312,1,2,0:0:0:0:
256,192,166420,1,0,0:0:0:0:
256,192,166638,1,0,0:0:0:0:
256,192,166747,1,0,0:0:0:0:
256,192,166855,1,0,0:0:0:0:
256,192,166964,1,2,0:0:0:0:
256,192,167181,1,0,0:0:0:0:
256,192,167290,1,2,0:0:0:0:
256,192,167616,1,0,0:0:0:0:
256,192,167834,1,2,0:0:0:0:
256,192,168051,1,2,0:0:0:0:
256,192,168160,1,2,0:0:0:0:
256,192,168268,1,0,0:0:0:0:
256,192,168486,1,0,0:0:0:0:
256,192,168703,1,2,0:0:0:0:
256,192,168812,1,0,0:0:0:0:
256,192,168920,1,0,0:0:0:0:
256,192,169138,1,0,0:0:0:0:
256,192,169573,1,6,0:0:0:0:
256,192,169899,1,0,0:0:0:0:
256,192,170225,1,0,0:0:0:0:
256,192,170334,1,0,0:0:0:0:
256,192,170442,1,2,0:0:0:0:
256,192,170768,1,2,0:0:0:0:
256,192,171094,1,0,0:0:0:0:
256,192,171203,1,0,0:0:0:0:
256,192,171312,1,2,0:0:0:0:
256,192,171529,1,0,0:0:0:0:
256,192,171638,1,0,0:0:0:0:
256,192,171964,1,0,0:0:0:0:
256,192,172073,1,0,0:0:0:0:
256,192,172181,1,2,0:0:0:0:
256,192,172507,1,2,0:0:0:0:
256,192,172834,1,0,0:0:0:0:
256,192,172942,1,0,0:0:0:0:
256,192,173051,1,2,0:0:0:0:
256,192,173377,1,0,0:0:0:0:
256,192,173703,1,0,0:0:0:0:
256,192,173812,1,0,0:0:0:0:
256,192,173920,1,2,0:0:0:0:
256,192,174138,1,0,0:0:0:0:
256,192,174247,1,2,0:0:0:0:
256,192,174573,1,0,0:0:0:0:
256,192,174681,1,0,0:0:0:0:
256,192,174790,1,2,0:0:0:0:
256,192,175116,1,0,0:0:0:0:
256,192,175442,1,0,0:0:0:0:
256,192,175551,1,0,0:0:0:0:
256,192,175660,1,2,0:0:0:0:
256,192,175986,1,2,0:0:0:0:
256,192,176312,1,0,0:0:0:0:
256,192,176420,1,0,0:0:0:0:
256,192,176529,1,6,0:0:0:0:
256,192,176747,1,0,0:0:0:0:
256,192,176855,1,0,0:0:0:0:
256,192,177181,1,0,0:0:0:0:
256,192,177290,1,0,0:0:0:0:
256,192,177399,1,2,0:0:0:0:
256,192,177725,1,2,0:0:0:0:
256,192,178051,1,0,0:0:0:0:
256,192,178160,1,0,0:0:0:0:
256,192,178268,1,2,0:0:0:0:
256,192,178594,1,0,0:0:0:0:
256,192,178920,1,0,0:0:0:0:
256,192,179029,1,0,0:0:0:0:
256,192,179138,1,2,0:0:0:0:
256,192,179355,1,0,0:0:0:0:
256,192,179428,1,0,0:0:0:0:
256,192,179500,1,0,0:0:0:0:
256,192,179573,1,2,0:0:0:0:
256,192,180007,1,6,0:0:0:0:
256,192,180225,1,0,0:0:0:0:
256,192,180442,1,0,0:0:0:0:
256,192,180660,1,0,0:0:0:0:
256,192,180877,1,0,0:0:0:0:
256,192,181094,1,0,0:0:0:0:
256,192,181312,1,0,0:0:0:0:
256,192,181420,1,0,0:0:0:0:
256,192,181529,1,2,0:0:0:0:
256,192,181638,1,0,0:0:0:0:
256,192,183486,1,6,0:0:0:0:
256,192,184573,1,0,0:0:0:0:
256,192,184645,1,0,0:0:0:0:
256,192,184718,1,0,0:0:0:0:
256,192,184790,1,2,0:0:0:0:
256,192,185007,1,4,0:0:0:0:
256,192,185442,1,4,0:0:0:0:
256,192,186094,1,0,0:0:0:0:
256,192,186167,1,0,0:0:0:0:
256,192,186239,1,0,0:0:0:0:
256,192,186312,1,2,0:0:0:0:
256,192,186420,1,0,0:0:0:0:
256,192,186529,1,2,0:0:0:0:
256,192,186638,1,2,0:0:0:0:
256,192,186747,1,0,0:0:0:0:
256,192,186855,1,0,0:0:0:0:
256,192,186964,1,6,0:0:0:0:
256,192,187616,1,0,0:0:0:0:
256,192,187689,1,0,0:0:0:0:
256,192,187761,1,0,0:0:0:0:
256,192,187834,1,6,0:0:0:0:
256,192,188486,1,0,0:0:0:0:
256,192,188594,1,0,0:0:0:0:
256,192,188703,1,6,0:0:0:0:
256,192,188920,1,0,0:0:0:0:
256,192,189029,1,6,0:0:0:0:
256,192,189247,1,0,0:0:0:0:
256,192,189355,1,6,0:0:0:0:
256,192,189573,1,0,0:0:0:0:
256,192,189645,1,0,0:0:0:0:
256,192,189718,1,0,0:0:0:0:
256,192,189790,1,2,0:0:0:0:
256,192,189899,1,2,0:0:0:0:
256,192,190007,1,0,0:0:0:0:
256,192,190080,1,0,0:0:0:0:
256,192,190152,1,0,0:0:0:0:
256,192,190225,1,2,0:0:0:0:
256,192,190334,1,2,0:0:0:0:
256,192,190442,1,4,0:0:0:0:
256,192,190660,1,2,0:0:0:0:
256,192,190768,1,0,0:0:0:0:
256,192,190823,1,0,0:0:0:0:
256,192,190877,1,2,0:0:0:0:
256,192,190986,1,0,0:0:0:0:
256,192,191094,1,2,0:0:0:0:
256,192,191149,1,0,0:0:0:0:
256,192,191203,1,0,0:0:0:0:
256,192,191257,1,0,0:0:0:0:
256,192,191312,1,2,0:0:0:0:
256,192,191420,1,0,0:0:0:0:
256,192,191475,1,0,0:0:0:0:
256,192,191529,1,2,0:0:0:0:
256,192,191583,1,2,0:0:0:0:
256,192,191638,1,2,0:0:0:0:
256,192,191692,1,2,0:0:0:0:
256,192,191747,1,0,0:0:0:0:
256,192,191855,1,2,0:0:0:0:
256,192,191910,1,2,0:0:0:0:
256,192,191964,1,2,0:0:0:0:
256,192,192073,1,0,0:0:0:0:
256,192,192181,1,2,0:0:0:0:
256,192,192236,1,2,0:0:0:0:
256,192,192290,1,0,0:0:0:0:
256,192,192344,1,2,0:0:0:0:
256,192,192399,1,0,0:0:0:0:
256,192,192453,1,0,0:0:0:0:
256,192,192507,1,2,0:0:0:0:
256,192,192616,1,0,0:0:0:0:
256,192,192670,1,0,0:0:0:0:
256,192,192725,1,2,0:0:0:0:
256,192,192779,1,0,0:0:0:0:
256,192,192833,1,2,0:0:0:0:
256,192,192888,1,2,0:0:0:0:
256,192,192942,1,0,0:0:0:0:
256,192,192997,1,0,0:0:0:0:
256,192,193051,1,2,0:0:0:0:
256,192,193105,1,2,0:0:0:0:
256,192,193160,1,2,0:0:0:0:
256,192,193214,1,2,0:0:0:0:
256,192,193268,1,0,0:0:0:0:
256,192,193377,1,2,0:0:0:0:
256,192,193486,1,0,0:0:0:0:
256,192,193558,1,0,0:0:0:0:
256,192,193631,1,2,0:0:0:0:
256,192,193703,1,2,0:0:0:0:
256,192,193776,1,2,0:0:0:0:
256,192,193848,1,2,0:0:0:0:
256,192,193920,1,0,0:0:0:0:
256,192,194029,1,2,0:0:0:0:
256,192,194083,1,2,0:0:0:0:
256,192,194138,1,2,0:0:0:0:
256,192,194247,1,0,0:0:0:0:
256,192,194301,1,0,0:0:0:0:
256,192,194355,1,2,0:0:0:0:
256,192,194410,1,0,0:0:0:0:
256,192,194464,1,2,0:0:0:0:
256,192,194518,1,2,0:0:0:0:
256,192,194573,1,0,0:0:0:0:
256,192,194627,1,0,0:0:0:0:
256,192,194681,1,2,0:0:0:0:
256,192,194736,1,0,0:0:0:0:
256,192,194790,1,2,0:0:0:0:
256,192,194899,1,0,0:0:0:0:
256,192,195007,1,2,0:0:0:0:
256,192,195116,1,2,0:0:0:0:
256,192,195225,1,0,0:0:0:0:
256,192,195442,1,6,0:0:0:0:
256,192,195877,1,2,0:0:0:0:
256,192,195949,1,0,0:0:0:0:
256,192,196022,1,0,0:0:0:0:
256,192,196094,1,2,0:0:0:0:
256,192,196312,1,4,0:0:0:0:
256,192,196529,1,2,0:0:0:0:
256,192,196602,1,2,0:0:0:0:
256,192,196674,1,2,0:0:0:0:
256,192,196747,1,0,0:0:0:0:
256,192,196855,1,0,0:0:0:0:
256,192,196964,1,2,0:0:0:0:
256,192,197037,1,2,0:0:0:0:
256,192,197109,1,2,0:0:0:0:
256,192,197182,1,0,0:0:0:0:
256,192,197290,1,0,0:0:0:0:
256,192,197399,1,6,0:0:0:0:
256,192,197507,1,0,0:0:0:0:
256,192,197562,1,0,0:0:0:0:
256,192,197616,1,2,0:0:0:0:
256,192,197670,1,2,0:0:0:0:
256,192,197725,1,0,0:0:0:0:
256,192,197834,1,2,0:0:0:0:
256,192,197888,1,2,0:0:0:0:
256,192,197942,1,0,0:0:0:0:
256,192,197997,1,0,0:0:0:0:
256,192,198051,1,2,0:0:0:0:
256,192,198105,1,0,0:0:0:0:
256,192,198160,1,2,0:0:0:0:
256,192,198214,1,2,0:0:0:0:
256,192,198268,1,0,0:0:0:0:
256,192,198377,1,2,0:0:0:0:
256,192,198486,1,0,0:0:0:0:
256,192,198540,1,0,0:0:0:0:
256,192,198594,1,2,0:0:0:0:
256,192,198649,1,0,0:0:0:0:
256,192,198703,1,2,0:0:0:0:
256,192,198812,1,0,0:0:0:0:
256,192,198920,1,2,0:0:0:0:
256,192,198975,1,0,0:0:0:0:
256,192,199029,1,2,0:0:0:0:
256,192,199084,1,2,0:0:0:0:
256,192,199138,1,0,0:0:0:0:
256,192,199247,1,2,0:0:0:0:
256,192,199355,1,0,0:0:0:0:
256,192,199410,1,0,0:0:0:0:
256,192,199464,1,0,0:0:0:0:
256,192,199573,1,2,0:0:0:0:
256,192,199627,1,0,0:0:0:0:
256,192,199681,1,2,0:0:0:0:
256,192,199736,1,2,0:0:0:0:
256,192,199790,1,0,0:0:0:0:
256,192,199844,1,0,0:0:0:0:
256,192,199899,1,2,0:0:0:0:
256,192,199953,1,0,0:0:0:0:
256,192,200007,1,2,0:0:0:0:
256,192,200116,1,0,0:0:0:0:
256,192,200225,1,2,0:0:0:0:
256,192,200279,1,2,0:0:0:0:
256,192,200334,1,0,0:0:0:0:
256,192,200442,1,2,0:0:0:0:
256,192,200497,1,0,0:0:0:0:
256,192,200551,1,2,0:0:0:0:
256,192,200605,1,2,0:0:0:0:
256,192,200660,1,0,0:0:0:0:
256,192,200714,1,0,0:0:0:0:
256,192,200768,1,0,0:0:0:0:
256,192,200823,1,0,0:0:0:0:
256,192,200877,1,2,0:0:0:0:
256,192,200986,1,0,0:0:0:0:
256,192,201041,1,0,0:0:0:0:
256,192,201095,1,2,0:0:0:0:
256,192,201149,1,2,0:0:0:0:
256,192,201204,1,0,0:0:0:0:
256,192,201313,1,2,0:0:0:0:
256,192,201367,1,0,0:0:0:0:
256,192,201421,1,2,0:0:0:0:
256,192,201476,1,2,0:0:0:0:
256,192,201530,1,0,0:0:0:0:
256,192,201584,1,0,0:0:0:0:
256,192,201639,1,2,0:0:0:0:
256,192,201693,1,0,0:0:0:0:
256,192,201747,1,2,0:0:0:0:
256,192,201856,1,0,0:0:0:0:
256,192,201965,1,2,0:0:0:0:
256,192,202018,1,2,0:0:0:0:
256,192,202073,1,0,0:0:0:0:
256,192,202182,1,2,0:0:0:0:
256,192,202236,1,2,0:0:0:0:
256,192,202291,1,0,0:0:0:0:
256,192,202344,1,0,0:0:0:0:
256,192,202399,1,2,0:0:0:0:
256,192,202454,1,0,0:0:0:0:
256,192,202508,1,2,0:0:0:0:
256,192,202563,1,2,0:0:0:0:
256,192,202617,1,0,0:0:0:0:
256,192,202726,1,2,0:0:0:0:
256,192,202834,1,0,0:0:0:0:
256,192,202889,1,0,0:0:0:0:
256,192,202943,1,0,0:0:0:0:
256,192,203052,1,2,0:0:0:0:
256,192,203106,1,0,0:0:0:0:
256,192,203160,1,2,0:0:0:0:
256,192,203215,1,2,0:0:0:0:
256,192,203269,1,0,0:0:0:0:
256,192,203323,1,0,0:0:0:0:
256,192,203378,1,2,0:0:0:0:
256,192,203432,1,0,0:0:0:0:
256,192,203486,1,2,0:0:0:0:
256,192,203595,1,0,0:0:0:0:
256,192,203649,1,0,0:0:0:0:
256,192,203704,1,2,0:0:0:0:
256,192,203776,1,2,0:0:0:0:
256,192,203848,1,0,0:0:0:0:
256,192,203921,1,2,0:0:0:0:
256,192,204139,1,0,0:0:0:0:
256,192,204356,1,2,0:0:0:0:
256,192,204464,1,0,0:0:0:0:
256,192,204518,1,0,0:0:0:0:
256,192,204573,1,2,0:0:0:0:
256,192,204681,1,0,0:0:0:0:
256,192,204790,1,2,0:0:0:0:
256,192,204844,1,2,0:0:0:0:
256,192,204899,1,0,0:0:0:0:
256,192,204953,1,0,0:0:0:0:
256,192,205007,1,2,0:0:0:0:
256,192,205062,1,0,0:0:0:0:
256,192,205116,1,2,0:0:0:0:
256,192,205170,1,2,0:0:0:0:
256,192,205225,1,0,0:0:0:0:
256,192,205334,1,2,0:0:0:0:
256,192,205442,1,0,0:0:0:0:
256,192,205497,1,0,0:0:0:0:
256,192,205551,1,0,0:0:0:0:
256,192,205605,1,0,0:0:0:0:
256,192,205660,1,2,0:0:0:0:
256,192,205768,1,0,0:0:0:0:
256,192,205877,1,2,0:0:0:0:
256,192,205931,1,2,0:0:0:0:
256,192,205986,1,0,0:0:0:0:
256,192,206094,1,2,0:0:0:0:
256,192,206203,1,0,0:0:0:0:
256,192,206257,1,0,0:0:0:0:
256,192,206312,1,2,0:0:0:0:
256,192,206366,1,2,0:0:0:0:
256,192,206420,1,0,0:0:0:0:
256,192,206529,1,2,0:0:0:0:
256,192,206584,1,2,0:0:0:0:
256,192,206638,1,0,0:0:0:0:
256,192,206692,1,0,0:0:0:0:
256,192,206747,1,2,0:0:0:0:
256,192,206801,1,0,0:0:0:0:
256,192,206855,1,2,0:0:0:0:
256,192,206910,1,2,0:0:0:0:
256,192,206964,1,0,0:0:0:0:
256,192,207073,1,2,0:0:0:0:
256,192,207181,1,0,0:0:0:0:
256,192,207236,1,0,0:0:0:0:
256,192,207290,1,2,0:0:0:0:
256,192,207344,1,0,0:0:0:0:
256,192,207399,1,2,0:0:0:0:
256,192,207453,1,2,0:0:0:0:
256,192,207507,1,0,0:0:0:0:
256,192,207562,1,0,0:0:0:0:
256,192,207616,1,2,0:0:0:0:
256,192,207725,1,0,0:0:0:0:
256,192,207834,1,2,0:0:0:0:
256,192,207942,1,0,0:0:0:0:
256,192,207997,1,0,0:0:0:0:
256,192,208051,1,2,0:0:0:0:
256,192,208105,1,0,0:0:0:0:
256,192,208160,1,2,0:0:0:0:
256,192,208214,1,2,0:0:0:0:
256,192,208268,1,0,0:0:0:0:
256,192,208377,1,2,0:0:0:0:
256,192,208431,1,2,0:0:0:0:
256,192,208486,1,0,0:0:0:0:
256,192,208540,1,0,0:0:0:0:
256,192,208594,1,2,0:0:0:0:
256,192,208703,1,0,0:0:0:0:
256,192,208776,1,0,0:0:0:0:
256,192,208848,1,0,0:0:0:0:
256,192,208920,1,2,0:0:0:0:
256,192,208993,1,0,0:0:0:0:
256,192,209065,1,0,0:0:0:0:
256,192,209138,1,2,0:0:0:0:
256,192,209355,1,4,0:0:0:0:
256,192,209790,1,2,0:0:0:0:
256,192,209935,1,0,0:0:0:0:
256,192,210007,1,2,0:0:0:0:
256,192,210225,1,4,0:0:0:0:
256,192,210660,1,0,0:0:0:0:
256,192,210768,1,0,0:0:0:0:
256,192,210877,1,2,0:0:0:0:
256,192,210986,1,0,0:0:0:0:
256,192,211094,1,0,0:0:0:0:
256,192,211203,1,0,0:0:0:0:
256,192,211312,1,6,0:0:0:0:
256,192,213051,1,6,0:0:0:0:
256,192,213377,1,6,0:0:0:0:
256,192,214790,8,6,216094,0:0:0:0:
256,192,216529,5,2,0:0:0:0:
256,192,216637,1,0,0:0:0:0:
256,192,216692,1,0,0:0:0:0:
256,192,216746,1,0,0:0:0:0:
256,192,216800,1,0,0:0:0:0:
256,192,216855,1,2,0:0:0:0:
256,192,216963,1,0,0:0:0:0:
256,192,217072,1,2,0:0:0:0:
256,192,217126,1,2,0:0:0:0:
256,192,217181,1,0,0:0:0:0:
256,192,217289,1,2,0:0:0:0:
256,192,217344,1,0,0:0:0:0:
256,192,217398,1,0,0:0:0:0:
256,192,217452,1,0,0:0:0:0:
256,192,217507,1,2,0:0:0:0:
256,192,217615,1,0,0:0:0:0:
256,192,217724,1,2,0:0:0:0:
256,192,217779,1,0,0:0:0:0:
256,192,217833,1,2,0:0:0:0:
256,192,217887,1,2,0:0:0:0:
256,192,217942,1,0,0:0:0:0:
256,192,217996,1,0,0:0:0:0:
256,192,218050,1,2,0:0:0:0:
256,192,218159,1,0,0:0:0:0:
256,192,218268,1,2,0:0:0:0:
256,192,218376,1,0,0:0:0:0:
256,192,218431,1,0,0:0:0:0:
256,192,218485,1,0,0:0:0:0:
256,192,218539,1,0,0:0:0:0:
256,192,218594,1,2,0:0:0:0:
256,192,218702,1,0,0:0:0:0:
256,192,218811,1,2,0:0:0:0:
256,192,218865,1,2,0:0:0:0:
256,192,218920,1,0,0:0:0:0:
256,192,218974,1,0,0:0:0:0:
256,192,219028,1,2,0:0:0:0:
256,192,219137,1,0,0:0:0:0:
256,192,219246,1,2,0:0:0:0:
256,192,219300,1,2,0:0:0:0:
256,192,219354,1,0,0:0:0:0:
256,192,219409,1,2,0:0:0:0:
256,192,219463,1,0,0:0:0:0:
256,192,219518,1,0,0:0:0:0:
256,192,219572,1,2,0:0:0:0:
256,192,219681,1,0,0:0:0:0:
256,192,219735,1,0,0:0:0:0:
256,192,219789,1,2,0:0:0:0:
256,192,219898,1,0,0:0:0:0:
256,192,220007,1,2,0:0:0:0:
256,192,220115,1,0,0:0:0:0:
256,192,220170,1,0,0:0:0:0:
256,192,220224,1,0,0:0:0:0:
256,192,220278,1,0,0:0:0:0:
256,192,220333,1,2,0:0:0:0:
256,192,220441,1,0,0:0:0:0:
256,192,220550,1,2,0:0:0:0:
256,192,220604,1,2,0:0:0:0:
256,192,220659,1,0,0:0:0:0:
256,192,220767,1,2,0:0:0:0:
256,192,220822,1,0,0:0:0:0:
256,192,220876,1,0,0:0:0:0:
256,192,220930,1,0,0:0:0:0:
256,192,220985,1,2,0:0:0:0:
256,192,221093,1,0,0:0:0:0:
256,192,221202,1,2,0:0:0:0:
256,192,221257,1,0,0:0:0:0:
256,192,221311,1,2,0:0:0:0:
256,192,221365,1,2,0:0:0:0:
256,192,221420,1,0,0:0:0:0:
256,192,221474,1,0,0:0:0:0:
256,192,221528,1,2,0:0:0:0:
256,192,221637,1,0,0:0:0:0:
256,192,221746,1,2,0:0:0:0:
256,192,221854,1,0,0:0:0:0:
256,192,221909,1,0,0:0:0:0:
256,192,221963,1,0,0:0:0:0:
256,192,222017,1,0,0:0:0:0:
256,192,222072,1,2,0:0:0:0:
256,192,222180,1,0,0:0:0:0:
256,192,222289,1,2,0:0:0:0:
256,192,222343,1,2,0:0:0:0:
256,192,222398,1,0,0:0:0:0:
256,192,222452,1,0,0:0:0:0:
256,192,222506,1,2,0:0:0:0:
256,192,222615,1,0,0:0:0:0:
256,192,222724,1,2,0:0:0:0:
256,192,222778,1,2,0:0:0:0:
256,192,222832,1,0,0:0:0:0:
256,192,222887,1,2,0:0:0:0:
256,192,222941,1,0,0:0:0:0:
256,192,222996,1,0,0:0:0:0:
256,192,223050,1,2,0:0:0:0:
256,192,223123,1,2,0:0:0:0:
256,192,223195,1,2,0:0:0:0:
256,192,223268,1,0,0:0:0:0:
256,192,223376,1,0,0:0:0:0:
256,192,223485,1,2,0:0:0:0:
256,192,223594,1,2,0:0:0:0:
256,192,223702,1,0,0:0:0:0:
256,192,223775,1,0,0:0:0:0:
256,192,223847,1,0,0:0:0:0:
256,192,223920,1,2,0:0:0:0:
256,192,224028,1,0,0:0:0:0:
256,192,224083,1,0,0:0:0:0:
256,192,224137,1,0,0:0:0:0:
256,192,224191,1,0,0:0:0:0:
256,192,224246,1,2,0:0:0:0:
256,192,224354,1,0,0:0:0:0:
256,192,224409,1,0,0:0:0:0:
256,192,224463,1,2,0:0:0:0:
256,192,224517,1,2,0:0:0:0:
256,192,224572,1,2,0:0:0:0:
256,192,224680,1,0,0:0:0:0:
256,192,224789,1,2,0:0:0:0:
256,192,224844,1,0,0:0:0:0:
256,192,224898,1,2,0:0:0:0:
256,192,224952,1,2,0:0:0:0:
256,192,225007,1,0,0:0:0:0:
256,192,225061,1,0,0:0:0:0:
256,192,225115,1,2,0:0:0:0:
256,192,225224,1,0,0:0:0:0:
256,192,225333,1,2,0:0:0:0:
256,192,225441,1,0,0:0:0:0:
256,192,225496,1,0,0:0:0:0:
256,192,225550,1,0,0:0:0:0:
256,192,225604,1,0,0:0:0:0:
256,192,225659,1,2,0:0:0:0:
256,192,225767,1,0,0:0:0:0:
256,192,225876,1,2,0:0:0:0:
256,192,225930,1,2,0:0:0:0:
256,192,225985,1,0,0:0:0:0:
256,192,226039,1,0,0:0:0:0:
256,192,226093,1,2,0:0:0:0:
256,192,226202,1,0,0:0:0:0:
256,192,226311,1,2,0:0:0:0:
256,192,226365,1,2,0:0:0:0:
256,192,226419,1,0,0:0:0:0:
256,192,226528,1,2,0:0:0:0:
256,192,226601,1,2,0:0:0:0:
256,192,226673,1,2,0:0:0:0:
256,192,226746,1,0,0:0:0:0:
256,192,226818,1,0,0:0:0:0:
256,192,226891,1,0,0:0:0:0:
256,192,226963,1,2,0:0:0:0:
256,192,227072,1,0,0:0:0:0:
256,192,227180,1,2,0:0:0:0:
256,192,227235,1,2,0:0:0:0:
256,192,227289,1,0,0:0:0:0:
256,192,227343,1,0,0:0:0:0:
256,192,227398,1,2,0:0:0:0:
256,192,227506,1,0,0:0:0:0:
256,192,227615,1,2,0:0:0:0:
256,192,227669,1,2,0:0:0:0:
256,192,227724,1,0,0:0:0:0:
256,192,227832,1,2,0:0:0:0:
256,192,227887,1,0,0:0:0:0:
256,192,227941,1,0,0:0:0:0:
256,192,227995,1,0,0:0:0:0:
256,192,228050,1,2,0:0:0:0:
256,192,228158,1,0,0:0:0:0:
256,192,228267,1,2,0:0:0:0:
256,192,228322,1,0,0:0:0:0:
256,192,228376,1,2,0:0:0:0:
256,192,228430,1,2,0:0:0:0:
256,192,228485,1,0,0:0:0:0:
256,192,228539,1,0,0:0:0:0:
256,192,228593,1,2,0:0:0:0:
256,192,228648,1,0,0:0:0:0:
256,192,228702,1,2,0:0:0:0:
256,192,228775,1,2,0:0:0:0:
256,192,228847,1,2,0:0:0:0:
256,192,228920,1,0,0:0:0:0:
256,192,228992,1,0,0:0:0:0:
256,192,229065,1,0,0:0:0:0:
256,192,229137,1,2,0:0:0:0:
256,192,229246,1,2,0:0:0:0:
256,192,229355,1,4,0:0:0:0:
256,192,229681,1,0,0:0:0:0:
256,192,229735,1,0,0:0:0:0:
256,192,229789,1,2,0:0:0:0:
256,192,229898,1,0,0:0:0:0:
256,192,230007,1,2,0:0:0:0:
256,192,230115,1,2,0:0:0:0:
256,192,230224,1,2,0:0:0:0:
256,192,230333,1,4,0:0:0:0:
