osu file format v14

[General]
AudioFilename: audio.mp3
AudioLeadIn: 0
PreviewTime: 54689
Countdown: 0
SampleSet: Soft
StackLeniency: 0.6
Mode: 0
LetterboxInBreaks: 0
WidescreenStoryboard: 1

[Editor]
DistanceSpacing: 1.2
BeatDivisor: 4
GridSize: 32
TimelineZoom: 2

[Metadata]
Title:Autonomy
TitleUnicode:Autonomy
Artist:Kotone
ArtistUnicode:Kotone
Creator:captin1
Version:Hard
Source:
Tags:vtuber virtual youtuber tenjin 天神子兎音 5u5h1 Shunya Watanabe k45u rock metal japanese shizuku- shikibe mayu kazato asa amateurre uberfazz
BeatmapID:2969919
BeatmapSetID:1420776

[Difficulty]
HPDrainRate:3
CircleSize:3.6
OverallDifficulty:6.5
ApproachRate:8
SliderMultiplier:1.4
SliderTickRate:1

[Events]
//Background and Video events
0,0,"Exzk6FNVEAEnQ7Q.jpg",0,0
Video,0,"autonomy.mp4"
//Break Periods
2,51302,52439
2,72172,79570
2,155650,162526
//Storyboard Layer 0 (Background)
//Storyboard Layer 1 (Fail)
//Storyboard Layer 2 (Pass)
//Storyboard Layer 3 (Foreground)
//Storyboard Layer 4 (Overlay)
//Storyboard Sound Samples

[TimingPoints]
1016,260.869565217391,4,2,1,80,1,0
1537,-133.333333333333,4,2,1,50,0,0
5189,-100,4,2,1,80,0,0
5711,-133.333333333333,4,2,1,50,0,0
8059,-133.333333333333,4,2,1,60,0,0
9363,-100,4,2,1,70,0,0
23971,-100,4,2,1,80,0,0
26059,-111.111111111111,4,2,1,60,0,0
34407,-100,4,2,1,70,0,0
42755,-100,4,2,1,80,0,0
51102,-100,4,2,1,70,0,0
53189,-200,4,2,1,50,0,0
53971,-200,4,2,1,5,0,0
54102,-200,4,2,1,70,0,0
54233,-100,4,2,1,70,0,0
55276,-100,4,2,1,80,0,1
71189,-100,4,2,1,80,0,0
71972,-100,4,2,1,70,0,0
80320,-100,4,2,1,60,0,0
88929,-133.333333333333,4,2,1,60,0,0
94929,-100,4,2,1,70,0,0
97015,-100,4,2,1,40,0,0
97798,-200,4,2,1,40,0,0
105363,-133.333333333333,4,2,1,50,0,0
107449,-133.333333333333,4,2,1,55,0,0
109537,-133.333333333333,4,2,1,60,0,0
110581,-133.333333333333,4,2,1,65,0,0
111624,-100,4,2,1,70,0,0
113711,-100,4,2,1,80,0,1
130407,-100,4,2,1,80,0,0
130537,-100,4,2,1,60,0,0
136667,-100,4,2,1,70,0,0
138755,-90.9090909090909,4,2,1,75,0,0
142407,-90.9090909090909,4,2,1,85,0,0
142929,-90.9090909090909,4,2,1,75,0,0
150755,-90.9090909090909,4,2,1,85,0,0
151276,-90.9090909090909,4,2,1,75,0,0
163276,-133.333333333333,4,2,1,40,0,0
169798,-133.333333333333,4,2,1,50,0,0
171494,-133.333333333333,4,2,1,70,0,0
171624,-100,4,2,1,70,0,0
172146,-90.9090909090909,4,2,1,80,0,1
188842,-100,4,2,1,85,0,0
197320,-90.9090909090909,4,2,1,85,0,0
205537,-100,4,2,1,80,0,0
220145,-100,4,2,1,85,0,0
222363,-100,4,2,1,65,0,0
222755,-133.333333333333,4,2,1,65,0,0
223146,-133.333333333333,4,2,1,85,0,0
224255,-133.333333333333,4,2,1,65,0,0

[Colours]
Combo1 : 255,255,128
Combo2 : 128,128,255
Combo3 : 255,0,128
Combo4 : 105,0,210

[HitObjects]
421,51,1016,6,0,B|461:129|449:209|449:209|403:255,1,210,4|0,1:0|1:0,2:0:0:0:
353,204,1537,2,0,L|299:193,1,52.5000000000001,0|2,2:0|2:0,2:0:0:0:
259,133,1798,2,0,L|195:146,1,52.5000000000001,8|2,2:0|2:0,2:0:0:0:
140,174,2059,2,0,P|103:144|97:72,1,105,0|0,2:0|1:0,2:0:0:0:
148,42,2450,2,0,L|257:57,1,105,0|0,2:0|2:0,2:0:0:0:
319,87,2842,2,0,P|347:76|383:66,1,52.5000000000001,0|2,1:0|2:0,2:0:0:0:
445,105,3102,5,0,1:0:0:0:
445,105,3233,1,2,2:0:0:0:
445,105,3363,2,0,L|455:173,1,52.5000000000001,0|0,2:0|1:0,2:0:0:0:
402,210,3624,2,0,L|389:274,1,52.5000000000001,0|2,2:0|2:0,2:0:0:0:
438,332,3885,1,8,2:0:0:0:
438,332,4015,1,0,2:0:0:0:
438,332,4146,6,0,P|377:348|331:316,1,105,0|0,2:0|1:0,2:0:0:0:
298,270,4537,1,0,2:0:0:0:
225,285,4668,2,0,L|152:300,1,52.5000000000001,8|0,2:0|1:0,2:0:0:0:
109,259,4929,2,0,L|57:251,1,52.5000000000001,0|0,2:0|2:0,2:0:0:0:
6,167,5189,6,0,B|76:158|76:158|113:100|113:100|193:87,1,210,4|0,1:0|1:0,2:0:0:0:
255,78,5711,2,0,L|268:14,1,52.5000000000001,0|2,2:0|2:0,2:0:0:0:
339,22,5972,2,0,L|326:86,1,52.5000000000001,8|2,2:0|2:0,2:0:0:0:
377,128,6233,2,0,P|394:164|361:234,1,105,0|0,2:0|1:0,2:0:0:0:
302,208,6624,2,0,L|178:229,1,105,0|0,2:0|2:0,2:0:0:0:
130,255,7015,2,0,P|98:245|76:242,1,52.5000000000001,0|0,1:0|2:0,2:0:0:0:
31,332,7276,5,0,1:0:0:0:
31,332,7407,1,0,2:0:0:0:
31,332,7537,2,0,P|61:325|84:322,1,52.5000000000001,0|0,2:0|1:0,2:0:0:0:
149,353,7798,2,0,P|175:349|210:342,1,52.5000000000001,0|8,2:0|2:0,2:0:0:0:
261,301,8059,6,0,L|290:308,4,26.2500000000001,8|8|8|8|8,2:0|2:0|2:0|2:0|2:0,2:0:0:0:
210,246,8450,1,8,2:3:0:0:
271,205,8581,2,0,L|286:142,1,52.5000000000001,8|4,2:3|2:3,2:0:0:0:
237,97,8842,1,8,1:0:0:0:
237,97,8972,1,0,1:0:0:0:
429,18,9363,6,0,P|447:68|468:103,1,70,4|2,1:0|1:0,2:0:0:0:
508,148,9624,2,0,P|483:194|381:193,1,140,2|14,2:1|2:1,2:0:0:0:
329,162,10015,2,0,L|239:145,1,70,2|0,1:0|1:0,2:0:0:0:
178,129,10276,1,2,1:0:0:0:
133,201,10407,2,0,L|123:271,1,70,6|0,2:1|1:0,2:0:0:0:
18,256,10668,2,0,L|30:187,1,70,2|0,2:1|1:0,2:0:0:0:
40,106,10929,1,12,2:1:0:0:
26,67,11059,1,2,2:0:0:0:
12,27,11189,2,0,P|77:14|139:85,1,140,0|4,1:0|1:0,2:0:0:0:
178,129,11581,5,2,1:0:0:0:
250,85,11711,2,0,L|325:70,1,70,2|0,2:1|1:0,2:0:0:0:
425,25,11972,1,14,2:1:0:0:
425,25,12102,2,0,P|387:15|351:1,1,70,2|0,1:0|1:0,2:0:0:0:
331,84,12363,1,2,1:0:0:0:
349,166,12494,2,0,L|365:254,1,70,6|0,2:1|1:0,2:0:0:0:
424,290,12755,2,0,P|396:311|350:318,1,70,2|0,2:1|1:0,2:0:0:0:
280,309,13015,1,14,2:1:0:0:
270,268,13146,1,2,2:0:0:0:
261,227,13276,2,0,L|246:149,1,70,0|0,1:0|2:0,2:0:0:0:
173,121,13537,6,0,P|128:111|99:102,1,70,4|2,1:0|1:0,2:0:0:0:
47,44,13798,2,0,B|77:123|29:117|60:207,1,140,2|14,2:1|2:1,2:0:0:0:
107,245,14189,2,0,P|92:290|86:319,1,70,2|0,1:0|1:0,2:0:0:0:
147,371,14450,1,2,1:0:0:0:
227,347,14581,2,0,L|297:359,1,70,6|0,2:1|1:0,2:0:0:0:
348,266,14842,2,0,L|392:320,1,70,2|0,2:1|1:0,2:0:0:0:
473,261,15102,1,12,2:1:0:0:
480,219,15233,1,2,2:0:0:0:
486,178,15363,2,0,B|426:164|426:164|412:147|412:147|346:132,1,140,0|4,1:0|1:0,2:0:0:0:
306,65,15755,5,2,1:0:0:0:
225,86,15885,2,0,P|207:123|202:156,1,70,2|0,2:1|1:0,2:0:0:0:
302,198,16146,1,14,2:1:0:0:
302,198,16276,2,0,L|314:270,1,70,2|0,1:0|1:0,2:0:0:0:
273,341,16537,1,2,1:0:0:0:
197,303,16668,2,0,L|123:322,1,70,6|0,2:1|1:0,2:0:0:0:
61,270,16929,2,0,L|74:193,1,70,2|0,2:1|1:0,2:0:0:0:
8,100,17189,6,0,B|50:65|54:11|54:11|86:54|154:53,1,210,8|0,2:0|2:0,2:0:0:0:
202,151,17711,6,0,P|241:134|272:127,1,70,4|2,1:0|1:0,2:0:0:0:
314,57,17972,2,0,P|333:91|444:92,1,140,2|14,2:1|2:1,2:0:0:0:
509,93,18363,1,2,1:0:0:0:
498,176,18494,2,0,L|489:261,1,70,0|2,1:0|1:0,2:0:0:0:
485,351,18755,2,0,P|451:331|411:320,1,70,6|0,2:1|1:0,2:0:0:0:
342,297,19015,2,0,P|310:320|276:337,1,70,2|0,2:1|1:0,2:0:0:0:
210,377,19276,1,12,2:1:0:0:
169,366,19407,1,2,2:0:0:0:
129,353,19537,2,0,B|83:332|83:332|66:224,1,140,0|4,1:0|1:0,2:0:0:0:
97,164,19929,5,2,1:0:0:0:
48,95,20059,2,0,L|62:18,1,70,2|0,2:1|1:0,2:0:0:0:
165,13,20320,1,14,2:1:0:0:
165,13,20450,2,0,L|151:90,1,70,2|0,1:0|1:0,2:0:0:0:
220,132,20711,1,2,1:0:0:0:
301,110,20842,2,0,L|386:85,1,70,6|0,2:1|1:0,2:0:0:0:
414,20,21102,2,0,P|443:49|451:93,1,70,2|0,2:1|1:0,2:0:0:0:
424,156,21363,1,14,2:1:0:0:
433,196,21494,1,2,2:0:0:0:
442,237,21624,2,0,L|356:227,1,70,0|0,1:0|2:0,2:0:0:0:
298,270,21885,6,0,L|309:342,1,70,4|2,1:0|1:0,2:0:0:0:
225,355,22146,2,0,P|175:370|109:310,1,140,2|14,2:1|2:1,2:0:0:0:
171,259,22537,1,2,1:0:0:0:
232,200,22668,2,0,L|220:119,1,70,0|2,1:0|1:0,2:0:0:0:
144,99,22929,2,0,L|158:25,1,70,6|0,2:1|1:0,2:0:0:0:
52,27,23189,2,0,L|38:101,1,70,2|0,2:1|1:0,2:0:0:0:
89,171,23450,1,12,2:1:0:0:
72,209,23581,1,2,2:0:0:0:
52,245,23711,2,0,P|96:288|176:267,1,140,0|0,1:0|1:0,2:0:0:0:
225,336,24102,6,0,P|266:321|294:317,1,70,14|2,2:0|2:1,2:0:0:0:
445,247,24494,2,0,P|409:239|368:220,1,70,14|2,2:0|2:1,2:0:0:0:
214,188,24885,6,0,P|255:173|283:169,1,70,14|2,2:0|2:1,2:0:0:0:
434,99,25276,2,0,P|398:91|357:72,1,70,14|2,2:0|1:0,2:0:0:0:
303,17,25537,1,2,2:1:0:0:
262,25,25668,1,2,2:1:0:0:
222,35,25798,2,0,L|142:50,1,70,2|2,1:0|1:0,2:0:0:0:
99,101,26059,6,0,L|122:238,2,126,4|0|8,1:2|1:0|2:0,2:0:0:0:
47,246,26842,1,0,2:0:0:0:
47,246,26972,2,0,B|118:252|93:291|179:292,1,126,8|0,2:0|1:0,2:0:0:0:
232,262,27363,1,0,1:0:0:0:
351,354,27624,2,0,P|383:342|422:335,1,63.0000000000001,8|0,2:0|1:0,2:0:0:0:
484,356,27885,1,2,1:2:0:0:
499,205,28146,6,0,L|474:66,2,126,0|0|8,1:0|1:0|2:0,2:0:0:0:
465,272,28798,1,0,1:0:0:0:
350,173,29059,2,0,P|308:143|225:157,1,126,8|0,2:0|1:0,2:0:0:0:
176,196,29450,1,0,1:0:0:0:
154,46,29711,1,8,2:0:0:0:
4,68,29972,1,2,2:0:0:0:
26,218,30233,6,0,L|47:353,2,126,0|0|8,1:0|1:0|2:0,2:0:0:0:
149,130,31015,1,0,1:0:0:0:
149,130,31146,2,0,P|180:158|166:250,1,126,8|0,2:0|1:0,2:0:0:0:
128,295,31537,1,0,1:0:0:0:
266,356,31798,2,0,P|256:316|252:284,1,63.0000000000001,8|0,2:0|1:0,2:0:0:0:
302,236,32059,1,2,2:0:0:0:
449,269,32320,6,0,L|463:190,2,63.0000000000001,0|8|0,1:0|2:0|1:0,2:0:0:0:
342,161,32842,2,0,L|327:90,1,63.0000000000001,8|0,2:0|1:0,2:0:0:0:
366,34,33102,1,8,2:0:0:0:
298,0,33233,2,0,L|155:24,1,126,4|0,1:2|1:0,2:0:0:0:
138,95,33624,2,0,P|96:85|56:84,1,63.0000000000001,8|0,1:0|1:0,2:0:0:0:
89,166,33885,2,0,P|57:178|15:200,1,63.0000000000001,8|0,1:0|1:0,2:0:0:0:
91,247,34146,2,0,P|78:281|71:315,1,63.0000000000001,8|8,1:0|1:0,2:0:0:0:
139,357,34407,6,0,B|221:351|190:316|279:317,1,140,4|8,1:0|2:0,2:0:0:0:
327,254,34798,1,2,1:0:0:0:
327,254,34929,2,0,P|363:267|399:275,1,70,0|2,2:0|1:0,2:0:0:0:
468,233,35189,1,8,1:0:0:0:
468,233,35320,2,0,P|505:181|482:96,1,140,2|2,1:0|1:0,2:0:0:0:
417,71,35711,2,0,L|337:84,1,70,10|0,1:0|1:0,2:0:0:0:
278,130,35972,2,0,P|232:103|201:95,1,70,0|0,1:0|1:0,2:0:0:0:
167,29,36233,2,0,P|128:60|102:75,1,70,10|0,2:1|2:0,2:0:0:0:
26,74,36494,6,0,L|49:224,1,140,2|8,1:0|2:0,2:0:0:0:
123,247,36885,1,2,1:0:0:0:
123,247,37015,2,0,P|110:284|104:317,2,70,0|0|10,2:0|1:0|2:0,2:0:0:0:
199,210,37407,2,0,P|239:207|285:295,1,140,2|0,1:0|1:0,2:0:0:0:
257,360,37798,2,0,P|219:345|176:339,1,70,10|0,2:0|2:0,2:0:0:0:
106,345,38059,2,0,P|68:360|25:366,1,70,2|0,1:0|1:0,2:0:0:0:
4,288,38320,1,10,2:1:0:0:
91,144,38581,6,0,L|232:164,1,140,4|8,1:0|2:0,2:0:0:0:
260,85,38972,1,2,1:0:0:0:
260,85,39102,2,0,P|304:69|334:53,1,70,0|2,2:0|1:0,2:0:0:0:
401,22,39363,1,8,2:0:0:0:
401,22,39494,2,0,P|451:36|461:118,1,140,2|0,1:0|1:0,2:0:0:0:
395,164,39885,2,0,L|382:243,1,70,10|2,1:0|1:0,2:0:0:0:
454,278,40146,2,0,L|471:353,1,70,0|0,1:0|1:0,2:0:0:0:
385,335,40407,1,10,2:1:0:0:
344,345,40537,1,0,1:0:0:0:
303,356,40668,6,0,L|217:340,1,70,8|0,2:0|1:0,2:0:0:0:
179,278,40929,2,0,L|93:262,1,70,10|0,2:0|1:0,2:0:0:0:
42,312,41189,1,10,2:0:0:0:
42,312,41320,2,0,P|28:259|32:235,1,70,2|8,1:0|2:0,2:0:0:0:
86,182,41581,2,0,L|80:145,2,35,2|0|8,1:0|1:0|2:0,2:0:0:0:
284,18,42755,6,0,L|276:96,1,70,6|0,1:0|2:0,2:0:0:0:
201,123,43015,2,0,L|218:200,1,70,2|0,1:0|2:0,2:0:0:0:
290,230,43276,2,0,P|340:191|430:203,1,140,14|0,1:0|1:0,2:0:0:0:
457,266,43668,2,0,L|445:345,1,70,2|4,1:0|2:1,2:0:0:0:
364,353,43929,2,0,L|352:274,1,70,2|0,1:0|2:0,2:0:0:0:
290,230,44189,2,0,L|130:260,1,140,2|0,1:0|2:0,2:0:0:0:
117,178,44581,2,0,P|80:200|55:211,1,70,2|0,1:0|2:0,2:0:0:0:
1,146,44842,6,0,P|-3:79|72:45,1,140,2|2,1:0|1:0,2:0:0:0:
124,87,45233,2,0,P|162:98|199:105,1,70,2|12,1:0|2:1,2:0:0:0:
267,66,45494,2,0,P|301:51|338:46,1,70,2|0,1:0|2:0,2:0:0:0:
410,80,45755,2,0,L|387:228,1,140,2|2,1:0|1:2,2:0:0:0:
318,265,46146,2,0,L|334:340,1,70,2|0,1:2|2:0,2:0:0:0:
415,350,46407,2,0,L|490:366,2,70,14|2|2,2:0|2:0|1:2,2:0:0:0:
249,318,46929,6,0,P|204:336|166:344,1,70,6|0,1:0|2:0,2:0:0:0:
110,298,47189,2,0,L|115:221,1,70,2|0,1:0|2:0,2:0:0:0:
52,171,47450,2,0,P|34:119|89:54,1,140,14|2,1:0|1:0,2:0:0:0:
128,126,47842,2,0,L|204:106,1,70,2|4,1:0|2:1,2:0:0:0:
275,132,48102,2,0,L|265:211,1,70,2|0,1:0|2:0,2:0:0:0:
326,260,48363,2,0,P|372:271|448:204,1,140,2|0,1:0|1:0,2:0:0:0:
490,149,48755,2,0,L|476:77,1,70,2|0,1:0|2:0,2:0:0:0:
432,9,49015,6,0,B|373:23|373:23|366:37|366:37|278:57,1,140,6|2,1:0|1:0,2:0:0:0:
227,15,49407,2,0,L|156:34,1,70,2|12,1:0|2:1,2:0:0:0:
75,22,49668,2,0,L|64:96,1,70,2|0,1:0|1:0,2:0:0:0:
19,162,49929,2,0,B|62:220|62:220|48:307,1,140,2|8,1:0|2:0,2:0:0:0:
114,343,50320,2,0,L|194:325,1,70,8|8,2:0|2:0,2:0:0:0:
241,267,50581,2,0,L|316:288,1,70,8|0,2:0|1:0,2:0:0:0:
360,351,50842,1,4,2:3:0:0:
401,342,50972,1,0,1:0:0:0:
442,334,51102,1,4,1:0:0:0:
366,233,53189,6,0,B|283:251|283:251|219:205|219:205|128:225,1,245,2|0,2:0|1:0,2:0:0:0:
76,166,54233,6,0,L|88:85,1,70,8|8,2:0|2:0,2:0:0:0:
270,73,54755,2,0,L|259:2,2,70,8|4|8,2:0|2:3|1:0,2:0:0:0:
332,130,55146,1,0,2:0:0:0:
332,130,55276,6,0,L|493:106,2,140,4|8|0,1:0|2:0|1:0,2:0:0:0:
287,202,55929,1,2,2:0:0:0:
217,155,56059,2,0,P|176:139|137:136,1,70,8|2,2:0|2:0,2:0:0:0:
75,175,56320,2,0,P|79:241|103:340,1,140,0|8,1:0|2:0,2:0:0:0:
177,298,56711,2,0,L|269:315,1,70,2|0,2:0|1:0,2:0:0:0:
320,360,56972,1,2,2:0:0:0:
320,360,57102,2,0,L|405:337,1,70,8|2,2:0|2:0,2:0:0:0:
468,366,57363,6,0,B|498:331|498:331|473:220,1,140,4|8,1:0|2:0,2:0:0:0:
415,180,57755,2,0,L|429:98,1,70,2|0,2:0|1:0,2:0:0:0:
365,54,58015,2,0,L|282:67,1,70,2|8,2:0|2:0,2:0:0:0:
248,134,58276,2,0,P|196:94|118:101,1,140,2|2,2:0|2:0,2:0:0:0:
47,133,58668,2,0,L|64:209,1,70,8|2,2:0|2:0,2:0:0:0:
146,197,58929,2,0,L|132:285,1,70,0|2,1:0|2:0,2:0:0:0:
57,295,59189,2,0,L|69:373,1,70,8|2,2:0|2:0,2:0:0:0:
150,350,59450,6,0,B|229:340|204:387|296:383,1,140,4|8,1:0|2:0,2:0:0:0:
346,226,59972,2,0,L|332:154,1,70,0|2,1:0|2:0,2:0:0:0:
265,105,60233,2,0,L|283:28,1,70,8|2,2:0|2:0,2:0:0:0:
360,10,60494,2,0,P|448:54|453:94,1,140,0|8,1:0|2:0,2:0:0:0:
434,168,60885,2,0,L|451:246,1,70,2|0,2:0|1:0,2:0:0:0:
411,311,61146,2,0,B|332:321|357:274|265:278,1,140,2|2,2:0|2:0,2:0:0:0:
194,275,61537,6,0,P|152:208|169:140,1,140,4|8,1:0|2:0,2:0:0:0:
207,79,61929,2,0,L|181:4,1,70,2|0,2:0|1:0,2:0:0:0:
100,9,62189,2,0,L|126:84,1,70,2|8,2:0|2:0,2:0:0:0:
162,151,62450,2,0,B|203:164|203:164|325:138,1,140,2|8,2:0|2:0,2:0:0:0:
382,154,62842,2,0,L|465:165,1,70,8|8,2:0|1:0,2:0:0:0:
463,246,63102,2,0,L|380:235,1,70,8|8,2:0|2:0,2:0:0:0:
350,309,63363,2,0,L|267:298,1,70,8|8,1:0|1:0,2:0:0:0:
216,354,63624,6,0,B|138:326|155:376|58:347,1,140,4|2,1:0|2:0,2:0:0:0:
21,298,64015,1,0,1:0:0:0:
21,298,64146,2,0,L|35:136,1,140,8|2,2:0|2:0,2:0:0:0:
155,42,64668,1,0,1:0:0:0:
281,152,64929,1,2,1:2:0:0:
281,152,65059,2,0,L|438:138,1,140,0|0,1:0|1:0,2:0:0:0:
471,72,65450,2,0,L|395:60,1,70,10|0,2:0|2:0,2:0:0:0:
340,2,65711,6,0,P|318:37|219:46,1,140,0|2,1:0|2:0,2:0:0:0:
146,22,66102,2,0,L|138:96,1,70,0|8,1:0|2:0,2:0:0:0:
68,138,66363,2,0,B|82:199|82:199|98:210|98:210|112:267,1,140,0|0,1:0|1:0,2:0:0:0:
80,345,66755,2,0,L|7:327,2,70,0|8|2,1:0|2:0|2:0,2:0:0:0:
163,333,67146,1,0,1:0:0:0:
245,317,67276,2,0,L|329:328,1,70,8|0,2:0|1:0,2:0:0:0:
390,289,67537,2,0,P|377:249|369:219,1,70,10|8,2:0|2:0,2:0:0:0:
420,154,67798,5,4,1:0:0:0:
435,114,67929,1,8,2:3:0:0:
450,74,68059,2,0,L|366:55,1,70,4|0,2:3|1:0,2:0:0:0:
305,21,68320,1,12,2:0:0:0:
305,21,68450,2,0,P|247:61|261:138,1,140,0|8,1:0|2:3,2:0:0:0:
184,178,68842,1,0,2:0:0:0:
204,215,68972,1,4,2:3:0:0:
224,252,69102,2,0,L|156:280,1,70,0|0,2:0|1:0,2:0:0:0:
140,357,69363,1,12,2:0:0:0:
140,357,69494,2,0,P|94:334|103:230,1,140,0|0,1:0|1:0,2:0:0:0:
100,169,69885,6,0,L|63:161,4,35,8|8|8|8|8,2:0|2:0|2:3|2:3|2:0,2:0:0:0:
173,126,70276,2,0,L|258:110,1,70,4|0,1:0|2:0,2:0:0:0:
303,26,70537,2,0,L|380:45,1,70,0|0,1:0|2:0,2:0:0:0:
465,92,70798,2,0,P|429:142|350:147,1,140,4|0,1:0|1:0,2:0:0:0:
280,188,71189,1,8,2:0:0:0:
329,355,71972,5,4,1:0:0:0:
104,105,80320,5,6,1:0:0:0:
26,254,80581,2,0,P|64:239|101:228,1,70,8|2,2:0|1:0,2:0:0:0:
174,244,80842,2,0,P|210:274|317:292,1,140,0|8,2:0|2:0,2:0:0:0:
373,333,81233,2,0,B|385:284|385:284|372:250|372:250|385:190,1,140,2|0,1:0|1:0,2:0:0:0:
459,161,81624,1,10,2:0:0:0:
459,161,81755,2,0,L|449:84,1,70,0|2,1:0|1:2,2:0:0:0:
393,29,82015,1,2,1:2:0:0:
393,29,82146,2,0,P|351:40|315:43,1,70,8|0,2:0|2:0,2:0:0:0:
255,90,82407,6,0,P|201:49|114:59,2,140,2|8|0,1:0|2:0|2:0,2:0:0:0:
196,151,83059,2,0,L|210:229,1,70,0|8,1:0|2:0,2:0:0:0:
292,216,83320,2,0,B|280:302|249:273|228:349,1,140,2|0,1:0|1:0,2:0:0:0:
151,368,83711,1,10,2:0:0:0:
35,246,83972,2,0,P|45:207|52:167,1,70,2|0,1:2|1:0,2:0:0:0:
1,108,84233,2,0,B|29:88|29:88|78:95,1,70,10|0,2:0|2:0,2:0:0:0:
122,32,84494,5,6,1:0:0:0:
223,166,84755,2,0,L|300:153,1,70,8|2,2:0|1:0,2:0:0:0:
322,76,85015,2,0,P|375:118|371:185,1,140,0|8,2:0|2:0,2:0:0:0:
305,239,85407,2,0,L|151:268,1,140,2|0,1:0|1:0,2:0:0:0:
101,317,85798,1,10,2:0:0:0:
101,317,85929,2,0,P|127:342|178:343,1,70,0|2,1:0|1:2,2:0:0:0:
246,340,86189,1,2,1:2:0:0:
246,340,86320,2,0,L|336:353,1,70,8|0,2:0|1:0,2:0:0:0:
396,371,86581,6,0,B|405:305|405:305|383:279|366:227,1,140,12|0,2:0|1:0,2:0:0:0:
454,235,86972,2,0,B|441:196|419:170|419:170|428:104,1,140,12|0,2:0|1:0,2:0:0:0:
376,38,87363,1,8,2:0:0:0:
376,38,87494,1,0,1:0:0:0:
117,117,88276,6,0,L|42:107,2,70,8|8|4,2:0|2:3|2:3,2:0:0:0:
173,53,88668,1,4,1:2:0:0:
298,129,88929,6,0,B|291:198|291:198|324:239,1,105,2|8,1:0|2:0,2:0:0:0:
364,279,89320,2,0,B|336:301|336:301|267:294,1,105,2|0,2:1|1:0,2:0:0:0:
225,233,89711,2,0,B|189:270|189:270|197:328,1,105,2|0,2:1|1:0,2:0:0:0:
238,384,90102,2,0,B|274:347|274:347|266:289,1,105,2|0,1:0|2:0,2:0:0:0:
225,233,90494,6,0,L|109:215,1,105,2|0,1:0|2:0,2:0:0:0:
76,157,90885,2,0,L|94:41,1,105,2|0,1:0|1:0,2:0:0:0:
159,23,91276,2,0,L|275:41,1,105,10|0,2:1|1:0,2:0:0:0:
300,103,91668,1,2,1:0:0:0:
443,71,91929,2,0,L|434:18,2,52.5000000000001,8|0|0,2:0|1:0|1:0,2:0:0:0:
498,119,92320,2,0,L|487:182,1,52.5000000000001,10|0,2:0|1:0,2:0:0:0:
433,219,92581,2,0,L|441:286,1,52.5000000000001,10|8,2:0|2:0,2:0:0:0:
393,330,92842,5,0,1:0:0:0:
393,330,92972,1,0,1:0:0:0:
393,330,93102,2,2,B|343:304|343:304|277:319,1,105,12|0,2:0|1:0,2:1:0:0:
236,270,93494,2,2,B|262:220|262:220|247:154,1,105,12|0,2:0|1:0,2:1:0:0:
296,113,93885,2,2,B|346:139|346:139|412:124,1,105,12|0,2:0|1:0,2:1:0:0:
453,173,94276,2,2,B|427:223|427:223|442:289,1,105,12|0,2:0|1:0,2:1:0:0:
393,330,94668,2,0,L|323:321,1,52.5000000000001,12|8,2:0|2:0,2:0:0:0:
288,240,94929,6,0,P|227:233|169:286,1,140,4|8,1:0|2:0,2:0:0:0:
102,331,95320,2,0,L|19:316,1,70,0|0,1:0|2:0,2:0:0:0:
19,235,95581,1,0,1:0:0:0:
94,85,95842,2,0,L|112:243,1,140,4|8,1:0|2:0,2:0:0:0:
171,282,96233,2,0,L|254:265,1,70,0|0,1:0|1:0,2:0:0:0:
283,196,96494,2,0,L|363:209,1,70,8|8,2:0|2:3,2:0:0:0:
419,157,96755,1,4,2:3:0:0:
460,149,96885,1,0,1:0:0:0:
500,140,97015,1,4,1:2:0:0:
325,42,97798,6,0,B|217:2|152:99|214:92|116:203|18:144,1,350,2|2,2:0|2:0,2:0:0:0:
78,52,99885,5,0,2:0:0:0:
140,107,100146,2,0,L|150:182,2,70,2|0|0,2:0|2:0|2:0,2:0:0:0:
218,75,100929,1,2,2:0:0:0:
293,39,101189,2,0,L|406:17,2,105,2|2|2,2:0|2:0|2:0,2:0:0:0:
187,169,102494,2,0,L|166:320,1,140,2|2,2:0|2:0,2:0:0:0:
235,356,103276,6,0,P|316:374|403:281,1,210,2|2,2:0|2:0,2:0:0:0:
341,233,104320,2,0,L|353:159,1,70,2|0,2:0|2:0,2:0:0:0:
421,115,104842,1,0,2:0:0:0:
190,13,105363,6,0,L|207:121,1,105,0|2,1:0|2:0,2:0:0:0:
154,169,105755,1,0,2:0:0:0:
319,314,106146,2,0,L|333:253,1,52.5000000000001,2|0,2:0|2:0,2:0:0:0:
402,243,106407,2,0,L|425:133,1,105,0|2,1:0|2:0,2:0:0:0:
371,87,106798,1,0,2:0:0:0:
182,200,107189,6,0,L|192:268,2,52.5000000000001,2|0|0,2:0|2:0|1:0,2:0:0:0:
46,142,107711,2,0,L|56:84,1,52.5000000000001,2|0,2:0|2:0,2:0:0:0:
274,62,108233,6,0,L|264:-6,2,52.5000000000001,2|0|0,2:0|2:0|1:0,2:0:0:0:
410,120,108755,2,0,L|400:178,1,52.5000000000001,2|8,2:0|2:0,2:0:0:0:
427,239,109015,1,8,1:0:0:0:
284,275,109276,1,8,1:3:0:0:
292,311,109407,1,0,2:0:0:0:
300,346,109537,6,0,L|176:329,1,105,0|0,1:0|1:0,2:0:0:0:
38,213,110059,2,0,L|162:230,1,105,0|0,1:0|1:0,2:0:0:0:
284,189,110581,1,8,1:0:0:0:
311,44,110842,1,8,1:0:0:0:
170,2,111102,1,8,1:0:0:0:
143,147,111363,2,0,L|100:139,2,35.0000000000001,0|0|0,1:0|1:0|1:0,2:0:0:0:
226,119,111624,6,0,P|273:156|360:140,1,140,8|8,2:0|2:0,2:0:0:0:
433,112,112015,2,0,B|451:136|451:136|431:246,1,140,8|8,2:0|2:0,2:0:0:0:
360,288,112407,1,8,2:0:0:0:
360,288,112537,2,0,L|375:372,1,70,8|4,2:3|1:3,2:0:0:0:
274,240,112798,1,8,2:3:0:0:
274,240,112929,2,0,L|289:156,1,70,8|0,2:3|1:0,2:0:0:0:
180,254,113189,1,8,2:0:0:0:
180,254,113711,6,0,L|19:278,2,140,4|8|0,1:0|2:0|1:0,2:0:0:0:
225,182,114363,1,2,2:0:0:0:
295,229,114494,2,0,P|336:245|375:248,1,70,8|2,2:0|2:0,2:0:0:0:
437,209,114755,2,0,P|433:143|409:44,1,140,0|8,1:0|2:0,2:0:0:0:
335,86,115146,2,0,L|243:69,1,70,2|0,2:0|1:0,2:0:0:0:
192,24,115407,1,2,2:0:0:0:
192,24,115537,2,0,L|107:47,1,70,8|2,2:0|2:0,2:0:0:0:
44,18,115798,6,0,B|14:53|14:53|39:164,1,140,4|8,1:0|2:0,2:0:0:0:
97,204,116189,2,0,L|83:286,1,70,2|0,2:0|1:0,2:0:0:0:
147,330,116450,2,0,L|230:317,1,70,2|8,2:0|2:0,2:0:0:0:
264,250,116711,2,0,P|316:290|394:283,1,140,2|2,2:0|2:0,2:0:0:0:
465,251,117102,2,0,L|448:175,1,70,8|2,2:0|2:0,2:0:0:0:
366,187,117363,2,0,L|380:99,1,70,0|2,1:0|2:0,2:0:0:0:
455,89,117624,2,0,L|443:11,1,70,8|2,2:0|2:0,2:0:0:0:
362,34,117885,6,0,B|283:44|308:-3|216:1,1,140,4|8,1:0|2:0,2:0:0:0:
166,158,118407,2,0,L|180:230,1,70,0|2,1:0|2:0,2:0:0:0:
247,279,118668,2,0,L|229:356,1,70,8|2,2:0|2:0,2:0:0:0:
152,374,118929,2,0,P|64:330|59:290,1,140,0|8,1:0|2:0,2:0:0:0:
78,216,119320,2,0,L|61:138,1,70,2|0,2:0|1:0,2:0:0:0:
101,73,119581,2,0,B|180:63|155:110|247:106,1,140,2|2,2:0|2:0,2:0:0:0:
318,109,119972,6,0,P|360:176|343:244,1,140,4|8,1:0|2:0,2:0:0:0:
305,305,120363,2,0,L|331:380,1,70,2|0,2:0|1:0,2:0:0:0:
412,375,120624,2,0,L|386:300,1,70,2|8,2:0|2:0,2:0:0:0:
350,233,120885,2,0,B|309:220|309:220|187:246,1,140,2|8,2:0|2:0,2:0:0:0:
130,230,121276,2,0,L|47:219,1,70,8|8,2:0|1:0,2:0:0:0:
49,138,121537,2,0,L|132:149,1,70,8|8,2:0|2:0,2:0:0:0:
162,75,121798,2,0,L|245:86,1,70,8|8,1:0|1:0,2:0:0:0:
296,30,122059,6,0,B|374:58|357:8|454:37,1,140,4|2,1:0|2:0,2:0:0:0:
498,94,122450,1,0,1:0:0:0:
498,94,122581,2,0,L|484:256,1,140,8|2,2:0|2:0,2:0:0:0:
357,342,123102,1,0,1:0:0:0:
231,232,123363,1,2,1:2:0:0:
231,232,123494,2,0,L|74:246,1,140,0|0,1:0|1:0,2:0:0:0:
41,312,123885,2,0,L|117:324,1,70,10|0,2:0|2:0,2:0:0:0:
172,382,124146,6,0,P|194:347|293:338,1,140,0|2,1:0|2:0,2:0:0:0:
366,362,124537,2,0,L|374:288,1,70,0|8,1:0|2:0,2:0:0:0:
444,246,124798,2,0,B|430:185|430:185|414:174|414:174|400:117,1,140,0|0,1:0|1:0,2:0:0:0:
432,39,125189,2,0,L|505:57,2,70,0|8|2,1:0|2:0|2:0,2:0:0:0:
349,51,125581,1,0,1:0:0:0:
267,67,125711,2,0,L|183:56,1,70,8|0,2:0|1:0,2:0:0:0:
122,95,125972,2,0,P|135:135|143:165,1,70,10|8,2:0|2:0,2:0:0:0:
92,230,126233,5,4,1:0:0:0:
77,270,126363,1,8,2:3:0:0:
62,310,126494,2,0,L|146:329,1,70,4|0,2:3|1:0,2:0:0:0:
210,365,126755,1,12,2:0:0:0:
210,365,126885,2,0,P|268:325|254:248,1,140,0|8,1:0|2:3,2:0:0:0:
328,206,127276,1,0,2:0:0:0:
308,169,127407,1,4,2:3:0:0:
288,132,127537,2,0,L|356:104,1,70,0|0,2:0|1:0,2:0:0:0:
372,27,127798,1,12,2:0:0:0:
372,27,127929,2,0,P|418:50|409:154,1,140,0|0,1:0|1:0,2:0:0:0:
412,215,128320,6,0,L|449:223,4,35,8|8|8|8|8,2:0|2:0|2:3|2:3|2:0,2:0:0:0:
339,258,128711,2,0,L|254:274,1,70,4|0,1:0|2:0,2:0:0:0:
209,358,128972,2,0,L|132:339,1,70,0|0,1:0|2:0,2:0:0:0:
47,292,129233,2,0,P|83:242|162:237,1,140,4|0,1:0|2:0,2:0:0:0:
232,196,129624,6,0,L|213:143,2,46.6666666666667,8|8|8,2:0|2:0|2:0,2:0:0:0:
297,136,129885,2,0,L|315:86,2,46.6666666666667,8|8|8,2:3|2:3|2:3,2:0:0:0:
383,131,130146,2,0,L|426:109,2,46.6666666666667,4|4|4,2:3|2:3|2:3,2:0:0:0:
447,190,130407,5,4,1:0:0:0:
256,192,130537,12,4,133407,1:0:0:0:
352,134,134059,6,0,L|270:154,1,70,8|8,2:0|2:3,2:0:0:0:
227,88,134320,2,0,L|145:108,1,70,0|0,1:0|1:0,2:0:0:0:
127,182,134581,2,0,P|117:108|99:21,2,140,6|2|0,1:2|1:2|1:0,2:0:0:0:
73,247,135233,1,2,2:0:0:0:
221,326,135494,2,0,B|288:344|288:344|364:294,1,140,2|2,2:0|2:0,2:0:0:0:
420,153,136015,2,0,B|353:135|353:135|277:185,1,140,2|2,2:0|2:0,2:0:0:0:
223,220,136407,1,2,1:2:0:0:
154,172,136537,2,0,L|162:131,2,35,0|0|8,1:0|1:0|2:0,2:0:0:0:
27,60,136929,6,0,L|124:41,1,70,0|0,1:0|1:0,2:0:0:0:
174,17,137189,2,0,L|271:36,1,70,0|0,1:0|1:0,2:0:0:0:
309,81,137450,1,0,1:0:0:0:
350,72,137581,1,0,1:0:0:0:
391,64,137711,2,0,B|422:180|422:180|406:213|406:213|441:339,1,280,8|8,2:0|2:0,2:0:0:0:
508,35,138755,6,0,P|493:72|480:124,1,77,6|0,1:0|2:0,2:0:0:0:
508,196,139015,2,0,P|465:239|377:228,1,154,2|8,1:0|2:0,2:0:0:0:
293,267,139407,2,0,P|275:317|268:357,1,77,2|0,1:0|2:0,2:0:0:0:
188,384,139668,2,0,P|153:343|122:317,1,77,2|0,1:0|2:0,2:0:0:0:
139,234,139929,2,0,P|191:224|229:210,1,77,10|0,2:1|1:0,2:0:0:0:
294,172,140189,1,2,1:0:0:0:
264,84,140320,2,0,B|228:43|228:43|128:73,1,154,8|2,2:0|1:0,2:0:0:0:
147,93,140842,6,0,P|111:77|69:66,1,77,6|0,1:0|2:0,2:0:0:0:
20,142,141102,2,0,L|43:308,1,154,2|8,1:0|2:0,2:0:0:0:
114,352,141494,2,0,P|129:301|141:268,1,77,2|0,1:0|2:0,2:0:0:0:
225,249,141755,2,0,L|313:267,1,77,2|0,1:0|2:0,2:0:0:0:
387,233,142015,2,0,P|360:141|338:81,1,154,10|4,2:1|2:3,2:0:0:0:
254,49,142407,5,10,2:1:0:0:
260,94,142537,1,10,2:1:0:0:
266,139,142668,1,10,2:1:0:0:
273,184,142798,1,10,2:1:0:0:
281,230,142929,6,0,P|269:280|265:317,1,77,4|0,1:0|2:0,2:0:0:0:
352,337,143189,2,0,P|415:355|481:288,1,154,2|8,1:0|2:0,2:0:0:0:
416,231,143581,2,0,L|429:153,1,77,2|0,1:0|2:0,2:0:0:0:
360,92,143842,2,0,L|347:170,1,77,2|0,1:0|2:0,2:0:0:0:
275,110,144102,2,0,L|288:32,1,77,10|0,2:1|1:0,2:0:0:0:
199,6,144363,1,2,1:0:0:0:
121,57,144494,2,0,B|143:88|143:88|121:223,1,154,8|2,2:0|1:0,2:0:0:0:
99,200,145015,6,0,P|114:242|125:280,1,77,6|0,1:0|2:0,2:0:0:0:
39,312,145276,2,0,B|106:373|106:373|189:340,1,154,2|8,1:0|2:0,2:0:0:0:
251,315,145668,2,0,P|299:326|338:340,1,77,2|0,1:0|2:0,2:0:0:0:
416,352,145929,2,0,P|374:315|306:217,1,154,2|8,1:0|2:0,2:0:0:0:
376,166,146320,1,0,1:0:0:0:
421,172,146450,1,0,1:0:0:0:
466,179,146581,6,0,L|476:124,3,38.5,8|8|4|4,2:3|2:3|2:3|2:3,2:0:0:0:
507,109,146842,2,0,P|476:61|454:31,1,77,12|0,2:0|2:0,2:0:0:0:
375,20,147102,6,0,L|280:37,1,77,6|0,1:0|2:0,2:0:0:0:
234,100,147363,2,0,L|139:117,1,77,10|0,2:1|2:0,2:0:0:0:
68,89,147624,1,4,1:0:0:0:
9,160,147755,2,0,P|41:205|58:238,1,77,2|8,2:1|2:0,2:0:0:0:
141,240,148015,2,0,P|115:295|104:332,1,77,2|0,2:1|1:0,2:0:0:0:
189,358,148276,2,0,P|233:344|282:337,1,77,2|8,2:1|2:0,2:0:0:0:
334,278,148537,2,0,B|423:291|378:341|476:353,1,154,2|0,2:1|2:0,2:0:0:0:
509,269,148929,2,0,L|481:176,1,77,10|0,2:1|2:0,2:0:0:0:
400,162,149189,6,0,L|420:75,1,77,2|0,1:0|2:0,2:0:0:0:
343,31,149450,2,0,P|298:54|255:75,1,77,10|0,2:1|2:0,2:0:0:0:
182,54,149711,1,0,1:0:0:0:
218,139,149842,2,0,P|245:194|251:222,1,77,2|8,2:1|2:0,2:0:0:0:
310,276,150102,2,0,P|276:304|247:335,1,77,2|0,2:1|1:0,2:0:0:0:
179,271,150363,2,0,L|3:247,1,154,2|0,2:1|2:0,2:0:0:0:
10,157,150755,5,10,2:1:0:0:
55,163,150885,1,2,1:0:0:0:
100,169,151015,1,10,2:1:0:0:
145,175,151146,1,2,1:0:0:0:
190,181,151276,6,0,L|288:194,1,77,14|0,1:0|2:0,2:0:0:0:
345,143,151537,2,0,L|443:156,1,77,10|0,2:1|1:0,2:0:0:0:
456,238,151798,2,0,L|358:225,1,77,8|2,2:0|1:0,2:0:0:0:
301,276,152059,2,0,L|203:263,1,77,8|2,2:0|1:0,2:0:0:0:
190,181,152320,6,0,L|201:83,1,77,8|2,2:0|1:0,2:0:0:0:
273,49,152581,2,0,L|371:60,1,77,8|2,2:0|1:0,2:0:0:0:
441,67,152842,2,0,L|430:165,1,77,8|0,2:0|1:0,2:0:0:0:
358,199,153102,2,0,L|260:188,1,77,10|0,2:1|1:0,2:0:0:0:
256,192,153363,12,4,155450,1:0:0:0:
225,224,163276,6,0,L|239:338,2,105,2|0|6,2:0|2:0|1:2,2:0:0:0:
74,138,164320,5,2,2:0:0:0:
147,10,164581,1,8,2:0:0:0:
284,65,164842,2,0,L|408:81,1,105,2|0,2:0|1:0,2:0:0:0:
451,39,165233,2,0,B|477:71|477:71|466:155,1,105,2|0,2:0|2:0,2:0:0:0:
499,201,165624,1,2,1:2:0:0:
429,283,165885,6,0,L|310:267,1,105,2|0,1:2|2:0,2:0:0:0:
264,310,166276,2,0,P|239:273|249:200,1,105,2|8,1:2|2:0,2:0:0:0:
310,84,166798,2,0,B|275:49|275:49|153:71,1,157.5,2|2,2:0|1:2,2:0:0:0:
30,18,167450,1,10,2:0:0:0:
62,161,167711,1,2,2:0:0:0:
94,304,167972,1,2,1:2:0:0:
404,346,168755,5,0,1:0:0:0:
431,238,169015,1,2,1:2:0:0:
252,39,169798,6,0,L|265:102,2,52.5000000000001,0|0|8,1:0|2:0|1:0,2:0:0:0:
153,148,170320,1,8,2:0:0:0:
222,171,170450,2,0,L|243:295,1,105,0|0,1:0|1:0,2:0:0:0:
255,347,170842,1,8,2:0:0:0:
327,359,170972,1,0,1:0:0:0:
460,132,171494,5,0,1:0:0:0:
460,132,171624,2,0,L|470:98,4,35,8|8|4|0|8,2:0|2:3|2:3|1:0|2:0,2:0:0:0:
406,205,172015,1,0,2:0:0:0:
328,154,172146,6,0,P|316:72|372:10,2,154,4|8|0,1:0|2:0|1:0,2:0:0:0:
386,225,172798,1,2,2:0:0:0:
452,289,172929,2,0,L|435:376,1,77,8|2,2:0|2:0,2:0:0:0:
345,375,173189,2,0,B|262:354|289:326|203:313,1,154,0|8,1:0|2:0,2:0:0:0:
113,326,173581,2,0,P|72:337|18:340,1,77,2|0,2:0|1:0,2:0:0:0:
0,261,173842,1,2,2:0:0:0:
0,261,173972,2,0,L|17:169,1,77,8|2,2:0|2:0,2:0:0:0:
106,182,174233,6,0,B|85:146|85:146|106:26,1,154,4|8,1:0|2:0,2:0:0:0:
191,67,174624,2,0,P|234:52|268:29,1,77,2|0,2:0|1:0,2:0:0:0:
328,98,174885,2,0,P|370:125|395:150,1,77,2|0,2:0|2:0,2:0:0:0:
455,208,175146,2,0,P|499:172|489:58,1,154,2|2,2:0|2:0,2:0:0:0:
448,5,175537,2,0,L|352:23,1,77,8|2,2:0|2:0,2:0:0:0:
315,92,175798,2,0,L|301:192,1,77,0|2,1:0|2:0,2:0:0:0:
360,242,176059,2,0,L|386:327,1,77,8|2,2:0|2:0,2:0:0:0:
464,358,176320,6,0,B|379:340|396:386|291:364,1,154,4|8,1:0|2:0,2:0:0:0:
170,247,176842,2,0,P|133:256|103:280,1,77,0|2,1:0|2:0,2:0:0:0:
15,309,177102,2,0,L|34:219,1,77,8|2,2:0|2:0,2:0:0:0:
99,171,177363,2,0,B|76:84|43:115|25:22,1,154,0|8,1:0|2:0,2:0:0:0:
114,0,177755,2,0,L|202:20,1,77,2|0,2:0|1:0,2:0:0:0:
269,62,178015,1,2,2:0:0:0:
269,62,178146,2,0,L|360:36,1,77,8|2,2:0|2:0,2:0:0:0:
430,9,178407,6,0,B|478:33|478:33|448:149,1,154,4|8,1:0|2:0,2:0:0:0:
360,141,178798,2,0,P|341:184|332:226,1,77,2|0,2:0|1:0,2:0:0:0:
416,254,179059,2,0,L|435:349,1,77,2|8,2:0|2:0,2:0:0:0:
345,366,179320,2,0,P|303:336|186:323,1,154,2|8,2:0|2:0,2:0:0:0:
136,255,179711,2,0,L|56:274,1,77,8|8,2:0|1:0,2:0:0:0:
77,181,179972,2,0,L|157:162,1,77,8|8,2:0|2:0,2:0:0:0:
172,72,180233,2,0,L|92:91,1,77,8|8,1:0|1:0,2:0:0:0:
23,32,180494,6,0,B|65:75|65:75|47:169,1,154,4|2,1:0|2:0,2:0:0:0:
25,260,180885,1,0,1:0:0:0:
25,260,181015,2,0,L|188:284,1,154,8|2,2:0|2:0,2:0:0:0:
366,288,181537,1,0,1:0:0:0:
366,288,181668,2,0,P|319:293|223:371,1,154,8|0,2:0|1:0,2:0:0:0:
141,364,182059,1,8,2:0:0:0:
202,189,182320,2,0,L|185:93,1,77,2|0,2:0|2:0,2:0:0:0:
177,21,182581,6,0,B|263:28|234:64|335:74,1,154,0|2,1:0|2:0,2:0:0:0:
403,31,182972,1,0,1:0:0:0:
502,187,183233,1,0,1:0:0:0:
425,355,183494,2,0,B|383:329|383:329|424:207,1,154,0|8,1:0|2:0,2:0:0:0:
426,137,183885,2,0,B|389:138|389:138|349:163,1,77,2|0,2:0|1:0,2:0:0:0:
281,215,184146,1,8,2:0:0:0:
219,146,184276,2,0,L|51:180,1,154,0|8,1:0|2:0,2:0:0:0:
19,96,184668,6,0,L|32:16,2,77,4|8|4,1:0|2:3|2:3,2:0:0:0:
50,183,185059,1,0,1:0:0:0:
11,266,185189,2,0,P|34:316|142:322,1,154,12|0,2:0|2:0,2:0:0:0:
301,276,185711,6,0,P|356:289|388:300,2,77,0|4|0,2:0|2:3|2:0,2:0:0:0:
220,322,186102,1,0,1:0:0:0:
167,245,186233,2,0,L|197:85,1,154,12|0,2:0|2:0,2:0:0:0:
274,45,186624,1,0,1:0:0:0:
332,116,186755,6,0,L|317:194,2,77,8|8|8,2:0|2:3|2:0,2:0:0:0:
392,46,187146,2,0,P|432:40|483:28,1,77,4|0,1:0|2:0,2:0:0:0:
494,160,187407,2,0,P|458:164|403:178,1,77,0|0,1:0|2:0,2:0:0:0:
432,308,187668,6,0,P|376:332|293:280,1,154,4|0,1:0|1:0,2:0:0:0:
231,227,188059,2,0,P|190:239|145:262,1,77,12|0,2:0|2:0,2:0:0:0:
78,208,188320,2,0,P|88:166|90:116,1,77,8|4,2:3|2:3,2:0:0:0:
171,85,188581,2,0,P|201:114|244:141,1,77,8|8,2:0|2:0,2:0:0:0:
295,80,188842,6,0,L|447:57,2,140,4|8|0,1:0|2:0|1:0,2:0:0:0:
136,25,189624,1,10,2:1:0:0:
150,64,189755,1,2,2:0:0:0:
165,103,189885,2,0,L|151:177,2,70,2|2|10,1:0|2:0|2:1,2:0:0:0:
239,141,190276,2,0,B|267:217|225:220|248:284,1,140,2|2,2:1|2:0,2:0:0:0:
205,353,190668,2,0,L|110:336,1,70,8|2,2:0|2:0,2:0:0:0:
58,307,190929,6,0,B|93:248|93:248|169:260,1,140,6|8,1:0|2:0,2:0:0:0:
246,278,191320,2,0,P|289:290|325:309,1,70,2|0,2:1|1:0,2:0:0:0:
387,338,191581,2,0,P|431:320|457:301,1,70,2|8,2:0|2:0,2:0:0:0:
490,233,191842,2,0,L|449:74,1,140,2|0,2:1|2:0,2:0:0:0:
455,13,192233,2,0,P|410:27|375:49,1,70,8|2,2:0|2:0,2:0:0:0:
317,81,192494,2,0,P|268:58|222:45,1,70,0|2,1:0|2:0,2:0:0:0:
172,28,192755,1,8,2:0:0:0:
134,46,192885,1,2,2:0:0:0:
96,64,193015,6,0,P|63:49|15:43,2,70,6|2|8,1:0|2:1|2:0,2:0:0:0:
110,147,193407,2,0,L|261:131,1,140,2|2,2:1|2:0,2:0:0:0:
322,173,193798,2,0,P|310:212|304:252,1,70,10|2,2:1|2:0,2:0:0:0:
351,311,194059,2,0,L|438:298,2,70,2|0|8,1:0|2:1|2:0,2:0:0:0:
282,360,194450,2,0,P|223:326|146:319,1,140,2|2,2:1|2:0,2:0:0:0:
76,346,194842,1,8,2:0:0:0:
12,291,194972,6,0,B|36:257|36:257|7:131,1,140,2|0,2:1|1:0,2:0:0:0:
87,119,195363,2,0,L|100:45,1,70,10|0,2:1|1:0,2:0:0:0:
181,30,195624,1,10,2:1:0:0:
235,94,195755,2,0,P|289:68|314:63,1,70,8|4,2:3|2:3,2:0:0:0:
361,121,196015,2,0,P|394:159|494:152,1,140,2|0,1:0|2:0,2:0:0:0:
439,87,196407,2,0,L|461:11,2,70,0|0|8,1:0|1:0|2:0,2:0:0:0:
361,121,196798,1,8,2:0:0:0:
290,166,196929,2,0,L|311:263,1,70,0|8,1:0|2:0,2:0:0:0:
216,334,197189,5,6,1:0:0:0:
216,334,197320,2,0,P|174:318|141:288,1,77,2|8,2:1|1:0,2:0:0:0:
152,206,197581,2,0,P|193:221|226:251,1,77,2|0,1:0|1:0,2:0:0:0:
299,288,197842,2,0,L|393:266,1,77,2|8,1:0|1:0,2:0:0:0:
458,306,198102,1,2,1:0:0:0:
502,224,198233,2,0,L|475:128,1,77,2|0,1:0|1:0,2:0:0:0:
502,59,198494,1,10,1:0:0:0:
456,50,198624,1,2,1:0:0:0:
410,41,198755,2,0,P|364:60|316:73,1,77,2|0,1:0|1:0,2:0:0:0:
254,28,199015,5,10,1:0:0:0:
254,28,199146,2,0,B|197:45|197:45|175:68|175:68|88:90,1,154,2|0,1:0|1:0,2:0:0:0:
26,112,199537,1,10,1:0:0:0:
92,176,199668,2,0,B|113:261|62:256|80:336,1,154,2|2,1:0|1:0,2:0:0:0:
165,356,200059,2,0,L|260:332,1,77,8|2,1:0|1:0,2:0:0:0:
268,248,200320,2,0,L|363:224,1,77,2|2,1:0|1:0,2:0:0:0:
371,140,200581,2,0,L|466:116,1,77,8|2,1:0|1:0,2:0:0:0:
498,44,200842,2,0,P|463:13|350:16,1,154,2|8,1:0|1:0,2:0:0:0:
282,60,201233,2,0,L|191:41,1,77,2|0,1:0|1:0,2:0:0:0:
115,24,201494,6,0,P|69:66|88:162,1,154,2|0,1:0|1:0,2:0:0:0:
167,177,201885,2,0,P|178:222|184:264,1,77,2|2,1:0|1:0,2:0:0:0:
233,329,202146,1,8,1:0:0:0:
277,318,202276,1,2,1:0:0:0:
321,308,202407,2,0,L|420:324,1,77,2|2,1:0|1:0,2:0:0:0:
458,250,202668,2,0,L|359:234,1,77,10|0,1:0|1:0,2:0:0:0:
287,147,202929,2,0,L|386:163,1,77,2|2,1:0|1:0,2:0:0:0:
504,112,203189,2,0,L|405:96,1,77,2|0,1:0|1:0,2:0:0:0:
377,21,203450,6,0,P|306:45|208:62,1,154,8|0,2:3|1:0,2:0:0:0:
142,22,203842,2,0,P|94:7|47:5,1,77,8|4,2:3|2:3,2:0:0:0:
9,75,204102,2,0,P|57:90|104:92,1,77,0|8,1:0|2:3,2:0:0:0:
164,141,204363,2,0,B|191:167|191:167|140:305,1,154,8|8,2:3|2:3,2:0:0:0:
173,367,204755,1,4,2:3:0:0:
128,352,204885,1,0,1:0:0:0:
83,366,205015,1,8,2:0:0:0:
83,366,205537,6,0,P|65:316|44:281,1,70,4|2,1:0|1:0,2:0:0:0:
4,236,205798,2,0,P|29:190|131:191,1,140,2|14,2:1|2:1,2:0:0:0:
183,222,206189,2,0,L|273:239,1,70,2|0,1:0|1:0,2:0:0:0:
334,255,206450,1,2,1:0:0:0:
379,183,206581,2,0,L|389:113,1,70,6|0,2:1|1:0,2:0:0:0:
494,128,206842,2,0,L|482:197,1,70,2|0,2:1|1:0,2:0:0:0:
472,278,207102,1,12,2:1:0:0:
486,317,207233,1,2,2:0:0:0:
500,357,207363,2,0,P|435:370|373:299,1,140,0|4,1:0|1:0,2:0:0:0:
334,255,207755,5,2,1:0:0:0:
262,299,207885,2,0,L|187:314,1,70,2|0,2:1|1:0,2:0:0:0:
87,359,208146,1,14,2:1:0:0:
87,359,208276,2,0,P|125:369|161:383,1,70,2|0,1:0|1:0,2:0:0:0:
181,300,208537,1,2,1:0:0:0:
163,218,208668,2,0,L|147:130,1,70,6|0,2:1|1:0,2:0:0:0:
88,94,208929,2,0,P|116:73|162:66,1,70,2|0,2:1|1:0,2:0:0:0:
232,75,209189,1,14,2:1:0:0:
242,116,209320,1,2,2:0:0:0:
251,157,209450,2,0,L|266:235,1,70,0|0,1:0|2:0,2:0:0:0:
339,263,209711,6,0,P|384:273|413:282,1,70,4|2,1:0|1:0,2:0:0:0:
465,340,209972,2,0,B|435:261|483:267|452:177,1,140,2|14,2:1|2:1,2:0:0:0:
405,139,210363,2,0,P|420:94|426:65,1,70,2|0,1:0|1:0,2:0:0:0:
365,13,210624,1,2,1:0:0:0:
285,37,210755,2,0,L|215:25,1,70,6|0,2:1|1:0,2:0:0:0:
164,118,211015,2,0,L|120:64,1,70,2|0,2:1|1:0,2:0:0:0:
39,123,211276,1,12,2:1:0:0:
32,165,211407,1,2,2:0:0:0:
26,206,211537,2,0,B|86:220|86:220|100:237|100:237|166:252,1,140,0|4,1:0|1:0,2:0:0:0:
206,319,211929,5,2,1:0:0:0:
287,298,212059,2,0,P|305:261|310:228,1,70,2|0,2:1|1:0,2:0:0:0:
210,186,212320,1,14,2:1:0:0:
210,186,212450,2,0,L|198:114,1,70,2|0,1:0|1:0,2:0:0:0:
239,43,212711,1,2,1:0:0:0:
315,81,212842,2,0,L|389:62,1,70,6|0,2:1|1:0,2:0:0:0:
451,114,213102,2,0,L|438:191,1,70,2|0,2:1|1:0,2:0:0:0:
504,284,213363,6,0,B|462:319|458:373|458:373|426:330|358:331,1,210,8|0,2:0|2:0,2:0:0:0:
310,233,213885,6,0,P|271:250|240:257,1,70,4|2,1:0|1:0,2:0:0:0:
198,327,214146,2,0,P|179:293|68:292,1,140,2|14,2:1|2:1,2:0:0:0:
3,291,214537,1,2,1:0:0:0:
14,208,214668,2,0,L|23:123,1,70,0|2,1:0|1:0,2:0:0:0:
27,33,214929,2,0,P|61:53|101:64,1,70,6|0,2:1|1:0,2:0:0:0:
170,87,215189,2,0,P|202:64|236:47,1,70,2|0,2:1|1:0,2:0:0:0:
302,7,215450,1,12,2:1:0:0:
343,18,215581,1,2,2:0:0:0:
383,31,215711,2,0,B|429:52|429:52|446:160,1,140,0|4,1:0|1:0,2:0:0:0:
415,220,216102,5,2,1:0:0:0:
464,289,216233,2,0,L|450:366,1,70,2|0,2:1|1:0,2:0:0:0:
347,371,216494,1,14,2:1:0:0:
347,371,216624,2,0,L|361:294,1,70,2|0,1:0|1:0,2:0:0:0:
292,252,216885,1,2,1:0:0:0:
211,274,217015,2,0,L|126:299,1,70,6|0,2:1|1:0,2:0:0:0:
98,364,217276,2,0,P|69:335|61:291,1,70,2|0,2:1|1:0,2:0:0:0:
88,228,217537,1,14,2:1:0:0:
79,188,217668,1,2,2:0:0:0:
70,147,217798,2,0,L|156:157,1,70,0|0,1:0|2:0,2:0:0:0:
214,114,218059,6,0,L|203:42,1,70,4|2,1:0|1:0,2:0:0:0:
287,29,218320,2,0,P|337:14|403:74,1,140,2|14,2:1|2:1,2:0:0:0:
341,125,218711,1,2,1:0:0:0:
280,184,218842,2,0,L|292:265,1,70,0|2,1:0|1:0,2:0:0:0:
368,285,219102,2,0,L|354:359,1,70,6|0,2:1|1:0,2:0:0:0:
460,357,219363,2,0,L|474:283,1,70,2|0,2:1|1:0,2:0:0:0:
423,213,219624,1,12,2:1:0:0:
440,175,219755,1,2,2:0:0:0:
460,139,219885,2,0,P|416:96|336:117,1,140,0|0,1:0|1:0,2:0:0:0:
287,48,220276,6,0,P|246:63|218:67,1,70,14|2,2:0|2:1,2:0:0:0:
67,137,220668,2,0,P|103:145|144:164,1,70,14|2,2:0|2:1,2:0:0:0:
298,196,221059,6,0,P|257:211|229:215,1,70,14|2,2:0|2:1,2:0:0:0:
78,285,221450,2,0,P|114:293|155:312,1,70,14|2,2:0|1:0,2:0:0:0:
209,367,221711,1,10,2:1:0:0:
250,359,221842,1,10,2:1:0:0:
290,349,221972,2,0,L|370:334,1,70,2|2,1:0|1:0,2:0:0:0:
481,221,222363,5,2,2:0:0:0:
481,221,222494,1,2,2:0:0:0:
404,120,222755,2,0,L|415:61,2,52.5000000000001,2|2|2,2:0|2:0|2:0,2:0:0:0:
328,144,223146,1,6,1:0:0:0:
256,192,223276,12,0,224255,1:0:0:0:
