osu file format v14

[General]
AudioFilename: audio.mp3
AudioLeadIn: 0
PreviewTime: 113189
Countdown: 0
SampleSet: Normal
StackLeniency: 1
Mode: 1
LetterboxInBreaks: 0
WidescreenStoryboard: 1

[Editor]
Bookmarks: 54624
DistanceSpacing: 0.8
BeatDivisor: 4
GridSize: 32
TimelineZoom: 3.199999

[Metadata]
Title:Autonomy
TitleUnicode:Autonomy
Artist:Kotone
ArtistUnicode:Kotone
Creator:Majimanjiwwwww
Version:Inner Oni
Source:
Tags:vtuber virtual youtuber tenjin kotone 天神子兎音 5u5h1 shunya watanabe k45u rock metal japanese jrock j-rock Maimaing
BeatmapID:3998580
BeatmapSetID:1934147

[Difficulty]
HPDrainRate:5.5
CircleSize:5
OverallDifficulty:6.5
ApproachRate:5
SliderMultiplier:1.4
SliderTickRate:1

[Events]
//Background and Video events
0,0,"maxresdefault.jpg",0,0
//Break Periods
2,155642,162590
//Storyboard Layer 0 (Background)
//Storyboard Layer 1 (Fail)
//Storyboard Layer 2 (Pass)
//Storyboard Layer 3 (Foreground)
//Storyboard Layer 4 (Overlay)
//Storyboard Sound Samples

[TimingPoints]
1008,260.869565217391,4,1,0,80,1,0
1008,-100,4,1,0,80,0,0
24078,-95.2380952380952,4,1,0,80,0,0
24111,-100,4,1,0,80,0,0
24469,-95.2380952380952,4,1,0,80,0,0
24502,-100,4,1,0,80,0,0
24861,-95.2380952380952,4,1,0,80,0,0
24894,-100,4,1,0,80,0,0
25252,-100,4,1,0,80,0,0
25383,-101.316033466834,4,1,0,80,0,0
25513,-102.564102564103,4,1,0,80,0,0
25644,-103.668924610915,4,1,0,80,0,0
25774,-104.5261134817,4,1,0,80,0,0
25839,-104.842065194817,4,1,0,80,0,0
25905,-105.076149734774,4,1,0,80,0,0
25970,-105.216143997119,4,1,0,80,0,0
26035,-105.263157894737,4,1,0,80,0,0
33209,-100,4,1,0,80,0,0
33241,-105.263157894737,4,1,0,80,0,0
33534,-105.084935524992,4,1,0,80,0,0
33599,-104.825406737903,4,1,0,80,0,0
33730,-104.186498117286,4,1,0,80,0,0
33860,-103.455084676294,4,1,0,80,0,0
33990,-102.657519208896,4,1,0,80,0,0
34121,-101.804379604495,4,1,0,80,0,0
34251,-100.9202416968,4,1,0,80,0,0
34382,-100,4,1,0,80,0,0
42730,-125,4,1,0,80,0,0
53948,-111.111111111111,4,1,0,80,0,0
54600,-111.111111111111,4,1,0,80,0,0
54665,-110.498227102675,4,1,0,80,0,0
54731,-109.599304985936,4,1,0,80,0,0
54861,-107.478734910311,4,1,0,80,0,0
54991,-105.10375165602,4,1,0,80,0,0
55057,-103.841711965133,4,1,0,80,0,0
55122,-102.575204381421,4,1,0,80,0,0
55187,-101.292657076779,4,1,0,80,0,0
55252,-100,4,1,0,80,0,0
55268,-100,4,1,0,100,0,1
62817,-100,4,1,0,100,0,1
62948,-100.798503354599,4,1,0,100,0,1
63078,-101.759550071034,4,1,0,100,0,1
63209,-102.961010668443,4,1,0,100,0,1
63339,-104.552475822461,4,1,0,100,0,1
63469,-106.880916593842,4,1,0,100,0,1
63600,-111.111111111111,4,1,0,100,0,1
63616,-111.111111111111,4,1,0,90,0,1
67774,-105.263157894737,4,1,0,90,0,1
67806,-111.111111111111,4,1,0,90,0,1
68296,-105.263157894737,4,1,0,90,0,1
68328,-111.111111111111,4,1,0,90,0,1
69339,-105.263157894737,4,1,0,90,0,1
69600,-100,4,1,0,90,0,1
71181,-100,4,1,0,80,0,0
78339,-95.2380952380952,4,1,0,80,0,0
78372,-100,4,1,0,80,0,0
78730,-95.2380952380952,4,1,0,80,0,0
78763,-100,4,1,0,80,0,0
79122,-95.2380952380952,4,1,0,80,0,0
79155,-100,4,1,0,80,0,0
87502,-100,4,1,0,5,0,0
88252,-111.111111111111,4,1,0,80,0,0
93078,-111.111111111111,4,1,0,80,0,0
93339,-109.465669246097,4,1,0,80,0,0
93470,-107.998985081321,4,1,0,80,0,0
93731,-104.310191706946,4,1,0,80,0,0
93861,-102.201554052707,4,1,0,80,0,0
94122,-97.6256846510385,4,1,0,80,0,0
94252,-95.2380952380952,4,1,0,80,0,0
94904,-90.9090909090909,4,1,0,80,0,0
94937,-95.2380952380952,4,1,0,80,0,0
95296,-90.9090909090909,4,1,0,80,0,0
95850,-95.2380952380952,4,1,0,80,0,0
97024,-111.111111111111,4,1,0,80,0,0
97138,-111.111111111111,4,1,0,60,0,0
105225,-111.111111111111,4,1,0,70,0,0
105355,-111.111111111111,4,1,0,70,0,0
109464,-111.111111111111,4,1,0,80,0,0
109512,-111.111111111111,4,1,0,80,0,0
109773,-107.142857142857,4,1,0,80,0,0
110034,-104.950286358582,4,1,0,80,0,0
110295,-103.448275862069,4,1,0,80,0,0
110556,-102.312507905068,4,1,0,80,0,0
110817,-101.402866403054,4,1,0,80,0,0
111077,-100.64630048002,4,1,0,80,0,0
111338,-100,4,1,0,80,0,0
111616,-100,4,1,0,90,0,0
113703,-100,4,1,0,100,0,1
121252,-100,4,1,0,100,0,1
121383,-100.798503354599,4,1,0,100,0,1
121513,-101.759550071034,4,1,0,100,0,1
121644,-102.961010668443,4,1,0,100,0,1
121774,-104.552475822461,4,1,0,100,0,1
121904,-106.880916593842,4,1,0,100,0,1
122035,-111.111111111111,4,1,0,100,0,1
122051,-111.111111111111,4,1,0,90,0,1
126209,-105.263157894737,4,1,0,90,0,1
126241,-111.111111111111,4,1,0,90,0,1
126731,-105.263157894737,4,1,0,90,0,1
126763,-111.111111111111,4,1,0,90,0,1
127774,-105.263157894737,4,1,0,90,0,1
127806,-100,4,1,0,90,0,1
130399,-100,4,1,0,80,0,0
130546,-111.111111111111,4,1,0,80,0,0
133643,-105.263157894737,4,1,0,80,0,0
133904,-105.263157894737,4,1,0,80,0,0
133969,-106.134345130885,4,1,0,80,0,0
134034,-106.998220415019,4,1,0,80,0,0
134164,-108.614338383571,4,1,0,80,0,0
134295,-109.942868466773,4,1,0,80,0,0
134425,-110.807061662845,4,1,0,80,0,0
134556,-111.111111111111,4,1,0,80,0,0
137687,-111.111111111111,4,1,0,80,0,0
137752,-109.489393451983,4,1,0,80,0,0
137818,-107.163666184931,4,1,0,80,0,0
137883,-104.605286397001,4,1,0,80,0,0
137948,-101.913399656469,4,1,0,80,0,0
138013,-99.1617939733609,4,1,0,80,0,0
138078,-96.3977317720431,4,1,0,80,0,0
138144,-93.6112386279588,4,1,0,80,0,0
138209,-90.9090909090909,4,1,0,80,0,0
138241,-105.263157894737,4,1,0,80,0,0
146035,-105.263157894737,4,1,0,80,0,0
146100,-105.150959631492,4,1,0,80,0,0
146165,-104.987323288739,4,1,0,80,0,0
146231,-104.793638708868,4,1,0,80,0,0
146296,-104.583202962868,4,1,0,80,0,0
146361,-104.357235540513,4,1,0,80,0,0
146426,-104.118323988242,4,1,0,80,0,0
146491,-103.868322550406,4,1,0,80,0,0
146557,-103.604579001093,4,1,0,80,0,0
146622,-103.336220368195,4,1,0,80,0,0
146687,-103.060238791386,4,1,0,80,0,0
146752,-102.777404291026,4,1,0,80,0,0
146818,-102.483883695062,4,1,0,80,0,0
146883,-102.189150368439,4,1,0,80,0,0
146948,-101.889305013894,4,1,0,80,0,0
147013,-101.584793553655,4,1,0,80,0,0
147078,-101.276015573747,4,1,0,80,0,0
147144,-100.958492516008,4,1,0,80,0,0
147209,-100.642177958973,4,1,0,80,0,0
147274,-100.322588998872,4,1,0,80,0,0
147339,-100,4,1,0,80,0,0
151268,-100,4,1,0,80,0,1
153338,-100,4,1,0,80,0,1
153404,-100.665943438882,4,1,0,80,0,1
153469,-101.327629216652,4,1,0,80,0,1
153534,-101.992279066651,4,1,0,80,0,1
153599,-102.656957573223,4,1,0,80,0,1
153664,-103.318614537936,4,1,0,80,0,1
153730,-103.984117552806,4,1,0,80,0,1
153795,-104.630020507897,4,1,0,80,0,1
153860,-105.263157894737,4,1,0,80,0,1
153925,-105.880179785951,4,1,0,80,0,1
153990,-106.477715127932,4,1,0,80,0,1
154056,-107.061043349465,4,1,0,80,0,1
154121,-107.609113378759,4,1,0,80,0,1
154186,-108.127681469013,4,1,0,80,0,1
154251,-108.613577232926,4,1,0,80,0,1
154317,-109.070390817952,4,1,0,80,0,1
154382,-109.481364269868,4,1,0,80,0,1
154447,-109.851019857411,4,1,0,80,0,1
154512,-110.176902650799,4,1,0,80,0,1
154577,-110.456814568445,4,1,0,80,0,1
154643,-110.692028953004,4,1,0,80,0,1
154708,-110.873795946418,4,1,0,80,0,1
154773,-111.004784237486,4,1,0,80,0,1
154838,-111.084073720166,4,1,0,80,0,1
154904,-111.111111111111,4,1,0,80,0,1
155442,-111.111111111111,4,1,0,80,0,0
155459,-133.333333333333,4,1,0,70,0,0
155573,-133.333333333333,4,1,0,40,0,0
163660,-133.333333333333,4,1,0,70,0,0
167948,-133.333333333333,4,1,0,70,0,0
168339,-131.649164382768,4,1,0,70,0,0
168731,-128.345806553956,4,1,0,70,0,0
168991,-125.610685730473,4,1,0,70,0,0
169252,-122.561652154055,4,1,0,70,0,0
169513,-119.29458422659,4,1,0,70,0,0
169774,-115.879438425097,4,1,0,70,0,0
169905,-114.127984247778,4,1,0,70,0,0
170035,-112.373632642664,4,1,0,70,0,0
170296,-108.824236175637,4,1,0,70,0,0
170426,-107.052281226564,4,1,0,70,0,0
170687,-103.506901710725,4,1,0,70,0,0
170818,-101.74044095352,4,1,0,70,0,0
170949,-100,4,1,0,70,0,0
171421,-133.333333333333,4,1,0,90,0,0
171470,-110.498227102675,4,1,0,90,0,0
171535,-109.614088530857,4,1,0,90,0,0
171600,-108.598617831596,4,1,0,90,0,0
171665,-107.496228523261,4,1,0,90,0,0
171731,-106.313691622986,4,1,0,90,0,0
171796,-105.10375165602,4,1,0,90,0,0
171861,-103.861035126482,4,1,0,90,0,0
171991,-101.312478862495,4,1,0,90,0,0
172138,-100,4,1,0,100,0,1
179687,-100,4,1,0,100,0,1
179818,-100.798503354599,4,1,0,100,0,1
179948,-101.759550071034,4,1,0,100,0,1
180079,-102.961010668443,4,1,0,100,0,1
180209,-104.552475822461,4,1,0,100,0,1
180339,-106.880916593842,4,1,0,100,0,1
180470,-111.111111111111,4,1,0,90,0,1
184644,-105.263157894737,4,1,0,90,0,1
184676,-111.111111111111,4,1,0,90,0,1
185166,-105.263157894737,4,1,0,90,0,1
185198,-111.111111111111,4,1,0,90,0,1
186209,-105.263157894737,4,1,0,90,0,1
188034,-105.263157894737,4,1,0,90,0,1
188099,-105.045626748335,4,1,0,90,0,1
188164,-104.729147103743,4,1,0,90,0,1
188230,-104.355744135163,4,1,0,90,0,1
188295,-103.951503129187,4,1,0,90,0,1
188360,-103.519105613533,4,1,0,90,0,1
188425,-103.063819151788,4,1,0,90,0,1
188490,-102.589455118541,4,1,0,90,0,1
188556,-102.091280347487,4,1,0,90,0,1
188621,-101.586758035633,4,1,0,90,0,1
188686,-101.070379774137,4,1,0,90,0,1
188751,-100.543764788845,4,1,0,90,0,1
188817,-100,4,1,0,90,0,1
188834,-100,4,1,0,100,0,1
205007,-100,4,1,0,80,0,0
220252,-95.2380952380952,4,1,0,80,0,0
220285,-100,4,1,0,80,0,0
220643,-95.2380952380952,4,1,0,80,0,0
220676,-100,4,1,0,80,0,0
221035,-95.2380952380952,4,1,0,80,0,0
221068,-100,4,1,0,80,0,0

[HitObjects]
64,320,1008,5,4,0:0:0:0:
64,320,1399,1,4,0:0:0:0:
64,320,5181,1,4,0:0:0:0:
64,320,5573,1,4,0:0:0:0:
64,64,8051,1,0,0:0:0:0:
64,64,8116,1,0,0:0:0:0:
64,64,8181,1,0,0:0:0:0:
64,64,8247,1,0,0:0:0:0:
64,64,8312,1,0,0:0:0:0:
64,64,8442,1,0,0:0:0:0:
64,64,8573,1,0,0:0:0:0:
64,64,8703,1,0,0:0:0:0:
448,64,8834,1,8,0:0:0:0:
448,64,8866,1,8,0:0:0:0:
64,64,8964,1,0,0:0:0:0:
64,64,9355,1,0,0:0:0:0:
448,64,9486,1,8,0:0:0:0:
64,64,9616,1,0,0:0:0:0:
448,64,9877,1,8,0:0:0:0:
64,64,10007,1,0,0:0:0:0:
448,64,10268,1,8,0:0:0:0:
64,64,10399,1,0,0:0:0:0:
448,64,10660,1,8,0:0:0:0:
64,64,10790,1,0,0:0:0:0:
64,64,10921,1,0,0:0:0:0:
64,64,11051,1,0,0:0:0:0:
448,64,11181,1,8,0:0:0:0:
64,64,11442,1,0,0:0:0:0:
64,64,11573,1,0,0:0:0:0:
448,64,11703,1,8,0:0:0:0:
64,64,11964,1,0,0:0:0:0:
448,64,12094,1,8,0:0:0:0:
64,64,12355,1,0,0:0:0:0:
448,64,12486,1,8,0:0:0:0:
64,64,12747,1,0,0:0:0:0:
64,64,12877,1,0,0:0:0:0:
448,64,13007,1,8,0:0:0:0:
448,64,13138,1,8,0:0:0:0:
448,64,13203,1,8,0:0:0:0:
448,64,13268,1,8,0:0:0:0:
448,64,13399,1,8,0:0:0:0:
64,64,13529,1,0,0:0:0:0:
448,64,13660,1,8,0:0:0:0:
64,64,13790,1,0,0:0:0:0:
448,64,14051,1,8,0:0:0:0:
64,64,14181,1,0,0:0:0:0:
448,64,14442,1,8,0:0:0:0:
64,64,14573,1,0,0:0:0:0:
448,64,14834,1,8,0:0:0:0:
448,64,14964,1,8,0:0:0:0:
64,64,15094,1,0,0:0:0:0:
64,64,15225,1,0,0:0:0:0:
448,64,15355,1,8,0:0:0:0:
64,64,15616,1,0,0:0:0:0:
64,64,15747,1,0,0:0:0:0:
448,64,15877,1,8,0:0:0:0:
64,64,16138,1,0,0:0:0:0:
448,64,16268,1,8,0:0:0:0:
64,64,16529,1,0,0:0:0:0:
448,64,16660,1,8,0:0:0:0:
64,64,16921,1,0,0:0:0:0:
64,64,17051,1,0,0:0:0:0:
448,64,17181,1,8,0:0:0:0:
448,64,17247,1,8,0:0:0:0:
448,64,17312,1,8,0:0:0:0:
448,64,17442,1,8,0:0:0:0:
448,64,17573,1,8,0:0:0:0:
448,64,17638,1,8,0:0:0:0:
64,64,17703,1,0,0:0:0:0:
448,64,17834,1,8,0:0:0:0:
64,64,17964,1,0,0:0:0:0:
448,64,18225,1,8,0:0:0:0:
64,64,18355,1,0,0:0:0:0:
448,64,18616,1,8,0:0:0:0:
64,64,18747,1,0,0:0:0:0:
448,64,19007,1,8,0:0:0:0:
64,64,19138,1,0,0:0:0:0:
64,64,19268,1,0,0:0:0:0:
64,64,19399,1,0,0:0:0:0:
448,64,19529,1,8,0:0:0:0:
64,64,19790,1,0,0:0:0:0:
64,64,19921,1,0,0:0:0:0:
448,64,20051,1,8,0:0:0:0:
64,64,20312,1,0,0:0:0:0:
448,64,20442,1,8,0:0:0:0:
64,64,20703,1,0,0:0:0:0:
448,64,20834,1,8,0:0:0:0:
64,64,21094,1,0,0:0:0:0:
64,64,21225,1,0,0:0:0:0:
448,64,21355,1,8,0:0:0:0:
448,64,21486,1,8,0:0:0:0:
448,64,21551,1,8,0:0:0:0:
64,64,21616,1,0,0:0:0:0:
448,64,21747,1,8,0:0:0:0:
64,64,21877,1,0,0:0:0:0:
448,64,22007,1,8,0:0:0:0:
64,64,22138,1,0,0:0:0:0:
448,64,22399,1,8,0:0:0:0:
64,64,22529,1,0,0:0:0:0:
448,64,22790,1,8,0:0:0:0:
64,64,22921,1,0,0:0:0:0:
448,64,23181,1,8,0:0:0:0:
448,64,23312,1,8,0:0:0:0:
64,64,23442,1,0,0:0:0:0:
64,64,23573,1,0,0:0:0:0:
448,64,23703,1,8,0:0:0:0:
64,320,24094,1,4,0:0:0:0:
448,64,24225,1,8,0:0:0:0:
64,320,24486,1,4,0:0:0:0:
448,64,24616,1,8,0:0:0:0:
64,320,24877,1,4,0:0:0:0:
448,64,25007,1,8,0:0:0:0:
64,64,25268,1,0,0:0:0:0:
64,64,25399,1,0,0:0:0:0:
448,64,25529,1,8,0:0:0:0:
448,64,25660,1,8,0:0:0:0:
448,64,25790,1,8,0:0:0:0:
448,64,25855,1,8,0:0:0:0:
448,64,25921,1,8,0:0:0:0:
448,64,25986,1,8,0:0:0:0:
64,64,26051,1,0,0:0:0:0:
64,64,26312,1,0,0:0:0:0:
448,64,26573,1,8,0:0:0:0:
64,64,26834,1,0,0:0:0:0:
448,64,26964,1,8,0:0:0:0:
448,64,27225,1,8,0:0:0:0:
64,64,27355,1,0,0:0:0:0:
448,64,27616,1,8,0:0:0:0:
64,64,27877,1,0,0:0:0:0:
64,64,28007,1,0,0:0:0:0:
448,64,28138,1,8,0:0:0:0:
64,64,28399,1,0,0:0:0:0:
448,64,28660,1,8,0:0:0:0:
64,64,28790,1,0,0:0:0:0:
448,64,29051,1,8,0:0:0:0:
448,64,29181,1,8,0:0:0:0:
64,64,29312,1,0,0:0:0:0:
448,64,29442,1,8,0:0:0:0:
448,64,29703,1,8,0:0:0:0:
64,64,29834,1,0,0:0:0:0:
448,64,29964,1,8,0:0:0:0:
64,64,30225,1,0,0:0:0:0:
64,64,30486,1,0,0:0:0:0:
448,64,30747,1,8,0:0:0:0:
64,64,31007,1,0,0:0:0:0:
448,64,31138,1,8,0:0:0:0:
64,64,31268,1,0,0:0:0:0:
448,64,31529,1,8,0:0:0:0:
64,64,31660,1,0,0:0:0:0:
64,64,31921,1,0,0:0:0:0:
64,64,31986,1,0,0:0:0:0:
448,64,32051,1,8,0:0:0:0:
64,64,32181,1,0,0:0:0:0:
64,64,32312,1,0,0:0:0:0:
64,64,32442,1,0,0:0:0:0:
448,64,32573,1,8,0:0:0:0:
64,64,32703,1,0,0:0:0:0:
448,64,32834,1,8,0:0:0:0:
64,64,32964,1,0,0:0:0:0:
64,64,33094,1,0,0:0:0:0:
448,320,33225,1,12,0:0:0:0:
64,64,33486,1,0,0:0:0:0:
64,64,33551,1,0,0:0:0:0:
448,64,33616,1,8,0:0:0:0:
64,64,33747,1,0,0:0:0:0:
448,64,33877,1,8,0:0:0:0:
448,64,34007,1,8,0:0:0:0:
448,64,34138,1,8,0:0:0:0:
448,64,34268,1,8,0:0:0:0:
64,320,34399,1,4,0:0:0:0:
448,64,34660,1,8,0:0:0:0:
64,64,34921,1,0,0:0:0:0:
64,64,35051,1,0,0:0:0:0:
64,64,35116,1,0,0:0:0:0:
448,64,35181,1,8,0:0:0:0:
448,64,35312,1,8,0:0:0:0:
64,64,35442,1,0,0:0:0:0:
64,64,35573,1,0,0:0:0:0:
64,64,35638,1,0,0:0:0:0:
448,64,35703,1,8,0:0:0:0:
64,64,35834,1,0,0:0:0:0:
64,64,36094,1,0,0:0:0:0:
64,64,36160,1,0,0:0:0:0:
448,64,36225,1,8,0:0:0:0:
448,64,36355,1,8,0:0:0:0:
64,64,36486,1,0,0:0:0:0:
64,64,36616,1,0,0:0:0:0:
448,64,36747,1,8,0:0:0:0:
64,64,37007,1,0,0:0:0:0:
64,64,37138,1,0,0:0:0:0:
64,64,37203,1,0,0:0:0:0:
448,64,37268,1,8,0:0:0:0:
64,64,37399,1,0,0:0:0:0:
448,64,37529,1,8,0:0:0:0:
448,64,37660,1,8,0:0:0:0:
448,64,37725,1,8,0:0:0:0:
64,64,37790,1,0,0:0:0:0:
64,64,37921,1,0,0:0:0:0:
448,64,38051,1,8,0:0:0:0:
64,64,38181,1,0,0:0:0:0:
64,64,38247,1,0,0:0:0:0:
448,64,38312,1,8,0:0:0:0:
448,64,38442,1,8,0:0:0:0:
64,64,38573,1,0,0:0:0:0:
448,64,38834,1,8,0:0:0:0:
64,64,39094,1,0,0:0:0:0:
64,64,39225,1,0,0:0:0:0:
64,64,39290,1,0,0:0:0:0:
448,64,39355,1,8,0:0:0:0:
64,64,39486,1,0,0:0:0:0:
448,64,39616,1,8,0:0:0:0:
448,64,39747,1,8,0:0:0:0:
448,64,39812,1,8,0:0:0:0:
64,64,39877,1,0,0:0:0:0:
448,64,40007,1,8,0:0:0:0:
448,64,40268,1,8,0:0:0:0:
64,64,40334,1,0,0:0:0:0:
448,64,40399,1,8,0:0:0:0:
448,64,40464,1,8,0:0:0:0:
64,64,40529,1,0,0:0:0:0:
448,64,40660,1,8,0:0:0:0:
64,64,40790,1,0,0:0:0:0:
64,64,40855,1,0,0:0:0:0:
448,64,40921,1,8,0:0:0:0:
64,64,41051,1,0,0:0:0:0:
64,64,41116,1,0,0:0:0:0:
448,64,41181,1,8,0:0:0:0:
64,64,41312,1,0,0:0:0:0:
64,64,41377,1,0,0:0:0:0:
448,64,41442,1,8,0:0:0:0:
448,64,41573,1,8,0:0:0:0:
64,320,41703,1,4,0:0:0:0:
64,320,42747,1,4,0:0:0:0:
64,64,43007,1,0,0:0:0:0:
448,64,43268,1,8,0:0:0:0:
64,64,43529,1,0,0:0:0:0:
448,64,43660,1,8,0:0:0:0:
448,64,43921,1,8,0:0:0:0:
64,64,44181,1,0,0:0:0:0:
448,64,44312,1,8,0:0:0:0:
64,64,44442,1,0,0:0:0:0:
448,64,44573,1,8,0:0:0:0:
448,64,44703,1,8,0:0:0:0:
64,64,44834,1,0,0:0:0:0:
448,64,45094,1,8,0:0:0:0:
64,64,45225,1,0,0:0:0:0:
64,64,45486,1,0,0:0:0:0:
64,64,45551,1,0,0:0:0:0:
448,64,45616,1,8,0:0:0:0:
64,64,45747,1,0,0:0:0:0:
64,64,46007,1,0,0:0:0:0:
64,64,46138,1,0,0:0:0:0:
448,64,46268,1,8,0:0:0:0:
448,64,46399,1,8,0:0:0:0:
64,64,46529,1,0,0:0:0:0:
448,64,46660,1,8,0:0:0:0:
64,64,46790,1,0,0:0:0:0:
64,64,46921,1,0,0:0:0:0:
448,64,47181,1,8,0:0:0:0:
448,64,47442,1,8,0:0:0:0:
64,64,47703,1,0,0:0:0:0:
448,64,47834,1,8,0:0:0:0:
448,64,48094,1,8,0:0:0:0:
64,64,48355,1,0,0:0:0:0:
448,64,48486,1,8,0:0:0:0:
64,64,48616,1,0,0:0:0:0:
448,64,48747,1,8,0:0:0:0:
448,64,48877,1,8,0:0:0:0:
64,64,49007,1,0,0:0:0:0:
64,64,49138,1,0,0:0:0:0:
448,64,49268,1,8,0:0:0:0:
64,64,49399,1,0,0:0:0:0:
64,64,49660,1,0,0:0:0:0:
64,64,49725,1,0,0:0:0:0:
64,64,49790,1,0,0:0:0:0:
448,64,49921,1,8,0:0:0:0:
64,64,50181,1,0,0:0:0:0:
64,64,50247,1,0,0:0:0:0:
448,64,50312,1,8,0:0:0:0:
64,64,50442,1,0,0:0:0:0:
448,64,50573,1,8,0:0:0:0:
64,64,50703,1,0,0:0:0:0:
64,64,50768,1,0,0:0:0:0:
448,64,50834,1,8,0:0:0:0:
448,64,50964,1,8,0:0:0:0:
64,64,51094,1,0,0:0:0:0:
64,64,51616,1,0,0:0:0:0:
448,64,52138,1,8,0:0:0:0:
64,64,52399,1,0,0:0:0:0:
448,64,52660,1,8,0:0:0:0:
448,64,52921,1,8,0:0:0:0:
64,64,53181,1,0,0:0:0:0:
256,192,53312,8,0,53964,0:0:0:0:
64,64,54094,5,0,0:0:0:0:
64,64,54160,1,0,0:0:0:0:
64,64,54225,1,0,0:0:0:0:
64,64,54355,1,0,0:0:0:0:
64,64,54616,1,0,0:0:0:0:
64,64,54681,1,0,0:0:0:0:
448,64,54747,1,8,0:0:0:0:
64,64,54877,1,0,0:0:0:0:
448,64,55007,1,8,0:0:0:0:
448,64,55073,1,8,0:0:0:0:
448,64,55138,1,8,0:0:0:0:
448,64,55203,1,8,0:0:0:0:
64,64,55268,1,0,0:0:0:0:
448,64,55464,1,8,0:0:0:0:
64,64,55529,1,0,0:0:0:0:
448,64,55660,1,8,0:0:0:0:
64,64,55790,1,0,0:0:0:0:
64,64,55855,1,0,0:0:0:0:
448,64,55921,1,8,0:0:0:0:
448,64,55986,1,8,0:0:0:0:
64,64,56051,1,0,0:0:0:0:
448,64,56181,1,8,0:0:0:0:
64,64,56312,1,0,0:0:0:0:
448,64,56442,1,8,0:0:0:0:
448,64,56507,1,8,0:0:0:0:
64,64,56573,1,0,0:0:0:0:
448,64,56703,1,8,0:0:0:0:
448,64,56768,1,8,0:0:0:0:
64,64,56834,1,0,0:0:0:0:
448,64,56964,1,8,0:0:0:0:
64,64,57094,1,0,0:0:0:0:
64,64,57160,1,0,0:0:0:0:
448,64,57225,1,8,0:0:0:0:
448,64,57290,1,8,0:0:0:0:
64,64,57355,1,0,0:0:0:0:
64,64,57616,1,0,0:0:0:0:
448,64,57747,1,8,0:0:0:0:
64,64,57877,1,0,0:0:0:0:
448,64,58007,1,8,0:0:0:0:
64,64,58073,1,0,0:0:0:0:
64,64,58138,1,0,0:0:0:0:
448,64,58268,1,8,0:0:0:0:
448,64,58334,1,8,0:0:0:0:
64,64,58399,1,0,0:0:0:0:
448,64,58529,1,8,0:0:0:0:
64,64,58660,1,0,0:0:0:0:
64,64,58725,1,0,0:0:0:0:
448,64,58790,1,8,0:0:0:0:
64,64,58921,1,0,0:0:0:0:
448,64,58986,1,8,0:0:0:0:
448,64,59051,1,8,0:0:0:0:
448,64,59116,1,8,0:0:0:0:
64,64,59181,1,0,0:0:0:0:
448,64,59312,1,8,0:0:0:0:
448,64,59377,1,8,0:0:0:0:
64,64,59442,1,0,0:0:0:0:
448,64,59638,1,8,0:0:0:0:
64,64,59703,1,0,0:0:0:0:
448,64,59834,1,8,0:0:0:0:
64,64,59964,1,0,0:0:0:0:
448,64,60094,1,8,0:0:0:0:
64,64,60225,1,0,0:0:0:0:
64,64,60290,1,0,0:0:0:0:
448,64,60355,1,8,0:0:0:0:
448,64,60421,1,8,0:0:0:0:
64,64,60486,1,0,0:0:0:0:
448,64,60616,1,8,0:0:0:0:
64,64,60747,1,0,0:0:0:0:
448,64,60877,1,8,0:0:0:0:
64,64,60942,1,0,0:0:0:0:
64,64,61007,1,0,0:0:0:0:
448,64,61138,1,8,0:0:0:0:
448,64,61203,1,8,0:0:0:0:
64,64,61268,1,0,0:0:0:0:
64,64,61334,1,0,0:0:0:0:
448,64,61399,1,8,0:0:0:0:
64,64,61529,1,0,0:0:0:0:
64,64,61790,1,0,0:0:0:0:
448,64,61920,1,8,0:0:0:0:
64,64,62051,1,0,0:0:0:0:
448,64,62181,1,8,0:0:0:0:
448,64,62247,1,8,0:0:0:0:
64,64,62312,1,0,0:0:0:0:
448,64,62442,1,8,0:0:0:0:
64,64,62572,1,0,0:0:0:0:
448,64,62703,1,8,0:0:0:0:
64,64,62768,1,0,0:0:0:0:
64,64,62833,1,0,0:0:0:0:
448,64,62964,1,8,0:0:0:0:
448,64,63094,1,8,0:0:0:0:
448,64,63225,1,8,0:0:0:0:
448,64,63355,1,8,0:0:0:0:
448,64,63486,1,8,0:0:0:0:
64,320,63616,1,4,0:0:0:0:
64,64,63877,1,0,0:0:0:0:
64,64,64007,1,0,0:0:0:0:
448,64,64138,1,8,0:0:0:0:
448,64,64399,1,8,0:0:0:0:
448,64,64529,1,8,0:0:0:0:
64,64,64660,1,0,0:0:0:0:
448,64,64921,1,8,0:0:0:0:
64,64,65051,1,0,0:0:0:0:
64,64,65312,1,0,0:0:0:0:
64,64,65442,1,0,0:0:0:0:
64,64,65573,1,0,0:0:0:0:
448,64,65703,1,8,0:0:0:0:
64,64,65964,1,0,0:0:0:0:
448,64,66094,1,8,0:0:0:0:
448,64,66355,1,8,0:0:0:0:
448,64,66616,1,8,0:0:0:0:
448,64,67007,1,8,0:0:0:0:
64,64,67268,1,0,0:0:0:0:
448,64,67529,1,8,0:0:0:0:
64,320,67790,1,4,0:0:0:0:
64,64,68051,1,0,0:0:0:0:
64,64,68181,1,0,0:0:0:0:
448,320,68312,1,12,0:0:0:0:
64,64,68573,1,0,0:0:0:0:
448,64,68703,1,8,0:0:0:0:
64,64,68834,1,0,0:0:0:0:
64,64,69094,1,0,0:0:0:0:
64,64,69225,1,0,0:0:0:0:
448,320,69355,1,12,0:0:0:0:
64,64,69616,1,0,0:0:0:0:
64,64,69747,1,0,0:0:0:0:
64,64,69812,1,0,0:0:0:0:
448,64,69877,1,8,0:0:0:0:
64,64,69942,1,0,0:0:0:0:
448,64,70007,1,8,0:0:0:0:
64,64,70138,1,0,0:0:0:0:
448,64,70268,1,8,0:0:0:0:
64,64,70529,1,0,0:0:0:0:
64,64,70594,1,0,0:0:0:0:
448,64,70660,1,8,0:0:0:0:
448,64,70790,1,8,0:0:0:0:
448,64,70921,1,8,0:0:0:0:
64,64,71051,1,0,0:0:0:0:
64,64,71116,1,0,0:0:0:0:
448,64,71181,1,8,0:0:0:0:
64,64,71964,1,0,0:0:0:0:
448,64,72094,1,8,0:0:0:0:
64,64,72225,1,0,0:0:0:0:
448,64,72486,1,8,0:0:0:0:
64,64,72616,1,0,0:0:0:0:
448,64,72877,1,8,0:0:0:0:
64,64,73007,1,0,0:0:0:0:
448,64,73268,1,8,0:0:0:0:
64,64,73399,1,0,0:0:0:0:
64,64,73529,1,0,0:0:0:0:
64,64,73660,1,0,0:0:0:0:
448,64,73790,1,8,0:0:0:0:
64,64,74051,1,0,0:0:0:0:
64,64,74181,1,0,0:0:0:0:
448,64,74312,1,8,0:0:0:0:
64,64,74573,1,0,0:0:0:0:
448,64,74703,1,8,0:0:0:0:
64,64,74964,1,0,0:0:0:0:
448,64,75094,1,8,0:0:0:0:
64,64,75355,1,0,0:0:0:0:
64,64,75486,1,0,0:0:0:0:
448,64,75616,1,8,0:0:0:0:
448,64,75747,1,8,0:0:0:0:
448,64,75812,1,8,0:0:0:0:
448,64,75877,1,8,0:0:0:0:
448,64,76007,1,8,0:0:0:0:
64,64,76138,1,0,0:0:0:0:
448,64,76268,1,8,0:0:0:0:
64,64,76399,1,0,0:0:0:0:
448,64,76660,1,8,0:0:0:0:
64,64,76790,1,0,0:0:0:0:
448,64,77051,1,8,0:0:0:0:
64,64,77181,1,0,0:0:0:0:
448,64,77442,1,8,0:0:0:0:
448,64,77573,1,8,0:0:0:0:
64,64,77703,1,0,0:0:0:0:
64,64,77834,1,0,0:0:0:0:
448,64,77964,1,8,0:0:0:0:
64,320,78355,1,4,0:0:0:0:
448,64,78486,1,8,0:0:0:0:
64,320,78747,1,4,0:0:0:0:
448,64,78877,1,8,0:0:0:0:
64,320,79138,1,4,0:0:0:0:
448,64,79268,1,8,0:0:0:0:
64,64,79529,1,0,0:0:0:0:
64,64,79660,1,0,0:0:0:0:
448,64,79790,1,8,0:0:0:0:
448,64,79921,1,8,0:0:0:0:
448,64,80051,1,8,0:0:0:0:
448,64,80116,1,8,0:0:0:0:
448,64,80181,1,8,0:0:0:0:
448,64,80247,1,8,0:0:0:0:
64,64,80312,1,0,0:0:0:0:
448,64,80573,1,8,0:0:0:0:
64,64,80834,1,0,0:0:0:0:
64,64,80964,1,0,0:0:0:0:
448,64,81094,1,8,0:0:0:0:
64,64,81225,1,0,0:0:0:0:
448,64,81290,1,8,0:0:0:0:
64,64,81355,1,0,0:0:0:0:
64,64,81486,1,0,0:0:0:0:
448,64,81616,1,8,0:0:0:0:
64,64,81747,1,0,0:0:0:0:
64,64,81812,1,0,0:0:0:0:
64,64,81877,1,0,0:0:0:0:
64,64,82007,1,0,0:0:0:0:
448,64,82138,1,8,0:0:0:0:
448,64,82268,1,8,0:0:0:0:
448,64,82334,1,8,0:0:0:0:
64,64,82399,1,0,0:0:0:0:
448,64,82660,1,8,0:0:0:0:
64,64,82921,1,0,0:0:0:0:
64,64,83051,1,0,0:0:0:0:
448,64,83181,1,8,0:0:0:0:
448,64,83312,1,8,0:0:0:0:
448,64,83377,1,8,0:0:0:0:
64,64,83442,1,0,0:0:0:0:
64,64,83573,1,0,0:0:0:0:
448,64,83703,1,8,0:0:0:0:
64,64,83834,1,0,0:0:0:0:
64,64,83899,1,0,0:0:0:0:
448,64,83964,1,8,0:0:0:0:
64,64,84094,1,0,0:0:0:0:
64,64,84160,1,0,0:0:0:0:
448,64,84225,1,8,0:0:0:0:
448,64,84290,1,8,0:0:0:0:
448,64,84355,1,8,0:0:0:0:
64,64,84486,1,0,0:0:0:0:
448,64,84747,1,8,0:0:0:0:
64,64,84877,1,0,0:0:0:0:
448,64,84942,1,8,0:0:0:0:
64,64,85007,1,0,0:0:0:0:
64,64,85138,1,0,0:0:0:0:
448,64,85268,1,8,0:0:0:0:
64,64,85399,1,0,0:0:0:0:
64,64,85464,1,0,0:0:0:0:
64,64,85529,1,0,0:0:0:0:
64,64,85660,1,0,0:0:0:0:
448,64,85790,1,8,0:0:0:0:
448,64,85921,1,8,0:0:0:0:
64,64,86051,1,0,0:0:0:0:
64,64,86181,1,0,0:0:0:0:
448,64,86312,1,8,0:0:0:0:
64,64,86442,1,0,0:0:0:0:
64,64,86507,1,0,0:0:0:0:
448,64,86573,1,8,0:0:0:0:
64,64,86834,1,0,0:0:0:0:
448,320,86964,1,12,0:0:0:0:
64,64,87225,1,0,0:0:0:0:
448,64,87355,1,8,0:0:0:0:
64,64,87486,1,0,0:0:0:0:
448,64,88268,1,8,0:0:0:0:
64,64,88399,1,0,0:0:0:0:
64,64,88660,1,0,0:0:0:0:
448,64,88921,1,8,0:0:0:0:
64,64,89051,1,0,0:0:0:0:
64,64,89181,1,0,0:0:0:0:
64,64,89246,1,0,0:0:0:0:
448,64,89311,1,8,0:0:0:0:
448,64,89442,1,8,0:0:0:0:
64,64,89572,1,0,0:0:0:0:
64,64,89637,1,0,0:0:0:0:
448,64,89703,1,8,0:0:0:0:
448,64,89834,1,8,0:0:0:0:
64,64,89964,1,0,0:0:0:0:
64,64,90029,1,0,0:0:0:0:
448,64,90094,1,8,0:0:0:0:
448,64,90225,1,8,0:0:0:0:
64,64,90355,1,0,0:0:0:0:
64,64,90486,1,0,0:0:0:0:
64,64,90551,1,0,0:0:0:0:
448,64,90616,1,8,0:0:0:0:
448,64,90681,1,8,0:0:0:0:
64,64,90747,1,0,0:0:0:0:
64,64,90877,1,0,0:0:0:0:
448,64,91007,1,8,0:0:0:0:
64,64,91138,1,0,0:0:0:0:
64,64,91203,1,0,0:0:0:0:
448,64,91268,1,8,0:0:0:0:
64,64,91399,1,0,0:0:0:0:
448,64,91529,1,8,0:0:0:0:
64,64,91660,1,0,0:0:0:0:
64,64,91725,1,0,0:0:0:0:
64,64,91790,1,0,0:0:0:0:
64,64,91855,1,0,0:0:0:0:
448,64,91921,1,8,0:0:0:0:
448,64,92051,1,8,0:0:0:0:
64,64,92181,1,0,0:0:0:0:
448,64,92312,1,8,0:0:0:0:
448,64,92442,1,8,0:0:0:0:
64,64,92573,1,0,0:0:0:0:
64,64,92834,1,0,0:0:0:0:
64,64,92899,1,0,0:0:0:0:
64,64,92964,1,0,0:0:0:0:
448,320,93094,1,12,0:0:0:0:
64,64,93355,1,0,0:0:0:0:
448,320,93486,1,12,0:0:0:0:
64,64,93747,1,0,0:0:0:0:
448,320,93877,1,12,0:0:0:0:
64,64,94138,1,0,0:0:0:0:
448,320,94268,1,12,0:0:0:0:
64,64,94529,1,0,0:0:0:0:
64,64,94594,1,0,0:0:0:0:
64,64,94660,1,0,0:0:0:0:
448,64,94790,1,8,0:0:0:0:
64,320,94921,1,4,0:0:0:0:
448,64,95181,1,8,0:0:0:0:
64,320,95312,1,4,0:0:0:0:
64,320,95573,1,4,0:0:0:0:
448,320,95834,1,12,0:0:0:0:
64,64,96094,1,0,0:0:0:0:
448,64,96225,1,8,0:0:0:0:
64,64,96355,1,0,0:0:0:0:
64,64,96421,1,0,0:0:0:0:
448,64,96485,1,8,0:0:0:0:
64,64,96616,1,0,0:0:0:0:
448,64,96747,1,8,0:0:0:0:
448,64,96876,1,8,0:0:0:0:
448,64,96942,1,8,0:0:0:0:
64,64,97007,1,0,0:0:0:0:
256,192,97790,8,0,99094,0:0:0:0:
64,64,99877,5,0,0:0:0:0:
64,64,100138,1,0,0:0:0:0:
64,64,100399,1,0,0:0:0:0:
448,64,100660,1,8,0:0:0:0:
448,64,100921,1,8,0:0:0:0:
64,64,101181,1,0,0:0:0:0:
64,64,101573,1,0,0:0:0:0:
448,64,101964,1,8,0:0:0:0:
64,64,102486,1,0,0:0:0:0:
64,64,103007,1,0,0:0:0:0:
64,64,103138,1,0,0:0:0:0:
448,64,103268,1,8,0:0:0:0:
64,64,104051,1,0,0:0:0:0:
448,64,104181,1,8,0:0:0:0:
64,64,104312,1,0,0:0:0:0:
64,64,104573,1,0,0:0:0:0:
448,64,104703,1,8,0:0:0:0:
64,64,105355,5,0,0:0:0:0:
64,64,105616,1,0,0:0:0:0:
448,64,105877,1,8,0:0:0:0:
448,64,106138,1,8,0:0:0:0:
64,64,106399,1,0,0:0:0:0:
64,64,106660,1,0,0:0:0:0:
448,64,106921,1,8,0:0:0:0:
448,64,107181,1,8,0:0:0:0:
64,64,107442,1,0,0:0:0:0:
64,64,107703,1,0,0:0:0:0:
448,64,107964,1,8,0:0:0:0:
448,64,108225,1,8,0:0:0:0:
64,64,108486,1,0,0:0:0:0:
64,64,108747,1,0,0:0:0:0:
448,64,108877,1,8,0:0:0:0:
448,64,109007,1,8,0:0:0:0:
64,64,109268,1,0,0:0:0:0:
448,64,109399,1,8,0:0:0:0:
64,320,109529,1,4,0:0:0:0:
64,64,109790,1,0,0:0:0:0:
64,64,110051,1,0,0:0:0:0:
64,64,110312,1,0,0:0:0:0:
448,64,110573,1,8,0:0:0:0:
448,64,110834,1,8,0:0:0:0:
448,64,111094,1,8,0:0:0:0:
448,64,111355,1,8,0:0:0:0:
448,64,111486,1,8,0:0:0:0:
448,64,111551,1,8,0:0:0:0:
64,64,111616,1,0,0:0:0:0:
448,64,111812,1,8,0:0:0:0:
64,64,111877,1,0,0:0:0:0:
448,64,112007,1,8,0:0:0:0:
64,64,112138,1,0,0:0:0:0:
64,64,112203,1,0,0:0:0:0:
448,64,112268,1,8,0:0:0:0:
64,64,112399,1,0,0:0:0:0:
448,64,112529,1,8,0:0:0:0:
64,64,112660,1,0,0:0:0:0:
64,64,112725,1,0,0:0:0:0:
448,64,112790,1,8,0:0:0:0:
64,64,112855,1,0,0:0:0:0:
448,64,112921,1,8,0:0:0:0:
64,64,113051,1,0,0:0:0:0:
64,64,113116,1,0,0:0:0:0:
448,64,113181,1,8,0:0:0:0:
64,320,113703,1,4,0:0:0:0:
448,64,113834,1,8,0:0:0:0:
448,64,113899,1,8,0:0:0:0:
64,64,113964,1,0,0:0:0:0:
448,64,114094,1,8,0:0:0:0:
64,64,114160,1,0,0:0:0:0:
448,64,114225,1,8,0:0:0:0:
448,64,114355,1,8,0:0:0:0:
64,64,114486,1,0,0:0:0:0:
64,64,114551,1,0,0:0:0:0:
448,64,114616,1,8,0:0:0:0:
64,64,114747,1,0,0:0:0:0:
64,64,114812,1,0,0:0:0:0:
448,64,114877,1,8,0:0:0:0:
448,64,114942,1,8,0:0:0:0:
64,64,115007,1,0,0:0:0:0:
448,64,115138,1,8,0:0:0:0:
448,64,115203,1,8,0:0:0:0:
64,64,115268,1,0,0:0:0:0:
448,64,115399,1,8,0:0:0:0:
64,64,115529,1,0,0:0:0:0:
64,64,115594,1,0,0:0:0:0:
448,64,115660,1,8,0:0:0:0:
64,64,115790,1,0,0:0:0:0:
64,64,116051,1,0,0:0:0:0:
448,64,116181,1,8,0:0:0:0:
64,64,116312,1,0,0:0:0:0:
448,64,116442,1,8,0:0:0:0:
64,64,116507,1,0,0:0:0:0:
64,64,116573,1,0,0:0:0:0:
448,64,116703,1,8,0:0:0:0:
448,64,116768,1,8,0:0:0:0:
64,64,116834,1,0,0:0:0:0:
448,64,116964,1,8,0:0:0:0:
64,64,117094,1,0,0:0:0:0:
64,64,117160,1,0,0:0:0:0:
448,64,117225,1,8,0:0:0:0:
64,64,117290,1,0,0:0:0:0:
448,64,117355,1,8,0:0:0:0:
448,64,117421,1,8,0:0:0:0:
64,64,117486,1,0,0:0:0:0:
64,64,117551,1,0,0:0:0:0:
448,64,117616,1,8,0:0:0:0:
448,64,117747,1,8,0:0:0:0:
448,64,117812,1,8,0:0:0:0:
64,64,117877,1,0,0:0:0:0:
64,64,118138,1,0,0:0:0:0:
448,64,118268,1,8,0:0:0:0:
448,64,118334,1,8,0:0:0:0:
64,64,118399,1,0,0:0:0:0:
448,64,118529,1,8,0:0:0:0:
64,64,118660,1,0,0:0:0:0:
64,64,118725,1,0,0:0:0:0:
448,64,118790,1,8,0:0:0:0:
448,64,118855,1,8,0:0:0:0:
64,64,118921,1,0,0:0:0:0:
448,64,119051,1,8,0:0:0:0:
448,64,119116,1,8,0:0:0:0:
64,64,119181,1,0,0:0:0:0:
448,64,119312,1,8,0:0:0:0:
64,64,119377,1,0,0:0:0:0:
448,64,119442,1,8,0:0:0:0:
448,64,119573,1,8,0:0:0:0:
64,64,119703,1,0,0:0:0:0:
64,64,119768,1,0,0:0:0:0:
448,64,119834,1,8,0:0:0:0:
64,64,119964,1,0,0:0:0:0:
448,64,120094,1,8,0:0:0:0:
448,64,120160,1,8,0:0:0:0:
64,64,120225,1,0,0:0:0:0:
64,64,120355,1,0,0:0:0:0:
64,64,120421,1,0,0:0:0:0:
448,64,120486,1,8,0:0:0:0:
448,64,120616,1,8,0:0:0:0:
64,64,120681,1,0,0:0:0:0:
448,64,120747,1,8,0:0:0:0:
448,64,120812,1,8,0:0:0:0:
64,64,120877,1,0,0:0:0:0:
64,64,121007,1,0,0:0:0:0:
448,64,121138,1,8,0:0:0:0:
64,64,121203,1,0,0:0:0:0:
64,64,121268,1,0,0:0:0:0:
448,64,121399,1,8,0:0:0:0:
448,64,121529,1,8,0:0:0:0:
448,64,121660,1,8,0:0:0:0:
448,64,121790,1,8,0:0:0:0:
448,64,121921,1,8,0:0:0:0:
64,320,122051,1,4,0:0:0:0:
64,64,122312,1,0,0:0:0:0:
64,64,122442,1,0,0:0:0:0:
448,64,122573,1,8,0:0:0:0:
448,64,122834,1,8,0:0:0:0:
448,64,122964,1,8,0:0:0:0:
64,64,123095,1,0,0:0:0:0:
448,64,123356,1,8,0:0:0:0:
64,64,123486,1,0,0:0:0:0:
64,64,123747,1,0,0:0:0:0:
64,64,123877,1,0,0:0:0:0:
64,64,124007,1,0,0:0:0:0:
448,64,124138,1,8,0:0:0:0:
64,64,124399,1,0,0:0:0:0:
448,64,124529,1,8,0:0:0:0:
448,64,124790,1,8,0:0:0:0:
448,64,125051,1,8,0:0:0:0:
448,64,125442,1,8,0:0:0:0:
64,64,125703,1,0,0:0:0:0:
448,64,125964,1,8,0:0:0:0:
64,320,126225,1,4,0:0:0:0:
64,64,126486,1,0,0:0:0:0:
64,64,126616,1,0,0:0:0:0:
448,320,126747,1,12,0:0:0:0:
64,64,127007,1,0,0:0:0:0:
448,64,127138,1,8,0:0:0:0:
64,64,127268,1,0,0:0:0:0:
64,64,127529,1,0,0:0:0:0:
64,64,127660,1,0,0:0:0:0:
448,320,127790,1,12,0:0:0:0:
64,64,128051,1,0,0:0:0:0:
64,64,128181,1,0,0:0:0:0:
64,64,128247,1,0,0:0:0:0:
448,64,128312,1,8,0:0:0:0:
64,64,128377,1,0,0:0:0:0:
448,64,128442,1,8,0:0:0:0:
448,64,128507,1,8,0:0:0:0:
64,64,128573,1,0,0:0:0:0:
448,64,128703,1,8,0:0:0:0:
64,64,128964,1,0,0:0:0:0:
64,64,129029,1,0,0:0:0:0:
448,64,129094,1,8,0:0:0:0:
448,64,129225,1,8,0:0:0:0:
64,64,129355,1,0,0:0:0:0:
64,64,129529,1,0,0:0:0:0:
448,64,129616,1,8,0:0:0:0:
64,64,129703,1,0,0:0:0:0:
64,64,129790,1,0,0:0:0:0:
448,64,129877,1,8,0:0:0:0:
64,64,130051,1,0,0:0:0:0:
448,64,130138,1,8,0:0:0:0:
448,64,130225,1,8,0:0:0:0:
448,64,130312,1,8,0:0:0:0:
64,64,130399,1,0,0:0:0:0:
256,192,130529,8,0,132225,0:0:0:0:
64,320,133007,5,4,0:0:0:0:
448,64,133138,1,8,0:0:0:0:
448,64,133268,1,8,0:0:0:0:
64,320,133399,1,4,0:0:0:0:
448,320,133660,1,12,0:0:0:0:
256,193,133921,1,0,0:0:0:0:
256,193,133986,1,0,0:0:0:0:
256,193,134051,1,8,0:0:0:0:
448,64,134181,1,8,0:0:0:0:
64,64,134312,1,0,0:0:0:0:
64,64,134442,1,0,0:0:0:0:
448,320,134573,1,12,0:0:0:0:
64,64,134834,1,0,0:0:0:0:
64,64,135094,1,0,0:0:0:0:
64,64,135355,1,0,0:0:0:0:
64,64,135616,1,0,0:0:0:0:
64,64,135877,1,0,0:0:0:0:
64,64,136138,1,0,0:0:0:0:
64,64,136399,1,0,0:0:0:0:
64,64,136529,1,0,0:0:0:0:
64,64,136594,1,0,0:0:0:0:
448,64,136660,1,8,0:0:0:0:
64,64,136921,1,0,0:0:0:0:
64,64,137051,1,0,0:0:0:0:
64,64,137181,1,0,0:0:0:0:
64,64,137312,1,0,0:0:0:0:
64,64,137442,1,0,0:0:0:0:
64,64,137573,1,0,0:0:0:0:
64,64,137703,1,0,0:0:0:0:
64,64,137768,1,0,0:0:0:0:
64,64,137834,1,0,0:0:0:0:
64,64,137899,1,0,0:0:0:0:
64,64,137964,1,0,0:0:0:0:
64,64,138029,1,0,0:0:0:0:
64,64,138094,1,0,0:0:0:0:
64,64,138160,1,0,0:0:0:0:
448,64,138225,1,8,0:0:0:0:
64,320,138747,1,4,0:0:0:0:
64,64,139007,1,0,0:0:0:0:
448,64,139268,1,8,0:0:0:0:
64,64,139399,1,0,0:0:0:0:
64,64,139464,1,0,0:0:0:0:
448,64,139529,1,8,0:0:0:0:
64,64,139660,1,0,0:0:0:0:
64,64,139725,1,0,0:0:0:0:
448,64,139790,1,8,0:0:0:0:
64,64,139921,1,0,0:0:0:0:
64,64,140051,1,0,0:0:0:0:
64,64,140181,1,0,0:0:0:0:
448,64,140312,1,8,0:0:0:0:
448,64,140344,1,8,0:0:0:0:
64,64,140442,1,0,0:0:0:0:
64,64,140834,1,0,0:0:0:0:
64,64,141094,1,0,0:0:0:0:
448,64,141355,1,8,0:0:0:0:
64,64,141486,1,0,0:0:0:0:
64,64,141551,1,0,0:0:0:0:
448,64,141616,1,8,0:0:0:0:
64,64,141747,1,0,0:0:0:0:
64,64,141812,1,0,0:0:0:0:
448,64,141877,1,8,0:0:0:0:
64,64,142007,1,0,0:0:0:0:
64,64,142073,1,0,0:0:0:0:
448,64,142138,1,8,0:0:0:0:
448,64,142203,1,8,0:0:0:0:
64,64,142268,1,0,0:0:0:0:
64,64,142334,1,0,0:0:0:0:
448,64,142399,1,8,0:0:0:0:
448,64,142529,1,8,0:0:0:0:
448,64,142660,1,8,0:0:0:0:
448,64,142790,1,8,0:0:0:0:
64,64,142921,1,0,0:0:0:0:
64,64,143181,1,0,0:0:0:0:
448,64,143442,1,8,0:0:0:0:
64,64,143573,1,0,0:0:0:0:
64,64,143638,1,0,0:0:0:0:
448,64,143703,1,8,0:0:0:0:
64,64,143834,1,0,0:0:0:0:
64,64,143899,1,0,0:0:0:0:
448,64,143964,1,8,0:0:0:0:
64,64,144094,1,0,0:0:0:0:
64,64,144225,1,0,0:0:0:0:
64,64,144355,1,0,0:0:0:0:
448,64,144486,1,8,0:0:0:0:
448,64,144518,1,8,0:0:0:0:
64,64,144616,1,0,0:0:0:0:
64,64,145007,1,0,0:0:0:0:
64,64,145268,1,0,0:0:0:0:
64,64,145399,1,0,0:0:0:0:
448,64,145529,1,8,0:0:0:0:
64,64,145660,1,0,0:0:0:0:
64,64,145725,1,0,0:0:0:0:
448,64,145790,1,8,0:0:0:0:
64,64,145921,1,0,0:0:0:0:
64,64,146051,1,0,0:0:0:0:
64,64,146116,1,0,0:0:0:0:
448,64,146181,1,8,0:0:0:0:
64,64,146247,1,0,0:0:0:0:
448,64,146312,1,8,0:0:0:0:
448,64,146377,1,8,0:0:0:0:
64,64,146442,1,0,0:0:0:0:
448,64,146573,1,8,0:0:0:0:
448,64,146638,1,8,0:0:0:0:
64,64,146703,1,0,0:0:0:0:
64,64,146768,1,0,0:0:0:0:
448,64,146834,1,8,0:0:0:0:
448,64,146899,1,8,0:0:0:0:
448,64,146964,1,8,0:0:0:0:
448,64,147029,1,8,0:0:0:0:
64,64,147094,1,0,0:0:0:0:
64,64,147160,1,0,0:0:0:0:
64,64,147225,1,0,0:0:0:0:
64,64,147290,1,0,0:0:0:0:
448,64,147355,1,8,0:0:0:0:
64,64,147486,1,0,0:0:0:0:
448,64,147616,1,8,0:0:0:0:
448,64,147681,1,8,0:0:0:0:
64,64,147747,1,0,0:0:0:0:
64,64,147812,1,0,0:0:0:0:
448,64,147877,1,8,0:0:0:0:
64,64,148007,1,0,0:0:0:0:
64,64,148268,1,0,0:0:0:0:
64,64,148399,1,0,0:0:0:0:
64,64,148464,1,0,0:0:0:0:
448,64,148529,1,8,0:0:0:0:
448,64,148660,1,8,0:0:0:0:
448,64,148725,1,8,0:0:0:0:
448,64,148790,1,8,0:0:0:0:
448,64,148855,1,8,0:0:0:0:
64,64,148921,1,0,0:0:0:0:
64,64,148986,1,0,0:0:0:0:
448,64,149051,1,8,0:0:0:0:
448,64,149181,1,8,0:0:0:0:
448,64,149247,1,8,0:0:0:0:
448,64,149312,1,8,0:0:0:0:
448,64,149377,1,8,0:0:0:0:
64,64,149442,1,0,0:0:0:0:
448,64,149573,1,8,0:0:0:0:
64,64,149703,1,0,0:0:0:0:
448,64,149834,1,8,0:0:0:0:
448,64,149899,1,8,0:0:0:0:
64,64,149964,1,0,0:0:0:0:
448,64,150094,1,8,0:0:0:0:
64,64,150225,1,0,0:0:0:0:
448,64,150355,1,8,0:0:0:0:
64,64,150421,1,0,0:0:0:0:
448,64,150486,1,8,0:0:0:0:
448,64,150551,1,8,0:0:0:0:
64,64,150616,1,0,0:0:0:0:
448,64,150747,1,8,0:0:0:0:
448,64,150812,1,8,0:0:0:0:
64,64,150877,1,0,0:0:0:0:
64,64,150942,1,0,0:0:0:0:
448,64,151007,1,8,0:0:0:0:
448,64,151138,1,8,0:0:0:0:
64,64,151268,1,0,0:0:0:0:
64,64,151334,1,0,0:0:0:0:
64,64,151399,1,0,0:0:0:0:
64,64,151464,1,0,0:0:0:0:
448,64,151529,1,8,0:0:0:0:
64,64,151660,1,0,0:0:0:0:
64,64,151725,1,0,0:0:0:0:
448,64,151790,1,8,0:0:0:0:
64,64,151921,1,0,0:0:0:0:
64,64,151986,1,0,0:0:0:0:
448,64,152051,1,8,0:0:0:0:
448,64,152116,1,8,0:0:0:0:
64,64,152181,1,0,0:0:0:0:
448,64,152312,1,8,0:0:0:0:
64,64,152442,1,0,0:0:0:0:
64,64,152507,1,0,0:0:0:0:
448,64,152573,1,8,0:0:0:0:
448,64,152638,1,8,0:0:0:0:
64,64,152703,1,0,0:0:0:0:
448,64,152834,1,8,0:0:0:0:
448,64,152899,1,8,0:0:0:0:
64,64,152964,1,0,0:0:0:0:
64,64,153029,1,0,0:0:0:0:
448,64,153094,1,8,0:0:0:0:
448,64,153225,1,8,0:0:0:0:
448,64,153290,1,8,0:0:0:0:
64,64,153355,1,0,0:0:0:0:
64,64,153421,1,0,0:0:0:0:
64,64,153486,1,0,0:0:0:0:
64,64,153551,1,0,0:0:0:0:
448,64,153616,1,8,0:0:0:0:
448,64,153681,1,8,0:0:0:0:
64,64,153747,1,0,0:0:0:0:
64,64,153812,1,0,0:0:0:0:
448,64,153877,1,8,0:0:0:0:
64,64,154007,1,0,0:0:0:0:
64,64,154073,1,0,0:0:0:0:
448,64,154138,1,8,0:0:0:0:
448,64,154203,1,8,0:0:0:0:
64,64,154268,1,0,0:0:0:0:
64,64,154334,1,0,0:0:0:0:
448,64,154399,1,8,0:0:0:0:
64,64,154464,1,0,0:0:0:0:
64,64,154529,1,0,0:0:0:0:
64,64,154594,1,0,0:0:0:0:
448,64,154660,1,8,0:0:0:0:
448,64,154725,1,8,0:0:0:0:
64,64,154790,1,0,0:0:0:0:
64,64,154855,1,0,0:0:0:0:
448,64,154921,1,8,0:0:0:0:
64,64,155051,1,0,0:0:0:0:
448,64,155181,1,8,0:0:0:0:
64,64,155312,1,0,0:0:0:0:
448,320,155442,1,12,0:0:0:0:
64,64,163790,5,0,0:0:0:0:
448,64,164312,1,8,0:0:0:0:
448,64,164442,1,8,0:0:0:0:
64,64,164573,1,0,0:0:0:0:
64,64,164703,1,0,0:0:0:0:
448,64,164834,1,8,0:0:0:0:
64,64,165094,1,0,0:0:0:0:
448,64,165225,1,8,0:0:0:0:
64,64,165486,1,0,0:0:0:0:
64,64,165616,1,0,0:0:0:0:
64,64,165747,1,0,0:0:0:0:
448,64,165877,1,8,0:0:0:0:
64,64,166138,1,0,0:0:0:0:
448,64,166268,1,8,0:0:0:0:
448,64,166529,1,8,0:0:0:0:
64,64,166790,1,0,0:0:0:0:
448,64,167181,1,8,0:0:0:0:
64,64,167442,1,0,0:0:0:0:
448,64,167703,1,8,0:0:0:0:
448,64,167964,1,8,0:0:0:0:
448,64,168355,1,8,0:0:0:0:
64,64,168747,1,0,0:0:0:0:
448,64,169007,1,8,0:0:0:0:
64,64,169268,1,0,0:0:0:0:
448,64,169529,1,8,0:0:0:0:
448,64,169790,1,8,0:0:0:0:
448,64,170051,1,8,0:0:0:0:
64,64,170312,1,0,0:0:0:0:
448,64,170442,1,8,0:0:0:0:
64,64,170703,1,0,0:0:0:0:
448,64,170834,1,8,0:0:0:0:
64,64,170965,1,0,0:0:0:0:
64,64,171486,5,0,0:0:0:0:
64,64,171551,1,0,0:0:0:0:
448,64,171616,1,8,0:0:0:0:
448,64,171681,1,8,0:0:0:0:
64,64,171747,1,0,0:0:0:0:
64,64,171812,1,0,0:0:0:0:
448,64,171877,1,8,0:0:0:0:
448,64,172007,1,8,0:0:0:0:
64,320,172138,1,4,0:0:0:0:
448,64,172268,1,8,0:0:0:0:
448,64,172334,1,8,0:0:0:0:
64,64,172399,1,0,0:0:0:0:
448,64,172529,1,8,0:0:0:0:
64,64,172660,1,0,0:0:0:0:
64,64,172725,1,0,0:0:0:0:
448,64,172790,1,8,0:0:0:0:
448,64,172855,1,0,0:0:0:0:
64,64,172921,1,8,0:0:0:0:
64,64,172986,1,8,0:0:0:0:
448,64,173051,1,0,0:0:0:0:
64,64,173116,1,0,0:0:0:0:
448,64,173181,1,8,0:0:0:0:
448,64,173312,1,8,0:0:0:0:
64,64,173442,1,0,0:0:0:0:
64,64,173507,1,0,0:0:0:0:
448,64,173573,1,8,0:0:0:0:
448,64,173638,1,8,0:0:0:0:
64,64,173703,1,0,0:0:0:0:
448,64,173834,1,8,0:0:0:0:
448,64,173899,1,8,0:0:0:0:
64,64,173964,1,0,0:0:0:0:
448,64,174094,1,8,0:0:0:0:
64,64,174225,1,0,0:0:0:0:
64,64,174355,1,0,0:0:0:0:
64,64,174421,1,8,0:0:0:0:
64,64,174486,1,0,0:0:0:0:
448,64,174616,1,8,0:0:0:0:
448,64,174681,1,8,0:0:0:0:
64,64,174747,1,0,0:0:0:0:
448,64,174877,1,8,0:0:0:0:
64,64,174942,1,8,0:0:0:0:
64,64,175007,1,0,0:0:0:0:
448,64,175073,1,0,0:0:0:0:
448,64,175138,1,8,0:0:0:0:
64,64,175268,1,0,0:0:0:0:
448,64,175399,1,8,0:0:0:0:
64,64,175464,1,0,0:0:0:0:
64,64,175529,1,0,0:0:0:0:
64,64,175594,1,0,0:0:0:0:
448,64,175660,1,8,0:0:0:0:
448,64,175725,1,8,0:0:0:0:
64,64,175790,1,0,0:0:0:0:
64,64,175855,1,0,0:0:0:0:
448,64,175921,1,8,0:0:0:0:
64,64,176051,1,0,0:0:0:0:
448,64,176181,1,8,0:0:0:0:
448,64,176247,1,8,0:0:0:0:
64,64,176312,1,0,0:0:0:0:
448,64,176573,1,8,0:0:0:0:
448,64,176703,1,8,0:0:0:0:
448,64,176768,1,8,0:0:0:0:
64,64,176834,1,0,0:0:0:0:
448,64,176964,1,8,0:0:0:0:
64,64,177094,1,0,0:0:0:0:
64,64,177160,1,0,0:0:0:0:
448,64,177225,1,8,0:0:0:0:
448,64,177290,1,8,0:0:0:0:
64,64,177355,1,0,0:0:0:0:
448,64,177486,1,8,0:0:0:0:
64,64,177616,1,0,0:0:0:0:
64,64,177681,1,0,0:0:0:0:
448,64,177747,1,8,0:0:0:0:
64,64,177877,1,0,0:0:0:0:
448,64,178007,1,8,0:0:0:0:
64,64,178073,1,0,0:0:0:0:
448,64,178138,1,8,0:0:0:0:
448,64,178203,1,8,0:0:0:0:
64,64,178268,1,0,0:0:0:0:
64,64,178334,1,0,0:0:0:0:
448,64,178399,1,8,0:0:0:0:
64,64,178529,1,0,0:0:0:0:
64,64,178594,1,0,0:0:0:0:
448,64,178660,1,8,0:0:0:0:
64,64,178725,1,0,0:0:0:0:
448,64,178790,1,8,0:0:0:0:
64,64,178921,1,0,0:0:0:0:
448,64,179051,1,8,0:0:0:0:
448,64,179116,1,8,0:0:0:0:
64,64,179181,1,0,0:0:0:0:
448,64,179247,1,8,0:0:0:0:
64,64,179312,1,0,0:0:0:0:
64,64,179377,1,0,0:0:0:0:
448,64,179442,1,8,0:0:0:0:
448,64,179573,1,8,0:0:0:0:
64,64,179638,1,0,0:0:0:0:
64,64,179703,1,0,0:0:0:0:
448,64,179834,1,8,0:0:0:0:
448,64,179964,1,8,0:0:0:0:
448,64,180095,1,8,0:0:0:0:
448,64,180225,1,8,0:0:0:0:
448,64,180355,1,8,0:0:0:0:
64,320,180486,1,4,0:0:0:0:
64,64,180747,1,0,0:0:0:0:
64,64,180877,1,0,0:0:0:0:
448,64,181008,1,8,0:0:0:0:
448,64,181269,1,8,0:0:0:0:
448,64,181399,1,8,0:0:0:0:
64,64,181530,1,0,0:0:0:0:
448,64,181791,1,8,0:0:0:0:
64,64,181921,1,0,0:0:0:0:
64,64,182182,1,0,0:0:0:0:
64,64,182312,1,0,0:0:0:0:
64,64,182442,1,0,0:0:0:0:
448,64,182573,1,8,0:0:0:0:
64,64,182834,1,0,0:0:0:0:
448,64,182964,1,8,0:0:0:0:
448,64,183225,1,8,0:0:0:0:
448,64,183486,1,8,0:0:0:0:
448,64,183877,1,8,0:0:0:0:
64,64,184138,1,0,0:0:0:0:
448,64,184399,1,8,0:0:0:0:
64,320,184660,1,4,0:0:0:0:
64,64,184921,1,0,0:0:0:0:
64,64,185051,1,0,0:0:0:0:
448,320,185181,1,12,0:0:0:0:
64,64,185442,1,0,0:0:0:0:
448,64,185573,1,8,0:0:0:0:
64,64,185703,1,0,0:0:0:0:
64,64,185964,1,0,0:0:0:0:
64,64,186094,1,0,0:0:0:0:
448,320,186225,1,12,0:0:0:0:
64,64,186486,1,0,0:0:0:0:
64,64,186616,1,0,0:0:0:0:
64,64,186681,1,0,0:0:0:0:
448,64,186747,1,8,0:0:0:0:
448,64,186877,1,8,0:0:0:0:
64,64,187007,1,0,0:0:0:0:
64,64,187073,1,0,0:0:0:0:
448,64,187138,1,8,0:0:0:0:
64,64,187399,1,0,0:0:0:0:
64,64,187464,1,0,0:0:0:0:
448,64,187529,1,8,0:0:0:0:
448,64,187660,1,8,0:0:0:0:
64,64,187921,1,0,0:0:0:0:
64,64,187986,1,0,0:0:0:0:
448,64,188051,1,8,0:0:0:0:
64,64,188181,1,0,0:0:0:0:
448,64,188312,1,8,0:0:0:0:
448,64,188377,1,8,0:0:0:0:
64,64,188442,1,0,0:0:0:0:
64,64,188507,1,0,0:0:0:0:
448,64,188573,1,8,0:0:0:0:
448,64,188638,1,8,0:0:0:0:
448,64,188703,1,8,0:0:0:0:
64,64,188834,1,0,0:0:0:0:
448,64,188964,1,8,0:0:0:0:
448,64,189029,1,8,0:0:0:0:
64,64,189094,1,0,0:0:0:0:
64,64,189225,1,0,0:0:0:0:
448,64,189355,1,8,0:0:0:0:
448,64,189421,1,8,0:0:0:0:
64,64,189486,1,0,0:3:0:0:
64,64,189551,1,0,0:0:0:0:
448,64,189616,1,8,0:0:0:0:
448,64,189747,1,8,0:0:0:0:
448,64,189812,1,8,0:0:0:0:
64,64,189877,1,0,0:0:0:0:
448,64,190007,1,8,0:0:0:0:
448,64,190073,1,8,0:0:0:0:
64,64,190138,1,0,0:0:0:0:
64,64,190268,1,0,0:0:0:0:
448,64,190399,1,8,0:0:0:0:
64,64,190464,1,0,0:0:0:0:
64,64,190529,1,0,0:0:0:0:
64,64,190594,1,0,0:0:0:0:
448,64,190660,1,8,0:0:0:0:
64,64,190790,1,0,0:0:0:0:
448,64,190855,1,8,0:0:0:0:
64,64,190921,1,0,0:0:0:0:
448,64,191116,1,8,0:0:0:0:
64,64,191181,1,0,0:0:0:0:
64,64,191312,1,0,0:0:0:0:
448,64,191442,1,8,0:0:0:0:
448,64,191507,1,8,0:0:0:0:
64,64,191573,1,0,0:0:0:0:
64,64,191638,1,0,0:0:0:0:
448,64,191703,1,8,0:0:0:0:
448,64,191834,1,8,0:0:0:0:
448,64,191899,1,8,0:0:0:0:
64,64,191964,1,0,0:0:0:0:
448,64,192094,1,8,0:0:0:0:
64,64,192160,1,0,0:0:0:0:
448,64,192225,1,8,0:0:0:0:
448,64,192290,1,8,0:0:0:0:
64,64,192355,1,0,0:0:0:0:
64,64,192421,1,0,0:0:0:0:
448,64,192486,1,8,0:0:0:0:
64,64,192616,1,0,0:0:0:0:
64,64,192681,1,0,0:0:0:0:
448,64,192747,1,8,0:0:0:0:
64,64,192812,1,0,0:0:0:0:
448,64,192877,1,8,0:0:0:0:
64,64,193007,1,0,0:0:0:0:
64,64,193203,1,0,0:0:0:0:
448,64,193268,1,8,0:0:0:0:
448,64,193399,1,8,0:0:0:0:
64,64,193529,1,0,0:3:0:0:
64,64,193594,1,0,0:0:0:0:
448,64,193660,1,8,0:0:0:0:
64,64,193790,1,0,0:0:0:0:
64,64,193855,1,0,0:0:0:0:
448,64,193921,1,8,0:0:0:0:
448,64,194051,1,8,0:0:0:0:
64,64,194181,1,0,0:0:0:0:
64,64,194247,1,0,0:0:0:0:
448,64,194312,1,8,0:0:0:0:
64,64,194442,1,0,0:0:0:0:
448,64,194507,1,8,0:0:0:0:
448,64,194573,1,8,0:0:0:0:
448,64,194703,1,8,0:0:0:0:
448,64,194768,1,8,0:0:0:0:
64,64,194834,1,0,0:0:0:0:
64,64,194899,1,0,0:0:0:0:
448,64,194964,1,8,0:0:0:0:
64,64,195094,1,0,0:0:0:0:
448,64,195225,1,8,0:0:0:0:
448,64,195290,1,8,0:0:0:0:
64,64,195355,1,0,0:0:0:0:
64,64,195421,1,0,0:0:0:0:
64,64,195486,1,0,0:0:0:0:
64,64,195551,1,0,0:0:0:0:
448,64,195616,1,8,0:0:0:0:
64,64,195681,1,0,0:0:0:0:
448,64,195747,1,8,0:0:0:0:
448,64,195812,1,8,0:0:0:0:
64,64,195877,1,0,0:0:0:0:
448,64,195942,1,8,0:0:0:0:
64,64,196007,1,0,0:0:0:0:
64,64,196073,1,0,0:0:0:0:
448,64,196138,1,8,0:0:0:0:
448,64,196268,1,8,0:0:0:0:
448,64,196334,1,8,0:0:0:0:
64,64,196399,1,0,0:0:0:0:
448,64,196529,1,8,0:0:0:0:
448,64,196594,1,8,0:0:0:0:
448,64,196660,1,8,0:0:0:0:
448,64,196725,1,8,0:0:0:0:
64,64,196790,1,0,0:3:0:0:
64,64,196855,1,0,0:0:0:0:
448,64,196921,1,8,0:0:0:0:
448,64,197051,1,8,0:0:0:0:
448,64,197116,1,8,0:0:0:0:
64,64,197181,1,0,0:0:0:0:
448,64,197312,1,8,0:0:0:0:
448,64,197377,1,8,0:0:0:0:
64,64,197442,1,0,0:0:0:0:
448,64,197573,1,8,0:0:0:0:
64,64,197638,1,0,0:0:0:0:
64,64,197703,1,0,0:0:0:0:
448,64,197834,1,8,0:0:0:0:
64,64,197899,1,0,0:0:0:0:
64,64,197964,1,0,0:0:0:0:
448,64,198094,1,8,0:0:0:0:
448,64,198225,1,8,0:0:0:0:
448,64,198290,1,8,0:0:0:0:
64,64,198355,1,0,0:0:0:0:
448,64,198421,1,8,0:0:0:0:
64,64,198486,1,0,0:0:0:0:
64,64,198551,1,0,0:0:0:0:
448,64,198616,1,8,0:0:0:0:
64,64,198747,1,0,0:0:0:0:
64,64,198812,1,0,0:0:0:0:
448,64,198877,1,8,0:0:0:0:
448,64,198942,1,8,0:0:0:0:
64,64,199007,1,0,0:0:0:0:
448,64,199138,1,8,0:0:0:0:
448,64,199203,1,8,0:0:0:0:
64,64,199268,1,0,0:0:0:0:
448,64,199399,1,8,0:0:0:0:
448,64,199464,1,8,0:0:0:0:
64,64,199529,1,0,0:0:0:0:
64,64,199594,1,0,0:0:0:0:
448,64,199660,1,8,0:0:0:0:
448,64,199725,1,8,0:0:0:0:
64,64,199790,1,0,0:0:0:0:
448,64,199921,1,8,0:0:0:0:
448,64,199986,1,8,0:0:0:0:
64,64,200051,1,0,0:0:0:0:
448,64,200181,1,8,0:0:0:0:
64,64,200312,1,0,0:0:0:0:
64,64,200377,1,0,0:0:0:0:
448,64,200442,1,8,0:0:0:0:
64,64,200573,1,0,0:0:0:0:
64,64,200638,1,0,0:0:0:0:
448,64,200703,1,8,0:0:0:0:
64,64,200834,1,0,0:3:0:0:
448,64,200899,1,8,0:0:0:0:
448,64,200964,1,8,0:0:0:0:
448,64,201029,1,8,0:0:0:0:
64,64,201094,1,0,0:0:0:0:
448,64,201225,1,8,0:0:0:0:
448,64,201290,1,8,0:0:0:0:
64,64,201355,1,0,0:0:0:0:
64,64,201486,1,0,0:0:0:0:
64,64,201551,1,0,0:0:0:0:
448,64,201616,1,8,0:0:0:0:
64,64,201747,1,0,0:0:0:0:
64,64,201812,1,0,0:0:0:0:
448,64,201877,1,8,0:0:0:0:
448,64,201942,1,8,0:0:0:0:
64,64,202007,1,0,0:0:0:0:
448,64,202138,1,8,0:0:0:0:
448,64,202268,1,8,0:0:0:0:
448,64,202334,1,8,0:0:0:0:
64,64,202399,1,0,0:0:0:0:
64,64,202464,1,0,0:0:0:0:
448,64,202529,1,8,0:0:0:0:
64,64,202660,1,0,0:0:0:0:
64,64,202725,1,0,0:0:0:0:
448,64,202790,1,8,0:0:0:0:
448,64,202855,1,8,0:0:0:0:
64,64,202921,1,0,0:0:0:0:
448,64,202986,1,8,0:0:0:0:
64,64,203051,1,0,0:0:0:0:
64,64,203116,1,0,0:0:0:0:
448,64,203181,1,8,0:0:0:0:
448,64,203312,1,8,0:0:0:0:
64,64,203442,1,0,0:0:0:0:
64,64,203507,1,0,0:0:0:0:
64,64,203573,1,0,0:0:0:0:
64,64,203638,1,0,0:0:0:0:
448,64,203703,1,8,0:0:0:0:
64,64,203834,1,0,0:0:0:0:
64,64,203899,1,0,0:0:0:0:
448,64,203964,1,8,0:0:0:0:
64,64,204029,1,0,0:0:0:0:
448,64,204094,1,8,0:0:0:0:
64,64,204225,1,0,0:0:0:0:
64,64,204290,1,0,0:0:0:0:
64,64,204355,1,0,0:0:0:0:
64,64,204421,1,0,0:0:0:0:
448,64,204486,1,8,0:0:0:0:
448,64,204551,1,8,0:0:0:0:
448,64,204616,1,8,0:0:0:0:
448,64,204681,1,8,0:0:0:0:
64,64,204747,1,0,3:3:0:0:
448,64,204812,1,8,0:0:0:0:
448,64,204877,1,8,0:0:0:0:
448,64,204942,1,8,0:0:0:0:
64,64,205007,1,0,0:0:0:0:
64,64,205529,1,0,0:0:0:0:
448,64,205660,1,8,0:0:0:0:
64,64,205790,1,0,0:0:0:0:
448,64,206051,1,8,0:0:0:0:
64,64,206181,1,0,0:0:0:0:
448,64,206442,1,8,0:0:0:0:
64,64,206573,1,0,0:0:0:0:
448,64,206834,1,8,0:0:0:0:
64,64,206964,1,0,0:0:0:0:
64,64,207094,1,0,0:0:0:0:
64,64,207225,1,0,0:0:0:0:
448,64,207355,1,8,0:0:0:0:
64,64,207616,1,0,0:0:0:0:
64,64,207747,1,0,0:0:0:0:
448,64,207877,1,8,0:0:0:0:
64,64,208138,1,0,0:0:0:0:
448,64,208268,1,8,0:0:0:0:
64,64,208529,1,0,0:0:0:0:
448,64,208660,1,8,0:0:0:0:
64,64,208921,1,0,0:0:0:0:
64,64,209051,1,0,0:0:0:0:
448,64,209181,1,8,0:0:0:0:
448,64,209312,1,8,0:0:0:0:
448,64,209377,1,8,0:0:0:0:
448,64,209442,1,8,0:0:0:0:
448,64,209573,1,8,0:0:0:0:
64,64,209703,1,0,0:0:0:0:
448,64,209834,1,8,0:0:0:0:
64,64,209964,1,0,0:0:0:0:
448,64,210225,1,8,0:0:0:0:
64,64,210355,1,0,0:0:0:0:
448,64,210616,1,8,0:0:0:0:
64,64,210747,1,0,0:0:0:0:
448,64,211007,1,8,0:0:0:0:
448,64,211138,1,8,0:0:0:0:
64,64,211268,1,0,0:0:0:0:
64,64,211399,1,0,0:0:0:0:
448,64,211529,1,8,0:0:0:0:
64,64,211790,1,0,0:0:0:0:
64,64,211921,1,0,0:0:0:0:
448,64,212051,1,8,0:0:0:0:
64,64,212312,1,0,0:0:0:0:
448,64,212442,1,8,0:0:0:0:
64,64,212703,1,0,0:0:0:0:
448,64,212834,1,8,0:0:0:0:
64,64,213094,1,0,0:0:0:0:
64,64,213225,1,0,0:0:0:0:
448,64,213355,1,8,0:0:0:0:
448,64,213421,1,8,0:0:0:0:
448,64,213486,1,8,0:0:0:0:
448,64,213616,1,8,0:0:0:0:
448,64,213747,1,8,0:0:0:0:
448,64,213812,1,8,0:0:0:0:
64,64,213877,1,0,0:0:0:0:
448,64,214007,1,8,0:0:0:0:
64,64,214138,1,0,0:0:0:0:
448,64,214399,1,8,0:0:0:0:
64,64,214529,1,0,0:0:0:0:
448,64,214790,1,8,0:0:0:0:
64,64,214921,1,0,0:0:0:0:
448,64,215181,1,8,0:0:0:0:
64,64,215312,1,0,0:0:0:0:
64,64,215442,1,0,0:0:0:0:
64,64,215573,1,0,0:0:0:0:
448,64,215703,1,8,0:0:0:0:
64,64,215964,1,0,0:0:0:0:
64,64,216094,1,0,0:0:0:0:
448,64,216225,1,8,0:0:0:0:
64,64,216486,1,0,0:0:0:0:
448,64,216616,1,8,0:0:0:0:
64,64,216877,1,0,0:0:0:0:
448,64,217007,1,8,0:0:0:0:
64,64,217268,1,0,0:0:0:0:
64,64,217399,1,0,0:0:0:0:
448,64,217529,1,8,0:0:0:0:
448,64,217660,1,8,0:0:0:0:
448,64,217725,1,8,0:0:0:0:
64,64,217790,1,0,0:0:0:0:
448,64,217921,1,8,0:0:0:0:
64,64,218051,1,0,0:0:0:0:
448,64,218181,1,8,0:0:0:0:
64,64,218312,1,0,0:0:0:0:
448,64,218573,1,8,0:0:0:0:
64,64,218703,1,0,0:0:0:0:
448,64,218964,1,8,0:0:0:0:
64,64,219094,1,0,0:0:0:0:
448,64,219355,1,8,0:0:0:0:
448,64,219486,1,8,0:0:0:0:
64,64,219616,1,0,0:0:0:0:
64,64,219747,1,0,0:0:0:0:
448,64,219877,1,8,0:0:0:0:
64,320,220268,1,4,0:0:0:0:
448,64,220399,1,8,0:0:0:0:
64,320,220660,1,4,0:0:0:0:
448,64,220790,1,8,0:0:0:0:
64,320,221051,1,4,0:0:0:0:
448,64,221181,1,8,0:0:0:0:
64,64,221442,1,0,0:0:0:0:
64,64,221573,1,0,0:0:0:0:
448,64,221703,1,8,0:0:0:0:
448,64,221834,1,8,0:0:0:0:
448,64,221964,1,8,0:0:0:0:
448,64,222029,1,8,0:0:0:0:
448,64,222094,1,8,0:0:0:0:
448,64,222160,1,8,0:0:0:0:
64,64,222355,1,0,0:0:0:0:
448,64,222486,1,8,0:0:0:0:
64,64,222616,1,0,0:0:0:0:
448,64,222747,1,8,0:0:0:0:
448,64,222877,1,8,0:0:0:0:
64,64,223007,1,0,0:0:0:0:
448,320,223138,1,12,0:0:0:0:
256,192,223268,8,0,224312,0:0:0:0:
