osu file format v14

[General]
AudioFilename: audio.mp3
AudioLeadIn: 0
PreviewTime: 4446
Countdown: 0
SampleSet: Soft
StackLeniency: 0.7
Mode: 0
LetterboxInBreaks: 0
WidescreenStoryboard: 1

[Editor]
Bookmarks: 924,4560,11833,19105
DistanceSpacing: 1.5
BeatDivisor: 3
GridSize: 8
TimelineZoom: 1.1

[Metadata]
Title:Taiyou to Rainbow (TV Size)
TitleUnicode:太陽とレインボー (TV Size)
Artist:Kotokawa Akira (CV: Tomita Miyu)
ArtistUnicode:琴川晶 (CV: 富田美憂)
Creator:Tachibana_
Version:Hard
Source:One Room サードシーズン
Tags:oneroom 3rd Third Season 3 カントク kantoku ed ending j-rock jpop jrock anime rock pop j-pop japanese Shime
BeatmapID:3410951
BeatmapSetID:1670006

[Difficulty]
HPDrainRate:4.5
CircleSize:3.6
OverallDifficulty:6
ApproachRate:7
SliderMultiplier:1.2
SliderTickRate:1

[Events]
//Background and Video events
0,0,"bg.jpg",0,0
//Break Periods
//Storyboard Layer 0 (Background)
//Storyboard Layer 1 (Fail)
//Storyboard Layer 2 (Pass)
//Storyboard Layer 3 (Foreground)
//Storyboard Layer 4 (Overlay)
//Storyboard Sound Samples

[TimingPoints]
-2712,454.545454545455,4,2,27,42,1,0
4106,-100,4,2,27,5,0,0
4560,-98.0392156862745,4,2,27,42,0,0
8196,-98.0392156862745,4,2,27,42,0,0
9787,-98.0392156862745,4,2,27,42,0,0
11833,-98.0392156862745,4,2,27,52,0,0
15469,-89.2857142857143,4,2,27,52,0,0
15696,-89.2857142857143,4,2,27,28,0,0
15924,-89.2857142857143,4,2,27,52,0,0
16151,-89.2857142857143,4,2,27,38,0,0
16378,-89.2857142857143,4,2,27,52,0,0
16605,-89.2857142857143,4,2,27,48,0,0
16833,-89.2857142857143,4,2,27,58,0,0
19105,-89.2857142857143,4,2,27,68,0,0
28196,-89.2857142857143,4,2,27,68,0,0
28537,-89.2857142857143,4,2,27,5,0,0
28651,-89.2857142857143,4,2,27,68,0,0
28992,-89.2857142857143,4,2,27,5,0,0
29105,-89.2857142857143,4,2,27,68,0,0
30014,-89.2857142857143,4,2,27,68,0,0
32969,-89.2857142857143,4,2,27,68,0,0
33651,-121.951219512195,4,2,27,42,0,0
33765,-121.951219512195,4,2,27,5,0,0
35810,-121.951219512195,4,2,27,12,0,0

[Colours]
Combo1 : 128,128,192
Combo2 : 255,128,64
Combo3 : 0,128,192
Combo4 : 0,217,0

[HitObjects]
256,192,1151,12,0,4106,0:0:0:0:
141,118,4560,6,0,P|188:91|252:107,1,122.40000074707,6|0,0:0|3:2,0:0:0:0:
319,166,5242,1,2,0:0:0:0:
319,166,5469,2,0,L|303:239,1,61.2000003735352,2|2,0:0|0:0,0:0:0:0:
254,286,5924,1,2,3:2:0:0:
304,347,6151,6,0,L|436:318,1,122.40000074707,2|2,0:0|0:0,0:0:0:0:
505,183,7060,2,0,P|479:128|416:118,1,122.40000074707,2|2,0:0|0:0,0:0:0:0:
352,150,7742,1,0,3:2:0:0:
352,150,7969,1,2,0:0:0:0:
311,81,8197,6,0,L|324:21,2,61.2000003735352,2|0|0,0:0|0:0|3:2,0:0:0:0:
243,121,8878,1,2,0:0:0:0:
243,121,9106,2,0,L|256:180,1,61.2000003735352,2|2,0:0|0:0,0:0:0:0:
320,227,9560,1,2,3:2:0:0:
312,306,9788,6,0,B|384:311|362:263|432:271,2,122.40000074707,2|2|2,0:0|0:0|0:0,0:0:0:0:
169,377,11151,1,0,0:0:0:0:
120,314,11378,2,0,L|133:254,1,61.2000003735352,2|0,3:2|0:0,0:0:0:0:
208,229,11833,6,0,L|174:109,1,122.40000074707,6|2,1:2|3:2,0:0:0:0:
153,34,12515,2,0,B|227:19|203:67|288:52,1,122.40000074707,2|2,1:2|0:0,0:0:0:0:
420,0,13424,1,2,0:0:0:0:
475,56,13651,2,0,B|500:96|500:96|479:171,1,122.40000074707,2|2,1:2|3:2,0:0:0:0:
500,245,14333,2,0,P|452:208|394:219,1,122.40000074707,2|2,1:2|1:2,0:0:0:0:
340,284,15015,1,2,3:2:0:0:
287,222,15242,1,2,3:2:0:0:
287,222,15356,1,2,3:2:0:0:
287,222,15469,6,0,B|204:209|229:255|143:244,1,134.400001640625,6|10,1:2|1:2,0:0:0:0:
79,224,16151,2,0,L|65:158,1,67.2000008203125,10|8,0:0|1:2,0:0:0:0:
32,74,16605,1,10,0:0:0:0:
32,74,16833,1,10,1:2:0:0:
84,12,17060,5,6,1:2:0:0:
250,44,17515,1,10,0:0:0:0:
286,126,17742,2,0,L|351:142,1,67.2000008203125,10|10,0:0|1:3,0:0:0:0:
375,123,18083,1,4,1:3:0:0:
375,123,18197,2,0,L|414:112,2,33.6000004101563,2|8|10,1:2|1:2|1:2,0:0:0:0:
447,193,18651,2,0,L|479:202,3,33.6000004101563,10|8|4|4,0:0|1:3|1:3|1:3,0:0:0:0:
488,218,19106,6,0,B|513:297|513:297|489:349,1,134.400001640625,6|10,1:2|3:2,0:0:0:0:
397,380,19788,2,0,B|336:371|336:371|325:374|325:374|254:364,1,134.400001640625,2|2,1:2|1:2,0:0:0:0:
163,373,20469,1,8,0:0:0:0:
130,277,20697,2,0,P|112:224|164:168,1,134.400001640625,6|0,1:2|1:2,0:0:0:0:
233,101,21378,6,0,L|167:86,1,67.2000008203125,10|0,3:2|0:0,0:0:0:0:
112,0,21833,2,0,L|45:12,1,67.2000008203125,2|0,3:2|1:2,0:0:0:0:
4,106,22288,1,8,3:2:0:0:
4,106,22515,1,4,1:3:0:0:
88,160,22742,6,0,L|64:292,1,134.400001640625,6|10,1:2|3:2,0:0:0:0:
109,382,23424,2,0,B|186:374|150:326|223:320,1,134.400001640625,2|2,1:2|1:2,0:0:0:0:
317,354,24106,1,10,3:2:0:0:
403,301,24333,2,0,P|418:229|435:157,1,134.400001640625,6|0,1:2|1:2,0:0:0:0:
501,97,25015,1,8,0:0:0:0:
501,97,25242,1,2,0:0:0:0:
427,27,25469,2,0,P|397:10|364:11,1,67.2000008203125,2|2,1:2|1:2,0:0:0:0:
321,103,25924,2,0,P|291:119|258:119,1,67.2000008203125,10|10,3:2|1:3,0:0:0:0:
199,38,26378,6,0,P|215:103|228:169,1,134.400001640625,6|8,1:2|3:2,0:0:0:0:
303,236,27060,1,2,1:2:0:0:
273,332,27288,2,0,L|206:344,1,67.2000008203125,2|2,3:2|1:2,0:0:0:0:
189,368,27628,1,2,0:0:0:0:
189,368,27742,1,10,3:2:0:0:
109,304,27969,1,2,3:2:0:0:
27,362,28197,6,0,P|17:310|6:255,1,100.800001230469,6|0,1:2|0:0,0:0:0:0:
17,243,28651,2,0,P|55:206|105:216,1,100.800001230469,14|0,3:2|0:0,0:0:0:0:
120,214,29106,2,0,B|206:238|178:178|259:192,1,134.400001640625,6|14,1:2|3:2,0:0:0:0:
341,237,29788,1,0,0:0:0:0:
341,237,30015,6,0,L|353:170,1,67.2000008203125,0|6,1:2|0:3,0:0:0:0:
425,100,30469,1,10,3:2:0:0:
363,20,30697,2,0,P|300:3|255:49,1,134.400001640625,6|2,1:2|1:2,0:0:0:0:
238,147,31378,1,8,3:2:0:0:
144,110,31606,6,0,P|160:175|173:241,1,134.400001640625,6|4,1:2|0:3,0:0:0:0:
178,342,32288,2,0,P|211:342|239:324,1,67.2000008203125,10|0,3:2|1:2,0:0:0:0:
285,235,32742,1,6,1:2:0:0:
285,235,32969,1,0,1:2:0:0:
364,296,33197,2,0,L|376:229,1,67.2000008203125,14|0,3:2|0:0,0:0:0:0:
419,162,33651,6,0,B|347:123|355:184|279:147|279:147|323:93|349:-31|163:-29|136:23|175:111|243:81,1,467.400007131958,2|2,0:0|0:0,0:0:0:0:
