osu file format v14

[General]
AudioFilename: audio.mp3
AudioLeadIn: 0
PreviewTime: 148660
Countdown: 0
SampleSet: Soft
StackLeniency: 0.4
Mode: 0
LetterboxInBreaks: 0
WidescreenStoryboard: 1

[Editor]
Bookmarks: 42374,49232,56089,62946,69803,76660,86946
DistanceSpacing: 0.4
BeatDivisor: 8
GridSize: 16
TimelineZoom: 1.9

[Metadata]
Title:Zecchou Sanka
TitleUnicode:絶頂讃歌
Artist:Kotoha
ArtistUnicode:Kotoha
Creator:achyoo
Version:Collab Expert
Source:
Tags:cjstmdals Shirahane Suou Mocaotic Kazuma -Agua Erisu KoldNoodl midorijeon Aurorance Agllius ayucchi hakoniwalily ハコニワリリィ hakolili ハコリリ japanese pop jpop cover wanuka 和ぬか orgasm anthem
BeatmapID:3973991
BeatmapSetID:1862243

[Difficulty]
HPDrainRate:5.5
CircleSize:4
OverallDifficulty:8.5
ApproachRate:9.2
SliderMultiplier:1.8
SliderTickRate:1

[Events]
//Background and Video events
0,0,"zecchousanka.jpg",0,0
//Break Periods
2,114574,120661
//Storyboard Layer 0 (Background)
//Storyboard Layer 1 (Fail)
//Storyboard Layer 2 (Pass)
//Storyboard Layer 3 (Foreground)
//Storyboard Layer 4 (Overlay)
//Storyboard Sound Samples

[TimingPoints]
214,428.571428571429,4,2,1,40,1,0
1232,428.571428571429,4,2,1,75,1,0
1232,-66.6666666666667,4,2,1,75,0,0
14089,-100,4,2,1,75,0,0
14303,-66.6666666666667,4,2,1,75,0,0
14517,-50,4,2,1,75,0,0
14732,-40,4,2,1,75,0,0
14946,-100,4,2,1,65,0,0
26732,-66.6666666666667,4,2,1,65,0,0
28232,-166.666666666667,4,2,1,65,0,0
28660,-80,4,2,1,70,0,0
41517,-133.333333333333,4,2,1,70,0,0
42320,-133.333333333333,4,2,1,5,0,0
42374,-50,4,2,1,80,0,1
43392,-50,4,2,1,5,0,1
43446,-50,4,2,1,80,0,1
47677,-50,4,2,1,5,0,1
47732,-50,4,2,1,80,0,1
48106,-50,4,2,1,5,0,1
48160,-50,4,2,1,80,0,1
55232,-66.6666666666667,4,2,1,80,0,1
55660,-100,4,2,1,80,0,0
56089,-58.8235294117647,4,2,1,75,0,0
68946,-100,4,2,1,75,0,0
69160,-66.6666666666667,4,2,1,75,0,0
69374,-50,4,2,1,75,0,0
69589,-40,4,2,1,75,0,0
69803,-90.9090909090909,4,2,1,65,0,0
74946,-66.6666666666667,4,2,1,65,0,0
75374,-62.5,4,2,1,65,0,0
75803,-58.8235294117647,4,2,1,65,0,0
76660,-100,4,2,1,65,0,0
85017,-66.6666666666667,4,2,1,65,0,0
86517,-133.333333333333,4,2,1,65,0,0
86946,428.571428571429,4,2,1,50,1,0
87374,-100,4,2,1,70,0,0
87803,-80,4,2,1,70,0,0
88231,-66.6666666666667,4,2,1,70,0,0
90803,-80,4,2,1,70,0,0
91660,-133.333333333333,4,2,1,70,0,0
92088,-80,4,2,1,70,0,0
92731,-133.333333333333,4,2,1,70,0,0
92946,-80,4,2,1,70,0,0
93803,-66.6666666666667,4,2,1,70,0,0
94231,-80,4,2,1,70,0,0
94660,-66.6666666666667,4,2,1,70,0,0
95088,-80,4,2,1,70,0,0
95946,-66.6666666666667,4,2,1,70,0,0
96803,-80,4,2,1,70,0,0
98088,-66.6666666666667,4,2,1,70,0,0
98946,-200,4,2,1,70,0,0
99803,-80,4,2,1,70,0,0
100660,-57.1428571428571,4,2,1,80,0,1
104517,-66.6666666666667,4,2,1,80,0,1
106017,-57.1428571428571,4,2,1,80,0,1
112874,-52.6315789473684,4,2,1,80,0,1
113517,-200,4,2,1,80,0,1
114374,-200,4,2,1,60,0,0
121231,-62.5,4,2,1,65,0,0
129803,428.571428571429,4,2,1,75,1,0
129803,-50,4,2,1,75,0,0
130231,-57.1428571428571,4,2,1,75,0,0
141588,-50,4,2,1,75,0,0
142017,-71.4285714285714,4,2,1,75,0,0
142445,-62.5,4,2,1,75,0,0
143517,-62.5,4,2,1,65,0,0
144803,-250,4,2,1,65,0,0
149517,-62.5,4,2,1,65,0,0
150374,-50,4,2,1,80,0,1
150803,-57.1428571428571,4,2,1,80,0,1
151231,-50,4,2,1,80,0,1
152088,-57.1428571428571,4,2,1,80,0,1
154231,-66.6666666666667,4,2,1,80,0,1
157231,-57.1428571428571,4,2,1,80,0,1
158731,-66.6666666666667,4,2,1,80,0,1
158945,-57.1428571428571,4,2,1,80,0,1
162695,-50,4,2,1,80,0,1
163017,-57.1428571428571,4,2,1,80,0,1
163660,-75.187969924812,4,2,1,80,0,0
164088,-50,4,2,1,80,0,1
164517,-57.1428571428571,4,2,1,80,0,1
167945,-66.6666666666667,4,2,1,80,0,1
169445,-57.1428571428571,4,2,1,80,0,1
170945,-100,4,2,1,80,0,1
174160,-80,4,2,1,80,0,1
176303,-50,4,2,1,80,0,1
176945,-66.6666666666667,4,2,1,80,0,0

[Colours]
Combo1 : 251,145,145
Combo2 : 152,182,252

[HitObjects]
297,267,1232,6,0,P|253:277|180:307,1,101.25,6|0,3:1|0:0,0:0:0:0:
182,297,1446,2,0,P|156:270|156:235,1,67.5,10|0,2:2|0:0,0:0:0:0:
232,74,1660,6,0,P|264:83|297:88,1,67.5,10|0,1:2|0:0,0:0:0:0:
211,163,1874,2,0,P|244:168|276:177,1,67.5,2|0,2:2|0:0,0:0:0:0:
405,102,2089,6,0,P|369:157|375:223,1,135,10|2,3:2|2:2,0:0:0:0:
512,279,2410,1,8,2:2:0:0:
512,279,2517,2,0,P|478:275|447:288,1,67.5,2|0,1:2|0:0,0:0:0:0:
277,177,2732,2,0,P|257:204|252:237,1,67.5,10|0,2:2|0:0,0:0:0:0:
340,353,2946,6,0,P|354:287|376:223,1,135,2|8,3:2|2:2,0:0:0:0:
500,178,3267,1,2,2:2:0:0:
500,178,3374,2,0,P|468:167|435:159,1,67.5,8|0,1:2|0:0,0:0:0:0:
365,0,3589,2,0,P|396:10|429:18,1,67.5,2|0,2:2|0:0,0:0:0:0:
313,94,3803,6,0,P|267:83|198:149,1,135,8|0,3:2|0:0,0:0:0:0:
162,0,4124,2,0,P|121:24|119:120,1,135,8|0,2:2|0:0,0:0:0:0:
261,241,4446,2,0,P|281:207|277:166,1,67.5,10|2,2:2|2:2,0:0:0:0:
89,199,4660,6,0,P|133:204|161:267,1,101.25,2|0,3:2|0:0,0:0:0:0:
171,261,4874,2,0,P|160:292|135:314,1,67.5,10|0,2:2|0:0,0:0:0:0:
0,180,5089,6,0,P|9:147|15:114,1,67.5,10|0,1:2|0:0,0:0:0:0:
89,199,5303,2,0,P|95:165|104:133,1,67.5,2|0,2:2|0:0,0:0:0:0:
193,0,5517,6,0,P|243:40|235:105,1,135,10|2,3:2|2:2,0:0:0:0:
348,224,5839,1,8,2:2:0:0:
348,224,5946,2,0,P|325:192|330:145,1,67.5,2|0,1:2|0:0,0:0:0:0:
435,122,6160,2,0,P|456:149|460:182,1,67.5,10|0,2:2|0:0,0:0:0:0:
353,344,6374,6,0,P|287:329|220:320,1,135,2|8,3:2|2:2,0:0:0:0:
66,292,6696,1,2,2:2:0:0:
66,292,6803,2,0,P|98:284|132:280,1,67.5,8|0,1:2|0:0,0:0:0:0:
193,146,7017,2,0,P|200:178|204:212,1,67.5,2|0,2:2|0:0,0:0:0:0:
357,309,7232,5,8,3:2:0:0:
341,289,7339,1,0,0:0:0:0:
318,279,7446,1,2,2:2:0:0:
293,281,7553,1,8,2:2:0:0:
273,296,7660,5,0,1:1:0:0:
351,341,7767,1,0,1:1:0:0:
432,299,7874,1,10,1:2:0:0:
430,209,7982,1,2,1:2:0:0:
356,159,8089,6,0,P|307:146|256:140,1,101.25,6|0,3:1|0:0,0:0:0:0:
245,129,8303,2,0,P|202:125|160:152,1,67.5,10|0,2:2|0:0,0:0:0:0:
13,206,8517,6,0,P|20:238|21:272,1,67.5,10|0,1:2|0:0,0:0:0:0:
111,258,8732,2,0,P|103:225|103:192,1,67.5,2|0,2:2|0:0,0:0:0:0:
13,364,8946,6,0,P|79:348|147:346,1,135,10|2,3:2|2:2,0:0:0:0:
228,236,9267,1,8,2:2:0:0:
228,236,9374,2,0,P|235:268|236:302,1,67.5,2|0,1:2|0:0,0:0:0:0:
342,384,9589,2,0,P|334:351|333:317,1,67.5,10|0,2:2|0:0,0:0:0:0:
484,189,9803,6,0,P|444:242|370:236,1,135,2|8,3:2|2:2,0:0:0:0:
327,93,10124,1,2,2:2:0:0:
327,93,10232,2,0,P|358:105|391:112,1,67.5,8|0,1:2|0:0,0:0:0:0:
292,218,10446,2,0,P|258:224|227:236,1,67.5,2|0,2:2|0:0,0:0:0:0:
50,187,10660,6,0,P|56:147|130:92,1,135,8|0,3:2|0:0,0:0:0:0:
157,305,10982,2,0,P|132:272|146:181,1,135,8|0,2:2|0:0,0:0:0:0:
189,25,11303,2,0,P|213:57|214:98,1,67.5,10|2,2:2|2:2,0:0:0:0:
294,262,11517,6,0,P|341:270|398:209,1,135,2|8,3:2|2:2,0:0:0:0:
415,0,11839,1,0,0:0:0:0:
415,0,11946,2,0,P|433:64|446:131,1,135,10|0,1:2|0:0,0:0:0:0:
432,315,12267,1,0,0:0:0:0:
508,279,12374,6,0,P|520:239|500:208,1,67.5,10|0,3:2|0:0,0:0:0:0:
351,100,12589,1,10,2:3:0:0:
351,100,12696,1,8,2:2:0:0:
351,100,12803,1,6,2:3:0:0:
118,368,13017,6,0,B|197:344|197:344|222:283|222:283|322:256,1,236.25,6|0,1:2|0:0,0:0:0:0:
322,269,13446,1,6,1:3:0:0:
147,189,13660,1,6,1:3:0:0:
351,100,13874,1,6,1:3:0:0:
128,312,14089,6,0,B|121:331|121:331|134:353,1,45,6|0,1:3|0:0,0:0:0:0:
219,351,14303,6,0,B|232:319|232:319|212:292,1,67.5,6|0,1:3|0:0,0:0:0:0:
40,296,14517,6,0,B|20:335|20:335|46:374,1,90,6|0,1:3|0:0,0:0:0:0:
309,357,14732,6,0,B|333:308|333:308|301:260,1,112.5,6|0,1:3|0:0,0:0:0:0:
161,89,14946,6,0,P|150:119|175:179,1,90,6|0,3:1|0:0,0:0:0:0:
233,127,15267,1,2,2:2:0:0:
157,335,15589,1,2,2:2:0:0:
157,335,15803,2,0,P|168:305|143:245,1,90,2|0,3:2|0:0,0:0:0:0:
84,301,16124,1,2,2:2:0:0:
329,360,16446,1,2,2:2:0:0:
329,360,16660,6,0,P|367:314|355:276,1,90,2|2,3:2|2:2,0:0:0:0:
444,272,16982,1,0,0:0:0:0:
444,272,17089,2,0,P|423:216|384:207,1,90,2|2,3:2|2:2,0:0:0:0:
273,10,17517,2,0,P|235:55|247:93,1,90,0|2,3:3|2:2,0:0:0:0:
158,96,17839,1,0,0:0:0:0:
158,96,17946,2,0,P|178:151|217:160,1,90,2|2,3:2|2:2,0:0:0:0:
320,300,18374,5,2,3:2:0:0:
320,300,18482,2,0,L|370:286,1,45,0|2,0:0|2:2,0:0:0:0:
406,220,18696,2,0,L|456:206,1,45,0|2,0:0|3:2,0:0:0:0:
248,366,19017,1,2,2:2:0:0:
248,366,19232,2,0,P|227:346|160:349,1,90,2|2,3:2|2:2,0:0:0:0:
144,269,19553,1,0,0:0:0:0:
144,269,19660,2,0,P|117:276|85:336,1,90,2|2,3:2|2:2,0:0:0:0:
272,258,20089,6,0,P|278:229|242:173,1,90,2|0,3:2|0:0,0:0:0:0:
308,112,20410,1,0,0:0:0:0:
308,112,20517,2,0,P|286:92|219:95,1,90,2|0,3:2|0:0,0:0:0:0:
50,7,20946,5,2,3:2:0:0:
115,130,21160,1,2,2:2:0:0:
115,130,21267,1,0,0:0:0:0:
115,130,21374,2,0,L|133:66,1,45,2|0,3:2|0:0,0:0:0:0:
25,181,21589,2,0,L|43:245,1,45,2|0,2:2|0:0,0:0:0:0:
127,314,21803,6,0,P|156:317|209:274,1,90,6|0,3:1|0:0,0:0:0:0:
141,234,22124,1,2,2:2:0:0:
370,377,22446,1,2,2:2:0:0:
370,377,22660,2,0,P|341:380|288:337,1,90,2|0,3:2|0:0,0:0:0:0:
356,297,22982,1,2,2:2:0:0:
173,78,23303,1,2,2:2:0:0:
173,78,23517,6,0,P|127:91|87:133,1,90,2|2,3:2|2:2,0:0:0:0:
16,93,23839,1,0,0:0:0:0:
16,93,23946,2,0,P|-1:69|9:2,1,90,2|2,3:2|2:2,0:0:0:0:
180,181,24374,2,0,P|225:194|266:236,1,90,0|2,3:3|2:2,0:0:0:0:
341,191,24696,1,0,0:0:0:0:
341,191,24803,2,0,P|358:167|347:99,1,90,2|2,3:2|2:2,0:0:0:0:
109,37,25232,6,0,P|91:60|102:128,1,90,0|2,3:3|2:2,0:0:0:0:
180,181,25553,1,0,0:0:0:0:
180,181,25660,2,0,P|188:224|167:262,1,90,2|2,3:2|2:2,0:0:0:0:
18,372,26089,1,2,3:2:0:0:
63,224,26303,1,0,0:0:0:0:
63,224,26410,1,0,0:0:0:0:
63,224,26517,1,2,3:2:0:0:
235,341,26732,6,0,B|322:396|382:303|382:303|314:246,1,236.25,2|0,1:2|0:0,0:0:0:0:
319,255,27160,1,4,1:3:0:0:
474,44,27374,6,0,P|444:91|448:154,1,101.25,6|0,1:3|0:0,0:0:0:0:
440,151,27589,2,0,P|480:163|522:146,1,67.5,4|0,1:3|0:0,0:0:0:0:
351,0,27803,2,0,P|301:3|259:31,1,101.25,6|0,1:3|0:0,0:0:0:0:
244,32,28017,5,0,3:3:0:0:
323,92,28124,1,0,0:0:0:0:
266,165,28232,2,0,P|210:184|180:206,1,94.4999999999998,6|0,1:3|0:0,0:0:0:0:
177,218,28660,6,0,P|146:200|134:174,1,56.25,6|0,3:1|0:0,0:0:0:0:
52,167,28874,2,0,P|52:131|68:107,1,56.25,8|0,2:2|0:0,0:0:0:0:
40,27,29089,2,0,P|95:16|149:0,1,112.5,10|0,1:2|0:0,0:0:0:0:
215,72,29410,1,0,1:1:0:0:
306,16,29517,5,10,3:2:0:0:
306,16,29624,2,0,P|311:71|327:125,1,112.5,0|8,0:0|2:2,0:0:0:0:
279,277,29946,1,2,1:2:0:0:
279,277,30053,1,0,0:0:0:0:
279,277,30160,2,0,P|253:288|225:286,1,56.25,8|0,2:2|0:0,0:0:0:0:
93,180,30374,6,0,P|129:180|153:196,1,56.25,2|0,3:2|0:0,0:0:0:0:
216,137,30589,2,0,P|233:168|232:196,1,56.25,8|0,2:2|0:0,0:0:0:0:
332,212,30803,2,0,P|386:217|450:127,1,168.75,10|0,1:2|0:0,0:0:0:0:
427,14,31232,5,10,3:2:0:0:
417,52,31339,1,0,1:1:0:0:
342,85,31446,5,0,0:0:0:0:
352,123,31553,1,8,2:2:0:0:
410,208,31660,5,2,1:2:0:0:
256,137,31874,1,10,2:2:0:0:
199,334,32089,5,2,3:2:0:0:
199,334,32196,2,0,P|183:312|177:278,1,56.25,0|8,0:0|2:2,0:0:0:0:
58,186,32410,2,0,P|85:183|117:194,1,56.25,0|10,0:0|1:2,0:0:0:0:
256,137,32732,2,0,P|245:161|219:184,1,56.25,2|0,2:2|1:1,0:0:0:0:
139,66,32946,5,10,3:2:0:0:
139,66,33053,2,0,P|145:93|162:115,1,56.25,0|0,1:1|0:0,0:0:0:0:
266,0,33267,2,0,P|245:19|233:44,1,56.25,8|2,2:2|1:2,0:0:0:0:
333,75,33589,1,10,1:2:0:0:
29,199,33803,6,0,P|54:221|96:224,1,56.25,2|0,3:2|1:1,0:0:0:0:
95,319,34017,2,0,P|126:308|150:273,1,56.25,10|2,2:2|2:2,0:0:0:0:
165,203,34232,1,10,1:2:0:0:
230,323,34446,1,2,1:2:0:0:
230,323,34553,1,0,1:1:0:0:
230,323,34660,6,0,P|236:290|218:252,1,56.25,10|0,3:2|0:0,0:0:0:0:
230,136,34874,1,2,1:2:0:0:
165,203,34982,1,8,1:2:0:0:
300,205,35089,2,0,P|331:194|355:159,1,56.25,2|0,1:2|1:1,0:0:0:0:
455,30,35303,2,0,P|424:24|379:61,1,84.375,8|0,2:3|0:0,0:0:0:0:
375,56,35517,6,0,P|389:79|399:106,1,56.25,6|0,3:1|0:0,0:0:0:0:
499,128,35732,2,0,P|484:151|474:178,1,56.25,8|0,2:2|0:0,0:0:0:0:
452,272,35946,2,0,P|397:272|360:312,1,112.5,10|0,1:2|0:0,0:0:0:0:
270,289,36267,1,0,0:0:0:0:
176,355,36374,5,10,3:2:0:0:
176,355,36482,2,0,P|154:303|158:248,1,112.5,0|8,0:0|2:2,0:0:0:0:
224,176,36803,1,2,1:2:0:0:
224,176,36910,1,0,0:0:0:0:
224,176,37017,2,0,P|239:148|241:113,1,56.25,8|0,2:2|0:0,0:0:0:0:
144,40,37232,6,0,P|112:41|80:56,1,56.25,2|0,3:2|0:0,0:0:0:0:
18,0,37446,2,0,P|3:28|1:63,1,56.25,8|0,2:2|0:0,0:0:0:0:
18,158,37660,2,0,P|64:140|144:215,1,168.75,10|0,1:2|1:1,0:0:0:0:
64,271,38089,5,10,3:2:0:0:
76,307,38196,1,0,1:1:0:0:
147,348,38303,5,0,0:0:0:0:
135,384,38410,1,8,2:2:0:0:
200,284,38517,5,2,1:2:0:0:
359,137,38732,2,0,P|361:109|349:84,1,56.25,10|0,1:2|1:1,0:0:0:0:
222,0,38946,5,6,3:2:0:0:
222,0,39053,2,0,P|213:27|208:55,1,56.25,0|8,0:0|2:2,0:0:0:0:
144,212,39267,2,0,P|126:191|105:173,1,56.25,2|8,2:2|1:2,0:0:0:0:
0,39,39589,2,0,P|28:35|55:26,1,56.25,2|0,2:2|0:0,0:0:0:0:
252,170,39803,5,10,1:2:0:0:
252,170,39910,2,0,P|279:161|307:156,1,56.25,2|0,1:2|0:0,0:0:0:0:
394,24,40124,2,0,P|422:30|455:116,1,112.5,10|0,2:3|0:0,0:0:0:0:
415,284,40446,5,6,2:3:0:0:
360,232,40553,1,4,2:3:0:0:
399,164,40660,1,2,3:2:0:0:
399,164,41517,6,0,B|471:194|469:283|418:328|355:318|343:266|353:242,1,253.125000000001,2|0,2:2|0:0,0:0:0:0:
311,173,42374,6,0,P|214:190|173:265,1,180,6|10,3:1|2:2,0:0:0:0:
190,346,42696,1,0,0:0:0:0:
286,345,42803,2,0,P|273:301|265:257,1,90,10|0,1:2|0:0,0:0:0:0:
180,166,43017,5,2,2:2:0:0:
96,144,43124,1,0,0:0:0:0:
43,211,43232,2,0,P|59:279|74:355,1,135,10|0,3:2|0:0,0:0:0:0:
85,345,43446,2,0,P|75:303|62:247,1,90,2|8,2:2|2:2,0:0:0:0:
200,253,43660,2,0,P|190:211|177:155,1,90,2|0,1:2|0:0,0:0:0:0:
346,66,43874,5,10,2:2:0:0:
422,90,43982,1,0,0:0:0:0:
424,169,44089,2,0,B|392:225|337:240|337:240|307:215|251:209,1,180,2|8,3:2|2:2,0:0:0:0:
193,166,44410,2,0,P|71:188|-3:206,1,180,2|0,2:2|0:0,0:0:0:0:
172,47,44732,2,0,P|221:60|271:78,1,90,2|0,2:2|0:0,0:0:0:0:
130,129,44946,5,8,3:2:0:0:
62,9,45053,2,0,P|40:51|46:107,1,90
84,273,45267,2,0,P|115:199|217:151,1,180,8|0,2:2|0:0,0:0:0:0:
217,335,45589,2,0,P|215:295|181:250,1,90,10|2,2:2|2:2,0:0:0:0:
334,171,45803,5,0,3:3:0:0:
407,148,45910,1,0,0:0:0:0:
466,195,46017,1,8,2:2:0:0:
464,272,46124,1,0,0:0:0:0:
400,312,46232,2,0,B|344:322|318:362|318:362|287:348|250:351,1,135,10|0,1:2|0:0,0:0:0:0:
248,365,46446,2,0,P|237:325|213:272,1,90,2|2,2:2|2:2,0:0:0:0:
176,134,46660,5,8,3:2:0:0:
196,61,46767,1,0,0:0:0:0:
270,32,46874,1,0,0:0:0:0:
343,65,46982,1,8,2:2:0:0:
368,141,47089,2,0,B|389:190|358:240|336:206|305:257|322:325,1,180,2|10,1:2|2:2,0:0:0:0:
334,383,47410,1,2,2:2:0:0:
154,337,47517,6,0,P|144:269|118:197,1,135,0|0,3:3|0:0,0:0:0:0:
44,221,47732,2,0,P|47:270|59:317,1,90,8|0,2:2|0:0,0:0:0:0:
258,257,47946,6,0,P|268:190|294:119,1,135,8|0,1:2|0:0,0:0:0:0:
368,141,48160,2,0,P|364:187|353:237,1,90
429,350,48374,5,10,1:2:0:0:
481,290,48482,1,0,1:1:0:0:
458,212,48589,1,0,1:1:0:0:
255,242,48803,5,0,1:1:0:0:
203,182,48910,1,0,1:1:0:0:
225,106,49017,1,8,1:2:0:0:
468,15,49232,6,0,P|443:72|327:73,1,180,6|10,3:1|2:2,0:0:0:0:
266,20,49553,1,0,0:0:0:0:
234,160,49660,2,0,P|191:172|151:191,1,90,10|0,1:2|0:0,0:0:0:0:
17,90,49874,5,2,2:2:0:0:
75,142,49982,1,0,0:0:0:0:
27,205,50089,2,0,P|9:259|18:345,1,135,10|0,3:2|0:0,0:0:0:0:
24,349,50303,2,0,P|70:357|115:379,1,90,2|8,2:2|2:2,0:0:0:0:
255,325,50517,2,0,P|208:316|164:295,1,90,2|0,1:2|0:0,0:0:0:0:
134,181,50732,5,10,2:2:0:0:
105,110,50839,1,0,0:0:0:0:
174,76,50946,2,0,B|222:60|257:98|249:108|293:154|346:126,1,180,2|8,3:2|2:2,0:0:0:0:
370,223,51267,2,0,P|434:165|420:80,1,180,2|0,2:2|0:0,0:0:0:0:
278,233,51589,2,0,P|292:275|303:319,1,90,2|0,2:2|0:0,0:0:0:0:
464,384,51803,6,0,P|484:296|512:211,1,180,8|0,3:2|0:0,0:0:0:0:
411,96,52124,1,8,2:2:0:0:
335,130,52232,2,0,P|290:122|247:109,1,90,2|0,1:2|0:0,0:0:0:0:
111,40,52446,1,10,2:2:0:0:
65,104,52553,1,2,2:2:0:0:
117,161,52660,6,0,B|150:206|134:272|134:272|77:272|55:319,1,180,0|8,3:3|2:2,0:0:0:0:
132,355,52982,1,0,0:0:0:0:
224,256,53089,2,0,P|280:239|335:253,1,90,10|0,1:2|0:0,0:0:0:0:
403,352,53303,2,0,P|347:335|292:349,1,90,0|2,0:0|2:2,0:0:0:0:
350,158,53517,5,8,3:2:0:0:
350,158,53732,2,0,P|318:142|278:135,2,60,0|0|0,1:1|1:1|1:1,0:0:0:0:
447,41,53946,5,2,1:2:0:0:
492,107,54053,1,0,1:1:0:0:
466,139,54160,1,10,2:3:0:0:
477,166,54267,1,2,2:2:0:0:
469,177,54374,1,2,1:2:0:0:
469,177,54589,6,0,B|406:182|357:206|357:206|382:184|400:144,1,180,6|0,3:1|0:0,0:0:0:0:
462,339,54910,2,0,B|399:334|350:310|350:310|375:332|393:372,1,180,6|0,3:2|0:0,0:0:0:0:
207,188,55232,6,0,B|220:228|266:257|266:257|226:307|229:364,1,202.5,6|0,3:1|0:0,0:0:0:0:
94,368,55660,6,0,P|111:353|132:346,1,45,2|2,2:2|2:2,0:0:0:0:
83,227,55874,2,0,P|107:245|138:251,1,45,2|2,2:2|2:2,0:0:0:0:
256,112,56089,6,0,P|168:109|117:168,1,153,4|8,3:1|2:2,0:0:0:0:
83,227,56410,1,0,0:0:0:0:
207,188,56517,2,0,P|240:194|282:211,1,76.5,8|0,1:2|0:0,0:0:0:0:
435,94,56732,5,0,0:0:0:0:
364,132,56839,1,0,0:0:0:0:
370,212,56946,2,0,P|381:294|406:370,1,153,8|0,3:2|0:0,0:0:0:0:
480,305,57267,2,0,P|491:222|516:146,1,153,8|0,2:2|0:0,0:0:0:0:
421,19,57589,2,0,P|433:58|440:101,1,76.5,10|0,2:2|0:0,0:0:0:0:
370,212,57803,6,0,B|321:215|283:185|315:178|280:146|232:142,1,153,2|10,3:2|2:2,0:0:0:0:
117,104,58124,1,2,2:2:0:0:
56,157,58232,2,0,P|35:191|33:229,1,76.5,8|0,1:2|0:0,0:0:0:0:
159,354,58446,1,2,2:2:0:0:
231,323,58553,1,0,0:0:0:0:
229,245,58660,6,0,P|192:191|111:220,1,153,8|0,3:2|0:0,0:0:0:0:
231,323,58982,2,0,P|311:320|386:303,1,153,8|2,2:2|2:2,0:0:0:0:
159,354,59303,2,0,P|116:349|74:337,1,76.5,10|0,1:2|1:1,0:0:0:0:
7,231,59517,5,2,3:2:0:0:
29,160,59624,1,0,0:0:0:0:
92,118,59732,1,10,2:2:0:0:
167,108,59839,2,0,B|218:101|253:138|253:138|285:129|328:114,1,153,2|0,2:2|0:0,0:0:0:0:
425,45,60160,2,0,P|429:84|439:131,1,76.5,2|0,2:2|0:0,0:0:0:0:
292,272,60374,2,0,P|305:197|307:111,1,153,10|2,3:2|2:2,0:0:0:0:
277,46,60696,1,10,2:2:0:0:
439,153,61017,6,0,P|435:192|425:239,1,76.5,10|0,2:2|0:0,0:0:0:0:
484,315,61232,2,0,B|375:293|296:381|296:381|268:335|196:337,1,306,2|8,3:2|1:2,0:0:0:0:
214,337,61874,2,0,P|157:344|125:360,1,76.5,2|0,2:2|0:0,0:0:0:0:
36,249,62089,5,8,1:2:0:0:
40,200,62196,1,8,2:3:0:0:
79,172,62303,1,2,2:2:0:0:
115,171,62410,1,8,2:3:0:0:
142,191,62517,2,0,P|135:123|66:65,1,153,2|6,3:2|2:3,0:0:0:0:
139,351,62946,6,0,P|175:338|293:361,1,153,6|8,3:1|2:2,0:0:0:0:
352,313,63267,1,2,2:2:0:0:
445,378,63374,2,0,P|467:345|467:296,1,76.5,8|0,1:2|0:0,0:0:0:0:
512,212,63589,2,0,P|494:176|451:151,1,76.5,2|0,2:2|0:0,0:0:0:0:
349,39,63803,6,0,B|337:64|313:86|313:86|342:124|359:177,1,153,10|0,3:2|0:0,0:0:0:0:
409,229,64124,1,10,2:2:0:0:
292,213,64232,2,0,P|258:228|220:237,1,76.5,0|0,1:1|0:0,0:0:0:0:
162,341,64446,2,0,P|135:313|104:290,1,76.5,10|0,2:2|0:0,0:0:0:0:
0,196,64660,6,0,P|34:180|72:171,1,76.5,2|2,3:2|2:2,0:0:0:0:
141,73,64874,1,10,2:2:0:0:
199,124,64982,2,0,P|236:133|271:148,1,76.5,2|8,2:2|1:2,0:0:0:0:
329,67,65196,1,0,0:0:0:0:
329,67,65303,2,0,P|366:57|401:42,1,76.5,2|2,2:2|2:2,0:0:0:0:
498,130,65517,1,8,3:2:0:0:
339,314,65839,5,8,2:2:0:0:
395,368,65946,1,2,1:2:0:0:
424,297,66053,1,2,2:2:0:0:
369,241,66160,2,0,P|329:234|294:219,1,76.5,10|0,1:2|1:1,0:0:0:0:
213,342,66374,6,0,P|149:337|58:392,1,153,6|8,3:1|2:2,0:0:0:0:
0,314,66696,2,0,P|0:238|41:174,1,153
102,32,67017,2,0,P|109:69|123:105,1,76.5
195,219,67232,5,10,3:2:0:0:
273,46,67446,1,2,2:2:0:0:
273,46,67553,1,8,2:3:0:0:
273,46,67660,1,2,3:2:0:0:
452,217,67874,6,0,B|398:261|398:261|314:155|404:68,1,267.75,6|0,1:1|0:0,0:0:0:0:
405,81,68303,1,6,1:3:0:0:
494,319,68517,1,6,1:3:0:0:
248,225,68732,1,6,1:3:0:0:
496,130,68946,6,0,L|481:185,1,45,6|0,1:3|0:0,0:0:0:0:
285,132,69160,6,0,L|302:66,1,67.5,6|0,1:3|0:0,0:0:0:0:
405,81,69374,6,0,L|381:167,1,90,6|0,1:3|0:0,0:0:0:0:
178,126,69589,6,0,L|207:17,1,112.5,6|0,1:3|0:0,0:0:0:0:
248,225,69803,6,0,L|219:328,1,99,6|0,3:1|0:0,0:0:0:0:
153,361,70124,1,2,2:2:0:0:
135,372,70232,2,0,P|91:356|64:305,1,99,0|2,3:3|2:2,0:0:0:0:
248,225,70660,2,0,P|291:240|315:290,1,99,2|0,3:2|0:0,0:0:0:0:
348,356,70982,1,2,2:2:0:0:
365,371,71089,2,0,L|467:356,1,99,0|2,3:3|2:2,0:0:0:0:
394,84,71517,6,0,L|492:106,1,99,2|2,3:2|2:2,0:0:0:0:
366,169,71839,2,0,L|315:158,1,49.5,0|2,0:0|3:2,0:0:0:0:
178,126,72160,1,2,2:2:0:0:
38,322,72374,2,0,P|107:326|154:268,1,148.5,0|0,3:3|0:0,0:0:0:0:
120,186,72803,2,0,P|97:142|106:82,1,99,2|2,3:2|2:2,0:0:0:0:
318,36,73232,6,0,L|330:98,1,49.5,2|0,3:2|0:0,0:0:0:0:
351,194,73446,2,0,L|363:257,1,49.5,2|0,2:2|0:0,0:0:0:0:
508,149,73660,2,0,P|466:118|422:121,2,99,2|2|2,3:2|2:2|3:2,0:0:0:0:
327,84,74303,2,0,L|253:109,1,49.5000015106202,2|0,2:2|0:0,0:0:0:0:
351,194,74517,1,2,3:2:0:0:
351,194,74732,1,2,2:2:0:0:
236,337,74946,6,0,P|154:315|34:280,1,202.5,2|0,1:2|0:0,0:0:0:0:
0,213,75374,6,0,P|62:132|189:111,1,216,10|0,1:3|0:0,0:0:0:0:
250,1,75803,6,0,P|264:78|281:167,1,153,2|2,1:2|2:2,0:0:0:0:
351,194,76124,1,4,2:3:0:0:
407,130,76232,1,2,3:2:0:0:
461,342,76446,1,2,1:2:0:0:
295,258,76660,6,0,P|235:251|202:277,1,90,2|0,3:2|0:0,0:0:0:0:
143,208,76982,1,2,2:2:0:0:
143,208,77089,2,0,P|117:262|132:302,1,90,0|2,1:1|2:2,0:0:0:0:
0,68,77517,2,0,P|60:75|93:49,1,90,2|0,3:2|0:0,0:0:0:0:
152,118,77839,1,2,2:2:0:0:
152,118,77946,2,0,P|177:63|162:23,1,90,0|2,1:1|2:2,0:0:0:0:
335,213,78374,6,0,P|310:158|325:118,1,90,2|2,3:2|2:2,0:0:0:0:
377,75,78696,1,0,0:0:0:0:
377,75,78803,2,0,L|439:90,1,45,2|0,1:2|0:0,0:0:0:0:
486,158,79017,2,0,L|467:259,1,90,2|0,2:2|3:3,0:0:0:0:
327,364,79446,2,0,L|317:313,1,45,2|0,2:2|0:0,0:0:0:0:
242,384,79660,2,0,L|232:333,1,45,2|0,1:2|0:0,0:0:0:0:
242,167,79874,6,0,L|258:255,1,90,2|0,2:2|3:3,0:0:0:0:
74,146,80303,2,0,L|64:95,1,45,2|0,2:2|0:0,0:0:0:0:
101,26,80517,2,0,P|139:3|182:11,1,90,2|2,1:2|2:2,0:0:0:0:
323,152,80946,2,0,P|284:174|241:166,1,90,2|0,3:2|0:0,0:0:0:0:
169,136,81267,2,0,L|159:85,1,45,0|2,0:0|1:2,0:0:0:0:
0,238,81589,6,0,L|92:255,1,90,2|0,2:2|3:3,0:0:0:0:
287,323,82017,2,0,L|236:332,1,45,2|0,2:2|0:0,0:0:0:0:
172,378,82232,1,2,1:2:0:0:
252,220,82446,1,2,3:2:0:0:
252,220,82553,1,0,1:1:0:0:
252,220,82660,1,2,2:2:0:0:
414,377,82874,5,0,1:1:0:0:
436,337,82982,1,0,1:1:0:0:
420,307,83089,1,2,3:2:0:0:
432,292,83196,1,8,2:3:0:0:
424,280,83303,1,6,2:3:0:0:
426,273,83410,1,4,2:3:0:0:
421,269,83517,5,6,3:2:0:0:
91,115,84374,5,6,3:2:0:0:
329,44,84642,2,0,L|369:53,3,22.5,0|0|0|2,0:0|0:0|0:0|3:2,0:0:0:0:
192,0,85017,6,0,P|222:131|249:263,1,270,6|4,1:1|1:3,0:0:0:0:
435,373,85660,6,0,P|464:354|462:276,1,101.25,6|0,1:3|0:0,0:0:0:0:
466,277,85874,2,0,P|433:273|401:262,1,67.5,4|0,1:3|0:0,0:0:0:0:
288,72,86089,6,0,P|259:91|261:169,1,101.25,6|0,1:3|0:0,0:0:0:0:
256,167,86303,2,0,P|289:171|321:182,1,67.5,0|0,3:3|0:0,0:0:0:0:
511,87,86517,6,0,P|477:114|382:92,1,135.315005149842,2|2,1:2|2:2,0:0:0:0:
391,101,87374,6,0,B|353:82|374:41|374:41|369:69|395:106,1,135,6|0,3:1|0:0,0:0:0:0:
416,181,87803,6,0,B|370:211|340:165|340:165|372:194|423:179,1,168.75,6|0,3:2|0:0,0:0:0:0:
504,205,88231,6,0,B|511:274|441:269|441:269|497:255|507:191,1,202.5,6|0,3:1|0:0,0:0:0:0:
500,358,88660,5,6,3:2:0:0:
458,330,88767,1,0,1:1:0:0:
413,308,88874,1,0,1:1:0:0:
366,294,88981,1,0,1:1:0:0:
298,244,89088,5,10,2:3:0:0:
258,249,89196,1,0,1:1:0:0:
229,277,89303,1,0,1:1:0:0:
221,317,89410,1,0,3:3:0:0:
288,384,89517,6,0,P|302:348|318:314,1,67.5,2|0,1:2|1:1,0:0:0:0:
375,251,89731,1,0,1:1:0:0:
383,260,89838,2,0,P|397:224|413:190,1,67.5,0|2,3:3|1:2,0:0:0:0:
472,130,90053,1,0,1:1:0:0:
480,139,90160,2,0,P|494:103|510:69,1,67.5,2|0,3:2|1:1,0:0:0:0:
291,0,90374,6,0,P|287:55|374:108,1,135,6|8,3:1|2:2,0:0:0:0:
422,44,90696,1,0,0:0:0:0:
422,44,90803,2,0,P|377:31|339:30,1,56.25,10|0,1:2|0:0,0:0:0:0:
199,140,91017,2,0,P|226:144|253:153,1,56.25,2|0,2:2|0:0,0:0:0:0:
411,213,91231,6,0,P|332:206|277:285,1,168.75,10|8,3:2|2:2,0:0:0:0:
357,316,91660,2,0,P|363:291|373:262,1,33.7500000000001,2|0,1:2|0:0,0:0:0:0:
373,286,91874,2,0,P|367:311|357:340,1,33.7500000000001,10|0,1:2|1:1,0:0:0:0:
230,346,92088,6,0,P|274:360|295:377,1,56.25,2|0,3:2|0:0,0:0:0:0:
166,290,92303,2,0,P|201:258|226:249,1,56.25,10|2,2:2|2:2,0:0:0:0:
86,316,92517,2,0,P|76:269|80:243,1,56.25,10|0,1:2|0:0,0:0:0:0:
146,376,92731,6,0,P|150:365|148:377,1,33.7500000000001,2|0,2:2|0:0,0:0:0:0:
70,257,92946,6,0,P|70:285|78:311,1,56.25,10|0,3:2|0:0,0:0:0:0:
205,247,93160,2,0,P|181:261|161:282,1,56.25,2|8,1:2|2:2,0:0:0:0:
285,359,93374,1,2,1:2:0:0:
285,359,93481,1,0,1:1:0:0:
285,359,93588,2,0,P|260:345|233:339,1,56.25,0|0,1:1|1:1,0:0:0:0:
12,205,93803,6,0,B|9:231|-9:253|-9:253|75:208|136:200,1,202.5,6|0,3:1|0:0,0:0:0:0:
196,138,94231,2,0,B|166:106|166:60|166:60|155:112|95:129,1,168.75,10|0,1:2|1:1,0:0:0:0:
212,229,94660,6,0,P|263:206|298:202,1,67.5,10|0,3:2|0:0,0:0:0:0:
203,135,94874,1,0,0:0:0:0:
203,135,94981,1,8,2:2:0:0:
203,135,95088,2,0,B|173:103|173:57|173:57|162:109|102:126,1,168.75,2|0,1:2|1:1,0:0:0:0:
310,56,95517,6,0,P|259:72|239:81,1,56.25,2|0,3:2|1:1,0:0:0:0:
180,53,95731,2,0,P|231:37|251:28,1,56.25,8|0,2:2|0:0,0:0:0:0:
396,58,95946,6,0,P|363:49|331:37,1,67.5,10|0,1:2|0:0,0:0:0:0:
97,51,96160,2,0,P|129:59|161:71,1,67.5
218,202,96374,5,10,3:2:0:0:
218,202,96481,2,0,P|234:136|250:67,1,135,0|8,1:1|2:2,0:0:0:0:
297,9,96803,2,0,P|324:42|315:97,1,56.25,2|0,1:2|0:0,0:0:0:0:
434,114,97017,5,10,1:2:0:0:
434,114,97124,1,0,1:1:0:0:
434,114,97231,2,0,P|336:135|285:167,1,112.5,6|8,3:2|2:2,0:0:0:0:
266,191,97553,1,2,2:2:0:0:
338,219,97660,1,8,1:2:0:0:
259,196,97874,6,0,P|245:235|239:267,1,56.25,2|8,2:2|2:3,0:0:0:0:
134,249,98088,2,0,P|232:270|283:302,1,135,10|4,3:2|2:3,0:0:0:0:
326,333,98410,1,6,2:3:0:0:
256,360,98517,1,4,2:3:0:0:
208,303,98624,1,4,2:3:0:0:
247,239,98731,1,2,3:2:0:0:
320,257,98838,1,0,0:0:0:0:
201,315,98946,6,0,P|132:333|47:364,1,157.5,2|0,3:2|0:0,0:0:0:0:
104,306,99803,2,0,P|125:298|154:292,14,28.125,10|8|8|8|8|8|8|8|8|0|0|0|4|0|0,2:3|2:3|2:3|2:3|2:3|2:3|2:3|2:3|2:3|0:0|0:0|0:0|2:3|0:0|0:0,0:0:0:0:
51,362,100660,6,0,P|124:335|201:315,1,157.5,6|10,3:1|2:2,0:0:0:0:
283,354,100981,1,0,0:0:0:0:
343,240,101088,2,0,P|277:265|270:310,1,78.7500000000001,10|0,1:2|0:0,0:0:0:0:
370,384,101303,2,0,P|386:320|395:298,1,78.7500000000001,2|0,2:2|0:0,0:0:0:0:
510,160,101517,6,0,B|532:164|534:187|534:187|509:186|508:151,1,78.7500000000001,10|0,3:2|0:0,0:0:0:0:
423,182,101731,2,0,B|431:201|411:216|411:216|401:194|432:175,1,78.7500000000001,2|8,2:2|2:2,0:0:0:0:
370,114,101946,2,0,B|357:132|335:123|335:123|349:102|380:120,1,78.7500000000001,2|0,1:2|0:0,0:0:0:0:
451,0,102160,5,10,2:2:0:0:
512,54,102267,1,0,0:0:0:0:
448,109,102374,2,0,P|321:147|240:189,1,157.5,2|8,3:2|2:2,0:0:0:0:
207,70,102696,2,0,P|278:54|337:113,1,157.5,2|0,2:2|0:0,0:0:0:0:
399,203,103017,2,0,P|381:251|374:293,1,78.7500000000001,2|0,2:2|0:0,0:0:0:0:
243,336,103231,6,0,P|370:374|451:416,1,157.5,8|0,3:2|0:0,0:0:0:0:
458,330,103553,1,8,2:2:0:0:
385,285,103660,2,0,P|325:309|312:329,1,78.7500000000001,2|0,1:2|0:0,0:0:0:0:
172,374,103874,2,0,P|112:350|99:330,1,78.7500000000001,10|2,2:2|2:2,0:0:0:0:
148,169,104088,5,0,3:3:0:0:
208,222,104196,1,0,0:0:0:0:
172,293,104303,1,8,2:2:0:0:
302,324,104517,6,0,P|287:260|281:245,1,67.5,10|0,1:2|0:0,0:0:0:0:
239,83,104731,2,0,P|254:147|260:162,1,67.5,2|2,2:2|2:2,0:0:0:0:
377,117,104946,5,8,3:2:0:0:
341,188,105053,1,0,0:0:0:0:
401,241,105160,1,0,0:0:0:0:
302,324,105374,6,0,P|287:260|281:245,1,67.5,2|0,1:2|0:0,0:0:0:0:
239,83,105588,2,0,P|254:147|260:162,1,67.5,10|2,2:2|2:2,0:0:0:0:
203,221,105803,5,0,3:3:0:0:
203,221,106017,2,0,P|139:236|124:242,1,78.7500000000001,8|0,2:2|0:0,0:0:0:0:
339,178,106231,2,0,P|403:163|418:157,1,78.7500000000001,8|0,1:2|0:0,0:0:0:0:
254,148,106446,1,0,0:0:0:0:
442,230,106660,5,10,1:2:0:0:
499,176,106767,1,0,1:1:0:0:
473,102,106874,1,0,1:1:0:0:
293,15,107088,5,0,1:1:0:0:
236,69,107196,1,0,1:1:0:0:
262,143,107303,1,8,1:2:0:0:
140,336,107517,6,0,P|36:324|12:256,1,157.5,6|10,3:1|2:2,0:0:0:0:
0,198,107838,1,0,0:0:0:0:
129,190,107946,2,0,P|102:255|94:284,1,78.7500000000001,10|0,1:2|0:0,0:0:0:0:
58,132,108160,2,0,P|85:67|93:38,1,78.7500000000001,2|0,2:2|0:0,0:0:0:0:
325,69,108374,6,0,B|355:56|309:25|292:50|285:83,1,78.7500000000001,10|0,3:2|0:0,0:0:0:0:
210,162,108588,2,0,B|205:194|255:170|242:143|217:120,1,78.7500000000001,2|8,2:2|2:2,0:0:0:0:
186,15,108803,2,0,B|160:-4|155:49|185:52|218:41,1,78.7500000000001,2|0,1:2|0:0,0:0:0:0:
135,124,109017,5,10,2:2:0:0:
60,95,109124,1,0,0:0:0:0:
135,124,109231,2,0,P|224:90|315:74,1,157.5,2|8,3:2|2:2,0:0:0:0:
431,140,109553,2,0,P|511:70|487:24,1,157.5,2|0,2:2|0:0,0:0:0:0:
346,2,109874,2,0,P|371:75|374:105,1,78.7500000000001,2|0,2:2|0:0,0:0:0:0:
459,225,110088,6,0,P|421:332|411:383,1,157.5,8|0,3:2|0:0,0:0:0:0:
503,338,110410,1,8,2:2:0:0:
332,375,110517,2,0,P|280:348|270:306,1,78.7500000000001,2|0,1:2|0:0,0:0:0:0:
265,203,110731,5,10,2:2:0:0:
316,264,110838,1,2,2:2:0:0:
265,325,110946,2,0,P|167:351|97:383,1,157.5,0|8,3:3|2:2,0:0:0:0:
32,337,111267,1,0,0:0:0:0:
0,214,111374,6,0,P|98:240|168:272,1,157.5,10|0,1:2|0:0,0:0:0:0:
222,203,111696,1,2,2:2:0:0:
300,256,111803,2,0,P|284:304|276:346,1,78.7500000000001,12|0,3:1|1:1,0:0:0:0:
174,384,112017,5,8,3:3:0:0:
108,330,112124,1,0,1:1:0:0:
155,259,112231,1,6,3:3:0:0:
221,210,112338,1,0,1:1:0:0:
290,162,112446,1,2,1:2:0:0:
337,91,112553,1,2,3:2:0:0:
271,37,112660,1,2,1:2:0:0:
174,384,112874,6,0,B|108:330|108:330|160:252,1,171,6|0,3:1|0:0,0:0:0:0:
271,37,113196,2,0,B|337:91|337:91|285:169,1,171,6|0,3:2|0:0,0:0:0:0:
186,181,113517,2,0,P|219:208|247:233,1,67.5,6|0,3:1|1:1,0:0:0:0:
337,265,113946,5,2,1:2:0:0:
267,300,114053,1,0,1:1:0:0:
299,373,114160,1,10,2:3:0:0:
299,373,114374,1,6,3:1:0:0:
288,356,121231,6,0,P|316:241|344:170,1,144,6|2,1:2|3:2,0:0:0:0:
33,301,121660,2,0,P|52:236|69:153,1,144,2|2,1:2|3:2,0:0:0:0:
221,117,121981,1,0,1:1:0:0:
97,55,122088,6,0,P|133:114|168:209,1,144,2|2,1:2|3:2,0:0:0:0:
97,244,122410,2,0,P|61:254|1:284,1,72,0|2,1:1|3:2,0:0:0:0:
324,211,122731,2,0,P|360:201|420:171,1,72,2|0,1:2|3:3,0:0:0:0:
295,362,122946,6,0,P|323:247|351:176,1,144,6|2,1:2|3:2,0:0:0:0:
40,307,123374,2,0,P|59:242|76:159,1,144,2|2,1:2|3:2,0:0:0:0:
228,123,123696,1,0,1:1:0:0:
61,85,123803,6,0,P|131:110|153:179,1,144,2|0,1:2|3:3,0:0:0:0:
2,193,124124,2,0,P|47:173|79:163,1,72,0|2,1:1|3:2,0:0:0:0:
302,156,124446,2,0,P|257:176|225:186,1,72,2|2,1:2|3:2,0:0:0:0:
302,368,124660,6,0,P|330:253|358:182,1,144,6|2,1:2|3:2,0:0:0:0:
47,313,125088,2,0,P|66:248|83:165,1,144,2|2,1:2|3:2,0:0:0:0:
235,129,125410,1,0,1:1:0:0:
26,52,125517,6,0,P|92:84|155:129,1,144,2|0,1:2|3:3,0:0:0:0:
263,46,125838,2,0,P|247:78|231:110,1,72,0|2,1:1|3:2,0:0:0:0:
47,239,126160,2,0,P|63:207|78:174,1,72,2|2,1:2|3:2,0:0:0:0:
174,168,126374,5,6,1:2:0:0:
174,168,126481,1,0,3:3:0:0:
174,168,126588,2,0,P|224:197|255:221,1,72,0|0,3:3|1:1,0:0:0:0:
328,250,126803,1,0,1:1:0:0:
328,250,126910,1,0,3:3:0:0:
328,250,127017,2,0,P|278:279|247:303,1,72,0|0,3:3|1:1,0:0:0:0:
210,384,127231,5,2,1:2:0:0:
204,364,127338,1,0,3:3:0:0:
199,344,127446,1,0,3:3:0:0:
192,324,127553,1,0,1:1:0:0:
185,305,127660,1,0,3:3:0:0:
177,286,127767,1,0,1:1:0:0:
169,267,127874,1,0,1:1:0:0:
160,249,127981,1,0,3:3:0:0:
94,206,128088,6,0,P|141:173|181:181,1,72,6|0,3:1|1:1,0:0:0:0:
265,94,128303,1,0,1:1:0:0:
333,143,128410,1,0,1:1:0:0:
290,221,128517,5,0,3:3:0:0:
240,278,128624,1,8,2:3:0:0:
261,351,128731,1,8,2:3:0:0:
333,377,128838,1,8,2:3:0:0:
398,338,128946,5,2,3:2:0:0:
420,345,129053,1,6,2:3:0:0:
443,352,129160,1,6,2:3:0:0:
466,358,129267,1,2,1:2:0:0:
512,296,129374,5,2,1:2:0:0:
446,254,129481,1,2,1:2:0:0:
369,257,129588,1,2,1:2:0:0:
309,306,129696,1,2,1:2:0:0:
287,380,129803,2,0,P|258:270|192:98,1,270,6|0,3:1|0:0,0:0:0:0:
300,46,130231,6,0,P|300:108|258:138,1,78.7500000000001,8|0,1:2|0:0,0:0:0:0:
160,226,130445,1,0,0:0:0:0:
160,226,130553,1,0,0:0:0:0:
160,226,130660,2,0,P|94:201|-7:188,1,157.5,8|0,3:2|0:0,0:0:0:0:
0,111,130981,1,8,2:2:0:0:
118,49,131088,6,0,P|91:87|77:123,1,78.7500000000001,2|0,1:2|0:0,0:0:0:0:
1,196,131303,2,0,P|20:238|44:268,1,78.7500000000001,10|0,2:2|0:0,0:0:0:0:
69,370,131517,2,0,P|115:374|153:368,1,78.7500000000001,2|0,3:2|0:0,0:0:0:0:
218,268,131731,5,10,2:2:0:0:
159,373,131838,2,0,P|215:341|217:230,1,157.5,2|0,2:2|0:0,0:0:0:0:
157,211,132160,2,0,P|145:254|166:308,1,78.7500000000001,2|0,2:2|0:0,0:0:0:0:
315,335,132374,6,0,P|391:305|482:291,1,157.5,8|0,3:2|0:0,0:0:0:0:
512,189,132695,1,8,2:2:0:0:
508,200,132803,2,0,P|445:176|418:162,1,78.7500000000001,0|0,1:1|0:0,0:0:0:0:
246,135,133017,5,10,2:2:0:0:
210,205,133124,1,2,2:2:0:0:
270,259,133231,2,0,P|305:242|430:212,1,157.5,2|8,3:2|2:2,0:0:0:0:
461,141,133553,1,0,0:0:0:0:
232,110,133660,6,0,P|263:133|352:225,1,157.5,10|0,1:2|0:0,0:0:0:0:
429,216,133981,1,0,0:0:0:0:
341,2,134088,6,0,P|337:41|301:164,1,157.5,10|0,3:2|0:0,0:0:0:0:
350,224,134410,2,0,P|319:248|207:310,1,157.5,10|0,2:2|0:0,0:0:0:0:
176,379,134731,2,0,P|136:375|43:351,1,78.7500000000001,10|0,2:2|0:0,0:0:0:0:
0,232,134945,6,0,P|74:235|162:252,1,157.5,2|8,3:2|2:2,0:0:0:0:
229,208,135267,1,2,2:2:0:0:
186,136,135374,1,8,1:2:0:0:
379,2,135588,6,0,P|368:38|359:84,1,78.7500000000001,2|0,2:2|1:1,0:0:0:0:
419,233,135803,1,8,1:2:0:0:
471,154,135910,2,0,P|434:143|328:240,1,157.5,8|8,2:3|2:3,0:0:0:0:
323,277,136231,5,2,3:2:0:0:
277,252,136338,1,4,2:3:0:0:
258,204,136445,1,6,2:3:0:0:
274,155,136553,1,4,2:3:0:0:
409,300,136660,6,0,P|295:325|201:362,1,157.5,6|8,3:2|2:2,0:0:0:0:
180,369,136981,1,2,2:2:0:0:
119,312,137088,1,8,1:2:0:0:
222,155,137303,5,0,0:0:0:0:
222,155,137517,2,0,P|336:180|430:217,1,157.5,10|0,3:2|0:0,0:0:0:0:
451,224,137838,1,10,2:2:0:0:
512,167,137945,1,0,1:1:0:0:
409,10,138160,5,10,2:2:0:0:
409,10,138267,1,2,2:2:0:0:
409,10,138374,2,0,P|295:35|201:72,1,157.5,2|10,3:2|2:2,0:0:0:0:
196,99,138695,2,0,P|141:80|127:58,1,78.7500000000001,2|8,2:2|1:2,0:0:0:0:
174,0,138910,1,2,2:2:0:0:
17,0,139017,6,0,P|39:46|54:130,1,78.7500000000001,2|0,2:2|0:0,0:0:0:0:
0,173,139231,2,0,P|74:157|132:231,2,157.5,8|0|0,3:2|0:0|1:1,0:0:0:0:
268,294,139874,5,10,2:2:0:0:
185,269,139981,1,2,2:2:0:0:
268,294,140088,2,0,P|180:317|143:375,1,157.5,2|8,3:2|2:2,0:0:0:0:
67,330,140410,1,0,0:0:0:0:
78,185,140517,6,0,P|166:208|203:266,1,157.5,10|0,1:2|0:0,0:0:0:0:
279,221,140838,1,0,0:0:0:0:
268,76,140945,6,0,P|180:99|143:157,1,157.5,10|4,3:2|2:3,0:0:0:0:
147,158,141231,1,4,2:3:0:0:
149,166,141303,1,4,2:3:0:0:
152,174,141374,1,4,2:3:0:0:
413,316,141588,6,0,B|444:359|492:346|488:287|413:222|352:230|289:300,1,270,6|0,1:1|0:0,0:0:0:0:
191,215,142017,6,0,P|211:270|220:302,1,63,4|0,1:3|0:0,0:0:0:0:
283,190,142231,2,0,P|263:135|254:103,1,63,4|0,1:3|0:0,0:0:0:0:
205,281,142445,6,0,P|185:336|176:368,1,72,4|0,1:3|0:0,0:0:0:0:
267,125,142660,2,0,P|287:70|296:38,1,72,4|8,1:3|2:3,0:0:0:0:
134,165,142874,5,0,0:0:0:0:
185,185,142981,1,8,2:3:0:0:
239,206,143088,1,0,3:3:0:0:
292,229,143195,1,4,2:3:0:0:
344,252,143303,2,0,P|389:273|426:295,1,72,4|6,2:3|2:3,0:0:0:0:
510,155,143517,5,2,1:2:0:0:
422,186,143624,1,0,0:0:0:0:
505,156,143731,5,10,2:2:0:0:
426,184,143838,1,2,2:2:0:0:
502,158,143945,5,10,2:2:0:0:
429,183,144053,1,0,0:0:0:0:
498,159,144160,5,2,2:2:0:0:
433,181,144267,1,2,2:2:0:0:
495,160,144374,5,10,1:2:0:0:
436,180,144481,1,0,0:0:0:0:
492,161,144588,5,2,2:2:0:0:
439,179,144695,1,10,2:2:0:0:
432,88,144803,6,0,P|444:110|456:149,1,54,2|2,2:2|2:2,0:0:0:0:
283,208,145231,5,2,1:2:0:0:
371,239,145338,1,0,0:0:0:0:
288,209,145445,5,10,2:2:0:0:
367,237,145553,1,2,2:2:0:0:
291,211,145660,5,10,2:2:0:0:
364,236,145767,1,0,0:0:0:0:
295,212,145874,5,2,2:2:0:0:
360,234,145981,1,2,2:2:0:0:
298,213,146088,5,10,1:2:0:0:
357,233,146195,1,0,0:0:0:0:
301,214,146303,5,2,2:2:0:0:
354,232,146410,1,10,2:2:0:0:
362,141,146517,6,0,P|350:163|338:202,1,54,6|2,2:3|2:2,0:0:0:0:
164,316,146945,5,2,1:2:0:0:
243,289,147053,1,0,0:0:0:0:
182,233,147160,1,2,2:2:0:0:
178,314,147267,5,10,3:3:0:0:
234,277,147374,1,2,2:2:0:0:
175,246,147481,1,0,0:0:0:0:
190,310,147588,5,6,3:3:0:0:
225,269,147695,1,2,2:2:0:0:
173,258,147803,1,2,1:2:0:0:
197,304,147910,5,0,0:0:0:0:
216,265,148017,1,2,2:2:0:0:
173,267,148124,1,10,3:3:0:0:
202,298,148231,5,2,2:2:0:0:
208,264,148338,1,0,0:0:0:0:
176,274,148445,1,6,3:3:0:0:
197,278,148553,1,2,2:2:0:0:
115,384,148660,6,0,P|86:310|63:268,1,126,6|0,3:1|0:0,0:0:0:0:
23,202,149517,2,0,P|12:210|-2:230,14,36
5,128,150374,6,0,B|58:111|94:146|76:156|104:202|177:181,1,180,6|10,3:1|2:2,0:0:0:0:
241,78,150695,1,0,0:0:0:0:
124,27,150803,2,0,P|152:102|161:137,1,78.7500000000001,10|0,1:2|0:0,0:0:0:0:
230,234,151017,2,0,P|242:196|258:160,1,78.7500000000001,2|0,2:2|0:0,0:0:0:0:
431,16,151231,6,0,B|421:-9|402:11|424:21|425:31|425:31|436:25|457:27|455:8|433:17,1,90,10|0,3:2|0:0,0:0:0:0:
342,91,151445,2,0,B|352:66|371:86|349:96|347:106|347:106|337:100|315:102|317:83|340:92,1,90,2|8,2:2|2:2,0:0:0:0:
437,164,151660,2,0,B|427:139|408:159|430:169|431:179|431:179|442:173|463:175|461:156|439:165,1,90,2|0,1:2|0:0,0:0:0:0:
360,382,151874,5,10,2:2:0:0:
285,341,151981,1,0,0:0:0:0:
318,264,152088,2,0,P|398:260|413:348,1,157.5,2|8,3:2|2:2,0:0:0:0:
278,337,152410,2,0,P|191:309|96:304,1,157.5,2|0,2:2|0:0,0:0:0:0:
0,384,152731,2,0,P|43:378|62:334,1,78.7500000000001,2|0,2:2|0:0,0:0:0:0:
173,228,152945,6,0,P|196:132|234:32,1,157.5,8|0,3:2|0:0,0:0:0:0:
161,11,153267,1,8,2:2:0:0:
89,59,153374,2,0,P|109:122|142:130,1,78.7500000000001,2|0,1:2|0:0,0:0:0:0:
262,213,153588,2,0,P|242:150|209:142,1,78.7500000000001,10|2,2:2|2:2,0:0:0:0:
29,200,153803,5,0,3:3:0:0:
106,211,153910,1,0,0:0:0:0:
180,239,154017,1,8,2:2:0:0:
194,384,154231,6,0,P|220:327|231:295,1,67.5,10|0,1:2|0:0,0:0:0:0:
299,151,154445,2,0,P|273:208|262:240,1,67.5,2|2,2:2|2:2,0:0:0:0:
457,350,154660,5,8,3:2:0:0:
381,332,154767,1,0,0:0:0:0:
309,297,154874,1,0,0:0:0:0:
194,384,155088,6,0,P|220:327|231:295,1,67.5,2|0,1:2|0:0,0:0:0:0:
299,151,155303,2,0,P|273:208|262:240,1,67.5,10|2,2:2|2:2,0:0:0:0:
314,302,155517,5,0,3:3:0:0:
314,302,155731,2,0,P|367:327|396:347,1,67.5,8|0,2:2|0:0,0:0:0:0:
180,239,155945,2,0,P|127:214|98:194,1,67.5,8|0,1:2|0:0,0:0:0:0:
226,316,156160,1,0,0:0:0:0:
155,133,156374,5,10,1:2:0:0:
83,140,156481,1,0,1:1:0:0:
39,198,156588,1,0,1:1:0:0:
54,268,156695,1,8,1:2:0:0:
0,329,156803,5,0,1:1:0:0:
72,342,156910,1,0,1:1:0:0:
144,359,157017,1,8,1:2:0:0:
215,379,157124,1,0,1:1:0:0:
282,337,157231,6,0,P|317:249|369:158,1,157.5,6|10,3:1|2:2,0:0:0:0:
423,160,157553,1,0,0:0:0:0:
236,120,157660,2,0,P|235:153|260:193,1,78.7500000000001,10|0,1:2|0:0,0:0:0:0:
432,158,157874,2,0,P|432:124|409:83,1,78.7500000000001,2|0,2:2|0:0,0:0:0:0:
270,0,158088,6,0,P|305:57|342:152,2,157.5,10|2|2,3:2|2:2|1:2,0:0:0:0:
472,60,158731,2,0,P|444:78|404:85,1,67.5,10|0,2:2|0:0,0:0:0:0:
259,158,158945,6,0,P|200:109|100:127,1,157.5,2|8,3:2|2:2,0:0:0:0:
0,82,159267,2,0,P|42:15|120:62,1,157.5,2|0,2:2|0:0,0:0:0:0:
173,181,159588,2,0,P|150:237|138:292,1,78.7500000000001,2|0,2:2|0:0,0:0:0:0:
54,384,159803,6,0,P|24:289|-16:207,1,157.5,8|0,3:2|0:0,0:0:0:0:
69,181,160124,1,8,2:2:0:0:
195,328,160231,2,0,P|174:364|133:373,1,78.7500000000001,2|0,1:2|0:0,0:0:0:0:
139,245,160445,5,10,2:2:0:0:
212,212,160553,1,2,2:2:0:0:
265,272,160660,2,0,P|342:302|424:354,1,157.5,0|8,3:3|2:2,0:0:0:0:
486,299,160981,1,0,0:0:0:0:
391,170,161088,6,0,P|410:215|421:269,1,78.7500000000001,10|0,1:2|0:0,0:0:0:0:
282,362,161303,2,0,P|263:317|252:263,1,78.7500000000001,0|2,0:0|2:2,0:0:0:0:
277,169,161517,5,8,3:2:0:0:
308,117,161624,1,8,2:3:0:0:
362,93,161731,1,8,2:3:0:0:
421,102,161838,1,8,2:3:0:0:
478,158,161945,1,2,3:2:0:0:
469,182,162053,1,4,2:3:0:0:
462,208,162160,1,6,2:3:0:0:
457,233,162267,1,0,3:3:0:0:
511,292,162374,5,2,1:2:0:0:
278,169,162695,6,0,P|340:100|447:120,1,180,6|0,3:1|0:0,0:0:0:0:
478,158,163017,2,0,P|461:218|459:257,1,78.7500000000001,6|0,3:2|0:0,0:0:0:0:
241,76,163231,2,0,P|258:16|260:-23,1,78.7500000000001,6|0,3:1|0:0,0:0:0:0:
431,94,163517,5,0,0:0:0:0:
426,98,163588,1,0,0:0:0:0:
421,102,163660,2,0,P|334:102|278:169,1,179.55,6|0,1:2|0:0,0:0:0:0:
345,298,164088,6,0,B|290:316|257:272|280:258|240:213|180:235,1,180,6|10,3:1|2:2,0:0:0:0:
118,276,164410,1,0,0:0:0:0:
173,383,164517,2,0,P|193:321|211:284,1,78.7500000000001,10|0,1:2|0:0,0:0:0:0:
306,143,164731,2,0,P|320:179|331:217,1,78.7500000000001,2|0,2:2|0:0,0:0:0:0:
316,322,164945,6,0,B|293:318|291:295|291:295|316:295|318:330,1,78.7500000000001,10|0,3:2|0:0,0:0:0:0:
402,298,165160,2,0,B|393:279|413:263|413:263|423:285|393:305,1,78.7500000000001,2|8,2:2|2:2,0:0:0:0:
457,370,165374,2,0,B|471:352|492:363|492:363|477:383|447:363,1,78.7500000000001,2|0,1:2|0:0,0:0:0:0:
373,382,165588,5,10,2:2:0:0:
373,382,165803,2,0,P|408:294|472:203,1,157.5,2|8,3:2|2:2,0:0:0:0:
407,95,166124,2,0,P|339:139|396:214,1,157.5,2|0,2:2|0:0,0:0:0:0:
512,191,166445,2,0,P|505:150|479:103,1,78.7500000000001,2|0,2:2|0:0,0:0:0:0:
281,27,166660,6,0,P|338:83|425:98,1,157.5,8|0,3:2|0:0,0:0:0:0:
470,41,166981,1,8,2:2:0:0:
424,180,167088,2,0,P|353:202|319:219,1,78.7500000000001,2|0,1:2|0:0,0:0:0:0:
192,174,167303,2,0,P|263:152|297:135,1,78.7500000000001,10|2,2:2|2:2,0:0:0:0:
227,270,167517,5,0,3:3:0:0:
153,298,167624,1,0,0:0:0:0:
95,243,167731,1,8,2:2:0:0:
48,128,167945,6,0,P|79:140|112:149,1,67.5,10|0,1:2|0:0,0:0:0:0:
310,194,168160,2,0,P|278:181|245:172,1,67.5,2|2,2:2|2:2,0:0:0:0:
130,55,168374,5,8,3:2:0:0:
204,27,168481,1,0,0:0:0:0:
262,82,168588,1,0,0:0:0:0:
48,128,168803,6,0,P|79:140|112:149,1,67.5,2|0,1:2|0:0,0:0:0:0:
310,194,169017,2,0,P|278:181|245:172,1,67.5,10|2,2:2|2:2,0:0:0:0:
188,110,169231,5,0,3:3:0:0:
188,110,169445,2,0,P|200:63|216:17,1,78.7500000000001,8|0,2:2|0:0,0:0:0:0:
167,219,169660,2,0,P|155:266|139:312,1,78.7500000000001,8|0,1:2|0:0,0:0:0:0:
108,152,169874,1,0,0:0:0:0:
251,182,170088,5,10,1:2:0:0:
306,200,170195,1,0,1:1:0:0:
358,225,170303,1,8,2:3:0:0:
407,255,170410,1,8,2:3:0:0:
464,309,170517,5,4,2:3:0:0:
489,303,170624,1,4,2:3:0:0:
507,284,170731,1,4,2:3:0:0:
511,259,170838,1,4,2:3:0:0:
459,200,170945,6,0,B|382:166|327:231|369:264|301:330|217:271,1,270,6|2,3:1|2:2,0:0:0:0:
209,92,171803,2,0,P|240:147|273:224,2,135,6|0|2,3:2|0:0|2:2,0:0:0:0:
111,254,172660,6,0,P|131:245|153:238,1,45,6|0,3:1|0:0,0:0:0:0:
377,314,172981,6,0,P|359:300|342:284,1,45,10|0,1:3|0:0,0:0:0:0:
296,53,173303,6,0,P|292:75|287:97,1,45,6|0,1:3|0:0,0:0:0:0:
378,175,173517,1,0,3:3:0:0:
330,185,173624,1,0,1:1:0:0:
283,199,173731,1,0,1:1:0:0:
238,221,173838,1,0,1:1:0:0:
191,286,173945,5,2,3:2:0:0:
147,289,174053,1,0,1:1:0:0:
113,260,174160,2,0,P|98:216|115:174,1,56.25,10|10,2:3|2:3,0:0:0:0:
203,118,174374,5,4,3:1:0:0:
203,118,174588,5,0,1:1:0:0:
187,163,174695,1,0,1:1:0:0:
176,210,174803,1,2,3:2:0:0:
284,135,175017,5,0,1:1:0:0:
264,189,175124,1,2,1:2:0:0:
251,245,175231,1,0,3:3:0:0:
367,145,175445,5,0,1:1:0:0:
343,210,175553,1,0,1:1:0:0:
327,277,175660,1,10,2:3:0:0:
399,268,175767,1,8,2:3:0:0:
470,253,175874,1,6,2:3:0:0:
420,197,175981,1,0,3:3:0:0:
450,327,176088,5,2,1:2:0:0:
450,327,176303,6,0,B|477:328|502:270|387:249|412:377|275:313,1,180,6|0,3:2|0:0,0:0:0:0:
130,245,176624,2,0,B|106:232|113:169|223:208|137:307|288:320,1,180,6|0,3:2|0:0,0:0:0:0:
361,95,176945,6,0,P|342:246|315:83,1,472.5,6|0,3:1|0:0,0:0:0:0:
