osu file format v14

[General]
AudioFilename: audio.mp3
AudioLeadIn: 0
PreviewTime: 148660
Countdown: 0
SampleSet: Soft
StackLeniency: 0.4
Mode: 0
LetterboxInBreaks: 0
WidescreenStoryboard: 0

[Editor]
Bookmarks: 14946,28660,42374,56089,69803,86946,100660,114374,129803,143517,150374,164088,177803
DistanceSpacing: 0.2
BeatDivisor: 4
GridSize: 16
TimelineZoom: 2

[Metadata]
Title:Zecchou Sanka
TitleUnicode:絶頂讃歌
Artist:Kotoha
ArtistUnicode:Kotoha
Creator:achyoo
Version:Climax
Source:
Tags:cjstmdals Shirahane Suou Mocaotic Kazuma -Agua Erisu KoldNoodl midorijeon Aurorance Agllius ayucchi hakoniwalily ハコニワリリィ hakolili ハコリリ japanese pop jpop cover wanuka 和ぬか orgasm anthem
BeatmapID:3828999
BeatmapSetID:1862243

[Difficulty]
HPDrainRate:6
CircleSize:4
OverallDifficulty:8.8
ApproachRate:10
SliderMultiplier:2.6
SliderTickRate:1

[Events]
//Background and Video events
0,0,"zecchousanka.jpg",0,0
//Break Periods
2,129895,135781
//Storyboard Layer 0 (Background)
//Storyboard Layer 1 (Fail)
//Storyboard Layer 2 (Pass)
//Storyboard Layer 3 (Foreground)
//Storyboard Layer 4 (Overlay)
//Storyboard Sound Samples

[TimingPoints]
214,428.571428571429,4,2,1,40,1,0
1232,428.571428571429,4,2,1,75,1,0
1232,-71.4285714285714,4,2,1,75,0,0
2089,-90.9090909090909,4,2,1,75,0,0
14946,-125,4,2,1,65,0,0
28232,-500,4,2,1,65,0,0
28660,-100,4,2,1,70,0,0
42374,-76.9230769230769,4,2,1,80,0,0
49017,-250,4,2,1,80,0,0
49232,-76.9230769230769,4,2,1,80,0,0
54589,-47.6190476190476,4,2,1,80,0,1
54615,-47.6190476190476,4,2,1,80,0,0
55232,-500,4,2,1,80,0,0
56089,-125,4,2,1,75,0,0
67874,-100,4,2,1,75,0,0
69803,-125,4,2,1,65,0,0
74946,-100,4,2,1,65,0,0
75803,-83.3333333333333,4,2,1,65,0,0
76124,-125,4,2,1,65,0,0
83517,-1000,4,2,1,65,0,0
84374,-200,4,2,1,65,0,0
84696,-125,4,2,1,65,0,0
85660,-100,4,2,1,65,0,0
86946,428.571428571429,4,2,1,50,1,0
86946,-200,4,2,1,50,0,0
87374,-100,4,2,1,70,0,0
89946,-200,4,2,1,70,0,0
90374,-100,4,2,1,70,0,0
100660,-76.9230769230769,4,2,1,80,0,0
107303,-250,4,2,1,80,0,0
107517,-76.9230769230769,4,2,1,80,0,0
112660,-50,4,2,1,80,0,0
112874,-50,4,2,1,80,0,1
112901,-50,4,2,1,80,0,0
113517,-333.333333333333,4,2,1,80,0,0
114374,-166.666666666667,4,2,1,60,0,0
121231,-100,4,2,1,65,0,0
129803,428.571428571429,4,2,1,75,1,0
129803,-83.3333333333333,4,2,1,75,0,1
136231,-83.3333333333333,4,2,1,75,0,0
141588,-71.4285714285714,4,2,1,75,0,0
142017,-83.3333333333333,4,2,1,75,0,0
143517,-83.3333333333333,4,2,1,65,0,0
149945,-500,4,2,1,65,0,0
150374,-71.4285714285714,4,2,1,80,0,0
162374,-666.666666666667,4,2,1,80,0,0
162695,-71.4285714285714,4,2,1,80,0,0
163338,-58.8235294117647,4,2,1,80,0,0
163660,-27.7777777777778,4,2,1,80,0,0
164088,-71.4285714285714,4,2,1,80,0,0
170945,-200,4,2,1,80,0,0
171803,-90.9090909090909,4,2,1,80,0,0
172660,-58.8235294117647,4,2,1,80,0,0
173303,-200,4,2,1,80,0,0
174374,-333.333333333333,4,2,1,80,0,0
175874,-71.4285714285714,4,2,1,80,0,0
176088,-333.333333333333,4,2,1,80,0,0
176303,-28.5714285714286,4,2,1,80,0,1
176329,-28.5714285714286,4,2,1,80,0,0
176356,-28.5714285714286,4,2,1,80,0,1
176383,-28.5714285714286,4,2,1,80,0,0
176410,-28.5714285714286,4,2,1,80,0,1
176436,-28.5714285714286,4,2,1,80,0,0
176463,-28.5714285714286,4,2,1,80,0,1
176490,-28.5714285714286,4,2,1,80,0,0
176517,-28.5714285714286,4,2,1,80,0,1
176544,-28.5714285714286,4,2,1,80,0,0
176570,-28.5714285714286,4,2,1,80,0,1
176597,-28.5714285714286,4,2,1,80,0,0
176624,-28.5714285714286,4,2,1,80,0,1
176651,-28.5714285714286,4,2,1,80,0,0
176678,-28.5714285714286,4,2,1,80,0,1
176704,-28.5714285714286,4,2,1,80,0,0
176731,-28.5714285714286,4,2,1,80,0,1
176758,-28.5714285714286,4,2,1,80,0,0
176785,-28.5714285714286,4,2,1,80,0,1
176811,-28.5714285714286,4,2,1,80,0,0
176838,-28.5714285714286,4,2,1,80,0,1
176865,-28.5714285714286,4,2,1,80,0,0
176892,-28.5714285714286,4,2,1,80,0,1
176919,-28.5714285714286,4,2,1,80,0,0
176945,-16.6666666666667,4,2,1,80,0,1
177803,-16.6666666666667,4,2,1,80,0,0

[Colours]
Combo1 : 233,233,233
Combo2 : 152,182,252
Combo3 : 251,145,145
Combo4 : 255,198,214

[HitObjects]
256,192,214,12,0,1178,0:0:0:0:
135,347,1232,6,0,P|85:268|-10:261,2,181.999994445801,6|10|10,3:1|2:2|1:2,0:0:0:0:
147,356,1767,1,0,0:0:0:0:
165,341,1874,1,2,2:2:0:0:
170,318,1982,1,0,0:0:0:0:
244,277,2089,6,0,L|327:290,1,71.5000021820069,10|0,3:2|0:0,0:0:0:0:
358,356,2303,1,2,2:2:0:0:
354,362,2410,1,8,2:2:0:0:
350,368,2517,2,0,L|433:381,1,71.5000021820069,2|0,1:2|0:0,0:0:0:0:
465,289,2732,1,10,2:2:0:0:
459,298,2839,1,0,0:0:0:0:
495,370,2946,38,0,L|478:301,1,71.5000021820069,2|0,3:2|0:0,0:0:0:0:
389,374,3160,1,8,2:2:0:0:
400,383,3267,2,0,L|383:314,1,71.5000021820069,2|8,2:2|1:2,0:0:0:0:
292,375,3482,1,0,0:0:0:0:
303,384,3589,2,0,L|286:315,1,71.5000021820069,2|0,2:2|0:0,0:0:0:0:
66,348,3803,6,0,L|207:368,1,143.000004364014,8|0,3:2|0:0,0:0:0:0:
60,359,4124,1,8,2:2:0:0:
51,367,4232,2,0,P|21:341|15:304,1,71.5000021820069,0|0,1:1|0:0,0:0:0:0:
101,260,4446,2,0,P|131:286|137:323,1,71.5000021820069,10|2,2:2|2:2,0:0:0:0:
303,299,4660,38,0,P|268:365|161:361,2,143.000004364014,2|10|10,3:2|2:2|1:2,0:0:0:0:
320,291,5196,1,0,0:0:0:0:
293,283,5303,1,2,2:2:0:0:
287,258,5410,1,0,0:0:0:0:
210,311,5517,6,0,L|219:386,1,71.5000021820069,10|0,3:2|0:0,0:0:0:0:
120,298,5732,1,2,2:2:0:0:
115,303,5839,1,8,2:2:0:0:
110,308,5946,2,0,L|119:383,1,71.5000021820069,2|0,1:2|0:0,0:0:0:0:
31,271,6160,1,10,2:2:0:0:
36,262,6267,1,0,0:0:0:0:
0,379,6374,38,0,P|64:346|134:390,1,143.000004364014,2|8,3:2|2:2,0:0:0:0:
205,305,6696,1,2,2:2:0:0:
200,313,6803,2,0,P|217:340|263:352,1,71.5000021820069,8|0,1:2|0:0,0:0:0:0:
396,323,7017,2,0,P|424:307|439:262,1,71.5000021820069,2|0,2:2|0:0,0:0:0:0:
318,307,7232,6,0,L|300:256,3,35.7500010910034,8|0|0|0,3:2|0:0|0:0|0:0,0:0:0:0:
321,321,7446,2,0,L|409:334,1,71.5000021820069,2|8,2:2|2:2,0:0:0:0:
483,335,7660,37,0,1:1:0:0:
412,345,7767,1,0,1:1:0:0:
341,355,7874,1,10,1:2:0:0:
270,366,7982,1,2,1:2:0:0:
193,327,8089,6,0,L|106:354,1,71.5000021820069,6|0,3:1|0:0,0:0:0:0:
68,286,8303,2,0,L|-19:313,1,71.5000021820069,10|0,2:2|0:0,0:0:0:0:
126,363,8517,2,0,L|39:390,1,71.5000021820069,10|0,1:2|0:0,0:0:0:0:
143,258,8732,1,2,2:2:0:0:
137,246,8839,1,0,0:0:0:0:
198,320,8946,38,0,P|241:266|319:269,2,143.000004364014,10|2|2,3:2|2:2|1:2,0:0:0:0:
463,364,9589,1,10,2:2:0:0:
466,354,9696,1,0,0:0:0:0:
388,366,9803,6,0,L|377:296,1,71.5000021820069,2|0,3:2|0:0,0:0:0:0:
307,368,10017,1,8,2:2:0:0:
302,376,10124,2,0,L|290:305,1,71.5000021820069,2|8,2:2|1:2,0:0:0:0:
220,370,10339,1,0,0:0:0:0:
215,378,10446,2,0,L|203:307,1,71.5000021820069,2|0,2:2|0:0,0:0:0:0:
9,321,10660,38,0,P|67:367|134:352,1,143.000004364014,8|0,3:2|0:0,0:0:0:0:
290,305,10982,1,8,2:2:0:0:
295,296,11089,2,0,P|330:304|360:338,1,71.5000021820069,0|0,1:1|0:0,0:0:0:0:
233,378,11303,1,10,2:2:0:0:
220,370,11410,1,2,2:2:0:0:
354,335,11517,6,0,L|507:305,1,143.000004364014,2|8,3:2|2:2,0:0:0:0:
497,296,11839,1,0,0:0:0:0:
348,345,11946,38,0,L|501:375,1,143.000004364014,10|0,1:2|0:0,0:0:0:0:
491,384,12268,1,0,0:0:0:0:
354,335,12374,6,0,P|316:340|287:380,1,71.5000021820069,10|0,3:2|0:0,0:0:0:0:
242,282,12589,2,0,P|216:310|219:359,1,71.5000021820069,10|8,2:3|2:2,0:0:0:0:
118,311,12803,2,0,P|116:349|150:384,1,71.5000021820069,6|0,2:3|0:0,0:0:0:0:
134,375,13017,38,0,P|56:376|17:319,1,143.000004364014,6|0,1:2|3:3,0:0:0:0:
21,318,13339,1,0,0:0:0:0:
23,310,13446,2,0,P|46:287|93:287,1,71.5000021820069,6|0,1:3|0:0,0:0:0:0:
195,293,13660,6,0,L|216:383,1,71.5000021820069,6|0,1:3|0:0,0:0:0:0:
328,250,13874,2,0,L|279:328,1,71.5000021820069,6|0,1:3|0:0,0:0:0:0:
487,253,14089,2,0,L|396:274,1,71.5000021820069,6|0,1:3|0:0,0:0:0:0:
279,315,14303,38,0,L|295:384,1,71.5000021820069,6|0,1:3|0:0,0:0:0:0:
156,257,14517,2,0,L|172:326,1,71.5000021820069,6|0,1:3|0:0,0:0:0:0:
30,200,14732,2,0,L|46:269,1,71.5000021820069,6|0,1:3|0:0,0:0:0:0:
285,384,14946,6,0,L|412:367,1,104,6|0,3:1|0:0,0:0:0:0:
439,314,15267,1,2,2:2:0:0:
433,306,15374,1,0,3:3:0:0:
356,261,15589,1,2,2:2:0:0:
249,303,15803,38,0,P|211:346|148:344,1,104,2|0,3:2|0:0,0:0:0:0:
101,299,16124,1,2,2:2:0:0:
106,289,16232,1,0,3:3:0:0:
25,360,16446,1,2,2:2:0:0:
166,360,16660,6,0,L|186:247,2,104,2|2|2,3:2|2:2|3:2,0:0:0:0:
166,360,17303,2,0,L|238:341,1,52,2|0,2:2|0:0,0:0:0:0:
301,369,17517,1,0,3:3:0:0:
485,296,17732,37,2,2:2:0:0:
483,306,17839,1,0,0:0:0:0:
481,316,17946,1,2,3:2:0:0:
423,370,18160,1,2,2:2:0:0:
291,293,18374,5,2,3:2:0:0:
225,345,18589,1,2,2:2:0:0:
223,339,18696,1,0,0:0:0:0:
221,333,18803,1,2,3:2:0:0:
307,374,19017,1,2,2:2:0:0:
130,362,19232,37,2,3:2:0:0:
146,271,19447,1,2,2:2:0:0:
148,277,19554,1,0,0:0:0:0:
150,283,19661,1,2,3:2:0:0:
63,301,19875,1,2,2:2:0:0:
213,370,20089,6,0,L|359:340,1,104,2|0,3:2|0:0,0:0:0:0:
364,278,20410,1,0,0:0:0:0:
372,288,20517,2,0,L|425:300,1,52,2|0,3:2|0:0,0:0:0:0:
448,369,20732,2,0,L|501:381,1,52
207,280,20946,37,2,3:2:0:0:
135,348,21160,2,0,L|19:321,2,104,2|2|2,2:2|3:2|2:2,0:0:0:0:
283,247,21803,6,0,P|317:282|381:284,1,104,6|0,3:1|0:0,0:0:0:0:
440,252,22124,1,2,2:2:0:0:
444,261,22232,1,0,3:3:0:0:
492,324,22446,1,2,2:2:0:0:
367,296,22660,38,0,P|316:300|280:336,1,104,2|0,3:2|0:0,0:0:0:0:
209,366,22982,1,2,2:2:0:0:
206,355,23089,1,0,3:3:0:0:
231,272,23303,1,2,2:2:0:0:
29,267,23517,5,2,3:2:0:0:
119,353,23732,1,2,2:2:0:0:
94,363,23839,1,0,0:0:0:0:
78,384,23946,1,2,3:2:0:0:
115,250,24160,2,0,P|134:269|169:281,1,52,2|0,2:2|0:0,0:0:0:0:
247,383,24374,38,0,P|277:350|349:344,1,104,0|2,3:3|2:2,0:0:0:0:
402,384,24696,1,0,0:0:0:0:
414,378,24803,2,0,L|433:271,1,104,2|2,3:2|2:2,0:0:0:0:
260,305,25232,6,0,L|137:282,1,104,0|2,3:3|2:2,0:0:0:0:
94,331,25553,1,0,0:0:0:0:
98,339,25660,1,2,3:2:0:0:
21,287,25874,1,2,2:2:0:0:
192,358,26089,38,0,L|315:335,1,104,2|0,3:2|0:0,0:0:0:0:
303,343,26410,1,0,0:0:0:0:
311,346,26517,2,0,P|317:319|307:290,1,52,2|0,3:2|0:0,0:0:0:0:
91,249,26732,1,2,1:2:0:0:
59,372,26946,6,0,P|74:354|115:332,1,52,0|0,3:3|0:0,0:0:0:0:
174,268,27160,1,4,1:3:0:0:
198,275,27267,1,0,0:0:0:0:
213,296,27374,38,0,L|204:368,1,52,6|0,1:3|0:0,0:0:0:0:
322,253,27589,2,0,L|315:304,1,52,4|0,1:3|0:0,0:0:0:0:
428,207,27803,2,0,L|421:258,1,52,6|0,1:3|0:0,0:0:0:0:
255,213,28017,5,0,3:3:0:0:
219,201,28124,1,0,0:0:0:0:
184,189,28232,2,0,L|232:177,1,45.5,6|0,1:3|0:0,0:0:0:0:
441,341,28660,38,0,L|290:309,1,130,6|8,3:1|2:2,0:0:0:0:
227,328,28982,1,0,0:0:0:0:
218,321,29089,2,0,L|230:384,1,65,10|0,1:2|0:0,0:0:0:0:
153,264,29303,1,0,0:0:0:0:
158,253,29410,1,0,1:1:0:0:
41,383,29517,6,0,P|97:335|169:369,1,130,10|0,3:2|0:0,0:0:0:0:
225,302,29839,1,8,2:2:0:0:
221,310,29946,2,0,P|239:336|279:348,1,65,2|0,1:2|0:0,0:0:0:0:
319,281,30160,2,0,P|301:255|261:243,1,65,8|0,2:2|0:0,0:0:0:0:
476,346,30374,38,0,P|414:336|358:373,2,130,2|8|10,3:2|2:2|1:2,0:0:0:0:
481,355,30910,1,0,0:0:0:0:
495,326,31017,1,0,0:0:0:0:
479,295,31124,1,0,0:0:0:0:
377,230,31232,6,0,L|348:371,1,130,10|0,3:2|0:0,0:0:0:0:
267,279,31553,1,8,2:2:0:0:
221,368,31660,2,0,L|148:385,1,65,2|0,1:2|0:0,0:0:0:0:
160,303,31874,2,0,L|87:320,1,65,10|0,2:2|0:0,0:0:0:0:
350,357,32089,37,2,3:2:0:0:
407,303,32196,1,0,0:0:0:0:
377,230,32303,1,8,2:2:0:0:
267,279,32517,5,10,1:2:0:0:
267,279,32732,1,2,2:2:0:0:
175,374,32946,37,10,3:2:0:0:
118,320,33053,1,0,1:1:0:0:
148,247,33160,1,0,0:0:0:0:
267,279,33374,5,2,1:2:0:0:
267,279,33589,1,10,1:2:0:0:
374,260,33803,38,0,P|404:274|419:316,1,65,2|0,3:2|1:1,0:0:0:0:
494,302,34017,1,10,2:2:0:0:
500,308,34124,1,2,2:2:0:0:
505,313,34232,2,0,P|500:345|465:373,1,65,10|0,1:2|0:0,0:0:0:0:
292,354,34446,2,0,P|321:338|363:351,1,65,2|0,1:2|1:1,0:0:0:0:
173,272,34660,6,0,L|15:307,1,130,10|2,3:2|1:2,0:0:0:0:
37,295,34982,1,8,1:2:0:0:
154,365,35089,2,0,L|241:381,1,65,2|0,1:2|1:1,0:0:0:0:
282,324,35303,2,0,L|369:340,1,65,8|8,2:3|2:3,0:0:0:0:
62,371,35517,38,0,L|99:233,1,130,6|8,3:1|2:2,0:0:0:0:
142,369,35839,1,0,0:0:0:0:
150,381,35946,2,0,L|187:243,1,130,10|0,1:2|0:0,0:0:0:0:
274,380,36267,1,0,0:0:0:0:
281,384,36374,6,0,P|292:353|268:312,1,65,10|0,3:2|0:0,0:0:0:0:
270,241,36589,1,0,0:0:0:0:
259,247,36696,1,8,2:2:0:0:
361,294,36803,2,0,L|515:323,1,130,2|8,1:2|2:2,0:0:0:0:
496,312,37124,1,0,0:0:0:0:
377,380,37232,38,0,P|348:325|286:319,2,130,2|8|10,3:2|2:2|1:2,0:0:0:0:
370,384,37767,1,0,0:0:0:0:
357,370,37874,1,0,0:0:0:0:
340,367,37982,1,0,1:1:0:0:
186,377,38089,6,0,L|201:290,1,65,10|0,3:2|1:1,0:0:0:0:
53,298,38303,1,0,0:0:0:0:
40,313,38410,1,8,2:2:0:0:
27,328,38517,2,0,L|42:241,1,65,2|0,1:2|0:0,0:0:0:0:
126,273,38732,2,0,L|141:186,1,65,10|0,1:2|1:1,0:0:0:0:
267,359,38946,38,0,P|333:347|346:270,1,130,6|8,3:2|2:2,0:0:0:0:
277,234,39267,1,2,2:2:0:0:
267,229,39374,2,0,P|236:237|208:275,1,65,8|0,1:2|0:0,0:0:0:0:
131,268,39589,2,0,P|118:297|132:342,1,65,2|0,2:2|0:0,0:0:0:0:
267,359,39803,5,10,1:2:0:0:
349,300,39910,2,0,L|370:220,1,65,2|0,1:2|0:0,0:0:0:0:
434,360,40124,2,0,L|474:210,1,130,10|0,2:3|0:0,0:0:0:0:
357,370,40446,2,0,L|336:290,1,65,6|4,2:3|2:3,0:0:0:0:
254,137,40660,37,2,3:2:0:0:
254,137,41517,2,0,L|239:181,14,32.5,2|0|0|0|0|0|0|0|0|0|0|0|0|0|0,2:2|0:0|0:0|0:0|0:0|0:0|0:0|0:0|0:0|0:0|0:0|0:0|0:0|0:0|0:0,0:0:0:0:
238,367,42374,6,0,L|211:225,1,126.749994197846,6|0,3:1|0:0,0:0:0:0:
207,236,42589,1,10,2:2:0:0:
140,280,42696,1,0,0:0:0:0:
82,227,42803,2,0,L|-8:209,1,84.4999961318971,10|0,1:2|0:0,0:0:0:0:
102,351,43017,2,0,L|12:333,1,84.4999961318971,2|0,2:2|0:0,0:0:0:0:
230,359,43232,38,0,P|237:286|327:233,2,168.999992263794,10|2|2,3:2|2:2|1:2,0:0:0:0:
238,362,43767,1,0,0:0:0:0:
245,367,43874,2,0,L|333:356,1,84.4999961318971,10|0,2:2|0:0,0:0:0:0:
495,228,44089,6,0,P|422:275|415:376,1,168.999992263794,2|8,3:2|2:2,0:0:0:0:
481,374,44410,1,2,2:2:0:0:
512,304,44517,2,0,P|474:259|391:258,1,126.749994197846,8|0,1:2|0:0,0:0:0:0:
403,259,44732,2,0,P|361:249|339:215,1,84.4999961318971,2|0,2:2|0:0,0:0:0:0:
212,190,44946,38,0,P|194:242|98:265,1,126.749994197846,8|0,3:2|0:0,0:0:0:0:
127,268,45160,1,0,0:0:0:0:
77,205,45267,1,8,2:2:0:0:
215,197,45374,6,0,L|188:372,1,168.999992263794,2|10,1:2|2:2,0:0:0:0:
189,364,45696,1,2,2:2:0:0:
309,288,45803,37,0,3:3:0:0:
337,367,45910,1,0,0:0:0:0:
316,290,46017,2,0,P|332:246|306:204,1,84.4999961318971,8|0,2:2|0:0,0:0:0:0:
215,197,46232,6,0,L|242:372,1,168.999992263794,10|2,1:2|2:2,0:0:0:0:
241,364,46554,1,2,2:2:0:0:
121,288,46661,37,8,3:2:0:0:
93,365,46768,1,0,0:0:0:0:
114,290,46875,2,0,P|98:246|124:204,1,84.4999961318971,0|8,0:0|2:2,0:0:0:0:
215,197,47089,6,0,P|252:253|351:244,1,168.999992263794,2|10,1:2|2:2,0:0:0:0:
345,248,47410,1,2,2:2:0:0:
472,363,47517,38,0,L|446:222,1,126.749994197846,0|0,3:3|0:0,0:0:0:0:
431,215,47732,2,0,L|408:339,1,126.749994197846,8|0,2:2|0:0,0:0:0:0:
388,356,47946,2,0,L|362:215,1,126.749994197846,8|0,1:2|0:0,0:0:0:0:
345,248,48161,2,0,L|322:372,1,126.749994197846
222,384,48374,5,10,1:2:0:0:
206,308,48482,1,0,1:1:0:0:
191,233,48589,1,0,1:1:0:0:
182,242,48696,1,8,3:2:0:0:
78,282,48803,37,0,1:1:0:0:
94,206,48911,1,0,1:1:0:0:
109,131,49017,2,0,L|119:176,1,39,8|0,1:2|0:0,0:0:0:0:
23,327,49232,6,0,P|83:318|131:357,1,126.749994197846,6|0,3:1|0:0,0:0:0:0:
132,370,49446,1,10,2:2:0:0:
199,314,49553,1,0,0:0:0:0:
285,362,49660,2,0,L|267:255,1,84.4999961318971,10|0,1:2|0:0,0:0:0:0:
388,278,49874,2,0,L|370:171,1,84.4999961318971,2|0,2:2|0:0,0:0:0:0:
199,212,50089,38,0,P|214:284|320:302,2,168.999992263794,10|2|2,3:2|2:2|1:2,0:0:0:0:
204,205,50624,1,0,0:0:0:0:
210,199,50732,2,0,P|236:239|214:291,1,84.4999961318971,10|0,2:2|0:0,0:0:0:0:
351,377,50946,6,0,L|448:353,1,84.4999961318971,2|0,3:2|0:0,0:0:0:0:
495,307,51160,1,8,2:2:0:0:
489,297,51267,1,2,2:2:0:0:
358,384,51374,38,0,L|377:280,1,84.4999961318971,8|0,1:2|0:0,0:0:0:0:
310,243,51589,1,2,2:2:0:0:
232,280,51696,1,0,0:0:0:0:
145,266,51803,6,0,P|128:327|188:386,1,126.749994197846,8|0,3:2|0:0,0:0:0:0:
169,379,52017,1,0,0:0:0:0:
97,339,52124,1,8,2:2:0:0:
238,285,52232,38,0,L|419:326,1,168.999992263794,2|10,1:2|2:2,0:0:0:0:
402,322,52553,1,2,2:2:0:0:
229,218,52660,6,0,L|243:324,1,84.4999961318971,0|0,3:3|0:0,0:0:0:0:
307,352,52874,1,8,2:2:0:0:
334,276,52982,1,0,0:0:0:0:
220,222,53089,38,0,L|39:263,1,168.999992263794,10|0,1:2|0:0,0:0:0:0:
56,260,53410,1,2,2:2:0:0:
113,349,53517,5,8,3:2:0:0:
134,327,53624,1,0,0:0:0:0:
164,330,53732,1,0,1:1:0:0:
219,266,53839,1,0,0:0:0:0:
309,283,53946,1,2,1:2:0:0:
369,210,54053,1,0,1:1:0:0:
482,209,54160,2,0,L|462:126,1,84.4999961318971,10|2,2:3|2:2,0:0:0:0:
214,370,54374,37,2,1:2:0:0:
214,370,54589,22,0,B|185:417|139:379|113:322|179:282|232:359|262:223|241:96,1,341.249989585877,6|0,3:1|0:0,0:0:0:0:
298,370,54910,2,0,B|327:417|373:379|399:322|333:282|280:359|250:223|271:96,1,341.249989585877,6|0,3:2|0:0,0:0:0:0:
252,288,55232,6,0,L|259:240,1,45.5,6|0,3:1|0:0,0:0:0:0:
268,235,55660,1,2,2:2:0:0:
269,242,55767,1,2,2:2:0:0:
270,249,55874,1,2,2:2:0:0:
271,256,55982,1,2,2:2:0:0:
348,296,56089,6,0,P|390:262|444:267,1,104,4|8,3:1|2:2,0:0:0:0:
494,321,56410,1,0,0:0:0:0:
499,328,56517,2,0,L|483:381,3,52,8|0|0|0,1:2|0:0|0:0|0:0,0:0:0:0:
360,377,56946,6,0,L|250:356,1,104,8|0,3:2|0:0,0:0:0:0:
180,369,57267,1,8,2:2:0:0:
173,373,57374,2,0,L|185:308,1,52,2|0,1:2|0:0,0:0:0:0:
94,363,57589,2,0,L|106:298,1,52,10|0,2:2|0:0,0:0:0:0:
272,359,57803,38,0,P|291:294|240:240,1,104,2|10,3:2|2:2,0:0:0:0:
187,198,58124,1,2,2:2:0:0:
181,204,58232,2,0,P|191:240|220:252,1,52,8|0,1:2|0:0,0:0:0:0:
275,273,58446,2,0,P|309:258|317:228,1,52,2|0,2:2|0:0,0:0:0:0:
393,348,58660,6,0,P|431:294|390:215,1,156,8|8,3:2|2:2,0:0:0:0:
392,227,59089,1,2,1:2:0:0:
412,244,59196,1,2,2:2:0:0:
450,255,59303,1,10,1:2:0:0:
482,243,59410,1,0,1:1:0:0:
497,221,59517,37,2,3:2:0:0:
484,270,59624,1,0,0:0:0:0:
471,319,59732,2,0,L|489:374,2,52,10|2|8,2:2|2:2|1:2,0:0:0:0:
392,345,60053,1,0,0:0:0:0:
385,340,60160,2,0,L|398:268,1,52,2|0,2:2|0:0,0:0:0:0:
313,222,60374,6,0,P|320:252|303:288,1,52,10|0,3:2|0:0,0:0:0:0:
239,281,60589,1,2,2:2:0:0:
230,274,60696,2,0,P|223:244|240:208,2,52,10|0|0,2:2|1:1|0:0,0:0:0:0:
323,237,61017,2,0,P|318:212|302:192,1,52,10|0,2:2|0:0,0:0:0:0:
210,356,61232,38,0,P|160:317|148:267,1,104,2|8,3:2|2:2,0:0:0:0:
3,352,61553,1,2,2:2:0:0:
15,357,61660,2,0,P|38:329|28:282,1,52,8|0,1:2|0:0,0:0:0:0:
81,248,61874,2,0,P|65:215|18:204,1,52,2|0,2:2|0:0,0:0:0:0:
167,226,62089,5,8,1:2:0:0:
167,233,62142,1,0,0:0:0:0:
167,240,62196,1,8,2:3:0:0:
168,247,62249,1,0,0:0:0:0:
169,254,62303,2,0,L|236:243,1,52,2|8,2:2|2:3,0:0:0:0:
304,253,62517,2,0,L|293:186,1,52,2|4,3:2|2:3,0:0:0:0:
384,216,62732,2,0,L|373:149,1,52,6|4,2:3|2:3,0:0:0:0:
241,330,62946,38,0,L|341:356,1,104,6|8,3:1|2:2,0:0:0:0:
475,273,63267,1,2,2:2:0:0:
482,266,63374,2,0,P|473:231|448:211,1,52,8|0,1:2|0:0,0:0:0:0:
383,244,63589,2,0,P|392:279|417:299,1,52,2|0,2:2|0:0,0:0:0:0:
234,336,63803,6,0,P|221:304|256:242,1,104,10|0,3:2|0:0,0:0:0:0:
147,194,64124,1,10,2:2:0:0:
139,200,64232,2,0,L|151:256,1,52,0|0,1:1|0:0,0:0:0:0:
73,276,64446,2,0,L|61:220,1,52,10|0,2:2|0:0,0:0:0:0:
233,375,64660,37,2,3:2:0:0:
245,360,64767,1,2,2:2:0:0:
230,337,64874,1,10,2:2:0:0:
253,303,64982,1,2,2:2:0:0:
231,274,65089,1,8,1:2:0:0:
255,236,65196,2,0,L|264:181,2,52,0|2|2,0:0|2:2|2:2,0:0:0:0:
145,354,65517,6,0,P|93:288|2:295,1,156,8|8,3:2|2:2,0:0:0:0:
40,299,65946,1,2,1:2:0:0:
58,267,66053,1,2,2:2:0:0:
47,235,66160,2,0,L|31:171,1,52,10|0,1:2|1:1,0:0:0:0:
149,345,66374,38,0,L|175:213,1,104,6|8,3:1|2:2,0:0:0:0:
181,234,66696,1,0,0:0:0:0:
233,382,66803,2,0,L|259:250,1,104,10|0,1:2|0:0,0:0:0:0:
265,271,67125,1,0,0:0:0:0:
342,370,67232,6,0,P|362:345|357:309,1,52,10|0,3:2|0:0,0:0:0:0:
439,308,67446,2,0,P|431:276|399:259,1,52,2|8,2:2|2:3,0:0:0:0:
447,193,67660,2,0,P|417:180|384:195,1,52,2|0,3:2|0:0,0:0:0:0:
155,317,67874,38,0,P|97:317|58:252,2,130,6|0|6,1:1|3:3|1:3,0:0:0:0:
247,349,68410,1,0,0:0:0:0:
254,352,68517,6,0,L|234:285,1,65,6|0,1:3|0:0,0:0:0:0:
291,229,68732,2,0,L|271:162,1,65,6|0,1:3|0:0,0:0:0:0:
248,368,68946,38,0,L|228:301,1,65,6|0,1:3|0:0,0:0:0:0:
297,213,69160,2,0,L|277:146,1,65,6|0,1:3|0:0,0:0:0:0:
242,384,69374,6,0,L|222:317,1,65,6|0,1:3|0:0,0:0:0:0:
303,197,69589,2,0,L|283:130,1,65,6|0,1:3|0:0,0:0:0:0:
502,372,69803,38,0,P|464:342|459:281,1,104,6|0,3:1|0:0,0:0:0:0:
338,326,70124,1,2,2:2:0:0:
330,331,70232,2,0,P|341:283|394:253,1,104,0|2,3:3|2:2,0:0:0:0:
10,372,70660,6,0,P|48:342|53:281,1,104,2|0,3:2|0:0,0:0:0:0:
174,326,70981,1,2,2:2:0:0:
182,331,71089,2,0,P|170:283|117:253,1,104,0|2,3:3|2:2,0:0:0:0:
242,384,71517,37,2,3:2:0:0:
296,316,71732,1,2,2:2:0:0:
294,305,71839,1,0,0:0:0:0:
292,294,71946,1,2,3:2:0:0:
213,257,72160,1,2,2:2:0:0:
261,195,72374,5,0,3:3:0:0:
261,195,72589,2,0,L|273:263,2,52,2|0|2,2:2|0:0|3:2,0:0:0:0:
242,384,73017,1,2,2:2:0:0:
44,370,73232,38,0,L|71:257,1,104,2|2,3:2|2:2,0:0:0:0:
128,377,73553,1,0,0:0:0:0:
131,384,73660,2,0,L|158:271,1,104,2|2,3:2|2:2,0:0:0:0:
468,370,74089,6,0,L|441:257,1,104,2|2,3:2|2:2,0:0:0:0:
384,377,74410,1,0,0:0:0:0:
381,384,74517,2,0,L|354:271,1,104,2|2,3:2|2:2,0:0:0:0:
257,382,74946,38,0,P|252:309|223:255,1,130,2|0,1:2|0:0,0:0:0:0:
220,253,75267,1,0,0:0:0:0:
258,367,75374,6,0,P|263:294|292:240,1,130,10|0,1:3|0:0,0:0:0:0:
295,238,75695,1,0,0:0:0:0:
258,355,75803,38,0,L|241:194,1,155.999995239258,2|2,1:2|2:2,0:0:0:0:
247,193,76124,1,4,2:3:0:0:
253,185,76232,2,0,L|239:260,1,52,2|0,3:2|0:0,0:0:0:0:
267,315,76446,2,0,L|253:390,1,52,2|0,1:2|0:0,0:0:0:0:
13,258,76660,6,0,L|126:287,1,104,2|0,3:2|0:0,0:0:0:0:
180,321,76982,1,2,2:2:0:0:
176,330,77089,1,0,1:1:0:0:
253,185,77303,1,2,2:2:0:0:
383,278,77517,38,0,L|432:262,2,52,2|0|0,3:2|0:0|0:0,0:0:0:0:
337,344,77839,1,2,2:2:0:0:
341,353,77946,1,0,1:1:0:0:
253,185,78160,1,2,2:2:0:0:
471,340,78374,5,2,3:2:0:0:
432,262,78589,1,2,2:2:0:0:
331,254,78803,1,2,1:2:0:0:
253,185,79017,1,2,2:2:0:0:
0,279,79232,37,0,3:3:0:0:
65,230,79446,1,2,2:2:0:0:
60,220,79553,1,0,0:0:0:0:
55,210,79660,1,2,1:2:0:0:
37,371,79874,1,2,2:2:0:0:
37,371,80089,6,0,P|80:329|138:333,1,104,0|2,3:3|2:2,0:0:0:0:
126,333,80410,1,0,0:0:0:0:
130,339,80517,2,0,L|148:236,1,104,2|2,1:2|2:2,0:0:0:0:
37,371,80946,38,0,L|55:268,1,104,2|0,3:2|0:0,0:0:0:0:
130,339,81267,1,0,0:0:0:0:
134,343,81374,2,0,P|158:314|150:274,1,52,2|0,1:2|0:0,0:0:0:0:
225,231,81589,2,0,P|213:194|174:180,1,52,2|0,2:2|0:0,0:0:0:0:
512,279,81803,5,0,3:3:0:0:
447,230,82017,1,2,2:2:0:0:
452,220,82124,1,0,0:0:0:0:
457,210,82232,2,0,L|476:292,1,52,2|0,1:2|0:0,0:0:0:0:
362,194,82446,2,0,L|373:244,1,52,2|0,3:2|1:1,0:0:0:0:
349,366,82660,37,2,2:2:0:0:
360,331,82767,1,0,1:1:0:0:
372,296,82874,1,0,1:1:0:0:
384,261,82982,1,0,1:1:0:0:
390,269,83089,1,2,3:2:0:0:
396,277,83196,2,0,L|459:263,2,52,8|6|4,2:3|2:3|2:3,0:0:0:0:
223,166,83517,6,0,L|230:214,1,48.75,6|0,3:2|0:0,0:0:0:0:
283,289,84374,38,0,L|265:355,1,65,6|4,3:2|2:3,0:0:0:0:
261,366,84642,1,0,0:0:0:0:
261,366,84696,2,0,L|231:359,2,26,0|0|2,0:0|0:0|3:2,0:0:0:0:
256,112,85017,5,6,1:1:0:0:
256,112,85446,2,0,L|245:174,1,52,4|0,1:3|0:0,0:0:0:0:
165,362,85660,38,0,P|147:340|151:282,1,65,6|0,1:3|0:0,0:0:0:0:
96,222,85874,2,0,P|103:195|153:165,1,65,4|0,1:3|0:0,0:0:0:0:
347,362,86089,6,0,P|364:340|360:282,1,65,6|0,1:3|0:0,0:0:0:0:
416,222,86303,2,0,P|408:195|358:165,1,65,0|0,3:3|0:0,0:0:0:0:
242,374,86517,38,0,B|216:303|246:267|269:284|300:247|266:151,1,227.5,2|0,1:2|0:0,0:0:0:0:
263,158,86946,6,0,P|242:128|265:157,1,113.75,2|0,2:2|0:0,0:0:0:0:
242,374,87374,38,0,L|267:144,1,227.5,6|0,3:1|0:0,0:0:0:0:
140,376,87803,2,0,L|165:146,1,227.5,6|0,3:2|0:0,0:0:0:0:
344,372,88231,2,0,L|369:142,1,227.5,6|0,3:1|0:0,0:0:0:0:
254,157,88660,5,6,3:2:0:0:
254,172,88767,1,0,1:1:0:0:
264,173,88874,1,0,1:1:0:0:
267,157,88981,1,0,1:1:0:0:
249,150,89088,37,10,2:3:0:0:
249,179,89195,1,0,1:1:0:0:
268,181,89303,1,0,1:1:0:0:
274,150,89410,1,0,3:3:0:0:
247,147,89517,5,2,1:2:0:0:
243,184,89624,1,0,1:1:0:0:
270,186,89732,1,0,1:1:0:0:
278,147,89838,1,0,3:3:0:0:
251,129,89946,38,0,L|233:75,3,32.5,2|0|2|0,1:2|1:1|3:2|1:1,0:0:0:0:
186,351,90374,5,6,3:1:0:0:
157,281,90481,1,0,0:0:0:0:
128,211,90588,1,8,2:2:0:0:
250,217,90803,37,10,1:2:0:0:
250,217,91017,1,2,2:2:0:0:
314,351,91231,5,10,3:2:0:0:
343,281,91338,1,0,0:0:0:0:
372,211,91445,1,0,0:0:0:0:
250,217,91660,37,2,1:2:0:0:
250,217,91874,1,10,1:2:0:0:
87,365,92088,6,0,P|69:336|79:293,1,65,2|0,3:2|0:0,0:0:0:0:
9,264,92302,1,10,2:2:0:0:
7,256,92409,1,2,2:2:0:0:
6,249,92517,2,0,P|27:224|72:220,1,65,10|0,1:2|0:0,0:0:0:0:
201,282,92731,2,0,P|179:306|134:310,1,65,2|0,2:2|0:0,0:0:0:0:
284,200,92946,38,0,L|302:266,1,65,10|0,3:2|0:0,0:0:0:0:
374,226,93160,2,0,L|392:292,1,65,2|8,1:2|2:2,0:0:0:0:
458,366,93374,5,2,1:2:0:0:
512,303,93481,1,0,1:1:0:0:
462,236,93588,1,0,1:1:0:0:
101,340,93803,38,0,L|231:308,1,130,6|8,3:1|2:2,0:0:0:0:
309,321,94124,1,0,0:0:0:0:
315,326,94231,2,0,L|283:196,1,130,10|0,1:2|0:0,0:0:0:0:
208,181,94553,1,0,1:1:0:0:
139,223,94660,6,0,L|161:301,1,65,10|0,3:2|0:0,0:0:0:0:
76,291,94874,2,0,L|98:369,1,65,0|8,0:0|2:2,0:0:0:0:
227,308,95088,2,0,P|293:312|325:373,1,130,2|8,1:2|2:2,0:0:0:0:
321,373,95410,1,0,1:1:0:0:
370,271,95517,38,0,P|379:216|461:191,2,130,2|8|10,3:2|2:2|1:2,0:0:0:0:
379,283,96053,1,0,0:0:0:0:
393,290,96160,1,0,0:0:0:0:
414,287,96267,1,0,0:0:0:0:
290,215,96374,6,0,L|224:226,1,65,10|0,3:2|1:1,0:0:0:0:
36,309,96588,1,0,0:0:0:0:
48,332,96696,1,8,2:2:0:0:
60,354,96803,2,0,L|83:255,1,65,2|0,1:2|0:0,0:0:0:0:
204,282,97017,2,0,L|227:183,1,65,10|0,1:2|1:1,0:0:0:0:
83,183,97231,38,0,P|61:203|0:212,1,65,6|0,3:2|0:0,0:0:0:0:
147,343,97446,1,8,2:2:0:0:
198,286,97553,2,0,P|228:295|253:317,2,65,2|8|0,2:2|1:2|0:0,0:0:0:0:
317,365,97874,2,0,P|337:339|345:308,1,65,2|8,2:2|2:3,0:0:0:0:
494,242,98088,5,10,3:2:0:0:
424,295,98196,2,0,P|415:263|395:238,1,65,10|4,2:3|2:3,0:0:0:0:
316,365,98410,2,0,P|280:309|302:252,1,130,6|4,2:3|2:3,0:0:0:0:
476,384,98731,2,0,P|492:356|496:324,1,65,2|0,3:2|0:0,0:0:0:0:
256,192,98946,37,2,3:2:0:0:
256,192,99803,2,0,L|241:143,7,32.5,10|8|8|8|8|8|8|8,2:3|2:3|2:3|2:3|2:3|2:3|2:3|2:3,0:0:0:0:
313,254,100231,5,8,2:3:0:0:
270,322,100446,1,4,2:3:0:0:
271,83,100660,38,0,L|235:236,1,126.749994197846,6|0,3:1|0:0,0:0:0:0:
234,218,100874,1,10,2:2:0:0:
175,270,100981,1,0,0:0:0:0:
96,248,101088,2,0,L|119:161,1,84.4999961318971,10|0,1:2|0:0,0:0:0:0:
200,358,101303,2,0,L|177:271,1,84.4999961318971,2|0,2:2|0:0,0:0:0:0:
10,332,101517,6,0,P|11:273|122:251,2,168.999992263794,10|2|2,3:2|2:2|1:2,0:0:0:0:
17,337,102053,1,0,0:0:0:0:
24,341,102160,2,0,L|130:316,1,84.4999961318971,10|0,2:2|0:0,0:0:0:0:
319,228,102374,38,0,P|390:256|398:346,1,168.999992263794,2|8,3:2|2:2,0:0:0:0:
339,381,102696,1,2,2:2:0:0:
259,384,102803,2,0,L|238:244,1,126.749994197846,8|0,1:2|0:0,0:0:0:0:
230,264,103017,2,0,L|243:175,1,84.4999961318971,2|0,2:2|0:0,0:0:0:0:
511,303,103231,6,0,L|362:330,1,126.749994197846,8|0,3:2|0:0,0:0:0:0:
380,319,103446,1,0,0:0:0:0:
324,257,103553,1,8,2:2:0:0:
259,384,103660,38,0,P|248:287|185:244,1,168.999992263794,2|10,1:2|2:2,0:0:0:0:
195,246,103981,1,2,2:2:0:0:
58,288,104088,5,0,3:3:0:0:
99,365,104196,1,0,0:0:0:0:
51,292,104303,2,0,L|77:198,1,84.4999961318971,8|0,2:2|0:0,0:0:0:0:
259,384,104517,38,0,P|270:287|333:244,1,168.999992263794,10|2,1:2|2:2,0:0:0:0:
322,246,104838,1,2,2:2:0:0:
460,288,104945,5,8,3:2:0:0:
419,365,105053,1,0,0:0:0:0:
467,292,105160,2,0,L|441:198,1,84.4999961318971,0|8,0:0|2:2,0:0:0:0:
346,337,105374,38,0,L|174:297,1,168.999992263794,2|10,1:2|2:2,0:0:0:0:
181,298,105696,1,2,2:2:0:0:
66,345,105803,6,0,P|97:294|66:204,1,126.749994197846,0|0,3:3|0:0,0:0:0:0:
88,221,106017,2,0,P|143:243|175:332,1,126.749994197846,8|0,2:2|0:0,0:0:0:0:
186,311,106231,2,0,P|217:260|186:170,1,126.749994197846,8|0,1:2|0:0,0:0:0:0:
216,186,106445,2,0,P|271:208|303:297,1,126.749994197846
367,359,106660,37,10,1:2:0:0:
383,283,106768,1,0,1:1:0:0:
398,208,106875,1,0,1:1:0:0:
407,217,106982,1,8,3:2:0:0:
511,257,107089,5,0,1:1:0:0:
495,181,107197,1,0,1:1:0:0:
480,106,107303,2,0,L|469:150,1,39,8|0,1:2|0:0,0:0:0:0:
294,337,107517,38,0,P|257:286|180:295,1,126.749994197846,6|0,3:1|0:0,0:0:0:0:
192,293,107731,1,10,2:2:0:0:
137,353,107838,1,0,0:0:0:0:
58,327,107946,2,0,L|37:239,1,84.4999961318971,10|0,1:2|0:0,0:0:0:0:
197,284,108160,2,0,L|176:196,1,84.4999961318971,2|0,2:2|0:0,0:0:0:0:
371,312,108374,6,0,L|195:275,2,168.999992263794,10|2|2,3:2|2:2|1:2,0:0:0:0:
379,310,108910,1,0,0:0:0:0:
387,308,109017,2,0,P|398:264|363:221,1,84.4999961318971,10|0,2:2|0:0,0:0:0:0:
225,359,109231,38,0,L|201:260,1,84.4999961318971,2|0,3:2|0:0,0:0:0:0:
252,203,109446,1,8,2:2:0:0:
261,207,109553,1,2,2:2:0:0:
114,196,109660,6,0,P|72:221|64:255,1,84.4999961318971,8|0,1:2|0:0,0:0:0:0:
131,313,109874,1,2,2:2:0:0:
199,269,109981,1,0,0:0:0:0:
285,296,110088,38,0,L|433:267,1,126.749994197846,8|0,3:2|0:0,0:0:0:0:
418,277,110303,1,0,0:0:0:0:
411,358,110410,1,8,2:2:0:0:
276,384,110517,6,0,P|268:311|191:255,1,168.999992263794,2|10,1:2|2:2,0:0:0:0:
197,256,110838,1,2,2:2:0:0:
123,377,110946,38,0,P|95:347|103:283,1,84.4999961318971,0|0,3:3|0:0,0:0:0:0:
123,232,111160,1,8,2:2:0:0:
197,256,111267,1,0,0:0:0:0:
341,205,111374,6,0,L|516:241,1,168.999992263794,10|0,1:2|0:0,0:0:0:0:
506,239,111696,1,2,2:2:0:0:
413,384,111803,38,0,L|396:301,1,84.4999961318971,12|0,3:1|1:1,0:0:0:0:
273,306,112017,2,0,L|256:223,1,84.4999961318971,8|0,3:3|1:1,0:0:0:0:
99,147,112231,2,0,L|115:229,1,84.4999961318971,6|0,3:3|1:1,0:0:0:0:
220,364,112446,1,2,1:2:0:0:
315,173,112553,21,2,3:2:0:0:
315,173,112606,1,0,3:3:0:0:
315,173,112660,2,0,B|332:96|173:92|194:182,1,195,2|0,1:2|0:0,0:0:0:0:
255,234,112874,6,0,P|255:165|293:94,2,130,6|0|0,3:1|0:0|0:0,0:0:0:0:
230,97,113196,2,0,P|255:156|254:220,2,130,6|0|0,3:2|0:0|0:0,0:0:0:0:
255,244,113517,2,0,P|249:200|259:177,1,68.2499979171754,6|0,3:1|1:1,0:0:0:0:
264,181,113946,2,0,L|277:184,2,9.74999970245362,2|0|0,1:2|1:1|1:1,0:0:0:0:
223,106,114160,1,10,2:3:0:0:
24,384,114374,6,0,L|61:222,1,155.999995239258,6|10,3:1|3:2,0:0:0:0:
58,231,115017,1,2,2:2:0:0:
235,234,115231,2,0,P|201:281|124:275,2,116.999996429443,10|8|10,3:2|2:2|2:2,0:0:0:0:
308,292,116088,6,0,P|344:309|360:357,1,77.999997619629,2|10,3:2|2:2,0:0:0:0:
355,350,116410,1,0,0:0:0:0:
352,357,116517,2,0,L|415:340,2,38.9999988098145,10|0|2,3:2|0:0|2:2,0:0:0:0:
238,363,116946,2,0,L|219:233,2,116.999996429443,10|8|10,3:2|2:2|2:2,0:0:0:0:
111,330,117696,1,0,0:0:0:0:
103,339,117803,38,0,L|58:327,3,38.9999988098145,2|2|10|2,3:2|2:2|2:2|2:2,0:0:0:0:
57,346,118231,2,0,P|50:306|6:263,1,77.999997619629,10|2,3:2|2:2,0:0:0:0:
181,364,118660,2,0,L|281:349,1,77.999997619629,10|0,3:2|0:0,0:0:0:0:
264,359,118981,1,8,2:2:0:0:
272,367,119088,1,2,3:2:0:0:
346,332,119303,1,10,2:2:0:0:
459,371,119517,5,2,3:2:0:0:
344,322,119731,1,10,2:2:0:0:
436,276,119946,2,0,L|519:293,1,77.999997619629,10|2,3:2|2:2,0:0:0:0:
336,329,120267,1,0,0:0:0:0:
328,335,120374,38,0,P|294:287|326:226,2,116.999996429443,10|8|8,3:2|2:2|2:2,0:0:0:0:
136,384,121231,5,6,1:2:0:0:
132,377,121338,1,0,3:3:0:0:
128,370,121446,2,0,L|144:294,1,65,2|0,3:2|1:1,0:0:0:0:
201,263,121660,37,2,1:2:0:0:
205,256,121767,1,0,3:3:0:0:
209,249,121875,2,0,L|193:173,1,65,2|0,3:2|1:1,0:0:0:0:
45,383,122088,6,0,P|40:325|-3:265,1,130,2|2,1:2|3:2,0:0:0:0:
141,296,122410,2,0,P|146:238|189:178,1,130,0|0,1:1|3:3,0:0:0:0:
41,170,122731,1,2,1:2:0:0:
376,384,122946,37,6,1:2:0:0:
380,377,123053,1,0,3:3:0:0:
384,370,123161,2,0,L|368:294,1,65,2|0,3:2|1:1,0:0:0:0:
311,263,123375,5,2,1:2:0:0:
307,256,123482,1,0,3:3:0:0:
303,249,123588,2,0,L|319:173,1,65,2|0,3:2|1:1,0:0:0:0:
467,383,123803,38,0,P|472:325|515:265,1,130,2|0,1:2|3:3,0:0:0:0:
371,296,124125,2,0,P|366:238|323:178,1,130,0|2,1:1|3:2,0:0:0:0:
471,170,124446,1,2,1:2:0:0:
287,354,124660,5,6,1:2:0:0:
280,358,124767,1,0,3:3:0:0:
273,362,124875,2,0,L|197:346,1,65,2|2,3:2|1:2,0:0:0:0:
160,285,125089,37,2,1:2:0:0:
153,281,125196,1,0,3:3:0:0:
146,277,125304,2,0,L|70:293,1,65,2|0,3:2|1:1,0:0:0:0:
322,192,125517,6,0,P|396:210|442:278,1,130,2|0,1:2|3:3,0:0:0:0:
282,274,125838,2,0,P|327:318|390:330,1,130,0|0,1:1|3:3,0:0:0:0:
509,218,126160,1,2,1:2:0:0:
208,372,126374,37,6,1:2:0:0:
206,365,126481,1,0,3:3:0:0:
204,358,126588,1,0,3:3:0:0:
202,351,126696,1,0,1:1:0:0:
288,292,126803,5,0,1:1:0:0:
290,285,126910,1,0,3:3:0:0:
292,278,127017,1,0,3:3:0:0:
294,271,127125,1,0,1:1:0:0:
200,345,127231,38,0,P|185:284|119:234,1,130,2|0,1:2|3:3,0:0:0:0:
298,262,127553,2,0,P|313:201|379:151,1,130,0|0,1:1|1:1,0:0:0:0:
178,148,127874,1,0,1:1:0:0:
301,358,128088,6,0,L|337:351,4,32.5,6|0|0|0|0,3:1|0:0|1:1|0:0|1:1,0:0:0:0:
224,311,128410,1,0,1:1:0:0:
145,352,128517,1,0,3:3:0:0:
100,272,128624,37,8,2:3:0:0:
100,272,128678,1,0,0:0:0:0:
100,272,128731,2,0,L|119:204,1,65,8|8,2:3|2:3,0:0:0:0:
238,213,128946,5,2,3:2:0:0:
253,262,129053,1,6,2:3:0:0:
269,311,129160,1,6,2:3:0:0:
285,360,129267,1,2,1:2:0:0:
215,317,129374,37,2,1:2:0:0:
236,243,129481,1,2,1:2:0:0:
260,171,129588,1,2,1:2:0:0:
284,98,129695,1,2,1:2:0:0:
426,331,136231,6,0,L|346:343,1,77.999997619629,2|4,3:2|2:3,0:0:0:0:
311,222,136445,2,0,L|231:234,1,77.999997619629,6|4,2:3|2:3,0:0:0:0:
57,331,136660,38,0,P|15:265|32:192,1,155.999995239258,6|8,3:2|2:2,0:0:0:0:
44,190,136981,1,2,2:2:0:0:
186,317,137088,2,0,P|201:242|160:179,1,155.999995239258,8|0,1:2|0:0,0:0:0:0:
455,331,137517,6,0,P|497:265|480:192,1,155.999995239258,10|0,3:2|0:0,0:0:0:0:
468,190,137838,1,10,2:2:0:0:
387,290,137945,2,0,L|268:306,1,77.999997619629,0|0,1:1|0:0,0:0:0:0:
170,183,138160,37,10,2:2:0:0:
234,244,138267,1,2,2:2:0:0:
160,179,138374,2,0,L|146:272,1,77.999997619629,2|0,3:2|0:0,0:0:0:0:
69,291,138588,1,10,2:2:0:0:
82,144,138695,2,0,L|56:314,1,155.999995239258,2|2,2:2|2:2,0:0:0:0:
207,315,139017,2,0,P|231:291|232:230,1,77.999997619629,2|0,2:2|0:0,0:0:0:0:
380,167,139231,5,8,3:2:0:0:
320,216,139338,2,0,L|153:189,1,155.999995239258,0|8,1:1|2:2,0:0:0:0:
313,295,139660,2,0,P|337:319|338:380,1,77.999997619629,0|0,1:1|0:0,0:0:0:0:
485,302,139874,37,10,2:2:0:0:
402,253,139981,1,2,2:2:0:0:
486,292,140088,2,0,L|514:131,1,155.999995239258,2|8,3:2|2:2,0:0:0:0:
402,253,140410,1,0,0:0:0:0:
393,261,140517,2,0,L|409:177,1,77.999997619629,10|0,1:2|0:0,0:0:0:0:
316,181,140731,2,0,L|332:97,1,77.999997619629
97,228,140945,6,0,P|141:183|232:222,1,155.999995239258,10|4,3:2|2:3,0:0:0:0:
219,213,141213,1,0,0:0:0:0:
216,219,141267,1,2,2:2:0:0:
213,225,141320,1,0,0:0:0:0:
209,231,141374,2,0,P|187:199|197:159,1,77.999997619629,4|0,2:3|0:0,0:0:0:0:
309,317,141588,38,0,P|341:252|302:181,1,136.499995834351,6|0,1:1|0:0,0:0:0:0:
310,190,141803,2,0,L|330:84,1,90.9999972229005,0|0,3:3|0:0,0:0:0:0:
503,176,142017,6,0,P|496:221|451:246,1,77.999997619629,4|0,1:3|0:0,0:0:0:0:
400,326,142231,2,0,P|393:281|348:256,1,77.999997619629,4|0,1:3|0:0,0:0:0:0:
227,308,142445,37,4,1:3:0:0:
223,314,142499,1,0,0:0:0:0:
219,320,142553,1,0,0:0:0:0:
215,326,142606,1,0,0:0:0:0:
211,332,142660,2,0,P|138:296|129:223,1,155.999995239258,4|0,1:3|0:0,0:0:0:0:
251,154,142981,1,8,2:3:0:0:
258,161,143088,2,0,L|269:250,1,77.999997619629,0|4,3:3|2:3,0:0:0:0:
118,341,143303,5,4,2:3:0:0:
44,293,143410,1,6,2:3:0:0:
45,212,143517,2,0,L|69:127,1,77.999997619629,2|0,1:2|0:0,0:0:0:0:
175,120,143731,37,10,2:2:0:0:
249,168,143838,1,2,2:2:0:0:
248,249,143945,2,0,L|224:334,1,77.999997619629,10|0,2:2|0:0,0:0:0:0:
92,311,144160,5,2,2:2:0:0:
56,286,144267,1,2,2:2:0:0:
58,244,144374,2,0,L|79:169,1,77.999997619629,10|0,1:2|0:0,0:0:0:0:
195,158,144588,37,2,2:2:0:0:
231,183,144695,1,10,2:2:0:0:
229,225,144802,2,0,L|207:299,1,77.999997619629,2|0,2:2|0:0,0:0:0:0:
394,341,145017,5,10,2:2:0:0:
468,293,145124,1,2,2:2:0:0:
467,212,145231,2,0,L|443:127,1,77.999997619629,2|0,1:2|0:0,0:0:0:0:
337,120,145445,37,10,2:2:0:0:
263,168,145552,1,2,2:2:0:0:
264,249,145659,2,0,L|288:334,1,77.999997619629,10|0,2:2|0:0,0:0:0:0:
420,311,145874,5,2,2:2:0:0:
456,286,145981,1,2,2:2:0:0:
454,244,146088,2,0,L|432:169,1,77.999997619629,10|0,1:2|0:0,0:0:0:0:
317,158,146302,37,2,2:2:0:0:
281,183,146409,1,10,2:2:0:0:
283,225,146516,2,0,L|304:299,1,77.999997619629,6|0,2:3|0:0,0:0:0:0:
52,277,146731,5,10,2:2:0:0:
126,254,146838,37,2,2:2:0:0:
200,231,146945,6,0,P|190:161|121:102,1,155.999995239258,2|2,1:2|2:2,0:0:0:0:
304,300,147267,2,0,P|314:230|383:171,1,155.999995239258,10|0,3:3|0:0,0:0:0:0:
210,378,147588,2,0,P|208:344|164:298,1,77.999997619629,6|2,3:3|2:2,0:0:0:0:
287,122,147803,38,0,P|297:192|366:251,1,155.999995239258,2|2,1:2|2:2,0:0:0:0:
190,208,148124,2,0,P|180:278|111:337,1,155.999995239258,10|0,3:3|0:0,0:0:0:0:
386,326,148445,2,0,P|419:331|474:299,1,77.999997619629,6|2,3:3|2:2,0:0:0:0:
210,116,148660,6,0,L|193:70,14,38.9999988098145,6|0|0|0|0|0|0|0|0|0|0|0|0|0|0,3:1|0:0|0:0|0:0|0:0|0:0|0:0|0:0|0:0|0:0|0:0|0:0|0:0|0:0|0:0,0:0:0:0:
260,336,149517,37,0,0:0:0:0:
279,260,149624,1,0,0:0:0:0:
298,184,149731,1,0,0:0:0:0:
318,108,149838,1,0,0:0:0:0:
205,125,149945,6,0,L|219:174,1,45.5
81,360,150374,38,0,P|26:310|46:230,1,136.499995834351,6|0,3:1|0:0,0:0:0:0:
37,245,150588,1,10,2:2:0:0:
117,226,150695,1,0,0:0:0:0:
191,270,150803,2,0,L|212:178,1,90.9999972229005,10|0,1:2|0:0,0:0:0:0:
297,359,151017,2,0,L|318:267,1,90.9999972229005,2|0,2:2|0:0,0:0:0:0:
445,221,151231,6,0,P|349:241|286:174,2,181.999994445801,10|2|2,3:2|2:2|1:2,0:0:0:0:
443,213,151767,1,0,0:0:0:0:
440,204,151874,2,0,P|419:261|441:293,1,90.9999972229005,10|0,2:2|0:0,0:0:0:0:
292,364,152088,38,0,P|278:292|173:265,1,181.999994445801,2|8,3:2|2:2,0:0:0:0:
107,303,152410,1,2,2:2:0:0:
172,384,152517,2,0,L|198:228,1,136.499995834351,8|0,1:2|0:0,0:0:0:0:
185,240,152731,2,0,L|162:110,1,90.9999972229005,2|0,2:2|0:0,0:0:0:0:
0,363,152945,6,0,P|42:315|115:312,1,136.499995834351,8|0,3:2|0:0,0:0:0:0:
115,318,153160,1,0,0:0:0:0:
178,379,153267,1,8,2:2:0:0:
267,194,153374,38,0,L|297:386,1,181.999994445801,2|10,1:2|2:2,0:0:0:0:
295,373,153695,1,2,2:2:0:0:
389,248,153803,5,0,3:3:0:0:
437,320,153910,1,0,0:0:0:0:
384,240,154017,2,0,P|383:201|423:163,1,90.9999972229005,8|0,2:2|0:0,0:0:0:0:
245,202,154231,38,0,L|215:394,1,181.999994445801,10|2,1:2|2:2,0:0:0:0:
216,381,154552,1,2,2:2:0:0:
123,256,154660,5,8,3:2:0:0:
75,328,154767,1,0,0:0:0:0:
128,248,154874,2,0,P|129:209|89:171,1,90.9999972229005,0|8,0:0|2:2,0:0:0:0:
221,376,155088,38,0,L|420:330,1,181.999994445801,2|10,1:2|2:2,0:0:0:0:
398,335,155410,1,2,2:2:0:0:
316,313,155517,6,0,P|262:281|246:200,1,136.499995834351,0|0,3:3|0:0,0:0:0:0:
239,200,155731,2,0,P|185:232|169:313,1,136.499995834351,8|0,2:2|0:0,0:0:0:0:
163,310,155945,2,0,P|109:278|93:197,1,136.499995834351,8|0,1:2|0:0,0:0:0:0:
87,196,156160,2,0,P|33:228|17:309,1,136.499995834351
224,384,156374,37,10,1:2:0:0:
289,351,156481,1,0,1:1:0:0:
308,280,156588,1,0,1:1:0:0:
262,223,156695,1,8,1:2:0:0:
248,244,156803,5,0,1:1:0:0:
183,211,156910,1,0,1:1:0:0:
164,140,157017,1,8,1:2:0:0:
210,83,157124,1,0,1:1:0:0:
376,228,157231,38,0,L|223:265,1,136.499995834351,6|0,3:1|0:0,0:0:0:0:
237,271,157445,1,10,2:2:0:0:
176,215,157553,1,0,0:0:0:0:
99,259,157660,2,0,P|62:219|72:163,1,90.9999972229005,10|0,1:2|0:0,0:0:0:0:
211,348,157874,2,0,P|248:308|238:252,1,90.9999972229005,2|0,2:2|0:0,0:0:0:0:
502,223,158088,6,0,P|420:228|377:325,2,181.999994445801,10|2|2,3:2|2:2|1:2,0:0:0:0:
498,233,158624,1,0,0:0:0:0:
493,242,158731,2,0,L|475:135,1,90.9999972229005,10|0,2:2|0:0,0:0:0:0:
376,321,158945,38,0,L|259:308,1,90.9999972229005,2|0,3:2|0:0,0:0:0:0:
222,355,159160,1,8,2:2:0:0:
229,364,159267,1,2,2:2:0:0:
175,176,159374,6,0,P|127:222|139:267,1,90.9999972229005,8|0,1:2|0:0,0:0:0:0:
193,279,159588,1,2,2:2:0:0:
142,337,159695,1,0,0:0:0:0:
69,295,159803,38,0,P|23:258|24:174,1,136.499995834351,8|0,3:2|0:0,0:0:0:0:
26,184,160017,1,0,0:0:0:0:
96,140,160124,1,8,2:2:0:0:
200,271,160231,6,0,L|389:229,1,181.999994445801,2|10,1:2|2:2,0:0:0:0:
377,231,160553,1,2,2:2:0:0:
346,361,160660,38,0,L|256:337,1,90.9999972229005,0|0,3:3|0:0,0:0:0:0:
192,273,160874,1,8,2:2:0:0:
249,210,160981,1,0,0:0:0:0:
350,368,161088,6,0,P|347:270|418:207,1,181.999994445801,10|0,1:2|0:0,0:0:0:0:
401,213,161410,1,2,2:2:0:0:
208,136,161517,37,8,3:2:0:0:
254,202,161624,1,8,2:3:0:0:
207,275,161731,1,8,2:3:0:0:
250,346,161838,1,8,2:3:0:0:
226,373,161945,6,0,L|201:262,1,90.9999972229005,2|4,3:2|2:3,0:0:0:0:
270,219,162160,2,0,L|245:108,1,90.9999972229005,6|0,2:3|3:3,0:0:0:0:
250,130,162320,37,0,3:3:0:0:
250,130,162374,2,0,L|241:155,1,24.3749992561341,2|0,1:2|0:0,0:0:0:0:
226,373,162695,5,6,3:1:0:0:
266,205,162803,2,0,L|251:149,1,45.4999986114502
290,316,163017,37,6,3:2:0:0:
241,152,163124,1,0,0:0:0:0:
295,331,163231,1,6,3:1:0:0:
237,143,163338,2,0,B|194:220|241:244|265:242|294:286|230:374,1,221.000004215241,0|0,0:0|3:3,0:0:0:0:
232,133,163606,5,0,3:3:0:0:
232,133,163660,2,0,B|218:119|228:90|268:91|277:129|253:145|236:136|236:136|232:133|232:133|218:119|228:90|268:91|277:129|253:144|236:136|236:136|232:133|232:133|218:119|228:90|268:91|277:129|253:144|236:136|236:136|232:133|232:133|218:119|229:90|268:91|277:128|253:144|237:136|237:136|232:133|232:133|218:119|228:90|268:91|277:129|252:145|236:136|236:136|232:133|232:133|218:119|228:90|268:91|277:129|253:144|236:136|236:136|232:133|232:133|218:119|228:90|268:91|277:129|253:144|236:136|236:136|232:133|232:133|218:119|229:90|269:91|277:129|252:145|236:136,1,818.999975006104,6|0,1:2|0:0,0:0:0:0:
246,353,164088,38,0,P|194:304|103:297,1,136.499995834351,6|0,3:1|0:0,0:0:0:0:
127,298,164303,1,10,2:2:0:0:
61,362,164410,1,0,0:0:0:0:
0,296,164517,2,0,L|26:196,1,90.9999972229005,10|0,1:2|0:0,0:0:0:0:
138,286,164731,2,0,L|164:186,1,90.9999972229005,2|0,2:2|0:0,0:0:0:0:
309,292,164945,6,0,P|375:239|328:157,2,181.999994445801,10|2|2,3:2|2:2|1:2,0:0:0:0:
306,284,165481,1,0,0:0:0:0:
303,276,165588,2,0,L|410:296,1,90.9999972229005,10|0,2:2|0:0,0:0:0:0:
512,194,165803,38,0,L|325:165,1,181.999994445801,2|8,3:2|2:2,0:0:0:0:
260,210,166124,1,2,2:2:0:0:
175,178,166231,2,0,P|151:246|182:307,1,136.499995834351,8|0,1:2|0:0,0:0:0:0:
185,301,166445,2,0,P|194:251|160:200,1,90.9999972229005,2|0,2:2|0:0,0:0:0:0:
46,171,166660,5,8,3:2:0:0:
0,242,166767,2,0,L|22:340,1,90.9999972229005,0|0,1:1|0:0,0:0:0:0:
101,360,166981,1,8,2:2:0:0:
274,306,167088,38,0,P|303:245|252:139,1,181.999994445801,2|10,1:2|2:2,0:0:0:0:
261,145,167410,1,2,2:2:0:0:
395,288,167517,5,0,3:3:0:0:
481,190,167624,1,0,0:0:0:0:
383,285,167731,2,0,L|404:185,1,90.9999972229005,8|0,2:2|0:0,0:0:0:0:
238,306,167945,38,0,P|209:245|260:139,1,181.999994445801,10|2,1:2|2:2,0:0:0:0:
251,145,168267,1,2,2:2:0:0:
117,288,168374,5,8,3:2:0:0:
31,190,168481,1,0,0:0:0:0:
129,285,168588,2,0,L|108:185,1,90.9999972229005,0|8,0:0|2:2,0:0:0:0:
350,373,168803,38,0,P|276:332|183:381,1,181.999994445801,2|10,1:2|2:2,0:0:0:0:
192,367,169124,1,2,2:2:0:0:
73,319,169231,6,0,L|116:164,1,136.499995834351,0|0,3:3|0:0,0:0:0:0:
112,174,169445,2,0,L|148:305,1,136.499995834351,8|0,2:2|0:0,0:0:0:0:
164,297,169660,2,0,L|207:142,1,136.499995834351,8|0,1:2|0:0,0:0:0:0:
203,152,169874,2,0,L|239:283,1,136.499995834351
348,355,170088,37,10,1:2:0:0:
394,283,170195,1,0,1:1:0:0:
322,225,170303,1,8,2:3:0:0:
377,161,170410,1,8,2:3:0:0:
348,202,170517,5,4,2:3:0:0:
352,219,170624,1,4,2:3:0:0:
356,236,170731,1,4,2:3:0:0:
360,253,170838,1,4,2:3:0:0:
487,384,170945,38,0,P|434:316|284:304,1,227.5,6|0,3:1|0:0,0:0:0:0:
23,384,171803,6,0,P|76:316|221:305,2,214.500006546021,6|0|2,3:2|0:0|2:2,0:0:0:0:
262,116,172660,38,0,L|243:204,1,55.2500010538101,6|0,3:1|0:0,0:0:0:0:
251,126,172981,2,0,L|232:214,1,55.2500010538101,10|0,1:3|0:0,0:0:0:0:
281,357,173303,6,0,L|264:297,1,48.75,6|0,1:3|0:0,0:0:0:0:
235,177,173517,37,0,3:3:0:0:
247,159,173624,1,0,1:1:0:0:
233,161,173731,1,0,1:1:0:0:
251,178,173838,1,0,1:1:0:0:
227,192,173945,5,2,3:2:0:0:
254,145,174052,1,0,1:1:0:0:
220,150,174159,1,10,2:3:0:0:
263,187,174266,1,10,2:3:0:0:
220,202,174374,38,0,L|209:237,1,29.2499991073609,4|0,3:1|0:0,0:0:0:0:
254,363,174588,5,0,1:1:0:0:
287,288,174695,1,0,1:1:0:0:
220,163,174803,2,0,L|209:198,1,29.2499991073609,2|0,3:2|0:0,0:0:0:0:
254,363,175017,37,0,1:1:0:0:
294,281,175124,1,2,1:2:0:0:
213,133,175231,2,0,L|202:168,1,29.2499991073609,0|0,3:3|0:0,0:0:0:0:
254,363,175445,5,0,1:1:0:0:
245,346,175553,1,0,1:1:0:0:
264,319,175660,1,10,2:3:0:0:
242,282,175767,1,8,2:3:0:0:
276,262,175874,38,0,P|303:225|280:175,1,90.9999972229005,6|0,2:3|3:3,0:0:0:0:
208,106,176035,5,0,3:3:0:0:
208,106,176088,38,0,L|197:141,1,29.2499991073609,2|0,1:2|0:0,0:0:0:0:
362,337,176303,22,0,B|319:177|288:-10|421:-52|620:-4|483:203|405:173|359:106,1,568.750005424023,6|0,3:2|0:0,0:0:0:0:
150,337,176624,2,0,B|193:177|224:-10|91:-52|-108:-4|29:203|107:173|153:106,1,568.750005424023,6|0,3:2|0:0,0:0:0:0:
256,352,176945,5,6,3:1:0:0:
259,42,177053,2,0,B|270:29|270:29|287:3|383:-26|120:-22|226:-2|252:31|252:31|259:60,14,195.00000743866
