osu file format v14

[General]
AudioFilename: audio.mp3
AudioLeadIn: 0
PreviewTime: 38042
Countdown: 0
SampleSet: Soft
StackLeniency: 0.7
Mode: 0
LetterboxInBreaks: 0
WidescreenStoryboard: 1

[Editor]
Bookmarks: 668,6031,11394,22120,35528,38209,59662,73070,75751,86478,88992
DistanceSpacing: 0.3
BeatDivisor: 4
GridSize: 4
TimelineZoom: 1

[Metadata]
Title:Yuki wa Naniiro
TitleUnicode:雪は何色
Artist:Kotoha
ArtistUnicode:Kotoha
Creator:tomatas95
Version:Light Insane
Source:ましろ色シンフォニー SANA EDITION
Tags:eroge palette Mashiro-iro Symphony: Sana Edition Mashifoni Inui galgame visual novel vn opening op nani-iro video game japanese jpop j-pop 乾紗凪 ましフォニー mashiroiro ぱれっと pop *mutsu no hana
BeatmapID:4191787
BeatmapSetID:2004195

[Difficulty]
HPDrainRate:4.5
CircleSize:3.6
OverallDifficulty:7.5
ApproachRate:8.2
SliderMultiplier:1.5
SliderTickRate:1

[Events]
//Background and Video events
Video,0,"EroiSenaMyWife.mp4"
0,0,"SenaFeedingme.jpg",0,0
//Break Periods
//Storyboard Layer 0 (Background)
//Storyboard Layer 1 (Fail)
//Storyboard Layer 2 (Pass)
//Storyboard Layer 3 (Foreground)
//Storyboard Layer 4 (Overlay)
//Storyboard Sound Samples

[TimingPoints]
668,335.195530726257,4,2,1,50,1,0
668,-142.857142857143,4,2,1,50,0,0
1003,-142.857142857143,4,2,3,40,0,0
1170,-142.857142857143,4,2,1,45,0,0
1673,-142.857142857143,4,2,3,40,0,0
1841,-142.857142857143,4,2,1,45,0,0
2343,-142.857142857143,4,2,3,40,0,0
2511,-142.857142857143,4,2,1,45,0,0
3014,-142.857142857143,4,2,3,40,0,0
3181,-142.857142857143,4,2,1,40,0,0
3349,-142.857142857143,4,2,1,50,0,0
3684,-142.857142857143,4,2,3,40,0,0
3851,-142.857142857143,4,2,1,45,0,0
4355,-142.857142857143,4,2,3,40,0,0
4522,-142.857142857143,4,2,1,50,0,0
5025,-142.857142857143,4,2,3,40,0,0
5193,-142.857142857143,4,2,1,55,0,0
5528,-142.857142857143,4,2,1,60,0,0
5947,-142.857142857143,4,2,1,5,0,0
6031,-100,4,2,1,75,0,0
6366,-100,4,2,2,70,0,0
8712,-100,4,2,1,75,0,0
9047,-100,4,2,2,70,0,0
10891,-100,4,2,2,65,0,0
11226,-100,4,2,1,60,0,0
11394,-125,4,2,2,65,0,0
11561,-125,4,2,2,60,0,0
11729,-125,4,2,3,60,0,0
11897,-125,4,2,2,60,0,0
14075,-125,4,2,2,65,0,0
14411,-125,4,2,2,60,0,0
16086,-125,4,2,2,55,0,0
16254,-125,4,2,2,60,0,0
16673,-125,4,2,2,5,0,0
16757,-125,4,2,2,65,0,0
16924,-125,4,2,2,60,0,0
19438,-125,4,2,2,65,0,0
19605,-125,4,2,2,60,0,0
21114,-125,4,2,1,60,0,0
21282,-125,4,2,1,70,0,0
21450,-125,4,2,1,65,0,0
21617,-125,4,2,1,60,0,0
21785,-125,4,2,1,65,0,0
21869,-125,4,2,1,60,0,0
22120,-111.111111111111,4,2,1,65,0,0
24215,-111.111111111111,4,2,1,60,0,0
24466,-111.111111111111,4,2,1,65,0,0
24802,-111.111111111111,4,2,1,70,0,0
24969,-111.111111111111,4,2,1,65,0,0
26897,-111.111111111111,4,2,1,60,0,0
26980,-111.111111111111,4,2,1,65,0,0
27316,-111.111111111111,4,2,1,60,0,0
27399,-111.111111111111,4,2,1,5,0,0
27483,-111.111111111111,4,2,1,70,0,0
27818,-111.111111111111,4,2,1,65,0,0
29578,-111.111111111111,4,2,1,60,0,0
29661,-111.111111111111,4,2,1,65,0,0
30165,-111.111111111111,4,2,1,70,0,0
30500,-111.111111111111,4,2,1,65,0,0
31840,-111.111111111111,4,2,1,60,0,0
32846,-111.111111111111,4,2,1,70,0,0
33098,-111.111111111111,4,2,1,60,0,0
33181,-111.111111111111,4,2,1,65,0,0
34271,-111.111111111111,4,2,1,60,0,0
34354,-111.111111111111,4,2,1,65,0,0
35444,-111.111111111111,4,2,1,5,0,0
35528,-125,4,2,1,60,0,0
35863,-125,4,2,1,55,0,0
36198,-125,4,2,3,45,0,0
36366,-125,4,2,1,55,0,0
37539,-125,4,2,1,65,0,0
37790,-111.111111111111,4,2,1,5,0,0
37874,-142.857142857143,4,2,2,65,0,0
38126,-142.857142857143,4,2,2,5,0,0
38209,-90.9090909090909,4,2,3,80,0,1
38545,-90.9090909090909,4,2,2,75,0,1
40891,-90.9090909090909,4,2,2,80,0,1
41059,-90.9090909090909,4,2,2,75,0,1
42902,-90.9090909090909,4,2,2,70,0,1
43237,-90.9090909090909,4,2,2,75,0,1
43405,-90.9090909090909,4,2,2,80,0,1
43573,-90.9090909090909,4,2,1,80,0,1
43908,-90.9090909090909,4,2,2,75,0,1
46254,-90.9090909090909,4,2,2,80,0,1
46422,-90.9090909090909,4,2,2,75,0,1
48600,-90.9090909090909,4,2,2,80,0,1
48936,-90.9090909090909,4,2,3,80,0,1
49271,-90.9090909090909,4,2,2,75,0,1
51617,-90.9090909090909,4,2,2,80,0,1
51785,-90.9090909090909,4,2,2,75,0,1
54466,-90.9090909090909,4,2,2,85,0,1
54634,-90.9090909090909,4,2,2,80,0,1
54969,-90.9090909090909,4,2,2,75,0,1
55304,-90.9090909090909,4,2,2,70,0,1
55640,-90.9090909090909,4,2,2,75,0,1
55975,-90.9090909090909,4,2,2,80,0,1
56310,-90.9090909090909,4,2,2,85,0,1
56813,-90.9090909090909,4,2,1,90,0,1
57148,-90.9090909090909,4,2,2,75,0,1
57316,-90.9090909090909,4,2,2,70,0,1
57986,-90.9090909090909,4,2,2,75,0,1
58321,-90.9090909090909,4,2,2,80,0,0
58992,-90.9090909090909,4,2,2,85,0,0
59662,-90.9090909090909,4,2,1,90,0,1
59997,-90.9090909090909,4,2,2,75,0,1
62343,-90.9090909090909,4,2,2,80,0,1
62511,-90.9090909090909,4,2,2,75,0,1
64354,-90.9090909090909,4,2,2,70,0,1
64689,-90.9090909090909,4,2,2,75,0,1
64857,-90.9090909090909,4,2,2,80,0,1
65025,-90.9090909090909,4,2,1,80,0,1
65360,-90.9090909090909,4,2,2,75,0,1
67706,-90.9090909090909,4,2,2,80,0,1
67874,-90.9090909090909,4,2,2,75,0,1
70052,-90.9090909090909,4,2,2,80,0,1
70388,-90.9090909090909,4,2,3,80,0,1
70723,-90.9090909090909,4,2,2,75,0,1
72567,-90.9090909090909,4,2,2,80,0,1
73070,-142.857142857143,4,2,2,65,0,0
73405,-142.857142857143,4,2,2,30,0,0
73740,-142.857142857143,4,2,2,35,0,0
74075,-142.857142857143,4,2,2,40,0,0
74411,-142.857142857143,4,2,2,50,0,0
74746,-142.857142857143,4,2,2,30,0,0
75081,-142.857142857143,4,2,2,35,0,0
75416,-142.857142857143,4,2,1,60,0,0
75751,-100,4,2,1,75,0,0
76086,-100,4,2,2,70,0,0
78432,-100,4,2,1,75,0,0
78767,-100,4,2,2,70,0,0
80611,-100,4,2,2,65,0,0
80946,-100,4,2,1,70,0,0
81114,-100,4,2,2,75,0,0
81449,-100,4,2,2,70,0,0
83795,-100,4,2,1,75,0,0
84130,-100,4,2,2,70,0,0
85974,-100,4,2,2,65,0,0
86394,-111.111111111111,4,2,1,5,0,0
86478,-125,4,2,2,60,0,0
86813,-125,4,2,3,50,0,0
86980,-125,4,2,2,55,0,0
87483,-125,4,2,3,50,0,0
87650,-125,4,2,2,55,0,0
88154,-125,4,2,3,50,0,0
88321,-125,4,2,2,55,0,0
88824,-125,4,2,3,50,0,0
88992,-100,4,2,2,30,0,0

[Colours]
Combo1 : 252,224,129
Combo2 : 247,157,240
Combo3 : 245,165,150
Combo4 : 224,105,126

[HitObjects]
102,203,668,6,0,P|84:154|101:105,1,104.999996795654,2|0,0:0|0:0,0:0:0:0:
168,54,1170,2,0,P|185:101|169:151,1,104.999996795654,2|2,0:0|0:0,0:0:0:0:
168,151,1841,2,0,P|192:142|227:143,1,52.4999983978272,2|0,0:0|0:0,0:0:0:0:
268,66,2176,2,0,P|288:83|304:113,1,52.4999983978272,2|0,0:0|0:0,0:0:0:0:
391,109,2511,2,0,P|386:134|367:164,1,52.4999983978272,2|0,0:0|0:0,0:0:0:0:
293,194,2846,2,0,P|304:242|320:315,1,104.999996795654
232,326,3349,5,2,0:0:0:0:
232,326,3517,2,0,P|220:277|205:205,2,104.999996795654,0|2|2,0:0|0:0|0:0,0:0:0:0:
232,326,4522,2,0,P|201:330|169:313,1,52.4999983978272,2|0,0:0|0:0,0:0:0:0:
119,379,4857,2,0,P|100:354|98:317,1,52.4999983978272,2|0,0:0|0:0,0:0:0:0:
15,356,5193,2,0,P|12:304|44:264,1,104.999996795654,2|0,0:0|3:0,0:0:0:0:
129,254,5695,2,0,L|115:161,1,78.7499975967408,8|0,0:0|0:0,0:0:0:0:
125,167,6031,6,0,P|192:175|281:193,1,150,6|8,3:2|0:0,0:0:0:0:
436,203,6533,2,0,P|472:210|509:215,1,75,2|0,3:2|0:0,0:0:0:0:
348,244,6869,2,0,L|359:164,1,75,2|8,3:2|0:0,0:0:0:0:
302,28,7204,6,0,P|343:22|374:37,1,75,2|0,3:2|0:0,0:0:0:0:
358,169,7539,2,0,P|332:135|329:101,1,75,2|8,3:2|0:0,0:0:0:0:
453,50,7874,2,0,P|436:88|408:108,1,75,2|0,3:2|0:0,0:0:0:0:
268,189,8209,2,0,P|196:177|109:165,1,150,2|2,3:2|0:0,0:0:0:0:
22,15,8712,5,2,3:2:0:0:
0,104,8880,2,0,P|36:97|74:92,1,75,0|8,0:0|0:0,0:0:0:0:
227,39,9215,2,0,P|262:33|306:27,1,75,2|0,3:2|0:0,0:0:0:0:
145,26,9550,2,0,L|159:99,1,75,2|8,3:2|0:0,0:0:0:0:
103,247,9885,6,0,P|66:247|36:227,1,75,2|0,3:2|0:0,0:0:0:0:
179,283,10221,2,0,P|161:315|128:332,1,75,2|8,3:2|0:0,0:0:0:0:
92,169,10556,2,0,P|166:156|240:141,1,150,2|0,3:2|3:0,0:0:0:0:
394,63,11059,1,8,0:0:0:0:
331,118,11226,1,0,3:0:0:0:
331,118,11310,1,0,3:0:0:0:
331,118,11394,6,0,P|311:58|339:-1,1,120,6|0,3:2|0:0,0:0:0:0:
394,63,11897,2,0,P|420:76|450:77,1,60,2|0,0:0|0:0,0:0:0:0:
507,147,12232,2,0,P|480:161|451:162,1,60,2|0,0:0|0:0,0:0:0:0:
377,202,12567,6,0,P|421:240|480:242,2,120,2|2|0,0:0|0:0|0:0,0:0:0:0:
292,223,13405,2,0,P|262:217|233:211,1,60,2|0,0:0|0:0,0:0:0:0:
222,300,13740,2,0,P|252:305|281:311,1,60,2|0,0:0|0:0,0:0:0:0:
118,336,14075,6,0,L|134:195,1,120,2|0,0:0|0:0,0:0:0:0:
0,175,14578,2,0,P|30:179|59:172,1,60,2|0,0:0|0:0,0:0:0:0:
61,32,14913,2,0,P|67:62|83:87,1,60,2|0,0:0|0:0,0:0:0:0:
216,45,15249,2,0,P|189:60|170:83,1,60,2|0,0:0|0:0,0:0:0:0:
201,164,15584,2,0,P|285:148|394:128,1,180,2|0,0:0|0:0,0:0:0:0:
377,130,16757,6,0,L|390:188,2,60,2|0|0,0:0|0:0|0:0,0:0:0:0:
458,81,17260,2,0,L|489:218,1,120,2|0,0:0|0:0,0:0:0:0:
482,288,17762,1,2,0:0:0:0:
482,288,17930,2,0,P|452:295|406:286,1,60,2|0,0:0|0:0,0:0:0:0:
381,370,18265,2,0,P|349:343|352:247,1,120,2|0,0:0|0:0,0:0:0:0:
318,183,18768,2,0,P|290:200|244:200,1,60,2|0,0:0|0:0,0:0:0:0:
237,288,19103,2,0,P|207:273|184:232,1,60,2|0,0:0|0:0,0:0:0:0:
96,115,19438,6,0,P|150:111|173:189,1,120
103,202,19941,2,0,L|124:320,1,120,2|0,0:0|0:0,0:0:0:0:
37,327,20444,1,2,0:0:0:0:
37,327,20612,2,0,L|15:208,1,120,2|2,0:0|0:0,0:0:0:0:
18,118,21114,1,0,3:0:0:0:
112,113,21282,1,8,0:0:0:0:
112,113,21366,1,8,0:0:0:0:
112,113,21450,2,0,L|163:101,3,30,8|0|0|0,0:0|3:0|3:0|3:0,0:0:0:0:
209,62,21785,2,0,L|238:68,3,30,8|0|2|0,0:0|3:0|3:2|3:0,0:0:0:0:
293,8,22120,6,0,P|321:67|294:127,1,134.999995880127,4|8,3:2|0:0,0:0:0:0:
227,211,22623,2,0,P|219:178|211:145,1,67.4999979400635,2|0,3:2|0:0,0:0:0:0:
107,122,22958,2,0,P|114:154|122:187,1,67.4999979400635,2|8,3:2|0:0,0:0:0:0:
113,350,23293,6,0,P|93:324|93:280,1,67.4999979400635,2|0,3:2|0:0,0:0:0:0:
9,269,23628,2,0,P|21:239|59:217,1,67.4999979400635,0|8,3:2|0:0,0:0:0:0:
173,291,23964,2,0,P|239:298|330:313,1,134.999995880127,2|0,3:2|3:0,0:0:0:0:
446,223,24466,2,0,P|479:228|512:232,1,67.4999979400635,8|0,0:0|0:0,0:0:0:0:
407,297,24802,6,0,P|370:258|376:176,1,134.999995880127,2|8,3:2|0:0,0:0:0:0:
462,135,25304,2,0,L|471:68,1,67.4999979400635,2|0,3:2|0:0,0:0:0:0:
304,53,25640,2,0,L|294:119,1,67.4999979400635,2|8,3:2|0:0,0:0:0:0:
373,180,25975,6,0,L|391:46,1,134.999995880127,2|0,3:2|3:2,0:0:0:0:
294,120,26478,2,0,P|228:130|173:91,1,134.999995880127,8|0,0:0|0:0,0:0:0:0:
164,8,26980,1,0,3:0:0:0:
1,15,27148,2,0,P|49:8|76:58,1,101.249996910095,8|0,0:0|0:0,0:0:0:0:
76,57,27483,6,0,P|65:116|52:213,1,134.999995880127,2|8,3:2|0:0,0:0:0:0:
62,272,27986,2,0,P|28:270|0:254,1,67.4999979400635,2|0,3:2|0:0,0:0:0:0:
135,226,28321,2,0,P|164:242|197:242,1,67.4999979400635,0|8,3:2|0:0,0:0:0:0:
196,98,28656,6,0,P|182:128|183:162,1,67.4999979400635,2|0,3:2|0:0,0:0:0:0:
264,290,28992,2,0,P|277:259|276:225,1,67.4999979400635,0|8,3:2|0:0,0:0:0:0:
365,154,29327,2,0,L|387:297,1,134.999995880127,2|0,3:2|3:0,0:0:0:0:
478,280,29830,2,0,L|467:213,1,67.4999979400635,8|0,0:0|0:0,0:0:0:0:
462,84,30165,6,0,P|434:137|349:148,1,134.999995880127,2|8,3:2|0:0,0:0:0:0:
265,25,30668,2,0,P|325:21|376:90,1,134.999995880127,2|0,3:2|3:0,0:0:0:0:
278,162,31170,2,0,P|277:126|300:101,1,67.4999979400635,8|0,0:0|3:0,0:0:0:0:
467,91,31505,6,0,P|435:149|371:162,1,134.999995880127,2|8,3:2|0:0,0:0:0:0:
268,14,32008,2,0,P|333:13|377:63,1,134.999995880127,2|0,3:2|3:0,0:0:0:0:
267,160,32511,2,0,P|265:127|286:102,1,67.4999979400635,8|0,0:0|3:0,0:0:0:0:
322,230,32846,6,0,L|174:201,1,134.999995880127,2|8,3:2|0:0,0:0:0:0:
171,289,33349,2,0,L|319:318,1,134.999995880127,2|2,3:2|3:2,0:0:0:0:
400,349,33852,2,0,P|402:300|417:204,1,134.999995880127,8|0,0:0|0:0,0:0:0:0:
417,204,34271,1,8,0:0:0:0:
421,195,34355,5,0,3:0:0:0:
446,112,34522,2,0,P|477:121|524:113,1,67.4999979400635,8|0,0:0|0:0,0:0:0:0:
361,132,34857,2,0,P|331:146|283:146,1,67.4999979400635,2|0,0:0|3:0,0:0:0:0:
134,37,35193,2,0,P|178:31|213:77,1,101.249996910095,8|0,0:0|0:0,0:0:0:0:
213,79,35528,6,0,P|202:132|191:223,1,120,2|0,3:2|0:0,0:0:0:0:
152,270,36031,2,0,P|204:283|261:240,1,120,2|2,0:0|0:0,0:0:0:0:
109,197,36701,2,0,P|61:230|4:218,2,120,2|2|2,0:0|0:0|0:0,0:0:0:0:
44,149,37539,5,8,0:0:0:0:
44,149,37623,1,8,0:0:0:0:
44,149,37707,2,0,L|34:94,1,30,0|0,3:0|0:0,0:0:0:0:
11,32,37874,6,0,P|50:37|98:42,1,78.7499975967408,4|0,3:2|0:0,0:0:0:0:
98,49,38209,6,0,P|142:4|242:29,2,165.000005035401,4|8|0,3:2|0:0|0:0,0:0:0:0:
143,215,39047,5,2,3:2:0:0:
175,81,39215,1,10,0:0:0:0:
92,133,39383,1,0,0:0:0:0:
225,164,39550,6,0,L|389:135,1,165.000005035401,2|8,0:0|0:0,0:0:0:0:
478,164,40053,2,0,P|484:118|461:78,1,82.5000025177003,2|0,0:0|0:0,0:0:0:0:
378,57,40388,2,0,P|371:101|393:141,1,82.5000025177003,2|8,3:2|0:0,0:0:0:0:
423,289,40723,1,2,0:0:0:0:
343,230,40891,6,0,L|521:254,2,165.000005035401,0|8|2,3:0|0:0|3:2,0:0:0:0:
181,192,41729,1,0,3:0:0:0:
257,248,41897,2,0,L|268:166,1,82.5000025177003,8|0,0:0|0:0,0:0:0:0:
298,25,42232,5,2,3:2:0:0:
202,104,42399,1,0,3:0:0:0:
311,23,42567,2,0,L|394:34,1,82.5000025177003,8|0,0:0|0:0,0:0:0:0:
490,88,42902,5,2,3:2:0:0:
490,88,42986,1,0,3:0:0:0:
490,88,43070,2,0,P|482:113|480:136,1,41.2500012588501,0|0,3:0|3:0,0:0:0:0:
415,191,43237,5,8,0:0:0:0:
415,191,43321,1,8,0:0:0:0:
415,191,43405,2,0,P|422:216|425:239,1,41.2500012588501,8|8,0:0|0:0,0:0:0:0:
387,304,43573,6,0,P|444:316|505:235,2,165.000005035401,4|8|0,3:2|0:0|0:0,0:0:0:0:
338,142,44411,5,2,3:2:0:0:
296,277,44578,1,10,0:0:0:0:
424,231,44746,1,0,3:0:0:0:
294,290,44913,6,0,L|121:269,1,165.000005035401,2|8,0:0|0:0,0:0:0:0:
180,181,45416,2,0,L|261:190,1,82.5000025177003,2|0,0:0|0:0,0:0:0:0:
82,108,45751,2,0,L|0:98,1,82.5000025177003,2|8,3:2|0:0,0:0:0:0:
92,196,46086,1,2,0:0:0:0:
170,93,46254,6,0,L|338:70,1,165.000005035401,2|8,3:2|0:0,0:0:0:0:
509,56,46757,1,0,0:0:0:0:
429,97,46924,1,0,0:0:0:0:
431,7,47092,1,0,3:0:0:0:
505,145,47260,2,0,P|494:184|489:237,1,82.5000025177003,8|0,0:0|0:0,0:0:0:0:
359,231,47595,6,0,P|353:148|332:68,1,165.000005035401,2|8,0:0|0:0,0:0:0:0:
150,89,48098,5,2,0:0:0:0:
150,89,48181,1,2,0:0:0:0:
150,89,48265,1,2,0:0:0:0:
179,180,48433,1,0,3:0:0:0:
218,28,48600,1,8,0:0:0:0:
247,119,48768,1,0,3:0:0:0:
134,0,48936,6,0,P|82:24|88:141,1,165.000005035401,4|8,3:2|0:0,0:0:0:0:
145,283,49438,5,2,0:0:0:0:
179,180,49606,1,0,0:0:0:0:
145,296,49774,1,0,3:0:0:0:
80,203,49941,1,10,0:0:0:0:
228,262,50109,6,0,L|400:241,1,165.000005035401,2|0,0:0|3:0,0:0:0:0:
465,92,50612,1,10,0:0:0:0:
424,163,50779,2,0,P|462:175|501:166,1,82.5000025177003,2|0,0:0|0:0,0:0:0:0:
506,21,51114,2,0,P|466:7|427:16,1,82.5000025177003,0|8,3:0|0:0,0:0:0:0:
276,69,51450,1,2,0:0:0:0:
343,3,51617,6,0,P|332:79|318:168,1,165.000005035401,4|8,3:2|0:0,0:0:0:0:
329,263,52120,5,0,0:0:0:0:
219,176,52288,1,2,0:0:0:0:
233,274,52455,1,0,3:0:0:0:
318,166,52623,1,10,0:0:0:0:
228,288,52790,6,0,P|153:274|63:259,1,165.000005035401,2|0,0:0|3:0,0:0:0:0:
6,187,53293,1,8,0:0:0:0:
115,91,53461,2,0,L|95:184,1,82.5000025177003,2|0,0:0|0:0,0:0:0:0:
23,98,53796,2,0,L|41:18,1,82.5000025177003,0|8,3:0|0:0,0:0:0:0:
122,11,54131,1,2,0:0:0:0:
97,171,54299,5,0,3:0:0:0:
210,126,54466,1,2,0:0:0:0:
210,126,54550,1,2,0:0:0:0:
210,126,54634,2,0,P|228:132|254:130,1,41.2500012588501,10|0,0:0|0:0,0:0:0:0:
305,198,54802,2,0,P|319:184|330:161,1,41.2500012588501,2|0,0:0|0:0,0:0:0:0:
414,151,54969,2,0,P|409:131|395:110,3,41.2500012588501,2|0|2|0,0:0|0:0|3:2|0:0,0:0:0:0:
320,80,55304,6,0,P|329:41|337:0,1,82.5000025177003,10|0,0:0|0:0,0:0:0:0:
492,0,55640,2,0,P|482:38|474:80,1,82.5000025177003,0|2,0:0|3:2,0:0:0:0:
439,233,55975,5,10,0:0:0:0:
398,113,56142,1,8,0:0:0:0:
398,113,56226,1,0,3:0:0:0:
398,113,56310,1,0,3:0:0:0:
512,178,56478,1,8,0:0:0:0:
512,178,56561,1,8,0:0:0:0:
512,178,56645,1,8,0:0:0:0:
344,278,56813,6,0,P|259:266|169:250,1,165.000005035401,4|0,3:2|3:0,0:0:0:0:
31,217,57316,1,8,0:0:0:0:
95,279,57484,1,2,0:0:0:0:
116,192,57651,2,0,P|129:110|140:28,1,165.000005035401,0|8,3:0|0:0,0:0:0:0:
48,91,58154,1,0,0:0:0:0:
206,162,58321,6,0,P|285:177|372:197,1,165.000005035401,2|8,3:2|0:0,0:0:0:0:
466,217,58824,1,0,3:0:0:0:
466,217,58908,1,0,3:0:0:0:
466,217,58992,2,0,P|467:190|449:160,1,41.2500012588501,8|8,0:0|0:0,0:0:0:0:
512,109,59159,1,8,0:0:0:0:
512,109,59243,1,8,0:0:0:0:
512,109,59327,2,0,P|489:94|454:94,1,41.2500012588501,8|8,0:0|0:0,0:0:0:0:
440,15,59494,2,0,P|416:26|398:57,1,41.2500012588501,8|8,0:0|0:0,0:0:0:0:
399,122,59662,6,0,P|351:103|334:-5,2,165.000005035401,4|8|0,3:2|0:0|0:0,0:0:0:0:
489,284,60500,5,2,3:2:0:0:
414,220,60668,1,10,0:0:0:0:
506,187,60835,1,0,0:0:0:0:
390,316,61003,6,0,P|311:300|222:281,1,165.000005035401,2|8,0:0|0:0,0:0:0:0:
82,214,61505,2,0,P|41:221|1:230,1,82.5000025177003,2|0,0:0|0:0,0:0:0:0:
172,205,61841,5,2,3:2:0:0:
133,291,62008,1,8,0:0:0:0:
120,133,62176,1,2,0:0:0:0:
263,200,62343,6,0,P|343:217|424:233,2,165.000005035401,0|8|2,3:0|0:0|3:2,0:0:0:0:
120,133,63181,1,0,3:0:0:0:
225,42,63349,2,0,L|210:123,1,82.5000025177003,8|0,0:0|0:0,0:0:0:0:
219,290,63684,5,2,3:2:0:0:
164,206,63852,1,0,3:0:0:0:
264,201,64019,2,0,L|357:218,1,82.5000025177003,8|0,0:0|0:0,0:0:0:0:
443,228,64355,5,2,3:2:0:0:
443,228,64438,1,0,3:0:0:0:
443,228,64522,2,0,P|447:201|454:177,1,41.2500012588501,0|0,3:0|3:0,0:0:0:0:
394,118,64690,5,8,0:0:0:0:
394,118,64773,1,8,0:0:0:0:
394,118,64857,2,0,P|390:91|383:67,1,41.2500012588501,8|8,0:0|0:0,0:0:0:0:
309,33,65025,6,0,P|377:-4|467:39,2,165.000005035401,4|8|0,3:2|0:0|0:0,0:0:0:0:
145,85,65863,1,2,3:2:0:0:
239,123,66031,2,0,L|224:41,1,82.5000025177003,10|0,0:0|3:0,0:0:0:0:
44,15,66366,6,0,L|74:186,1,165.000005035401,2|8,0:0|0:0,0:0:0:0:
92,278,66869,2,0,P|52:266|13:277,1,82.5000025177003,2|0,0:0|0:0,0:0:0:0:
170,212,67204,2,0,P|209:223|248:212,1,82.5000025177003,2|8,3:2|0:0,0:0:0:0:
325,153,67539,1,2,0:0:0:0:
333,292,67707,6,0,L|151:319,2,165.000005035401,2|8|0,3:2|0:0|3:2,0:0:0:0:
325,153,68545,1,0,3:0:0:0:
421,243,68712,2,0,L|434:161,1,82.5000025177003,8|0,0:0|0:0,0:0:0:0:
392,68,69047,6,0,P|326:76|218:90,1,165.000005035401,2|8,0:0|0:0,0:0:0:0:
109,167,69550,2,0,P|136:138|143:98,1,82.5000025177003,2|2,0:0|3:2,0:0:0:0:
228,88,69885,2,0,P|216:50|185:24,1,82.5000025177003,0|8,3:0|0:0,0:0:0:0:
61,97,70221,1,0,3:0:0:0:
153,238,70388,6,0,P|93:251|25:172,2,165.000005035401,4|8|2,3:2|0:0|3:2,0:0:0:0:
319,199,71226,1,0,3:0:0:0:
243,255,71394,2,0,P|233:215|225:175,1,82.5000025177003,8|0,0:0|0:0,0:0:0:0:
285,8,71729,5,2,3:2:0:0:
229,89,71897,1,0,3:0:0:0:
328,96,72064,2,0,L|419:79,1,82.5000025177003,8|0,0:0|0:0,0:0:0:0:
477,246,72399,5,0,3:2:0:0:
337,202,72567,1,8,0:0:0:0:
474,143,72735,1,8,0:0:0:0:
392,296,72902,1,0,3:0:0:0:
392,296,72986,1,0,3:0:0:0:
392,296,73070,6,0,B|321:262|265:334|265:334|190:379|134:317|134:317|160:277|199:267,1,367.49998878479,0|0,3:2|0:0,0:0:0:0:
248,199,74411,2,0,B|277:228|347:209|360:144|299:79|220:99|166:125|159:209,1,314.999990386963,2|8,0:0|0:0,0:0:0:0:
162,190,75751,6,0,P|96:213|24:164,1,150,6|8,3:2|0:0,0:0:0:0:
114,55,76254,2,0,L|103:130,1,75,2|0,3:2|0:0,0:0:0:0:
246,245,76589,2,0,L|257:170,1,75,2|8,3:2|0:0,0:0:0:0:
255,73,76924,6,0,P|291:79|328:89,1,75,2|0,3:2|0:0,0:0:0:0:
441,142,77260,2,0,P|405:148|369:159,1,75,2|8,3:2|0:0,0:0:0:0:
405,318,77595,2,0,P|442:308|479:302,1,75,2|0,3:2|0:0,0:0:0:0:
495,215,77930,2,0,P|421:230|349:249,1,150,2|2,3:2|0:0,0:0:0:0:
183,291,78433,5,2,3:2:0:0:
266,324,78600,2,0,P|271:285|244:232,1,75,0|8,0:0|0:0,0:0:0:0:
112,341,78936,2,0,P|143:364|202:367,1,75,2|0,3:2|0:0,0:0:0:0:
174,199,79271,2,0,P|137:214|105:264,1,75,2|8,3:2|0:0,0:0:0:0:
254,171,79606,6,0,L|271:81,1,75,2|0,3:2|0:0,0:0:0:0:
452,86,79941,2,0,L|435:176,1,75,2|8,3:2|0:0,0:0:0:0:
336,205,80276,2,0,L|363:57,1,150,2|0,3:2|3:0,0:0:0:0:
434,0,80779,1,8,0:0:0:0:
296,7,80947,5,0,3:0:0:0:
296,7,81031,1,0,3:0:0:0:
296,7,81114,2,0,P|232:17|128:33,1,150,4|8,3:2|0:0,0:0:0:0:
62,57,81617,2,0,P|71:93|81:147,1,75,2|0,3:2|0:0,0:0:0:0:
83,246,81952,5,2,3:2:0:0:
14,196,82120,1,8,0:0:0:0:
159,211,82288,2,0,L|238:193,1,75,2|0,3:2|0:0,0:0:0:0:
415,174,82623,5,2,3:2:0:0:
350,243,82790,1,8,0:0:0:0:
306,78,82958,2,0,L|325:167,1,75,2|0,3:2|0:0,0:0:0:0:
509,215,83293,2,0,L|475:57,1,150,2|2,3:2|0:0,0:0:0:0:
391,22,83796,5,2,3:2:0:0:
321,151,83964,2,0,P|284:146|227:135,1,75,0|8,0:0|0:0,0:0:0:0:
88,88,84299,2,0,P|51:83|-6:72,1,75,2|0,3:2|0:0,0:0:0:0:
177,75,84634,2,0,L|156:169,1,75,2|8,3:2|0:0,0:0:0:0:
29,231,84969,6,0,P|82:239|188:261,1,150,2|2,3:2|3:2,0:0:0:0:
342,276,85472,1,8,0:0:0:0:
272,321,85640,2,0,P|259:259|318:198,1,150,2|0,3:2|3:0,0:0:0:0:
500,301,86142,2,0,P|458:299|427:234,1,112.5,8|0,0:0|0:0,0:0:0:0:
428,233,86478,6,0,P|436:180|455:90,1,120,6|0,3:2|0:0,0:0:0:0:
334,81,86980,2,0,P|326:134|307:224,1,120,2|2,0:0|0:0,0:0:0:0:
313,198,87651,6,0,P|264:176|192:210,1,120,2|2,0:0|0:0,0:0:0:0:
37,285,88321,2,0,P|86:307|158:273,1,120,2|2,0:0|0:0,0:0:0:0:
92,223,88824,2,0,L|79:148,1,60,0|2,0:0|0:0,0:0:0:0:
