osu file format v14

[General]
AudioFilename: audio.ogg
AudioLeadIn: 0
PreviewTime: 37544
Countdown: 0
SampleSet: Soft
StackLeniency: 0.7
Mode: 0
LetterboxInBreaks: 0
WidescreenStoryboard: 0

[Editor]
DistanceSpacing: 1
BeatDivisor: 2
GridSize: 32
TimelineZoom: 1.1

[Metadata]
Title:Yuki wa Naniiro
TitleUnicode:雪は何色
Artist:Kotoha
ArtistUnicode:Kotoha
Creator:Garden
Version:Normal
Source:ましろ色シンフォニー SANA EDITION
Tags:ましフォニ opening short version mashiroiro mashiro-iro symphony *mutsu no hana ぱれっと palette vn visual novel eroge video game japanese jpop j-pop 乾紗凪 inui sana 堀江晶太 horie shouta kemu
BeatmapID:4148357
BeatmapSetID:1995596

[Difficulty]
HPDrainRate:3
CircleSize:3
OverallDifficulty:4
ApproachRate:5.8
SliderMultiplier:0.999999999999999
SliderTickRate:1

[Events]
//Background and Video events
0,0,"img_kv.jpg",0,0
//Break Periods
2,11641,20753
2,35775,36507
//Storyboard Layer 0 (Background)
//Storyboard Layer 1 (Fail)
//Storyboard Layer 2 (Pass)
//Storyboard Layer 3 (Foreground)
//Storyboard Layer 4 (Overlay)
//Storyboard Sound Samples

[TimingPoints]
715,335.195530726257,4,2,1,50,1,0
715,-111.111111111111,4,2,1,50,0,0
5742,-100,4,2,1,60,0,0
6078,-100,4,2,1,65,0,0
38256,-90.9090909090909,4,2,1,75,0,1
59625,-90.9090909090909,4,2,1,75,0,0
59709,-90.9090909090909,4,2,1,75,0,1
73117,-100,4,2,1,60,0,0

[Colours]
Combo1 : 128,128,255
Combo2 : 255,128,128

[HitObjects]
256,320,715,5,4,1:0:0:0:
256,320,882,2,0,P|213:328|168:343,2,89.999997253418,2|2|2,0:0|0:0|0:0,0:0:0:0:
343,339,1888,2,0,P|374:307|372:264,1,89.999997253418,2|2,0:0|0:0,0:0:0:0:
305,203,2558,2,0,P|302:159|333:128,1,89.999997253418,2|2,0:0|0:0,0:0:0:0:
417,98,3228,6,0,P|442:106|475:117,2,44.999998626709,2|2|2,0:0|1:2|0:0,0:0:0:0:
345,43,3899,2,0,P|298:30|248:12,1,89.999997253418,2|2,0:0|0:0,0:0:0:0:
170,32,4569,1,2,0:0:0:0:
156,120,4904,1,2,0:0:0:0:
67,137,5240,2,0,P|80:177|89:235,1,89.999997253418,2|4,0:0|3:0,0:0:0:0:
130,250,5742,1,8,1:3:0:0:
95,346,6078,5,4,3:2:0:0:
95,346,6245,2,0,P|42:360|-10:378,2,99.9999999999999,2|2|2,0:0|3:2|3:2,0:0:0:0:
191,372,7251,1,2,3:2:0:0:
278,324,7586,1,2,3:2:0:0:
292,225,7921,1,2,3:2:0:0:
214,162,8256,2,0,P|203:104|188:45,1,99.9999999999999,2|2,3:2|0:0,0:0:0:0:
220,23,8759,5,2,3:2:0:0:
220,23,8927,1,2,0:0:0:0:
303,77,9262,2,0,P|351:87|401:96,1,99.9999999999999,2|2,3:2|3:2,0:0:0:0:
476,162,9932,1,2,3:2:0:0:
410,237,10268,2,0,P|382:233|353:227,1,50,2|0,3:2|1:0,0:0:0:0:
311,239,10603,2,0,P|279:285|310:332,1,99.9999999999999,2|0,3:2|3:0,0:0:0:0:
312,367,11106,2,0,P|273:360|202:347,1,99.9999999999999,4|4,1:2|3:1,0:0:0:0:
213,349,21832,6,0,P|180:343|143:334,1,50,4|2,3:0|0:0,0:0:0:0:
121,312,22167,2,0,P|113:262|100:208,1,99.9999999999999,4|2,3:2|1:2,0:0:0:0:
132,174,22670,1,2,3:2:0:0:
70,95,23005,2,0,P|45:89|21:83,2,50,2|0|2,3:2|1:0|3:2,0:0:0:0:
153,40,23675,1,2,3:2:0:0:
216,117,24011,2,0,P|223:169|239:228,1,99.9999999999999,2|2,3:2|3:2,0:0:0:0:
199,249,24513,2,0,P|205:276|211:308,1,50,2|2,1:2|0:0,0:0:0:0:
255,318,24849,5,2,3:2:0:0:
350,361,25184,1,2,1:2:0:0:
350,361,25351,2,0,P|406:340|412:295,1,99.9999999999999,2|2,3:2|3:2,0:0:0:0:
350,229,26022,1,2,3:2:0:0:
395,139,26357,2,0,L|455:124,1,50,2|0,3:2|1:0,0:0:0:0:
492,135,26692,2,0,P|503:66|511:28,1,99.9999999999999,2|0,3:2|3:0,0:0:0:0:
473,0,27195,1,2,1:2:0:0:
383,44,27530,6,0,P|344:56|276:73,1,99.9999999999999,4|2,3:2|1:2,0:0:0:0:
238,58,28033,1,2,3:2:0:0:
198,149,28368,2,0,P|163:158|118:172,2,50,2|0|2,3:2|1:0|3:2,0:0:0:0:
295,173,29039,1,2,3:2:0:0:
243,258,29374,2,0,P|230:310|220:362,1,99.9999999999999,2|2,3:2|3:2,0:0:0:0:
175,376,29877,2,0,P|144:371|118:366,1,50,2|2,1:2|0:0,0:0:0:0:
95,327,30212,5,2,3:2:0:0:
37,252,30547,1,2,1:2:0:0:
37,252,30715,2,0,P|30:200|64:166,1,99.9999999999999,2|2,3:2|3:2,0:0:0:0:
107,146,31217,2,0,L|87:75,2,50,0|2|2,1:0|3:2|0:0,0:0:0:0:
143,244,31888,1,0,1:0:0:0:
143,244,32055,2,0,P|199:233|248:227,1,99.9999999999999,2|0,0:0|3:0,0:0:0:0:
271,187,32558,1,2,1:2:0:0:
369,169,32893,6,0,P|379:115|392:61,1,99.9999999999999,2|2,3:2|1:2,0:0:0:0:
431,43,33396,1,2,3:2:0:0:
493,120,33731,2,0,P|485:153|478:193,1,50,2|2,3:2|1:2,0:0:0:0:
500,215,34066,2,0,P|489:268|476:322,1,99.9999999999999,2|0,3:2|3:0,0:0:0:0:
436,339,34569,1,0,1:0:0:0:
368,264,34904,2,0,P|343:258|319:252,1,50,2|2,3:2|3:2,0:0:0:0:
276,279,35240,2,0,P|254:317|190:306,1,99.9999999999999,4|4,1:2|3:1,0:0:0:0:
191,268,37586,6,0,P|199:292|201:317,2,50,2|0|12,1:2|3:3|1:3,0:0:0:0:
238,168,38256,1,4,3:2:0:0:
345,194,38592,2,0,P|431:188|457:112,1,165.0000050354,0|2,1:2|3:2,0:0:0:0:
449,68,39262,2,0,P|422:59|396:50,1,55.0000016784668,2|2,1:2|0:0,0:0:0:0:
343,35,39597,1,2,3:2:0:0:
268,116,39932,1,2,1:2:0:0:
268,116,40100,2,0,P|226:103|133:81,1,110.000003356934,2|2,3:2|3:2,0:0:0:0:
108,73,40603,2,0,L|101:10,2,55.0000016784668,2|2|2,1:2|0:0|3:2,0:0:0:0:
6,114,41273,6,0,P|-8:174|40:209,1,110.000003356934,0|2,1:0|0:0,0:0:0:0:
80,219,41776,1,0,3:0:0:0:
80,219,41944,1,2,1:2:0:0:
33,317,42279,2,0,P|40:348|49:378,1,55.0000016784668,2|0,3:2|3:0,0:0:0:0:
100,384,42614,2,0,P|151:369|212:353,1,110.000003356934,2|2,1:2|3:2,0:0:0:0:
247,321,43117,1,2,3:2:0:0:
247,321,43284,2,0,P|277:313|308:305,1,55.0000016784668,2|2,1:2|0:0,0:0:0:0:
347,335,43620,5,4,3:2:0:0:
431,264,43955,2,0,P|427:173|337:154,1,165.0000050354,0|2,1:0|3:2,0:0:0:0:
312,148,44625,2,0,P|307:118|299:87,1,55.0000016784668,2|2,1:2|0:0,0:0:0:0:
290,39,44960,1,2,3:2:0:0:
188,10,45296,1,2,1:2:0:0:
188,10,45463,2,0,P|121:29|111:90,1,110.000003356934,2|2,3:2|3:2,0:0:0:0:
123,114,45966,2,0,L|192:129,2,55.0000016784668,0|2|2,1:0|0:0|3:2,0:0:0:0:
53,198,46636,6,0,P|52:250|99:278,1,110.000003356934,0|2,1:0|0:0,0:0:0:0:
156,282,47139,1,0,3:0:0:0:
156,282,47307,2,0,P|164:315|173:342,1,55.0000016784668,0|2,1:0|0:0,0:0:0:0:
222,354,47642,1,2,3:2:0:0:
289,268,47977,1,2,1:2:0:0:
289,268,48145,2,0,P|276:210|263:156,1,110.000003356934,2|2,0:0|3:2,0:0:0:0:
225,121,48647,2,0,P|219:98|210:57,1,55.0000016784668,2|2,1:2|3:2,0:0:0:0:
252,29,48983,5,4,3:2:0:0:
352,75,49318,2,0,P|365:133|378:187,1,110.000003356934,0|2,1:0|0:0,0:0:0:0:
420,215,49820,2,0,P|426:242|436:281,1,55.0000016784668,2|2,3:2|1:2,0:0:0:0:
402,314,50156,2,0,P|375:319|277:344,1,110.000003356934,2|2,0:0|3:2,0:0:0:0:
246,358,50659,1,2,1:2:0:0:
246,358,50826,1,2,3:2:0:0:
151,302,51161,2,0,P|141:249|178:211,1,110.000003356934,2|2,3:2|0:0,0:0:0:0:
230,193,51664,5,2,3:2:0:0:
335,160,51999,2,0,P|380:107|360:65,1,110.000003356934,0|2,1:0|0:0,0:0:0:0:
326,38,52502,2,0,P|299:32|273:23,1,55.0000016784668,2|2,3:2|1:2,0:0:0:0:
220,42,52837,2,0,P|176:28|94:14,1,110.000003356934,2|0,0:0|0:0,0:0:0:0:
74,55,53340,1,2,1:2:0:0:
74,55,53508,1,2,0:2:0:0:
8,143,53843,2,0,P|14:198|80:215,1,110.000003356934,2|2,3:2|0:0,0:0:0:0:
109,196,54346,5,2,3:2:0:0:
215,222,54681,2,0,P|226:272|244:333,1,110.000003356934,2|2,1:2|3:2,0:0:0:0:
291,352,55184,2,0,P|326:341|358:328,1,55.0000016784668,2|2,0:0|1:2,0:0:0:0:
374,289,55519,1,4,3:2:0:0:
479,318,55854,2,0,P|486:344|492:371,2,55.0000016784668,2|2|0,3:2|1:2|3:0,0:0:0:0:
507,211,56525,1,2,3:2:0:0:
401,181,56860,6,0,P|346:146|368:47,1,165.0000050354,4|2,3:2|1:2,0:0:0:0:
401,22,57530,1,2,0:0:0:0:
401,22,57698,2,0,P|352:12|253:-12,1,110.000003356934,2|0,3:2|1:0,0:0:0:0:
251,31,58201,1,2,3:2:0:0:
251,31,58368,2,0,P|224:80|170:79,1,110.000003356934,4|2,3:2|1:2,0:0:0:0:
129,60,58871,1,2,1:2:0:0:
129,60,59039,1,4,1:2:0:0:
49,135,59374,1,2,1:2:0:0:
103,230,59709,5,4,3:2:0:0:
211,209,60044,2,0,P|316:258|315:313,1,165.0000050354,0|2,1:0|3:2,0:0:0:0:
303,346,60715,2,0,P|269:349|240:354,1,55.0000016784668,2|2,1:2|0:0,0:0:0:0:
202,322,61050,1,2,3:2:0:0:
103,364,61385,1,2,1:2:0:0:
103,364,61552,2,0,P|92:305|77:249,1,110.000003356934,2|2,3:2|3:2,0:0:0:0:
53,208,62055,2,0,P|22:219|-16:226,2,55.0000016784668,2|2|2,1:2|0:0|3:2,0:0:0:0:
149,154,62726,5,0,1:0:0:0:
55,95,63061,2,0,P|24:106|-14:113,2,55.0000016784668,2|0|2,0:0|3:0|1:2,0:0:0:0:
151,42,63731,2,0,P|186:34|216:23,1,55.0000016784668,2|0,3:2|3:0,0:0:0:0:
255,48,64066,2,0,P|256:113|319:126,1,110.000003356934,2|2,1:2|3:2,0:0:0:0:
347,148,64569,1,2,3:2:0:0:
347,148,64737,2,0,P|373:141|399:132,1,55.0000016784668,2|2,1:2|0:0,0:0:0:0:
423,82,65072,5,4,3:2:0:0:
507,152,65407,2,0,P|517:230|417:272,1,165.0000050354,0|2,1:0|3:2,0:0:0:0:
398,278,66078,2,0,L|383:331,1,55.0000016784668,2|2,1:2|0:0,0:0:0:0:
332,352,66413,1,2,3:2:0:0:
281,260,66748,1,2,1:2:0:0:
281,260,66916,2,0,P|253:211|193:217,1,110.000003356934,2|2,3:2|3:2,0:0:0:0:
158,239,67418,2,0,P|150:271|146:308,2,55.0000016784668,0|2|2,1:0|0:0|3:2,0:0:0:0:
65,179,68089,6,0,P|33:146|52:85,1,110.000003356934,0|2,1:0|0:0,0:0:0:0:
85,49,68592,1,0,3:0:0:0:
85,49,68759,2,0,P|122:56|152:58,1,55.0000016784668,0|2,1:0|0:0,0:0:0:0:
184,25,69094,1,2,3:2:0:0:
279,91,69430,1,2,1:2:0:0:
279,91,69597,1,2,0:0:0:0:
356,12,69932,2,0,P|413:21|479:29,1,110.000003356934,2|2,3:2|3:2,0:0:0:0:
505,65,70435,5,4,3:2:0:0:
432,147,70770,1,2,1:2:0:0:
505,229,71106,2,0,P|489:290|392:282,1,165.0000050354,2|2,3:2|0:0,0:0:0:0:
357,259,71776,2,0,P|350:292|341:329,1,55.0000016784668,2|0,3:2|3:0,0:0:0:0:
332,367,72111,1,2,1:2:0:0:
223,373,72446,2,0,P|229:342|242:302,1,55.0000016784668,2|2,3:2|1:2,0:0:0:0:
203,275,72782,2,0,P|210:248|215:221,1,55.0000016784668,2|2,1:2|1:2,0:0:0:0:
256,192,73117,1,4,3:1:0:0:
256,192,73284,12,2,74458,0:2:0:0:
256,192,75463,5,2,1:2:0:0:
339,256,75798,1,4,3:2:0:0:
339,256,75966,2,0,P|393:243|454:234,1,99.9999999999999,2|2,0:0|3:2,0:0:0:0:
480,145,76636,1,2,3:2:0:0:
401,82,76971,2,0,P|347:95|286:104,1,99.9999999999999,2|2,3:2|3:2,0:0:0:0:
256,192,77642,1,2,3:2:0:0:
208,281,77977,2,0,P|159:290|111:302,1,99.9999999999999,2|2,3:2|0:0,0:0:0:0:
66,293,78480,5,2,3:2:0:0:
66,293,78647,1,2,0:0:0:0:
104,200,78983,1,2,3:2:0:0:
19,145,79318,1,2,3:2:0:0:
69,58,79653,2,0,P|118:49|166:37,1,99.9999999999999,2|2,3:2|3:2,0:0:0:0:
262,67,80323,2,0,P|296:112|273:164,1,99.9999999999999,2|0,3:2|3:0,0:0:0:0:
256,192,80826,1,4,1:2:0:0:
350,239,81161,5,4,3:2:0:0:
350,239,81329,2,0,P|367:298|376:350,1,99.9999999999999,2|2,0:0|3:2,0:0:0:0:
465,376,81999,1,2,3:2:0:0:
512,290,82335,2,0,P|495:231|486:179,1,99.9999999999999,2|2,3:2|3:2,0:0:0:0:
397,150,83005,1,2,3:2:0:0:
350,239,83340,2,0,P|300:255|231:268,1,99.9999999999999,2|2,3:2|0:0,0:0:0:0:
212,247,83843,5,2,3:2:0:0:
212,247,84011,1,2,0:0:0:0:
178,341,84346,1,2,3:2:0:0:
83,372,84681,1,2,3:2:0:0:
2,312,85016,2,0,P|9:268|28:210,1,99.9999999999999,2|2,3:2|3:2,0:0:0:0:
120,183,85687,2,0,P|135:135|143:86,1,99.9999999999999,2|2,3:2|3:2,0:0:0:0:
107,51,86189,2,0,P|59:51|32:99,1,99.9999999999999,4|4,1:2|3:1,0:0:0:0:
