osu file format v14

[General]
AudioFilename: audio.ogg
AudioLeadIn: 0
PreviewTime: 227641
Countdown: 0
SampleSet: Soft
StackLeniency: 0.7
Mode: 0
LetterboxInBreaks: 0
WidescreenStoryboard: 0

[Editor]
Bookmarks: 38760,55602,72444,89286,110339,127181,144023,160865,177707,194549,211391,228233,247187,264029
DistanceSpacing: 0.8
BeatDivisor: 8
GridSize: 16
TimelineZoom: 3.199999

[Metadata]
Title:Shinpakusuu#0822
TitleUnicode:心拍数♯0822
Artist:Kotoha
ArtistUnicode:Kotoha
Creator:achyoo
Version:chisataki
Source:
Tags:heart beat heart rate midorijeon ayucchi Shirahane Suou Nilou cover chouchou-p chouchoup papiyon 蝶々P パピヨン hakoniwalily ハコニワリリィ hakolili ハコリリ vocaloid hatsune miku 錦木 千束 Nishikigi Chisato 井ノ上 たきな Inoue Takina japanese pop jpop j-pop
BeatmapID:4420774
BeatmapSetID:2106756

[Difficulty]
HPDrainRate:2
CircleSize:4.2
OverallDifficulty:8.2
ApproachRate:9
SliderMultiplier:2
SliderTickRate:0.5

[Events]
//Background and Video events
0,0,"chisataki.jpg",0,0
//Break Periods
//Storyboard Layer 0 (Background)
//Storyboard Layer 1 (Fail)
//Storyboard Layer 2 (Pass)
//Storyboard Layer 3 (Foreground)
//Storyboard Layer 4 (Overlay)
//Storyboard Sound Samples

[TimingPoints]
865,526.315789473684,4,2,1,30,1,0
2970,-200,4,2,1,30,0,0
21917,526.315789473684,4,2,1,40,1,0
21917,-117.647058823529,4,2,1,40,0,0
54285,-200,4,2,1,40,0,0
55601,-105.263157894737,4,2,1,40,0,0
88232,-200,4,2,1,50,0,0
89285,-83.3333333333333,4,2,1,60,0,0
108232,-200,4,2,1,50,0,0
110339,526.315789473684,4,2,1,40,1,0
110339,-105.263157894737,4,2,1,40,0,0
176654,-105.263157894737,4,2,1,50,0,0
177707,-90.9090909090909,4,2,1,60,0,0
194549,-90.9090909090909,4,2,1,50,0,0
228233,-76.9230769230763,4,2,1,35,0,1
228266,-76.9230769230763,4,2,1,35,0,0
231917,-55.5555555555552,4,2,1,35,0,1
231950,-55.5555555555552,4,2,1,35,0,0
235602,-38.4615384615385,4,2,1,35,0,1
235635,-38.4615384615385,4,2,1,35,0,0
236128,-38.4615384615385,4,2,1,35,0,1
236161,-38.4615384615385,4,2,1,35,0,0
239812,-50,4,2,1,35,0,1
239845,-50,4,2,1,35,0,0
240338,-50,4,2,1,35,0,1
240371,-50,4,2,1,35,0,0
242970,-35.7142857142857,4,2,1,35,0,1
243003,-35.7142857142857,4,2,1,35,0,0
243365,-35.7142857142857,4,2,1,35,0,1
243398,-35.7142857142857,4,2,1,35,0,0
243760,517.241379310345,4,2,1,35,1,0
244277,273.972602739726,4,2,1,35,1,0
244550,283.018867924528,4,2,1,35,1,0
244833,267.857142857143,4,2,1,35,1,0
245100,255.31914893617,4,2,1,35,1,0
246121,266.666666666666,4,2,1,45,1,1
246121,-20,4,2,1,45,0,1
246587,-20,4,2,1,55,0,0
246654,-23.2558139534884,4,2,1,55,0,1
246671,-23.2558139534884,4,2,1,55,0,0
246687,-23.2558139534884,4,2,1,55,0,1
246704,-23.2558139534884,4,2,1,55,0,0
246721,-23.2558139534884,4,2,1,55,0,1
246737,-23.2558139534884,4,2,1,55,0,0
246754,-23.2558139534884,4,2,1,55,0,1
246771,-23.2558139534884,4,2,1,55,0,0
246787,-23.2558139534884,4,2,1,55,0,1
246804,-23.2558139534884,4,2,1,55,0,0
246821,-23.2558139534884,4,2,1,55,0,1
246837,-23.2558139534884,4,2,1,55,0,0
246854,-23.2558139534884,4,2,1,55,0,1
246871,-23.2558139534884,4,2,1,55,0,0
246887,-23.2558139534884,4,2,1,55,0,1
246904,-23.2558139534884,4,2,1,55,0,0
246921,-23.2558139534884,4,2,1,55,0,1
246937,-23.2558139534884,4,2,1,55,0,0
246954,-23.2558139534884,4,2,1,55,0,1
246971,-23.2558139534884,4,2,1,55,0,0
246987,-23.2558139534884,4,2,1,55,0,1
247004,-23.2558139534884,4,2,1,55,0,0
247021,-23.2558139534884,4,2,1,55,0,1
247037,-23.2558139534884,4,2,1,55,0,0
247054,-23.2558139534884,4,2,1,55,0,1
247071,-23.2558139534884,4,2,1,55,0,0
247087,-23.2558139534884,4,2,1,55,0,1
247104,-23.2558139534884,4,2,1,55,0,0
247121,-23.2558139534884,4,2,1,55,0,1
247137,-23.2558139534884,4,2,1,55,0,0
247154,-23.2558139534884,4,2,1,55,0,1
247171,-23.2558139534884,4,2,1,55,0,0
247187,526.315789473684,4,2,1,65,1,1
247219,-100,4,2,1,65,0,0
247581,-66.6666666666667,4,2,1,65,0,0
264029,-66.6666666666667,4,2,1,55,0,0
279818,560.747663551402,4,2,1,55,1,0
280378,540.54054054054,4,2,1,45,1,0
280918,521.739130434783,4,2,1,35,1,0
280983,405.405405405405,4,2,1,35,1,0
281388,419.580419580419,4,2,1,35,1,0
281807,566.037735849056,4,2,1,35,1,0
282373,309.278350515464,4,2,1,35,1,0
282682,287.081339712918,4,2,1,35,1,0
282969,320.855614973262,4,2,1,35,1,0
283289,495.867768595041,4,2,1,35,1,0
283784,526.315789473684,4,2,1,35,1,0
284310,451.127819548872,4,2,1,35,1,0
285212,281.69014084507,4,2,1,35,1,0
285212,-200,4,2,1,35,0,0
285352,227.272727272727,4,2,1,35,1,0
285579,441.176470588234,4,2,1,35,1,0
286020,666.666666666664,4,2,1,35,1,0
286686,599.999999999998,4,2,1,45,1,0
291486,-100,4,2,1,5,0,0

[Colours]
Combo1 : 255,255,255
Combo2 : 136,169,255
Combo3 : 245,109,109
Combo4 : 143,143,143
Combo5 : 249,234,128

[HitObjects]
256,192,865,69,10,2:0:0:0:
256,192,1259,1,2,2:0:0:0:
256,192,1654,1,2,2:0:0:0:
208,77,2180,1,2,2:0:0:0:
162,144,2443,1,2,2:0:0:0:
126,70,2707,1,2,2:0:0:0:
214,71,2970,2,0,P|253:64|414:43,1,200,2|2,2:0|2:0,0:0:0:0:
256,192,5075,1,10,2:0:0:0:
256,192,5470,1,2,2:0:0:0:
256,192,5864,1,2,2:0:0:0:
353,271,6391,1,2,2:0:0:0:
430,229,6654,1,2,2:0:0:0:
346,265,6917,1,2,2:0:0:0:
432,327,7180,2,0,P|342:309|225:299,1,200,2|2,2:0|2:0,0:0:0:0:
48,363,9286,1,10,2:0:0:0:
48,363,9680,1,2,2:0:0:0:
119,294,10075,2,0,P|112:258|101:191,1,100,2|2,2:0|2:0,0:0:0:0:
34,113,10864,1,2,2:0:0:0:
161,144,11128,1,2,2:0:0:0:
125,19,11391,1,2,2:0:0:0:
125,19,12326,1,2,2:0:0:0:
125,19,12443,2,0,P|191:36|231:42,1,100,2|2,2:0|2:0,0:0:0:0:
392,51,13438,1,2,2:0:0:0:
392,51,13496,1,10,2:0:0:0:
259,171,13891,1,2,2:0:0:0:
416,338,14286,1,2,2:0:0:0:
458,175,14812,1,2,2:0:0:0:
385,131,15075,1,2,2:0:0:0:
341,204,15338,1,2,2:0:0:0:
414,248,15601,2,0,P|439:255|468:261,2,50,2|2|0,2:0|2:0|2:0,0:0:0:0:
341,204,16391,1,2,2:0:0:0:
261,223,16654,1,2,2:0:0:0:
261,223,16917,1,2,2:0:0:0:
159,163,17180,1,2,2:0:0:0:
159,163,17443,1,2,2:0:0:0:
277,87,17707,1,10,2:0:0:0:
277,87,17772,1,2,2:0:0:0:
69,27,18101,1,2,2:0:0:0:
115,242,18496,1,2,2:0:0:0:
159,163,18759,1,2,2:0:0:0:
205,240,19022,1,2,2:0:0:0:
161,319,19286,1,2,2:0:0:0:
69,165,19549,1,2,2:0:0:0:
249,161,19812,1,6,2:0:0:0:
249,161,19887,1,2,2:0:0:0:
247,169,21128,1,2,2:0:0:0:
194,225,21391,1,2,2:0:0:0:
170,151,21654,1,2,2:0:0:0:
249,161,21917,2,0,P|286:151|341:141,1,85.0000000000003,14|0,2:0|2:0,0:0:0:0:
398,76,22311,1,2,2:0:0:0:
471,237,22574,1,2,2:0:0:0:
471,237,22706,2,0,P|446:297|372:291,1,127.5,2|0,2:0|2:0,0:0:0:0:
321,356,23232,1,2,2:0:0:0:
321,356,23495,2,0,P|304:318|265:306,1,85.0000000000003,2|2,2:0|2:0,0:0:0:0:
166,224,24022,2,0,P|116:235|80:245,1,85.0000000000003,2|0,2:0|2:0,0:0:0:0:
87,337,24417,2,0,P|37:348|1:358,1,85.0000000000003,2|0,2:0|2:0,0:0:0:0:
184,339,24811,2,0,P|196:260|228:160,1,170.000000000001,2|2,2:0|2:0,0:0:0:0:
296,151,25469,1,2,2:0:0:0:
258,77,25601,1,2,2:0:0:0:
83,243,25864,1,2,2:0:0:0:
7,9,26127,1,10,2:0:0:0:
67,67,26390,1,2,2:0:0:0:
67,67,26522,1,2,2:0:0:0:
249,1,26785,1,2,2:0:0:0:
328,36,26917,2,0,B|399:38|377:2|453:6,1,127.5,2|0,2:0|2:0,0:0:0:0:
512,166,27443,1,2,2:0:0:0:
401,103,27706,1,2,2:0:0:0:
323,215,27969,1,2,2:0:0:0:
480,350,28232,2,0,P|487:306|503:241,1,85.0000000000003,2|0,2:0|2:0,0:0:0:0:
404,188,28627,2,0,P|366:201|319:217,1,85.0000000000003,2|0,2:0|2:0,0:0:0:0:
93,145,29022,2,0,P|157:127|259:92,1,170.000000000001,2|2,2:0|2:0,0:0:0:0:
337,118,29680,1,2,2:0:0:0:
252,18,29811,1,2,2:0:0:0:
210,228,30074,1,2,2:0:0:0:
53,82,30338,2,0,P|39:36|28:-2,1,85.0000000000003,10|2,2:0|2:0,0:0:0:0:
121,8,30732,1,2,2:0:0:0:
59,258,30995,1,2,2:0:0:0:
59,265,31061,1,2,2:0:0:0:
60,273,31127,2,0,B|129:271|94:311|178:308,1,127.5,2|0,2:0|2:0,0:0:0:0:
188,320,31653,1,2,2:0:0:0:
361,107,31916,2,0,P|372:77|380:55,1,42.5000000000001,2|0,2:0|2:0,0:0:0:0:
248,68,32180,2,0,P|237:38|229:16,1,42.5000000000001,2|0,2:0|2:0,0:0:0:0:
251,268,32443,1,2,2:0:0:0:
312,221,32838,1,2,2:0:0:0:
275,151,33232,1,2,2:0:0:0:
414,374,33495,1,2,2:0:0:0:
503,192,33759,2,0,P|495:159|485:132,1,42.5000000000001,2|0,2:0|2:0,0:0:0:0:
390,115,34022,2,0,P|365:122|324:131,1,42.5000000000001,2|0,2:0|2:0,0:0:0:0:
509,54,34285,1,2,2:0:0:0:
438,0,34417,1,2,2:0:0:0:
438,0,34482,1,2,2:0:0:0:
438,0,34548,2,0,P|392:7|373:46,1,85.0000000000003,10|0,2:0|2:0,0:0:0:0:
342,134,34943,2,0,P|289:114|233:103,1,85.0000000000003,2|0,2:0|2:0,0:0:0:0:
88,80,35338,2,0,P|152:99|156:180,1,127.5,2|0,2:0|2:0,0:0:0:0:
212,44,35864,2,0,P|216:23|224:4,1,42.5000000000001,2|0,2:0|2:0,0:0:0:0:
83,76,36127,2,0,P|62:85|22:91,1,42.5000000000001,2|0,2:0|2:0,0:0:0:0:
174,159,36390,1,2,2:0:0:0:
48,335,36653,2,0,B|41:263|92:298|87:195,2,127.5,2|2|2,2:0|2:0|2:0,0:0:0:0:
48,335,37969,2,0,P|81:325|111:318,1,42.5000000000001,2|0,2:0|2:0,0:0:0:0:
222,350,38232,2,0,P|231:316|240:287,1,42.5000000000001,2|0,2:0|2:0,0:0:0:0:
174,159,38495,2,0,P|164:192|155:221,1,42.5000000000001,2|0,2:0|2:0,0:0:0:0:
308,349,38759,2,0,P|352:325|401:334,1,85.0000000000003,14|0,2:0|2:0,0:0:0:0:
451,279,39153,1,2,2:0:0:0:
364,130,39416,1,2,2:0:0:0:
364,130,39548,2,0,P|317:138|238:72,1,127.5,2|0,2:0|2:0,0:0:0:0:
145,80,40074,1,2,2:0:0:0:
145,80,40338,2,0,P|165:117|174:159,1,85.0000000000003,2|2,2:0|2:0,0:0:0:0:
387,262,40864,2,0,P|345:255|309:276,1,85.0000000000003,2|0,2:0|2:0,0:0:0:0:
239,216,41259,2,0,P|212:248|212:290,1,85.0000000000003,2|0,2:0|2:0,0:0:0:0:
66,343,41653,2,0,P|149:359|230:383,1,170.000000000001,2|2,2:0|2:0,0:0:0:0:
304,351,42311,1,2,2:0:0:0:
378,384,42443,1,2,2:0:0:0:
508,193,42706,1,2,2:0:0:0:
313,59,42969,1,10,2:0:0:0:
368,183,43232,1,2,2:0:0:0:
368,183,43364,1,2,2:0:0:0:
250,229,43627,1,2,2:0:0:0:
250,229,43759,2,0,P|202:226|124:283,1,127.5,2|0,2:0|2:0,0:0:0:0:
111,337,44285,1,2,2:0:0:0:
7,255,44548,1,2,2:0:0:0:
51,130,44811,1,2,2:0:0:0:
214,41,45074,1,2,2:0:0:0:
149,128,45469,2,0,P|127:77|99:40,1,85.0000000000003,2|0,2:0|2:0,0:0:0:0:
271,122,45864,2,0,P|213:194|171:276,1,170.000000000001,2|2,2:0|2:0,0:0:0:0:
199,336,46522,1,2,2:0:0:0:
99,242,46653,1,2,2:0:0:0:
217,61,46916,1,2,2:0:0:0:
382,282,47180,1,10,2:0:0:0:
245,209,47443,1,2,2:0:0:0:
245,209,47574,1,2,2:0:0:0:
440,57,47838,1,2,2:0:0:0:
341,26,47969,1,2,2:0:0:0:
347,31,48035,2,0,P|372:115|378:170,1,127.5,2|0,2:0|2:0,0:0:0:0:
370,165,48495,1,2,2:0:0:0:
437,238,48759,1,2,2:0:0:0:
283,117,49022,1,2,2:0:0:0:
174,384,49285,1,2,2:0:0:0:
120,327,49614,1,2,2:0:0:0:
135,316,49680,1,2,2:0:0:0:
174,251,50009,1,2,2:0:0:0:
156,239,50074,1,2,2:0:0:0:
288,291,50338,1,2,2:0:0:0:
255,170,50601,1,2,2:0:0:0:
63,14,50864,1,2,2:0:0:0:
0,139,51127,1,2,2:0:0:0:
69,197,51259,1,2,2:0:0:0:
69,197,51324,1,2,2:0:0:0:
69,197,51390,2,0,P|96:178|159:174,1,85.0000000000003,10|2,2:0|2:0,0:0:0:0:
194,106,51785,1,2,2:0:0:0:
50,279,52048,1,2,2:0:0:0:
125,258,52180,2,0,P|178:282|227:362,1,127.5,2|0,2:0|2:0,0:0:0:0:
275,384,52706,1,2,2:0:0:0:
363,313,52969,1,2,2:0:0:0:
364,148,53232,1,2,2:0:0:0:
189,86,53495,2,0,P|139:117|96:116,1,85.0000000000003,2|0,2:0|2:0,0:0:0:0:
281,83,53890,2,0,P|279:24|301:-12,1,85.0000000000003,2|0,2:0|2:0,0:0:0:0:
231,165,54285,2,0,P|282:192|304:241,1,100,2|0,2:0|2:0,0:0:0:0:
166,367,55074,1,2,2:0:0:0:
161,364,55140,2,0,L|147:327,1,37.5,2|2,2:0|2:0,0:0:0:0:
155,188,55601,2,0,P|112:202|59:217,1,94.9999999999999,14|0,2:0|2:0,0:0:0:0:
67,50,55995,2,0,P|78:85|91:123,1,47.4999999999999,2|0,2:0|2:0,0:0:0:0:
157,112,56259,1,0,2:0:0:0:
231,221,56390,2,0,P|287:173|261:99,1,142.5,2|0,2:0|2:0,0:0:0:0:
187,45,56916,2,0,P|198:6|202:-24,1,47.4999999999999,2|0,2:0|2:0,0:0:0:0:
282,107,57180,2,0,P|271:68|267:38,1,47.4999999999999,2|0,2:0|2:0,0:0:0:0:
285,38,57377,1,0,2:0:0:0:
293,38,57443,2,0,P|332:49|362:53,1,47.4999999999999,2|0,2:0|2:0,0:0:0:0:
462,140,57706,2,0,P|473:77|417:28,2,142.5,2|2|2,2:0|2:0|2:0,0:0:0:0:
386,116,58627,1,0,2:0:0:0:
297,210,58759,2,0,P|345:223|388:238,1,94.9999999999999,2|0,2:0|2:0,0:0:0:0:
506,203,59153,1,2,2:0:0:0:
471,307,59285,2,0,P|463:276|453:247,1,47.4999999999999,2|0,2:0|2:0,0:0:0:0:
270,282,59548,2,0,P|264:320|287:354,1,71.2499999999999,2|0,2:0|2:0,0:0:0:0:
279,347,59811,2,0,P|230:356|165:375,1,94.9999999999999,10|0,2:0|2:0,0:0:0:0:
129,160,60206,2,0,P|175:166|202:210,1,94.9999999999999,2|0,2:0|2:0,0:0:0:0:
200,224,60535,1,0,2:0:0:0:
193,230,60601,2,0,B|110:221|143:275|61:267,1,142.5,2|0,2:0|2:0,0:0:0:0:
124,153,61127,2,0,P|129:112|132:93,1,47.4999999999999,2|0,2:0|2:0,0:0:0:0:
261,8,61390,2,0,P|266:49|269:68,1,47.4999999999999,2|0,2:0|2:0,0:0:0:0:
266,203,61653,1,2,2:0:0:0:
335,155,61785,1,2,2:0:0:0:
335,155,61851,1,2,2:0:0:0:
335,155,61916,2,0,P|377:168|405:222,1,94.9999999999999,2|0,2:0|2:0,0:0:0:0:
438,111,62311,2,0,P|480:98|508:44,1,94.9999999999999,2|0,2:0|2:0,0:0:0:0:
454,0,62706,1,2,2:0:0:0:
487,190,62969,2,0,P|477:238|470:296,1,94.9999999999999,2|0,2:0|2:0,0:0:0:0:
343,300,63364,2,0,P|366:338|421:342,1,94.9999999999999,2|0,2:0|2:0,0:0:0:0:
476,289,63759,1,2,2:0:0:0:
282,238,64022,2,0,P|228:253|173:270,1,94.9999999999999,10|0,2:0|2:0,0:0:0:0:
137,165,64416,2,0,P|175:171|203:179,1,47.4999999999999,2|0,2:0|2:0,0:0:0:0:
247,128,64680,1,0,2:0:0:0:
360,216,64811,2,0,P|389:163|347:83,1,142.5,2|0,2:0|2:0,0:0:0:0:
255,1,65338,2,0,P|265:31|274:55,1,47.4999999999999,2|0,2:0|2:0,0:0:0:0:
183,173,65601,2,0,P|160:168|137:165,1,47.4999999999999,2|0,2:0|2:0,0:0:0:0:
12,70,65864,2,0,P|23:40|32:15,1,47.4999999999999,2|0,2:0|2:0,0:0:0:0:
45,18,66061,1,0,2:0:0:0:
45,18,66127,2,0,P|84:58|75:103,1,94.9999999999999,2|0,2:0|2:0,0:0:0:0:
235,115,66522,2,0,P|219:168|176:183,1,94.9999999999999,2|0,2:0|2:0,0:0:0:0:
167,256,66916,1,2,2:0:0:0:
12,249,67048,1,2,2:0:0:0:
4,240,67114,1,2,2:0:0:0:
11,230,67180,2,0,P|64:218|111:209,1,94.9999999999999,2|0,2:0|2:0,0:0:0:0:
246,352,67574,2,0,P|193:364|146:373,1,94.9999999999999,2|0,2:0|2:0,0:0:0:0:
78,338,67969,2,0,P|85:295|88:265,1,47.4999999999999,2|0,2:0|2:0,0:0:0:0:
270,203,68232,2,0,P|227:196|197:193,1,47.4999999999999,10|0,2:0|2:0,0:0:0:0:
167,256,68495,1,0,2:0:0:0:
149,132,68627,2,0,P|187:88|244:100,1,118.75,2|0,2:0|2:0,0:0:0:0:
246,108,69022,2,0,P|275:101|304:93,1,47.4999999999999,2|0,2:0|2:0,0:0:0:0:
454,16,69285,1,2,2:0:0:0:
345,163,69680,1,2,2:0:0:0:
419,188,69811,2,0,P|439:181|467:175,1,47.4999999999999,2|0,2:0|2:0,0:0:0:0:
452,347,70074,2,0,P|472:340|500:334,1,47.4999999999999,2|0,2:0|2:0,0:0:0:0:
367,368,70338,2,0,P|375:323|381:302,1,47.4999999999999,2|0,2:0|2:0,0:0:0:0:
432,266,70601,1,0,2:0:0:0:
288,337,70732,2,0,B|243:345|251:372|178:378,1,94.9999999999999,2|0,2:0|2:0,0:0:0:0:
49,265,71127,2,0,P|57:294|61:318,1,47.4999999999999,2|0,2:0|2:0,0:0:0:0:
136,336,71390,1,2,2:0:0:0:
136,336,71522,1,0,2:0:0:0:
199,267,71653,1,2,2:0:0:0:
199,267,71785,1,0,2:0:0:0:
100,196,71916,1,2,2:0:0:0:
100,196,72048,1,0,2:0:0:0:
200,104,72180,1,2,2:0:0:0:
200,104,72311,1,0,2:0:0:0:
60,35,72443,2,0,P|75:91|134:104,1,94.9999999999999,14|0,2:0|2:0,0:0:0:0:
256,29,72838,2,0,P|233:20|213:7,1,47.4999999999999,2|0,2:0|2:0,0:0:0:0:
140,37,73101,1,0,2:0:0:0:
286,133,73232,2,0,P|338:89|429:111,1,142.5,2|0,2:0|2:0,0:0:0:0:
462,149,73759,2,0,P|451:177|448:217,1,47.4999999999999,2|0,2:0|2:0,0:0:0:0:
364,243,74022,2,0,P|382:266|415:289,1,47.4999999999999,2|0,2:0|2:0,0:0:0:0:
441,377,74285,2,0,P|470:372|506:355,1,47.4999999999999,2|0,2:0|2:0,0:0:0:0:
302,303,74548,2,0,P|250:305|224:358,1,94.9999999999999,2|0,2:0|2:0,0:0:0:0:
152,384,74943,2,0,P|108:365|61:357,1,94.9999999999999,2|0,2:0|2:0,0:0:0:0:
8,300,75338,1,2,2:0:0:0:
162,160,75535,1,2,2:0:0:0:
169,153,75601,2,0,P|193:173|201:255,1,94.9999999999999,2|0,2:0|2:0,0:0:0:0:
144,282,75995,2,0,P|115:277|83:258,1,47.4999999999999,2|0,2:0|2:0,0:0:0:0:
66,200,76259,1,0,2:0:0:0:
127,73,76390,2,0,P|182:59|197:31,1,71.2499999999999,2|0,2:0|2:0,0:0:0:0:
189,49,76653,2,0,P|134:35|94:8,1,94.9999999999999,10|0,2:0|2:0,0:0:0:0:
3,143,77048,2,0,P|43:119|89:108,1,94.9999999999999,2|0,2:0|2:0,0:0:0:0:
161,146,77443,2,0,P|153:166|147:201,1,47.4999999999999,2|0,2:0|2:0,0:0:0:0:
253,301,77706,2,0,P|258:249|216:206,1,94.9999999999999,2|0,2:0|2:0,0:0:0:0:
75,330,78101,2,0,P|126:335|175:262,1,142.5,2|2,2:0|2:0,0:0:0:0:
53,143,78627,1,2,2:0:0:0:
52,153,78693,1,2,2:0:0:0:
45,160,78759,2,0,P|63:194|77:253,1,94.9999999999999,2|0,2:0|2:0,0:0:0:0:
211,378,79153,2,0,P|231:345|275:303,1,94.9999999999999,2|0,2:0|2:0,0:0:0:0:
158,188,79548,1,2,2:0:0:0:
357,164,79745,1,2,2:0:0:0:
356,174,79811,2,0,P|309:184|267:206,1,94.9999999999999,2|0,2:0|2:0,0:0:0:0:
264,42,80206,2,0,P|239:82|224:127,1,94.9999999999999,2|0,2:0|2:0,0:0:0:0:
338,261,80601,1,2,2:0:0:0:
512,85,80864,2,0,P|471:50|422:57,1,94.9999999999999,10|0,2:0|2:0,0:0:0:0:
350,54,81259,2,0,P|360:75|368:97,1,47.4999999999999,2|0,2:0|2:0,0:0:0:0:
444,141,81522,1,0,2:0:0:0:
302,139,81653,2,0,P|274:214|238:285,1,142.5,2|0,2:0|2:0,0:0:0:0:
291,335,82180,2,0,P|314:339|340:354,1,47.4999999999999,2|0,2:0|2:0,0:0:0:0:
178,223,82443,2,0,P|194:204|214:192,1,47.4999999999999,2|0,2:0|2:0,0:0:0:0:
92,264,82706,2,0,P|83:241|83:212,1,47.4999999999999,2|0,2:0|2:0,0:0:0:0:
217,376,82969,2,0,P|143:342|99:361,1,94.9999999999999,2|0,2:0|2:0,0:0:0:0:
8,296,83364,2,0,P|54:292|91:263,1,94.9999999999999,2|0,2:0|2:0,0:0:0:0:
179,223,83759,1,2,2:0:0:0:
104,56,84022,2,0,P|62:93|55:138,1,94.9999999999999,2|0,2:0|2:0,0:0:0:0:
229,144,84416,2,0,P|175:126|133:142,1,94.9999999999999,2|0,2:0|2:0,0:0:0:0:
279,272,84811,2,0,P|275:246|253:211,1,47.4999999999999,2|0,2:0|2:0,0:0:0:0:
259,226,85009,1,0,2:0:0:0:
250,231,85074,2,0,P|318:226|334:200,1,94.9999999999999,10|0,2:0|2:0,0:0:0:0:
480,304,85469,2,0,P|436:288|420:245,1,94.9999999999999,2|0,2:0|2:0,0:0:0:0:
308,126,85864,1,2,2:0:0:0:
415,110,86127,1,2,2:0:0:0:
500,220,86390,1,2,2:0:0:0:
438,363,86653,1,2,2:0:0:0:
240,339,86916,1,2,2:0:0:0:
173,93,87180,1,6,2:0:0:0:
180,97,87245,1,2,2:0:0:0:
180,97,88232,2,0,L|199:184,1,87.5,2|0,2:0|2:0,0:0:0:0:
199,183,88759,2,0,L|233:173,1,25,2|0,2:0|2:0,0:0:0:0:
282,230,89022,2,0,L|316:239,1,25,2|0,2:0|2:0,0:0:0:0:
433,109,89285,2,0,P|356:74|317:65,1,120,10|0,2:1|2:0,0:0:0:0:
235,166,89680,1,2,2:0:0:0:
189,19,89811,2,0,L|270:-7,1,59.9999981689454,0|0,2:0|2:0,0:0:0:0:
66,91,90074,2,0,P|16:43|46:-19,2,120,2|0|2,2:0|2:0|2:0,0:0:0:0:
162,194,90864,2,0,L|146:254,1,60,2|0,2:0|2:0,0:0:0:0:
45,345,91127,2,0,L|105:327,1,60,2|0,2:0|2:0,0:0:0:0:
112,326,91324,1,0,2:0:0:0:
121,323,91390,2,0,B|173:332|150:363|211:369,1,90,2|0,2:0|2:0,0:0:0:0:
206,364,91653,1,2,2:0:0:0:
362,206,91785,2,0,P|319:216|287:225,1,60,2|0,2:0|2:0,0:0:0:0:
240,185,92048,1,2,2:0:0:0:
302,384,92180,2,0,P|314:338|333:292,1,90,2|0,2:0|2:0,0:0:0:0:
338,294,92443,1,10,2:0:0:0:
489,39,92969,2,0,P|478:68|470:106,1,60,10|0,2:0|2:0,0:0:0:0:
413,11,93232,2,0,P|406:40|395:68,1,60,2|0,2:0|2:0,0:0:0:0:
499,254,93495,2,0,P|445:238|427:174,1,120,14|2,2:0|2:0,0:0:0:0:
334,94,93890,2,0,P|371:79|392:72,2,60,2|0|2,2:0|2:0|2:0,0:0:0:0:
251,195,94285,2,0,P|317:199|349:251,1,120,2|2,2:0|2:0,0:0:0:0:
348,248,94614,1,2,2:0:0:0:
346,256,94680,1,2,2:0:0:0:
257,94,94811,2,0,P|244:59|234:25,1,60,2|0,2:0|2:0,0:0:0:0:
161,223,95074,2,0,P|174:188|180:154,1,60,2|0,2:0|2:0,0:0:0:0:
86,11,95338,2,0,P|49:27|44:88,1,90,2|0,2:0|2:0,0:0:0:0:
43,79,95601,2,0,P|92:88|120:96,1,60,2|0,2:0|2:0,0:0:0:0:
82,267,95864,1,2,2:0:0:0:
20,204,95995,2,0,P|10:165|-3:136,1,60,2|0,2:0|2:0,0:0:0:0:
82,267,96259,1,2,2:0:0:0:
163,300,96390,2,0,P|152:328|146:358,1,60,2|0,2:0|2:0,0:0:0:0:
192,205,96653,1,2,2:0:0:0:
192,205,96785,1,0,2:0:0:0:
283,205,96916,1,2,2:0:0:0:
283,205,97048,1,0,2:0:0:0:
228,368,97180,1,10,2:0:0:0:
321,276,97311,1,0,2:0:0:0:
239,284,97443,1,2,2:0:0:0:
333,364,97574,1,2,2:0:0:0:
333,364,97640,1,2,2:0:0:0:
333,364,97706,2,0,P|388:350|435:342,1,90,14|0,2:0|2:0,0:0:0:0:
429,348,97969,1,2,2:0:0:0:
447,193,98101,2,0,P|475:211|499:229,1,60,2|0,2:0|2:0,0:0:0:0:
504,301,98364,1,2,2:0:0:0:
366,210,98495,2,0,P|382:134|412:79,2,120,2|0|2,2:0|2:0|2:0,0:0:0:0:
366,210,99285,2,0,P|331:187|317:156,1,60,2|0,2:0|2:0,0:0:0:0:
240,153,99548,2,0,P|247:111|270:86,1,60,2|0,2:0|2:0,0:0:0:0:
330,77,99745,1,0,2:0:0:0:
330,66,99811,2,0,P|303:29|243:25,1,90,2|0,2:0|2:0,0:0:0:0:
252,25,100074,1,2,2:0:0:0:
157,127,100206,2,0,P|131:99|135:58,1,60,2|0,2:0|2:0,0:0:0:0:
174,17,100469,1,2,2:0:0:0:
60,120,100601,2,0,P|26:127|-11:135,1,60,2|0,2:0|2:0,0:0:0:0:
171,202,100864,2,0,P|218:209|267:218,1,90,10|0,2:0|2:0,0:0:0:0:
267,221,101127,2,0,P|270:259|255:281,1,60,2|0,2:0|2:0,0:0:0:0:
70,259,101390,2,0,P|67:221|82:199,1,60,10|0,2:0|2:0,0:0:0:0:
187,139,101653,2,0,P|180:193|178:220,1,60,2|0,2:0|2:0,0:0:0:0:
176,209,101851,1,0,2:0:0:0:
173,219,101916,2,0,B|178:278|158:266|166:326,1,90,14|0,2:0|2:0,0:0:0:0:
161,318,102180,2,0,P|129:328|94:338,1,60,2|0,2:0|2:0,0:0:0:0:
276,216,102443,2,0,P|308:226|343:236,1,60,2|0,2:0|2:0,0:0:0:0:
451,103,102706,2,0,P|414:151|356:135,2,120,2|0|2,2:0|2:0|2:0,0:0:0:0:
451,103,103495,2,0,P|462:64|472:33,1,60,2|0,2:0|2:0,0:0:0:0:
356,146,103759,2,0,P|345:107|335:76,1,60,2|0,2:0|2:0,0:0:0:0:
487,225,104022,1,2,2:0:0:0:
487,225,104285,1,2,2:0:0:0:
418,263,104416,2,0,P|428:319|434:343,1,60,2|0,2:0|2:0,0:0:0:0:
499,365,104680,1,2,2:0:0:0:
355,334,104811,2,0,P|305:326|256:323,1,90,2|0,2:0|2:0,0:0:0:0:
265,323,105074,2,0,P|254:239|242:56,1,240,10|10,2:0|2:0,0:0:0:0:
242,84,106127,1,14,2:0:0:0:
119,13,106522,1,2,2:0:0:0:
120,156,106916,1,2,2:0:0:0:
120,156,107443,1,2,2:0:0:0:
162,86,107706,1,2,2:0:0:0:
40,158,107969,1,2,2:0:0:0:
163,229,108232,2,0,B|253:224|218:165|319:159,1,175,10|2,2:0|2:0,0:0:0:0:
317,159,109219,1,2,2:0:0:0:
317,159,109285,1,6,2:0:0:0:
464,230,109548,1,2,2:0:0:0:
499,302,109811,1,2,2:0:0:0:
480,379,110074,1,2,2:0:0:0:
505,311,110339,2,0,P|458:309|417:334,1,94.9999999999999,14|0,2:0|2:0,0:0:0:0:
352,303,110733,1,2,2:0:0:0:
230,384,110996,1,2,2:0:0:0:
230,384,111128,2,0,P|256:317|272:248,1,142.5,2|0,2:0|2:0,0:0:0:0:
342,214,111654,1,2,2:0:0:0:
209,145,111917,1,2,2:0:0:0:
134,274,112181,1,2,2:0:0:0:
0,205,112444,1,2,2:0:0:0:
0,205,112839,2,0,P|20:157|27:104,1,94.9999999999999,2|0,2:0|2:0,0:0:0:0:
119,39,113233,2,0,P|152:101|208:144,1,142.5,2|0,2:0|2:0,0:0:0:0:
254,208,113760,1,2,2:0:0:0:
312,146,113891,1,2,2:0:0:0:
393,172,114023,1,2,2:0:0:0:
282,364,114286,1,2,2:0:0:0:
138,200,114549,1,10,2:0:0:0:
298,58,114812,1,2,2:0:0:0:
298,58,114944,1,2,2:0:0:0:
317,284,115207,1,2,2:0:0:0:
317,284,115339,2,0,P|266:267|261:184,1,142.5,2|0,2:0|2:0,0:0:0:0:
324,143,115865,1,2,2:0:0:0:
399,247,116128,1,2,2:0:0:0:
426,52,116391,1,2,2:0:0:0:
206,114,116654,1,2,2:0:0:0:
206,114,117049,2,0,P|164:113|109:91,1,94.9999999999999,2|0,2:0|2:0,0:0:0:0:
0,236,117444,2,0,P|33:208|132:200,1,142.5,2|0,2:0|2:0,0:0:0:0:
207,256,117970,1,2,2:0:0:0:
294,216,118102,1,2,2:0:0:0:
403,370,118233,2,0,P|361:356|340:355,1,47.4999999999999,2|0,2:0|2:0,0:0:0:0:
255,337,118496,2,0,P|287:307|298:290,1,47.4999999999999,2|0,2:0|2:0,0:0:0:0:
383,223,118760,2,0,P|392:265|401:284,1,47.4999999999999,10|0,2:0|2:0,0:0:0:0:
459,312,119023,1,2,2:0:0:0:
436,163,119154,2,0,P|468:133|479:116,1,47.4999999999999,2|0,2:0|2:0,0:0:0:0:
470,51,119417,1,2,2:0:0:0:
351,145,119549,2,0,P|289:109|213:123,1,142.5,2|0,2:0|2:0,0:0:0:0:
142,82,120075,1,2,2:0:0:0:
41,293,120339,1,2,2:0:0:0:
269,207,120602,1,2,2:0:0:0:
42,42,120865,2,0,L|5:153,1,94.9999999999999,2|0,2:0|2:0,0:0:0:0:
69,195,121260,1,2,2:0:0:0:
69,195,121654,2,0,L|116:179,1,47.4999999999999,2|0,2:0|2:0,0:0:0:0:
229,50,121917,1,2,2:0:0:0:
229,50,122181,2,0,P|209:39|193:18,1,47.4999999999999,2|0,2:0|2:0,0:0:0:0:
309,225,122444,2,0,P|318:203|317:179,1,47.4999999999999,2|0,2:0|2:0,0:0:0:0:
192,156,122707,2,0,P|215:152|236:140,1,47.4999999999999,2|0,2:0|2:0,0:0:0:0:
382,36,122970,2,0,P|343:48|323:116,1,94.9999999999999,10|0,2:0|2:0,0:0:0:0:
487,148,123365,2,0,P|457:120|388:136,1,94.9999999999999,2|0,2:0|2:0,0:0:0:0:
430,340,123760,2,0,P|455:274|414:203,1,142.5,2|0,2:0|2:0,0:0:0:0:
341,183,124286,1,2,2:0:0:0:
186,340,124549,2,0,P|177:356|168:384,1,47.4999999999999,2|0,2:0|2:0,0:0:0:0:
101,345,124812,2,0,P|94:322|83:301,1,47.4999999999999,2|0,2:0|2:0,0:0:0:0:
74,177,125075,2,0,P|32:215|-15:243,1,94.9999999999999,2|0,2:0|2:0,0:0:0:0:
169,154,125470,2,0,P|156:98|156:43,1,94.9999999999999,2|0,2:0|2:0,0:0:0:0:
141,246,125865,2,0,P|195:263|243:290,1,94.9999999999999,2|0,2:0|2:0,0:0:0:0:
397,176,126391,1,2,2:0:0:0:
428,103,126523,1,2,2:0:0:0:
357,68,126654,2,0,P|340:85|321:99,1,47.4999999999999,2|0,2:0|2:0,0:0:0:0:
242,141,126917,2,0,P|235:118|232:94,1,47.4999999999999,2|0,2:0|2:0,0:0:0:0:
77,228,127181,2,0,P|90:283|92:315,1,71.2499999999999,14|0,2:0|2:0,0:0:0:0:
87,306,127444,1,2,2:0:0:0:
171,247,127575,2,0,P|196:256|221:263,1,47.4999999999999,2|0,2:0|2:0,0:0:0:0:
289,227,127839,1,2,2:0:0:0:
370,384,127970,2,0,P|392:345|365:254,1,142.5,2|0,2:0|2:0,0:0:0:0:
375,89,128496,2,0,P|408:115|416:125,1,47.4999999999999,2|0,2:0|2:0,0:0:0:0:
460,225,128760,2,0,P|470:194|477:180,1,47.4999999999999,2|0,2:0|2:0,0:0:0:0:
493,30,129023,2,0,P|459:34|440:40,1,47.4999999999999,2|0,2:0|2:0,0:0:0:0:
305,129,129286,2,0,P|260:111|200:95,1,94.9999999999999,2|0,2:0|2:0,0:0:0:0:
39,10,129681,2,0,P|57:45|79:99,1,94.9999999999999,2|0,2:0|2:0,0:0:0:0:
47,208,130075,2,0,P|74:153|152:145,1,142.5,2|0,2:0|2:0,0:0:0:0:
215,98,130602,1,2,2:0:0:0:
145,44,130733,1,2,2:0:0:0:
219,0,130865,1,2,2:0:0:0:
142,158,131128,2,0,P|140:208|143:243,1,71.2499999999999,2|0,2:0|2:0,0:0:0:0:
146,235,131391,2,0,P|109:242|97:245,1,47.4999999999999,10|0,2:0|2:0,0:0:0:0:
252,333,131654,1,2,2:0:0:0:
252,333,131786,2,0,L|318:335,1,47.4999999999999,2|0,2:0|2:0,0:0:0:0:
126,337,132049,1,2,2:0:0:0:
52,371,132181,2,0,P|18:307|26:235,1,142.5,2|0,2:0|2:0,0:0:0:0:
129,77,132707,2,0,P|149:109|150:126,1,47.4999999999999,2|0,2:0|2:0,0:0:0:0:
22,165,132970,2,0,P|2:133|1:116,1,47.4999999999999,2|0,2:0|2:0,0:0:0:0:
198,192,133233,2,0,P|169:193|138:198,1,47.4999999999999,2|0,2:0|2:0,0:0:0:0:
27,48,133496,2,0,P|76:54|124:63,1,94.9999999999999,2|0,2:0|2:0,0:0:0:0:
277,6,133891,2,0,P|262:49|249:100,1,94.9999999999999,2|0,2:0|2:0,0:0:0:0:
150,194,134286,1,2,2:0:0:0:
336,89,134549,1,2,2:0:0:0:
452,280,134812,1,2,2:0:0:0:
418,201,134944,1,2,2:0:0:0:
471,135,135075,2,0,P|477:102|480:77,1,47.4999999999999,2|0,2:0|2:0,0:0:0:0:
293,163,135339,2,0,P|287:196|284:221,1,47.4999999999999,2|0,2:0|2:0,0:0:0:0:
420,364,135602,2,0,P|381:338|343:344,1,71.2499999999999,10|0,2:0|2:0,0:0:0:0:
351,345,135865,1,2,2:0:0:0:
273,333,135996,2,0,L|287:280,1,47.4999999999999,2|0,2:0|2:0,0:0:0:0:
212,136,136260,1,2,2:0:0:0:
162,204,136391,1,2,2:0:0:0:
159,197,136457,1,2,2:0:0:0:
155,189,136523,2,0,P|111:179|21:167,1,118.75,2|0,2:0|2:0,0:0:0:0:
27,173,136917,1,2,2:0:0:0:
231,57,137181,1,2,2:0:0:0:
16,178,137444,1,2,2:0:0:0:
107,334,137707,2,0,P|139:317|214:305,1,94.9999999999999,2|0,2:0|2:0,0:0:0:0:
221,140,138102,2,0,P|249:160|309:240,1,118.75,2|0,2:0|2:0,0:0:0:0:
299,237,138496,2,0,P|247:239|235:236,1,47.4999999999999,2|0,2:0|2:0,0:0:0:0:
247,62,138760,2,0,P|299:60|311:63,1,47.4999999999999,2|0,2:0|2:0,0:0:0:0:
460,81,139023,2,0,P|458:34|456:17,1,47.4999999999999,2|0,2:0|2:0,0:0:0:0:
338,145,139286,2,0,P|364:161|382:179,1,47.4999999999999,2|0,2:0|2:0,0:0:0:0:
487,307,139549,2,0,P|453:330|436:345,1,47.4999999999999,2|0,2:0|2:0,0:0:0:0:
300,290,139812,2,0,P|352:253|395:260,1,94.9999999999999,10|0,2:0|2:0,0:0:0:0:
185,321,140207,2,0,P|226:338|249:392,1,94.9999999999999,2|0,2:0|2:0,0:0:0:0:
261,201,140602,2,0,P|253:153|231:48,1,142.5,2|0,2:0|2:0,0:0:0:0:
108,235,141128,2,0,P|119:274|123:296,1,47.4999999999999,2|0,2:0|2:0,0:0:0:0:
255,375,141391,2,0,P|261:342|261:309,1,47.4999999999999,2|0,2:0|2:0,0:0:0:0:
206,141,141654,2,0,P|154:148|117:148,1,71.2499999999999,2|0,2:0|2:0,0:0:0:0:
127,141,141917,2,0,P|121:92|141:43,1,94.9999999999999,2|0,2:0|2:0,0:0:0:0:
354,63,142312,2,0,P|360:112|340:161,1,94.9999999999999,2|0,2:0|2:0,0:0:0:0:
189,234,142707,2,0,P|149:222|132:214,1,47.4999999999999,2|0,2:0|2:0,0:0:0:0:
216,56,142970,2,0,P|226:33|230:5,1,47.4999999999999,2|0,2:0|2:0,0:0:0:0:
349,160,143233,2,0,P|339:183|335:211,1,47.4999999999999,2|0,2:0|2:0,0:0:0:0:
484,22,143496,2,0,P|463:56|428:70,1,71.2499999999999,2|0,2:0|2:0,0:0:0:0:
425,72,143760,2,0,P|395:58|388:44,1,47.4999999999999,2|0,2:0|2:0,0:0:0:0:
504,162,144023,2,0,P|459:180|448:233,1,94.9999999999999,14|0,2:0|2:0,0:0:0:0:
512,332,144417,2,0,P|492:318|470:309,1,47.4999999999999,2|0,2:0|2:0,0:0:0:0:
395,333,144681,1,0,2:0:0:0:
335,204,144812,2,0,P|296:232|184:248,1,142.5,2|0,2:0|2:0,0:0:0:0:
148,306,145339,2,0,P|127:283|129:250,1,47.4999999999999,2|0,2:0|2:0,0:0:0:0:
38,247,145602,2,0,P|47:217|76:202,1,47.4999999999999,2|0,2:0|2:0,0:0:0:0:
32,95,145865,2,0,P|62:88|89:106,1,47.4999999999999,2|0,2:0|2:0,0:0:0:0:
301,113,146128,2,0,P|268:119|232:167,1,94.9999999999999,2|0,2:0|2:0,0:0:0:0:
143,41,146523,2,0,P|165:81|154:126,1,94.9999999999999,2|0,2:0|2:0,0:0:0:0:
254,0,146917,2,0,P|244:23|240:47,1,47.4999999999999,2|0,2:0|2:0,0:0:0:0:
117,212,147181,2,0,P|151:212|198:272,1,94.9999999999999,2|0,2:0|2:0,0:0:0:0:
301,113,147575,2,0,P|325:137|315:212,1,94.9999999999999,2|0,2:0|2:0,0:0:0:0:
213,350,147970,1,2,2:0:0:0:
213,350,148233,2,0,P|237:325|312:335,1,94.9999999999999,10|0,2:0|2:0,0:0:0:0:
417,199,148628,2,0,P|423:206|473:212,1,47.4999999999999,2|0,2:0|2:0,0:0:0:0:
512,272,148891,1,0,2:0:0:0:
374,330,149023,2,0,P|352:260|326:191,1,142.5,2|0,2:0|2:0,0:0:0:0:
350,119,149549,2,0,P|374:111|411:110,1,47.4999999999999,2|0,2:0|2:0,0:0:0:0:
335,34,149812,2,0,P|316:17|296:-14,1,47.4999999999999,2|0,2:0|2:0,0:0:0:0:
262,89,150075,2,0,P|256:113|239:146,1,47.4999999999999,2|0,2:0|2:0,0:0:0:0:
312,291,150339,2,0,P|287:266|212:276,1,94.9999999999999,2|0,2:0|2:0,0:0:0:0:
87,118,150733,2,0,P|133:120|169:91,1,94.9999999999999,2|0,2:0|2:0,0:0:0:0:
218,18,151128,2,0,P|191:13|163:2,1,47.4999999999999,2|0,2:0|2:0,0:0:0:0:
370,68,151391,2,0,P|325:76|278:94,1,94.9999999999999,2|0,2:0|2:0,0:0:0:0:
271,85,151720,1,0,2:0:0:0:
262,89,151786,2,0,P|277:132|284:182,1,94.9999999999999,2|0,2:0|2:0,0:0:0:0:
401,341,152181,1,2,2:0:0:0:
401,341,152444,2,0,P|366:340|321:378,1,94.9999999999999,10|0,2:0|2:0,0:0:0:0:
229,256,152839,2,0,P|256:264|295:266,1,47.4999999999999,2|0,2:0|2:0,0:0:0:0:
350,243,153102,1,0,2:0:0:0:
239,347,153233,2,0,P|191:353|88:393,1,142.5,2|0,2:0|2:0,0:0:0:0:
34,347,153760,2,0,P|33:316|53:287,1,47.4999999999999,2|0,2:0|2:0,0:0:0:0:
0,226,154023,2,0,P|26:209|61:212,1,47.4999999999999,2|0,2:0|2:0,0:0:0:0:
89,95,154286,2,0,P|116:109|131:141,1,47.4999999999999,2|0,2:0|2:0,0:0:0:0:
234,242,154549,2,0,P|200:240|151:275,1,94.9999999999999,2|0,2:0|2:0,0:0:0:0:
322,192,154944,2,0,P|306:161|251:136,1,94.9999999999999,2|0,2:0|2:0,0:0:0:0:
253,136,155339,2,0,L|240:86,1,47.4999999999999,2|0,2:0|2:0,0:0:0:0:
106,27,155536,1,0,2:0:0:0:
101,31,155602,2,0,P|118:75|126:125,1,94.9999999999999,2|0,2:0|2:0,0:0:0:0:
45,307,155996,2,0,P|28:263|19:212,1,94.9999999999999,2|0,2:0|2:0,0:0:0:0:
20,215,156391,2,0,L|76:196,1,47.4999999999999,2|0,2:0|2:0,0:0:0:0:
190,38,156654,2,0,P|236:41|271:11,1,94.9999999999999,10|0,2:0|2:0,0:0:0:0:
339,52,157049,2,0,P|325:99|313:159,1,94.9999999999999,2|0,2:0|2:0,0:0:0:0:
149,209,157444,1,2,2:0:0:0:
222,241,157575,1,2,2:0:0:0:
156,199,157707,1,2,2:0:0:0:
216,253,157838,1,2,2:0:0:0:
146,290,157970,2,0,P|118:297|89:313,1,47.4999999999999,2|0,2:0|2:0,0:0:0:0:
233,158,158233,2,0,P|240:130|241:97,1,47.4999999999999,2|0,2:0|2:0,0:0:0:0:
307,253,158496,2,0,P|327:273|355:290,1,47.4999999999999,2|0,2:0|2:0,0:0:0:0:
426,190,158760,1,2,2:0:0:0:
512,150,159023,1,2,2:0:0:0:
472,64,159286,1,2,2:0:0:0:
386,104,159549,1,2,2:0:0:0:
212,17,159812,2,0,B|175:92|93:54|93:54|125:27,1,166.25,2|0,2:0|2:0,0:0:0:0:
111,38,160338,2,0,P|121:62|125:94,1,47.4999999999999,2|0,2:0|2:0,0:0:0:0:
57,123,160602,2,0,P|47:146|27:171,1,47.4999999999999,2|0,2:0|2:0,0:0:0:0:
11,253,160865,2,0,P|58:263|104:277,1,94.9999999999999,14|0,2:0|2:0,0:0:0:0:
245,169,161260,2,0,P|198:179|181:191,1,47.4999999999999,2|0,2:0|2:0,0:0:0:0:
182,255,161523,1,0,2:0:0:0:
289,363,161654,2,0,P|326:351|341:231,1,166.25,2|0,2:0|2:0,0:0:0:0:
340,229,162181,2,0,P|312:237|278:246,2,47.4999999999999,2|0|2,2:0|2:0|2:0,0:0:0:0:
441,129,162575,1,0,2:0:0:0:
441,129,162707,2,0,P|436:167|431:194,1,47.4999999999999,2|0,2:0|2:0,0:0:0:0:
232,154,162970,2,0,P|227:107|241:50,1,94.9999999999999,2|0,2:0|2:0,0:0:0:0:
440,28,163365,2,0,P|445:75|431:132,1,94.9999999999999,2|0,2:0|2:0,0:0:0:0:
306,129,163760,1,2,2:0:0:0:
361,71,163891,1,0,2:0:0:0:
392,191,164023,2,0,B|370:203|358:199|336:210,1,47.4999999999999,2|0,2:0|2:0,0:0:0:0:
164,173,164286,1,2,2:0:0:0:
210,237,164417,1,2,2:0:0:0:
158,166,164549,2,0,P|126:155|94:144,1,47.4999999999999,2|0,2:0|2:0,0:0:0:0:
38,321,164812,2,0,P|62:294|102:284,1,71.2499999999999,2|0,2:0|2:0,0:0:0:0:
104,288,165075,2,0,B|154:304|135:326|199:335,1,94.9999999999999,10|0,2:0|2:0,0:0:0:0:
333,221,165470,2,0,B|383:205|364:183|428:174,1,94.9999999999999,2|0,2:0|2:0,0:0:0:0:
273,359,165865,2,0,P|275:325|283:299,1,47.4999999999999,2|0,2:0|2:0,0:0:0:0:
273,303,166062,1,0,2:0:0:0:
267,295,166128,2,0,P|257:245|229:188,1,94.9999999999999,2|2,2:0|2:0,0:0:0:0:
130,37,166549,1,2,2:0:0:0:
106,52,166654,2,0,P|93:89|90:105,1,47.4999999999999,2|0,2:0|2:0,0:0:0:0:
45,177,166917,2,0,P|68:198|93:212,1,47.4999999999999,2|0,2:0|2:0,0:0:0:0:
283,137,167181,2,0,P|331:119|383:102,1,94.9999999999999,2|0,2:0|2:0,0:0:0:0:
477,262,167575,1,2,2:0:0:0:
391,256,167707,2,0,P|386:216|396:195,1,47.4999999999999,2|0,2:0|2:0,0:0:0:0:
429,40,167970,2,0,P|468:58|488:92,1,71.2499999999999,2|0,2:0|2:0,0:0:0:0:
484,90,168233,2,0,P|472:124|458:201,1,94.9999999999999,2|0,2:0|2:0,0:0:0:0:
488,375,168628,2,0,P|459:344|384:338,1,118.75,2|0,2:0|2:0,0:0:0:0:
379,342,169023,2,0,P|353:349|313:359,1,47.4999999999999,2|0,2:0|2:0,0:0:0:0:
218,228,169286,2,0,B|171:217|178:194|126:188,1,94.9999999999999,10|0,2:0|2:0,0:0:0:0:
81,336,169681,2,0,P|97:313|105:293,1,47.4999999999999,2|0,2:0|2:0,0:0:0:0:
37,249,169944,1,0,2:0:0:0:
223,237,170075,2,0,P|247:196|194:112,1,142.5,2|0,2:0|2:0,0:0:0:0:
14,29,170602,2,0,P|30:62|35:86,1,47.4999999999999,2|0,2:0|2:0,0:0:0:0:
114,195,170865,2,0,P|142:187|165:183,1,47.4999999999999,2|0,2:0|2:0,0:0:0:0:
290,35,171128,2,0,P|318:43|341:47,1,47.4999999999999,2|0,2:0|2:0,0:0:0:0:
345,43,171325,1,0,2:0:0:0:
355,41,171391,2,0,P|336:90|354:147,1,94.9999999999999,2|0,2:0|2:0,0:0:0:0:
463,49,171786,2,0,P|470:95|451:138,1,94.9999999999999,2|0,2:0|2:0,0:0:0:0:
275,164,172181,2,0,P|235:151|217:148,1,47.4999999999999,2|0,2:0|2:0,0:0:0:0:
125,291,172444,2,0,P|133:331|187:362,1,94.9999999999999,2|0,2:0|2:0,0:0:0:0:
329,271,172838,2,0,P|343:210|362:152,1,118.75,2|0,2:0|2:0,0:0:0:0:
367,151,173233,2,0,P|371:188|377:209,1,47.4999999999999,2|0,2:0|2:0,0:0:0:0:
504,353,173496,2,0,P|477:288|395:278,1,142.5,10|2,2:0|2:0,0:0:0:0:
406,280,174286,2,0,P|393:302|383:338,1,47.4999999999999,2|0,2:0|2:0,0:0:0:0:
222,352,174549,2,0,P|207:318|198:295,1,47.4999999999999,2|0,2:0|2:0,0:0:0:0:
301,198,174812,2,0,P|316:164|325:141,1,47.4999999999999,2|0,2:0|2:0,0:0:0:0:
165,46,175075,2,0,P|155:67|146:89,1,47.4999999999999,2|0,2:0|2:0,0:0:0:0:
281,278,175338,1,2,2:0:0:0:
215,232,175470,1,2,2:0:0:0:
93,341,175602,1,6,2:0:0:0:
93,341,176654,2,0,P|80:260|69:171,1,166.25,2|0,2:0|2:0,0:0:0:0:
64,171,177181,2,0,P|49:205|36:226,1,47.4999999999999,2|0,2:0|2:0,0:0:0:0:
139,55,177444,2,0,P|105:40|84:27,1,47.4999999999999,2|0,2:0|2:0,0:0:0:0:
154,219,177707,2,0,P|216:195|291:185,1,110,10|0,2:1|2:0,0:0:0:0:
413,31,178102,1,2,2:0:0:0:
468,96,178233,1,0,2:0:0:0:
468,96,178365,1,0,2:0:0:0:
375,219,178496,2,0,P|365:179|336:134,1,82.5,2|0,2:0|2:0,0:0:0:0:
344,143,178760,2,0,P|378:127|389:114,1,55,2|0,2:0|2:0,0:0:0:0:
512,275,179023,2,0,L|428:294,1,82.5,2|0,2:0|2:0,0:0:0:0:
427,307,179286,1,2,2:0:0:0:
353,340,179417,1,2,2:0:0:0:
297,281,179549,1,2,2:0:0:0:
297,281,179681,1,2,2:0:0:0:
178,381,179812,2,0,P|131:362|102:356,1,55,2|0,2:0|2:0,0:0:0:0:
87,295,180075,1,2,2:0:0:0:
239,207,180207,2,0,P|265:198|290:186,1,55,2|0,2:0|2:0,0:0:0:0:
366,215,180470,1,2,2:0:0:0:
178,295,180602,2,0,P|165:249|142:215,1,82.5,2|0,2:0|2:0,0:0:0:0:
152,208,180865,1,10,2:0:0:0:
247,0,181128,1,2,2:0:0:0:
62,182,181391,2,0,P|29:182|-9:160,1,55,10|0,2:0|2:0,0:0:0:0:
122,53,181654,2,0,P|105:24|105:-19,1,55,2|0,2:0|2:0,0:0:0:0:
249,88,181917,2,0,P|233:131|225:180,1,82.5,14|0,2:0|2:0,0:0:0:0:
232,179,182181,1,2,2:0:0:0:
330,51,182312,2,0,P|357:48|385:36,1,55,2|0,2:0|2:0,0:0:0:0:
449,83,182575,1,2,2:0:0:0:
334,212,182707,1,2,2:0:0:0:
482,297,182838,1,2,2:0:0:0:
430,196,182970,1,2,2:0:0:0:
430,196,183233,2,0,P|417:225|410:257,1,55,2|0,2:0|2:0,0:0:0:0:
249,270,183496,2,0,P|274:288|296:312,1,55,2|0,2:0|2:0,0:0:0:0:
277,84,183760,2,0,L|298:150,1,55,2|0,2:0|2:0,0:0:0:0:
211,353,184023,2,0,P|170:342|126:334,1,82.5,2|0,2:0|2:0,0:0:0:0:
123,343,184286,1,2,2:0:0:0:
9,198,184417,2,0,P|44:186|66:168,1,55,2|0,2:0|2:0,0:0:0:0:
129,208,184681,1,2,2:0:0:0:
29,34,184812,2,0,P|1:62|7:117,1,82.5,2|0,2:0|2:0,0:0:0:0:
6,112,185075,1,2,2:0:0:0:
256,11,185338,1,2,2:0:0:0:
86,98,185602,2,0,P|120:110|147:130,1,55,10|0,2:0|2:0,0:0:0:0:
260,247,185865,2,0,P|244:214|239:181,1,55,2|0,2:0|2:0,0:0:0:0:
346,42,186128,2,0,P|316:88|241:98,1,110,14|0,2:0|2:0,0:0:0:0:
198,67,186523,1,2,2:0:0:0:
347,182,186654,1,2,2:0:0:0:
347,182,186786,1,2,2:0:0:0:
466,31,186917,2,0,P|445:66|435:106,1,82.5,2|0,2:0|2:0,0:0:0:0:
435,106,187181,2,0,P|469:90|480:77,1,55,2|0,2:0|2:0,0:0:0:0:
335,0,187444,2,0,P|313:30|310:47,1,55,2|0,2:0|2:0,0:0:0:0:
194,89,187707,2,0,P|209:123|223:133,1,55,2|0,2:0|2:0,0:0:0:0:
200,278,187970,2,0,P|237:281|253:275,1,55,2|0,2:0|2:0,0:0:0:0:
340,129,188233,2,0,P|312:163|317:208,1,82.5,2|0,2:0|2:0,0:0:0:0:
306,211,188496,1,2,2:0:0:0:
484,233,188628,2,0,P|447:210|418:206,1,55,2|0,2:0|2:0,0:0:0:0:
381,259,188891,1,2,2:0:0:0:
480,384,189023,2,0,P|467:338|444:304,1,82.5,2|0,2:0|2:0,0:0:0:0:
443,312,189286,1,10,2:0:0:0:
250,373,189549,2,0,P|276:376|308:387,1,55,2|0,2:0|2:0,0:0:0:0:
187,237,189812,2,0,P|207:218|223:196,1,55,10|0,2:0|2:0,0:0:0:0:
381,259,190075,2,0,L|321:277,1,55,2|0,2:0|2:0,0:0:0:0:
173,326,190338,1,14,2:0:0:0:
331,180,190602,1,2,2:0:0:0:
155,0,190865,1,2,2:0:0:0:
0,265,191128,2,0,P|39:253|89:245,1,82.5,2|0,2:0|2:0,0:0:0:0:
90,257,191391,1,2,2:0:0:0:
240,119,191654,1,2,2:0:0:0:
240,119,191786,1,2,2:0:0:0:
176,165,191917,1,2,2:0:0:0:
123,105,192049,1,2,2:0:0:0:
176,165,192181,2,0,P|184:191|189:218,1,55,2|0,2:0|2:0,0:0:0:0:
99,358,192444,2,0,P|53:368|6:386,1,82.5,2|0,2:0|2:0,0:0:0:0:
9,384,192707,1,2,2:0:0:0:
195,313,192838,2,0,P|233:326|274:334,1,82.5,2|0,2:0|2:0,0:0:0:0:
278,346,193102,1,2,2:0:0:0:
97,259,193233,2,0,P|91:224|72:173,1,82.5,2|0,2:0|2:0,0:0:0:0:
64,175,193496,1,10,2:0:0:0:
345,26,193694,1,2,2:0:0:0:
352,32,193760,2,0,P|337:70|330:111,1,82.5,2|0,2:0|2:0,0:0:0:0:
339,122,194023,2,0,L|402:132,1,55,2|0,2:0|2:0,0:0:0:0:
299,338,194286,2,0,L|362:348,1,55,2|0,2:0|2:0,0:0:0:0:
465,259,194549,1,10,2:1:0:0:
213,34,194812,1,2,2:0:0:0:
213,34,194944,1,2,2:0:0:0:
217,349,195338,1,2,2:0:0:0:
248,273,195470,1,2,2:0:0:0:
167,285,195602,1,2,2:0:0:0:
215,340,195733,1,2,2:0:0:0:
246,264,195865,1,2,2:0:0:0:
165,276,195996,1,2,2:0:0:0:
80,225,196128,1,2,2:0:0:0:
47,127,196260,1,2,2:0:0:0:
144,95,196391,1,2,2:0:0:0:
177,192,196523,1,2,2:0:0:0:
177,192,196654,2,0,P|109:177|28:164,1,137.5,10|0,2:0|2:0,0:0:0:0:
30,177,197049,1,2,2:0:0:0:
276,30,197444,1,2,2:0:0:0:
351,58,197575,1,2,2:0:0:0:
276,30,197707,2,0,P|257:67|250:93,1,55,2|0,2:0|2:0,0:0:0:0:
365,181,197970,2,0,P|384:144|391:118,1,55,2|0,2:0|2:0,0:0:0:0:
180,86,198233,2,0,P|145:92|116:99,1,55,2|0,2:0|2:0,0:0:0:0:
269,251,198496,2,0,P|304:257|333:264,1,55,2|2,2:0|2:0,0:0:0:0:
330,266,198694,1,2,2:0:0:0:
336,272,198760,2,0,P|379:272|409:269,1,55,10|0,2:0|2:0,0:0:0:0:
460,139,199023,2,0,P|458:92|423:53,1,82.5,2|0,2:0|2:0,0:0:0:0:
430,61,199286,2,0,P|383:71|361:77,1,55,2|0,2:0|2:0,0:0:0:0:
215,179,199549,2,0,P|168:169|146:163,1,55,2|0,2:0|2:0,0:0:0:0:
434,306,199812,2,0,P|452:257|461:232,1,55,2|0,2:0|2:0,0:0:0:0:
317,121,200075,2,0,P|299:170|290:195,1,55,2|2,2:0|2:0,0:0:0:0:
297,182,200273,1,2,2:0:0:0:
299,190,200338,2,0,P|317:239|326:264,1,55,2|0,2:0|2:0,0:0:0:0:
165,87,200602,2,0,P|183:38|192:13,1,55,2|0,2:0|2:0,0:0:0:0:
161,362,200865,1,10,2:0:0:0:
0,184,201128,1,2,2:0:0:0:
190,30,201391,1,2,2:0:0:0:
82,321,201654,1,2,2:0:0:0:
62,237,201786,1,2,2:0:0:0:
0,297,201917,1,2,2:0:0:0:
259,228,202181,2,0,P|298:233|319:242,1,55,2|0,2:0|2:0,0:0:0:0:
386,152,202444,2,0,P|408:184|415:205,1,55,10|0,2:0|2:0,0:0:0:0:
297,376,202707,2,0,P|328:342|383:334,1,82.5,2|0,2:0|2:0,0:0:0:0:
371,327,202970,2,0,B|437:332|409:357|474:361,1,110,14|2,2:0|2:0,0:0:0:0:
473,360,203365,1,2,2:0:0:0:
451,262,203496,1,2,2:0:0:0:
371,327,203628,1,0,2:0:0:0:
286,292,203760,1,0,2:0:0:0:
256,210,203891,1,2,2:0:0:0:
295,134,204023,1,0,2:0:0:0:
373,101,204154,1,0,2:0:0:0:
251,10,204286,1,2,2:0:0:0:
218,93,204417,1,2,2:0:0:0:
251,10,204549,1,2,2:0:0:0:
218,93,204681,1,2,2:0:0:0:
144,53,204812,1,2,2:0:0:0:
75,93,204944,1,2,2:0:0:0:
117,237,205075,1,10,2:0:0:0:
202,178,205207,1,0,2:0:0:0:
202,178,205338,1,2,2:0:0:0:
107,239,205470,1,2,2:0:0:0:
107,239,205602,2,0,P|62:226|40:220,1,55,0|2,2:0|2:0,0:0:0:0:
240,309,205865,1,2,2:0:0:0:
144,352,205996,1,0,2:0:0:0:
144,352,206128,1,2,2:0:0:0:
251,303,206260,1,2,2:0:0:0:
251,303,206391,2,0,P|264:258|270:236,1,55,0|2,2:0|2:0,0:0:0:0:
349,352,206654,1,2,2:0:0:0:
398,264,206786,1,2,2:0:0:0:
349,352,206917,1,2,2:0:0:0:
442,352,207049,1,2,2:0:0:0:
496,267,207181,2,0,P|499:197|484:148,1,110,10|0,2:0|2:0,0:0:0:0:
334,104,207575,2,0,P|322:157|326:212,1,110,2|0,2:0|2:0,0:0:0:0:
397,262,207970,1,2,2:0:0:0:
480,148,208102,1,2,2:0:0:0:
424,11,208233,1,2,2:0:0:0:
334,104,208365,1,0,2:0:0:0:
264,57,208496,1,2,2:0:0:0:
264,57,208628,1,0,2:0:0:0:
208,110,208760,1,2,2:0:0:0:
208,110,208891,1,0,2:0:0:0:
126,74,209023,2,0,P|120:110|137:157,1,82.5,2|0,2:0|2:0,0:0:0:0:
138,162,209286,1,2,2:0:0:0:
66,192,209417,1,2,2:0:0:0:
96,264,209549,1,2,2:0:0:0:
168,234,209681,1,2,2:0:0:0:
256,155,209812,1,2,2:0:0:0:
256,155,209944,1,0,2:0:0:0:
321,215,210075,1,2,2:0:0:0:
321,215,210207,1,0,2:0:0:0:
250,299,210338,1,2,2:0:0:0:
336,333,210470,1,2,2:0:0:0:
257,303,210602,1,2,2:0:0:0:
329,329,210733,2,0,P|365:316|397:308,1,55,2|0,2:0|2:0,0:0:0:0:
198,359,210996,1,2,2:0:0:0:
145,300,211128,1,2,2:0:0:0:
72,295,211260,1,2,2:0:0:0:
17,348,211391,2,0,P|69:358|122:377,1,110,14|0,2:0|2:0,0:0:0:0:
186,223,211786,2,0,P|238:212|291:194,1,110,2|0,2:0|2:0,0:0:0:0:
365,251,212181,1,2,2:0:0:0:
365,251,212444,2,0,P|376:196|394:140,1,110,2|0,2:0|2:0,0:0:0:0:
244,27,212838,2,0,P|232:81|215:138,1,110,2|0,2:0|2:0,0:0:0:0:
147,187,213233,2,0,L|93:176,1,55,2|0,2:0|2:0,0:0:0:0:
267,313,213496,2,0,P|264:261|206:223,1,110,2|0,2:0|2:0,0:0:0:0:
86,348,213891,2,0,P|138:345|176:287,1,110,2|0,2:0|2:0,0:0:0:0:
32,244,214286,2,0,P|61:252|90:263,1,55,2|2,2:0|2:0,0:0:0:0:
93,260,214483,1,2,2:0:0:0:
98,268,214549,1,2,2:0:0:0:
147,187,214812,1,2,2:0:0:0:
266,118,215075,1,2,2:0:0:0:
425,153,215338,1,2,2:0:0:0:
512,325,215536,1,2,2:0:0:0:
507,332,215602,2,0,P|446:347|396:371,1,110,10|0,2:0|2:0,0:0:0:0:
300,223,215996,2,0,P|350:244|403:258,1,110,2|0,2:0|2:0,0:0:0:0:
301,379,216391,2,0,P|304:352|315:319,1,55,2|0,2:0|2:0,0:0:0:0:
209,147,216654,2,0,P|203:201|181:267,1,110,2|0,2:0|2:0,0:0:0:0:
54,384,217049,2,0,P|17:362|13:292,1,110,2|0,2:0|2:0,0:0:0:0:
0,292,217378,2,0,P|0:248|59:210,1,110,2|0,2:0|2:0,0:0:0:0:
47,195,217707,2,0,P|84:173|147:205,1,110,10|0,2:0|2:0,0:0:0:0:
248,33,218083,2,0,P|295:63|298:133,1,125.714289550781,2|0,2:0|2:0,0:0:0:0:
317,128,218431,2,0,P|316:171|257:209,1,110,2|0,2:0|2:0,0:0:0:0:
256,206,218760,2,0,P|285:277|289:329,1,110,10|0,2:0|2:0,0:0:0:0:
455,219,219110,2,0,P|379:208|331:186,1,110,2|0,2:0|2:0,0:0:0:0:
344,384,219461,2,0,P|390:323|434:293,1,110,2|0,2:0|2:0,0:0:0:0:
420,131,219812,1,10,2:0:0:0:
215,48,220075,1,2,2:0:0:0:
284,2,220207,1,2,2:0:0:0:
285,85,220338,1,2,2:0:0:0:
207,51,220470,1,2,2:0:0:0:
292,0,220602,1,2,2:0:0:0:
287,94,220733,1,2,2:0:0:0:
219,141,220865,1,2,2:0:0:0:
219,141,220996,1,0,2:0:0:0:
210,187,221128,1,2,2:0:0:0:
240,241,221260,1,2,2:0:0:0:
330,272,221391,1,2,2:0:0:0:
413,227,221523,1,2,2:0:0:0:
401,116,221654,1,2,2:0:0:0:
287,94,221786,1,2,2:0:0:0:
145,189,221917,2,0,P|79:165|13:158,1,110,10|0,2:0|2:0,0:0:0:0:
211,304,222312,2,0,P|157:349|118:402,1,110,2|2,2:0|2:0,0:0:0:0:
121,383,222641,1,2,2:0:0:0:
115,376,222707,2,0,P|105:344|90:317,1,55,2|0,2:0|2:0,0:0:0:0:
246,209,222970,1,10,2:0:0:0:
271,135,223233,1,2,2:0:0:0:
40,159,223496,1,10,2:0:0:0:
15,85,223760,1,2,2:0:0:0:
211,0,224023,2,0,P|181:58|164:119,1,110,10|0,2:0|2:0,0:0:0:0:
271,135,224417,2,0,P|288:187|314:235,1,110,2|0,2:0|2:0,0:0:0:0:
404,257,224812,1,2,2:0:0:0:
352,339,225075,1,2,2:0:0:0:
231,231,225338,1,2,2:0:0:0:
153,355,225602,1,2,2:0:0:0:
83,175,225865,1,2,2:0:0:0:
0,384,226128,1,10,2:0:0:0:
343,75,227137,1,2,2:0:0:0:
338,66,227181,1,6,2:0:0:0:
182,286,227707,1,2,2:0:0:0:
235,342,227970,1,2,2:0:0:0:
318,339,228233,22,1,B|328:291|303:269|277:292|231:241|257:167|335:153|363:224|363:224|363:224|363:224|430:189|479:252|449:324|380:332|377:297|344:298|319:340,1,520.000000000004,2|2,2:0|2:0,0:0:0:0:
358,236,229549,53,2,2:0:0:0:
317,145,229812,1,2,2:0:0:0:
192,167,230075,1,2,2:0:0:0:
91,38,230338,1,2,2:0:0:0:
11,83,230602,21,2,2:0:0:0:
176,42,230865,1,2,2:0:0:0:
192,167,231128,1,2,2:0:0:0:
317,145,231391,1,2,2:0:0:0:
358,236,231654,1,2,2:0:0:0:
319,340,231917,6,1,B|336:311|359:310|361:335|410:329|431:279|396:235|350:259|350:259|350:259|350:259|330:210|276:220|258:271|289:307|308:291|325:306|318:337,1,360.000000000002,2|2,2:0|2:0,0:0:0:0:
358,236,232970,21,2,2:0:0:0:
317,145,233233,1,2,2:0:0:0:
192,167,233496,1,2,2:0:0:0:
91,38,233760,1,2,2:0:0:0:
11,83,234023,21,2,2:0:0:0:
160,71,234286,1,2,2:0:0:0:
108,168,234549,1,2,2:0:0:0:
224,163,234812,1,2,2:0:0:0:
230,249,235075,1,2,2:0:0:0:
319,224,235338,1,2,2:0:0:0:
318,339,235602,54,1,B|328:291|303:269|277:292|231:241|257:167|335:153|363:224|363:224|363:224|363:224|430:189|479:252|449:324|380:332|377:297|344:298|319:340,2,519.999999999999,2|2|3,2:0|2:0|2:0,0:0:0:0:
349,255,236917,21,2,2:0:0:0:
318,338,237181,1,2,2:0:0:0:
349,255,237707,21,2,2:0:0:0:
346,177,237970,1,2,2:0:0:0:
276,106,238233,1,2,2:0:0:0:
178,65,238496,1,2,2:0:0:0:
62,113,238760,21,2,2:0:0:0:
200,78,239023,1,2,2:0:0:0:
312,144,239286,1,2,2:0:0:0:
349,255,239549,1,2,2:0:0:0:
317,323,239812,54,1,B|323:302|306:287|287:303|256:267|274:216|328:206|348:255|348:255|348:255|348:255|394:231|429:275|408:325|359:331|357:306|334:307|317:334,1,350,2|0,2:0|2:0,0:0:0:0:
318,336,240338,22,1,B|334:308|357:307|359:332|408:326|429:276|394:232|348:256|348:256|348:256|348:256|328:207|274:217|256:268|287:304|306:288|323:303|317:324,1,350,2|0,2:0|2:0,0:0:0:0:
318,325,240865,21,2,2:0:0:0:
353,255,241128,1,2,2:0:0:0:
225,239,241391,1,2,2:0:0:0:
205,94,241654,1,2,2:0:0:0:
52,124,241917,1,2,2:0:0:0:
114,60,242181,21,2,2:0:0:0:
147,216,242444,1,2,2:0:0:0:
304,188,242707,1,2,2:0:0:0:
318,338,242970,54,1,B|326:299|306:281|284:300|247:258|268:198|332:186|355:244|355:244|355:244|355:244|409:216|449:268|424:326|368:332|366:304|339:305|319:339,2,420.531987182618,2|2|3,2:0|2:0|2:0,0:0:0:0:
232,26,244277,53,2,2:0:0:0:
324,140,244550,21,2,2:0:0:0:
261,245,244833,37,2,2:0:0:0:
318,338,245100,21,6,2:0:0:0:
318,338,246121,6,1,B|323:314|311:303|297:315|275:289|288:252|327:245|340:280|340:280|340:280|340:280|374:263|399:295|383:331|349:335|347:317|331:318|318:339,7,250,10|0|1|1|1|1|1|1,0:0|2:0|2:0|2:0|2:0|2:0|2:0|2:0,0:0:0:0:
344,280,246654,38,1,B|322:334|310:324|300:335|278:310|292:279|325:273|337:305|337:305|337:305|337:305|364:290|386:311|377:341|353:350|344:340|344:336|324:348|324:348|314:358|314:358|320:333|306:319|293:333|267:305|280:266|323:257|337:297|337:297|337:297|337:297|373:278|400:310|386:347|351:353|345:337|332:336|317:354|317:354|309:363|309:363|316:332|300:316|282:332|252:299|270:250|321:242|338:287|338:287|338:287|338:287|382:267|412:304|396:348|356:357|347:337|331:336|314:357|314:357|309:363|309:363|319:326|298:309|278:327|244:289|264:232|323:221|342:276|342:276|342:276|342:276|393:249|428:295|409:347|361:356|355:334|334:332|313:358|313:358|309:365|309:365|316:330|294:310|271:331|229:285|252:219|322:207|346:271|346:271|346:271|346:271|406:240|451:296|423:359|362:366|360:335|331:336|336:293,1,1720.00002624512,10|10,2:0|2:1,3:0:0:0:
326,313,247581,54,0,P|305:212|279:165,1,150,2|0,2:0|2:0,0:0:0:0:
62,119,247976,1,2,2:0:0:0:
141,73,248107,1,2,2:0:0:0:
55,123,248239,2,0,P|100:168|194:154,1,150,2|2,2:0|2:0,0:0:0:0:
332,0,248634,2,0,P|270:16|235:104,1,150,2|0,2:0|2:0,0:0:0:0:
360,203,249029,2,0,P|355:146|315:74,1,112.5,2|0,2:0|2:0,0:0:0:0:
356,212,249292,22,0,P|399:239|432:229,1,75,2|0,2:0|2:0,0:0:0:0:
480,172,249555,1,2,2:0:0:0:
373,328,249687,2,0,P|323:323|247:416,1,150,2|2,2:0|2:0,0:0:0:0:
117,269,250081,1,2,2:0:0:0:
179,217,250213,1,2,2:0:0:0:
104,272,250344,2,0,P|126:317|191:316,1,75.0000028610231,10|0,2:0|2:0,0:0:0:0:
269,251,250608,53,2,2:0:0:0:
269,251,250739,1,2,2:0:0:0:
325,196,250871,1,10,2:0:0:0:
407,226,251002,1,2,2:0:0:0:
434,313,251134,1,2,2:0:0:0:
356,384,251265,1,2,2:0:0:0:
257,348,251397,22,0,P|183:361|111:384,1,150,14|2,2:0|2:0,0:0:0:0:
0,199,251792,2,0,P|73:185|145:162,1,150,2|2,2:0|2:0,0:0:0:0:
289,26,252187,1,2,2:0:0:0:
345,100,252318,1,2,2:0:0:0:
285,17,252450,2,0,P|239:44|260:144,1,150,2|2,2:0|2:0,0:0:0:0:
366,250,252844,2,0,P|337:202|290:197,1,75,0|2,2:0|2:0,0:0:0:0:
182,291,253108,1,0,2:0:0:0:
243,363,253239,2,0,P|285:330|265:266,1,112.5,2|0,2:0|2:0,0:0:0:0:
236,378,253502,22,0,P|323:353|407:345,1,150,2|2,2:0|2:0,0:0:0:0:
512,167,253897,2,0,P|437:156|366:134,1,150,2|2,2:0|2:0,0:0:0:0:
252,34,254292,1,2,2:0:0:0:
352,26,254423,1,2,2:0:0:0:
263,151,254555,1,2,2:0:0:0:
254,157,254818,21,2,2:0:0:0:
198,102,254950,1,2,2:0:0:0:
116,119,255081,1,10,2:0:0:0:
95,205,255213,1,2,2:0:0:0:
163,275,255344,1,2,2:0:0:0:
126,358,255476,1,2,2:0:0:0:
19,384,255608,54,0,P|-4:325|65:292,1,150,14|2,2:0|2:0,0:0:0:0:
116,119,256002,2,0,P|187:172|251:162,1,150,2|2,2:0|2:0,0:0:0:0:
422,81,256397,2,0,P|388:37|320:48,1,112.5,2|0,2:0|2:0,0:0:0:0:
429,91,256660,2,0,P|395:152|358:238,1,150,2|2,2:0|2:0,0:0:0:0:
236,370,257055,2,0,P|213:324|189:301,1,75,0|2,2:0|2:0,0:0:0:0:
127,280,257318,1,2,2:0:0:0:
269,149,257450,1,2,2:0:0:0:
205,101,257581,1,2,2:0:0:0:
276,156,257713,22,0,P|228:205|142:181,1,150,2|2,2:0|2:0,0:0:0:0:
19,23,258108,2,0,P|75:29|98:115,1,150,2|2,2:0|2:0,0:0:0:0:
46,266,258502,1,2,2:0:0:0:
46,266,258634,1,2,2:0:0:0:
1,173,258765,21,10,2:0:0:0:
275,8,259029,1,2,2:0:0:0:
492,171,259292,1,10,2:0:0:0:
426,356,259555,1,2,2:0:0:0:
269,312,259818,22,0,P|219:304|192:319,1,75,14|0,2:0|2:0,0:0:0:0:
154,379,260081,1,2,2:0:0:0:
347,269,260213,2,0,P|396:213|366:125,1,150,2|2,2:0|2:0,0:0:0:0:
247,53,260608,2,0,P|268:99|276:150,1,75,2|2,2:0|2:0,0:0:0:0:
128,264,260871,2,0,P|107:218|99:167,1,75,2|0,2:0|2:0,0:0:0:0:
122,119,261134,1,2,2:0:0:0:
226,295,261265,2,0,P|184:352|93:360,1,150,2|2,2:0|2:0,0:0:0:0:
0,213,261660,1,2,2:0:0:0:
26,141,261792,1,2,2:0:0:0:
200,217,261923,54,0,P|279:191|348:183,1,150,2|2,2:0|2:0,0:0:0:0:
464,0,262318,2,0,P|385:26|316:34,1,150,2|2,2:0|2:0,0:0:0:0:
261,107,262713,1,2,2:0:0:0:
179,62,262844,1,2,2:0:0:0:
108,211,262976,1,2,2:0:0:0:
119,221,263239,21,2,2:0:0:0:
185,177,263371,1,2,2:0:0:0:
115,125,263502,1,10,2:0:0:0:
32,176,263634,1,2,2:0:0:0:
42,270,263765,1,2,2:0:0:0:
126,316,263897,1,2,2:0:0:0:
55,383,264029,22,0,P|106:363|214:335,1,150,10|2,2:1|2:0,0:0:0:0:
197,338,264423,1,0,0:0:0:0:
292,219,264555,22,0,P|287:167|282:136,1,75,2|0,2:0|2:0,0:0:0:0:
457,306,264818,2,0,P|452:254|447:223,1,75.0000028610231,2|0,2:0|2:0,0:0:0:0:
368,30,265081,54,0,P|373:82|378:113,1,75,2|0,2:0|2:0,0:0:0:0:
180,120,265344,2,0,P|185:172|190:203,1,75,2|0,2:0|2:0,0:0:0:0:
441,229,265608,2,0,P|381:240|361:323,1,150,2|2,2:0|2:0,0:0:0:0:
443,365,266002,1,2,2:0:0:0:
330,166,266134,22,0,P|281:146|239:113,1,75,2|0,2:0|2:0,0:0:0:0:
247,262,266397,2,0,P|198:282|156:315,1,75,2|0,2:0|2:0,0:0:0:0:
113,126,266660,2,0,P|64:106|22:73,1,75,2|0,0:0|0:0,0:0:0:0:
114,353,266923,21,2,2:0:0:0:
36,300,267055,1,2,2:0:0:0:
124,357,267187,2,0,P|139:287|172:196,2,150,2|2|2,2:0|2:0|2:0,0:0:0:0:
120,31,267976,2,0,P|178:38|189:98,1,112.5,2|0,2:0|2:0,0:0:0:0:
193,94,268239,22,0,P|232:84|294:73,1,75,10|0,2:0|2:0,0:0:0:0:
333,153,268502,2,0,P|372:143|434:132,1,75,2|0,2:0|2:0,0:0:0:0:
355,16,268765,2,0,P|394:6|456:-5,1,75,2|0,2:0|2:0,0:0:0:0:
512,165,269029,54,0,B|461:181|471:209|413:220,1,112.5,2|0,2:0|2:0,0:0:0:0:
407,216,269292,2,0,P|405:171|417:131,1,75,2|0,2:0|2:0,0:0:0:0:
332,289,269555,2,0,P|299:258|280:220,1,75,2|0,2:0|2:0,0:0:0:0:
478,280,269818,21,2,2:0:0:0:
404,223,269950,1,2,2:0:0:0:
358,365,270081,1,2,2:0:0:0:
356,373,270344,22,0,P|398:362|450:354,1,75,2|0,2:0|2:0,0:0:0:0:
213,239,270608,2,0,P|255:228|307:220,1,75,2|0,2:0|2:0,0:0:0:0:
54,363,270871,22,0,P|43:321|35:269,1,75,2|0,2:0|2:0,0:0:0:0:
199,83,271134,2,0,P|210:125|218:177,1,75,2|0,2:0|2:0,0:0:0:0:
58,165,271397,53,2,2:0:0:0:
321,28,271660,1,2,2:0:0:0:
308,324,271923,1,10,2:0:0:0:
121,18,272187,1,2,2:0:0:0:
207,91,272318,21,2,2:0:0:0:
207,91,272384,1,2,2:0:0:0:
207,91,272450,2,0,P|251:109|325:118,1,112.5,14|0,2:0|2:0,0:0:0:0:
323,111,272713,2,0,P|348:150|315:231,1,112.5,2|0,2:0|2:0,0:0:0:0:
335,219,272976,22,0,P|386:209|423:205,1,75,2|0,2:0|2:0,0:0:0:0:
166,275,273239,2,0,P|149:324|134:358,1,75,2|0,2:0|2:0,0:0:0:0:
202,100,273502,2,0,P|167:60|145:30,1,75,2|0,2:0|2:0,0:0:0:0:
264,275,273765,2,0,P|298:314|320:344,1,75,2|0,2:0|2:0,0:0:0:0:
58,207,274029,1,2,2:0:0:0:
58,207,274292,21,2,2:0:0:0:
166,275,274423,1,2,2:0:0:0:
288,165,274555,2,0,P|308:107|247:29,2,150,2|2|2,2:0|2:0|2:0,0:0:0:0:
219,209,275213,1,2,2:0:0:0:
333,339,275344,2,0,P|390:305|460:292,1,112.5,2|0,2:0|2:0,0:0:0:0:
442,296,275608,54,0,P|481:265|467:178,1,112.5,10|0,2:0|2:0,0:0:0:0:
437,151,275871,2,0,P|402:166|361:181,1,75,2|0,2:0|2:0,0:0:0:0:
123,97,276134,22,0,P|84:128|98:215,1,112.5,10|0,2:0|2:0,0:0:0:0:
123,249,276397,2,0,P|158:264|199:279,1,75,2|0,2:0|2:0,0:0:0:0:
346,98,276660,22,0,P|333:39|328:8,1,75,10|0,2:0|2:0,0:0:0:0:
204,279,276923,2,0,P|191:220|186:189,1,75,2|0,2:0|2:0,0:0:0:0:
54,27,277187,22,0,P|67:86|72:117,1,75,2|0,2:0|2:0,0:0:0:0:
264,133,277450,2,0,P|277:192|282:223,1,75,2|0,2:0|2:0,0:0:0:0:
66,356,277713,54,0,P|114:338|147:330,1,75,2|0,2:0|2:0,0:0:0:0:
198,195,277976,2,0,B|237:200|279:221,1,75.0000028610231,2|0,2:0|2:0,0:0:0:0:
357,373,278239,2,0,P|393:362|427:349,1,75,2|0,2:0|2:0,0:0:0:0:
367,193,278502,1,2,2:0:0:0:
450,149,278634,1,2,2:0:0:0:
374,195,278765,22,0,P|384:253|335:305,1,112.5,2|0,2:0|2:0,0:0:0:0:
346,298,279029,2,0,P|298:295|257:295,1,75,2|0,2:0|2:0,0:0:0:0:
113,181,279292,21,2,2:0:0:0:
445,42,279555,1,2,2:0:0:0:
176,32,279818,21,2,2:0:0:0:
220,110,280098,1,2,2:0:0:0:
256,192,280378,1,0,0:0:0:0:
256,192,280918,53,2,2:0:0:0:
256,191,280983,1,6,2:0:0:0:
174,162,281388,21,2,2:0:0:0:
128,228,281807,21,2,2:0:0:0:
189,290,282373,21,2,2:0:0:0:
278,285,282682,53,2,2:0:0:0:
237,364,282969,21,2,2:0:0:0:
184,284,283289,21,2,2:0:0:0:
252,209,283784,21,2,2:0:0:0:
258,94,284310,53,2,2:0:0:0:
354,23,285212,22,0,P|382:39|409:56,1,50,2|2,2:0|2:0,0:0:0:0:
501,11,285579,21,2,2:0:0:0:
404,151,286020,21,2,2:0:0:0:
256,192,286686,53,2,2:0:0:0:
256,192,286761,1,2,2:0:0:0:
256,192,286836,1,6,2:0:0:0:
256,192,286911,12,0,291486,2:0:0:0:
