osu file format v14

[General]
AudioFilename: audio.ogg
AudioLeadIn: 0
PreviewTime: 175905
Countdown: 0
SampleSet: Soft
StackLeniency: 0.4
Mode: 0
LetterboxInBreaks: 0
WidescreenStoryboard: 0

[Editor]
Bookmarks: 2867,14295,25724,37152,48581,60009,71438,82866,94295,105724,117152,128581,142866,154294,165723,177151,188580,202865,214293,225722,237150,248579,260007
DistanceSpacing: 0.9
BeatDivisor: 8
GridSize: 8
TimelineZoom: 2.2

[Metadata]
Title:Kokoronashi
TitleUnicode:心做し
Artist:Kotoha
ArtistUnicode:Kotoha
Creator:achyoo
Version:chisataki
Source:
Tags:midorijeon ayucchi shirahane suou japanese rock j-rock jrock cover chouchou-p chouchoup papiyon 蝶々P パピヨン hakoniwalily ハコニワリリィ hakolili ハコリリ vocaloid megpoid gumi 錦木 千束 Nishikigi Chisato 井ノ上 たきな Inoue Takina
BeatmapID:4043170
BeatmapSetID:1952471

[Difficulty]
HPDrainRate:5
CircleSize:4.2
OverallDifficulty:8.5
ApproachRate:9
SliderMultiplier:2
SliderTickRate:1

[Events]
//Background and Video events
0,0,"yameteyo.jpg",0,0
//Break Periods
//Storyboard Layer 0 (Background)
//Storyboard Layer 1 (Fail)
//Storyboard Layer 2 (Pass)
//Storyboard Layer 3 (Foreground)
//Storyboard Layer 4 (Overlay)
//Storyboard Sound Samples

[TimingPoints]
2867,714.285714285714,4,2,2,35,1,0
2867,-125,4,2,2,35,0,0
4295,-200,4,2,2,35,0,0
5724,-125,4,2,2,35,0,0
10009,-200,4,2,2,35,0,0
11438,-125,4,2,2,35,0,0
25545,-111.111111111111,4,2,2,50,0,0
25724,-62.5,4,2,1,65,0,0
25813,-62.5,4,2,2,65,0,0
26081,-62.5,4,2,10,65,0,0
26170,-62.5,4,2,2,65,0,0
26438,-62.5,4,2,10,65,0,0
26527,-62.5,4,2,2,65,0,0
26795,-62.5,4,2,11,65,0,0
26974,-62.5,4,2,5,65,0,0
27152,-62.5,4,2,10,65,0,0
27331,-62.5,4,2,5,65,0,0
27509,-62.5,4,2,10,65,0,0
27955,-62.5,4,2,2,65,0,0
28223,-62.5,4,2,11,65,0,0
28402,-62.5,4,2,5,65,0,0
28581,-62.5,4,2,10,65,0,0
28670,-62.5,4,2,2,65,0,0
28938,-62.5,4,2,10,65,0,0
29027,-62.5,4,2,2,65,0,0
29295,-62.5,4,2,10,65,0,0
29384,-62.5,4,2,2,65,0,0
29652,-62.5,4,2,11,65,0,0
29831,-62.5,4,2,5,65,0,0
30009,-62.5,4,2,10,65,0,0
30188,-62.5,4,2,5,65,0,0
30366,-62.5,4,2,10,65,0,0
30813,-62.5,4,2,2,65,0,0
31081,-62.5,4,2,10,65,0,0
31259,-62.5,4,2,5,65,0,0
31438,-62.5,4,2,3,65,0,0
31795,-62.5,4,2,10,65,0,0
31884,-62.5,4,2,2,65,0,0
32152,-62.5,4,2,10,65,0,0
32241,-62.5,4,2,2,65,0,0
32509,-62.5,4,2,11,65,0,0
32688,-62.5,4,2,5,65,0,0
32866,-62.5,4,2,10,65,0,0
33045,-62.5,4,2,5,65,0,0
33224,-62.5,4,2,10,65,0,0
33670,-62.5,4,2,2,65,0,0
33938,-62.5,4,2,11,65,0,0
34116,-62.5,4,2,5,65,0,0
34295,-62.5,4,2,10,65,0,0
34384,-62.5,4,2,2,65,0,0
34473,-62.5,4,2,5,65,0,0
34652,-62.5,4,2,10,65,0,0
34741,-62.5,4,2,2,65,0,0
35009,-62.5,4,2,3,65,0,0
35902,-62.5,4,2,5,65,0,0
36081,-100,4,2,5,65,0,0
36438,-50,4,2,3,65,0,0
37152,-62.5,4,2,2,65,0,0
37509,-62.5,4,2,10,65,0,0
37598,-62.5,4,2,2,65,0,0
37866,-62.5,4,2,10,65,0,0
37955,-62.5,4,2,2,65,0,0
38223,-62.5,4,2,11,65,0,0
38402,-62.5,4,2,5,65,0,0
38581,-62.5,4,2,10,65,0,0
38759,-62.5,4,2,5,65,0,0
38938,-62.5,4,2,10,65,0,0
39383,-62.5,4,2,2,65,0,0
39652,-62.5,4,2,10,65,0,0
39831,-62.5,4,2,5,65,0,0
40009,-62.5,4,2,10,65,0,0
40098,-62.5,4,2,2,65,0,0
40366,-62.5,4,2,10,65,0,0
40455,-62.5,4,2,2,65,0,0
40724,-62.5,4,2,10,65,0,0
40812,-62.5,4,2,2,65,0,0
41081,-62.5,4,2,11,65,0,0
41259,-62.5,4,2,5,65,0,0
41438,-62.5,4,2,10,65,0,0
41616,-62.5,4,2,5,65,0,0
41795,-62.5,4,2,10,65,0,0
41883,-62.5,4,2,2,65,0,0
42152,-50,4,2,10,65,0,0
42241,-50,4,2,2,65,0,0
42509,-50,4,2,10,65,0,0
42598,-50,4,2,2,65,0,0
42688,-50,4,2,5,65,0,0
42866,-62.5,4,2,3,65,0,0
43224,-62.5,4,2,10,65,0,0
43312,-62.5,4,2,2,65,0,0
43581,-62.5,4,2,10,65,0,0
43669,-62.5,4,2,2,65,0,0
43938,-62.5,4,2,11,65,0,0
44116,-62.5,4,2,5,65,0,0
44295,-62.5,4,2,10,65,0,0
44474,-62.5,4,2,5,65,0,0
44652,-62.5,4,2,10,65,0,0
45098,-62.5,4,2,2,65,0,0
45366,-62.5,4,2,10,65,0,0
45456,-62.5,4,2,2,65,0,0
45545,-62.5,4,2,5,65,0,0
45902,-62.5,4,2,1,65,0,0
46438,-50,4,2,3,65,0,0
47866,-62.5,4,2,3,65,0,0
48402,-62.5,4,2,5,65,0,0
48581,-62.5,4,2,1,60,0,0
48938,-83.3333333333333,4,2,9,60,0,0
49027,-83.3333333333333,4,2,2,60,0,0
49295,-83.3333333333333,4,2,8,60,0,0
49384,-83.3333333333333,4,2,2,60,0,0
49652,-83.3333333333333,4,2,9,60,0,0
49831,-83.3333333333333,4,2,5,60,0,0
50009,-83.3333333333333,4,2,8,60,0,0
50098,-83.3333333333333,4,2,2,60,0,0
50188,-83.3333333333333,4,2,5,60,0,0
50366,-83.3333333333333,4,2,8,60,0,0
51081,-83.3333333333333,4,2,9,60,0,0
51170,-83.3333333333333,4,2,2,60,0,0
51259,-83.3333333333333,4,2,5,60,0,0
51438,-83.3333333333333,4,2,8,60,0,0
51527,-83.3333333333333,4,2,2,60,0,0
51795,-83.3333333333333,4,2,9,60,0,0
51974,-83.3333333333333,4,2,2,60,0,0
52152,-83.3333333333333,4,2,8,60,0,0
52331,-83.3333333333333,4,2,2,60,0,0
52509,-83.3333333333333,4,2,8,60,0,0
52598,-83.3333333333333,4,2,2,60,0,0
52688,-83.3333333333333,4,2,5,60,0,0
52866,-83.3333333333333,4,2,8,60,0,0
52955,-83.3333333333333,4,2,2,60,0,0
53045,-83.3333333333333,4,2,5,60,0,0
53223,-83.3333333333333,4,2,8,60,0,0
53670,-83.3333333333333,4,2,2,60,0,0
53938,-83.3333333333333,4,2,9,60,0,0
54027,-83.3333333333333,4,2,2,60,0,0
54116,-83.3333333333333,4,2,5,60,0,0
54295,-83.3333333333333,4,2,8,60,0,0
54384,-83.3333333333333,4,2,2,60,0,0
54652,-83.3333333333333,4,2,9,60,0,0
54831,-83.3333333333333,4,2,2,60,0,0
55009,-83.3333333333333,4,2,8,60,0,0
55098,-83.3333333333333,4,2,2,60,0,0
55366,-83.3333333333333,4,2,9,60,0,0
55545,-83.3333333333333,4,2,5,60,0,0
55724,-83.3333333333333,4,2,8,60,0,0
55813,-83.3333333333333,4,2,2,60,0,0
55902,-83.3333333333333,4,2,5,60,0,0
56081,-83.3333333333333,4,2,8,60,0,0
56795,-83.3333333333333,4,2,9,60,0,0
56884,-83.3333333333333,4,2,2,60,0,0
56973,-83.3333333333333,4,2,5,60,0,0
57152,-83.3333333333333,4,2,8,60,0,0
57241,-83.3333333333333,4,2,2,60,0,0
57331,-83.3333333333333,4,2,5,60,0,0
57509,-83.3333333333333,4,2,9,60,0,0
57688,-83.3333333333333,4,2,2,60,0,0
57866,-83.3333333333333,4,2,8,60,0,0
58045,-83.3333333333333,4,2,2,60,0,0
58224,-83.3333333333333,4,2,8,60,0,0
58313,-83.3333333333333,4,2,2,60,0,0
58402,-83.3333333333333,4,2,5,60,0,0
58581,-83.3333333333333,4,2,8,60,0,0
58670,-83.3333333333333,4,2,2,60,0,0
58759,-83.3333333333333,4,2,5,60,0,0
58938,-83.3333333333333,4,2,8,60,0,0
59027,-83.3333333333333,4,2,2,60,0,0
59295,-83.3333333333333,4,2,8,60,0,0
59474,-83.3333333333333,4,2,2,60,0,0
59652,-83.3333333333333,4,2,7,60,0,0
60009,-83.3333333333333,4,2,8,60,0,0
60098,-83.3333333333333,4,2,2,60,0,0
60366,-83.3333333333333,4,2,9,60,0,0
60724,-83.3333333333333,4,2,8,60,0,0
60902,-83.3333333333333,4,2,2,60,0,0
61081,-83.3333333333333,4,2,9,60,0,0
61169,-83.3333333333333,4,2,2,60,0,0
61259,-83.3333333333333,4,2,5,60,0,0
61438,-83.3333333333333,4,2,8,60,0,0
61526,-83.3333333333333,4,2,2,60,0,0
61616,-83.3333333333333,4,2,5,60,0,0
61795,-83.3333333333333,4,2,8,60,0,0
62241,-83.3333333333333,4,2,2,60,0,0
62509,-83.3333333333333,4,2,9,60,0,0
62598,-83.3333333333333,4,2,2,60,0,0
62687,-83.3333333333333,4,2,5,60,0,0
62866,-83.3333333333333,4,2,8,60,0,0
62955,-83.3333333333333,4,2,2,60,0,0
63045,-83.3333333333333,4,2,5,60,0,0
63223,-83.3333333333333,4,2,9,60,0,0
63402,-83.3333333333333,4,2,2,60,0,0
63581,-83.3333333333333,4,2,8,60,0,0
63669,-83.3333333333333,4,2,2,60,0,0
63938,-83.3333333333333,4,2,9,60,0,0
64116,-83.3333333333333,4,2,5,60,0,0
64295,-83.3333333333333,4,2,8,60,0,0
64383,-83.3333333333333,4,2,2,60,0,0
64473,-83.3333333333333,4,2,5,60,0,0
64652,-83.3333333333333,4,2,8,60,0,0
65188,-83.3333333333333,4,2,2,60,0,0
65366,-83.3333333333333,4,2,9,60,0,0
65455,-83.3333333333333,4,2,2,60,0,0
65544,-83.3333333333333,4,2,5,60,0,0
65724,-83.3333333333333,4,2,8,60,0,0
66081,-83.3333333333333,4,2,9,60,0,0
66169,-83.3333333333333,4,2,2,60,0,0
66438,-83.3333333333333,4,2,8,60,0,0
66526,-83.3333333333333,4,2,2,60,0,0
66795,-83.3333333333333,4,2,9,60,0,0
66974,-83.3333333333333,4,2,5,60,0,0
67152,-83.3333333333333,4,2,8,60,0,0
67241,-83.3333333333333,4,2,2,60,0,0
67330,-83.3333333333333,4,2,5,60,0,0
67509,-83.3333333333333,4,2,8,60,0,0
67598,-83.3333333333333,4,2,2,60,0,0
67866,-83.3333333333333,4,2,8,60,0,0
68045,-83.3333333333333,4,2,2,60,0,0
68224,-83.3333333333333,4,2,8,60,0,0
68402,-83.3333333333333,4,2,5,60,0,0
68581,-83.3333333333333,4,2,8,60,0,0
68670,-83.3333333333333,4,2,2,60,0,0
68759,-83.3333333333333,4,2,5,60,0,0
68938,-83.3333333333333,4,2,8,60,0,0
69027,-83.3333333333333,4,2,2,60,0,0
69295,-83.3333333333333,4,2,8,60,0,0
69384,-83.3333333333333,4,2,2,60,0,0
69652,-83.3333333333333,4,2,8,60,0,0
69831,-83.3333333333333,4,2,2,60,0,0
70009,-83.3333333333333,4,2,9,60,0,0
70098,-83.3333333333333,4,2,2,60,0,0
70188,-83.3333333333333,4,2,5,60,0,0
70366,-83.3333333333333,4,2,6,60,0,0
70545,-83.3333333333333,4,2,2,60,0,0
71081,-83.3333333333333,4,2,3,60,0,0
71795,-83.3333333333333,4,2,9,60,0,0
71884,-83.3333333333333,4,2,2,60,0,0
72152,-83.3333333333333,4,2,8,60,0,0
72241,-83.3333333333333,4,2,2,60,0,0
72509,-83.3333333333333,4,2,9,60,0,0
72688,-83.3333333333333,4,2,2,60,0,0
72866,-83.3333333333333,4,2,8,60,0,0
72955,-83.3333333333333,4,2,2,60,0,0
73224,-83.3333333333333,4,2,9,60,0,0
73313,-83.3333333333333,4,2,2,60,0,0
73581,-83.3333333333333,4,2,8,60,0,0
73670,-83.3333333333333,4,2,2,60,0,0
73938,-83.3333333333333,4,2,9,60,0,0
74116,-83.3333333333333,4,2,2,60,0,0
74295,-83.3333333333333,4,2,8,60,0,0
74384,-83.3333333333333,4,2,2,60,0,0
74652,-83.3333333333333,4,2,9,60,0,0
75009,-83.3333333333333,4,2,8,60,0,0
75098,-83.3333333333333,4,2,2,60,0,0
75366,-83.3333333333333,4,2,9,60,0,0
75545,-83.3333333333333,4,2,2,60,0,0
75724,-83.3333333333333,4,2,8,60,0,0
76170,-83.3333333333333,4,2,2,60,0,0
76438,-83.3333333333333,4,2,8,60,0,0
76527,-83.3333333333333,4,2,2,60,0,0
76795,-83.3333333333333,4,2,9,60,0,0
76974,-83.3333333333333,4,2,5,60,0,0
77152,-83.3333333333333,4,2,2,60,0,0
77866,-83.3333333333333,4,2,6,60,0,0
77955,-83.3333333333333,4,2,2,60,0,0
78224,-83.3333333333333,4,2,1,60,0,0
79116,-83.3333333333333,4,2,2,60,0,0
79295,-83.3333333333333,4,2,3,60,0,0
79652,-125,4,2,1,60,0,0
81974,-62.5,4,2,1,60,0,0
82152,-100,4,2,3,60,0,0
82866,-50,4,2,1,70,0,0
82956,-50,4,2,2,70,0,0
83224,-50,4,2,6,70,0,0
83313,-50,4,2,2,70,0,0
83581,-50,4,2,6,70,0,0
83759,-50,4,2,2,70,0,0
83938,-50,4,2,7,70,0,0
84027,-50,4,2,2,70,0,0
84116,-50,4,2,5,70,0,0
84295,-50,4,2,6,70,0,0
84384,-50,4,2,2,70,0,0
84473,-50,4,2,5,70,0,0
84652,-50,4,2,6,70,0,0
84741,-50,4,2,2,70,0,0
85009,-50,4,2,6,70,0,0
85098,-50,4,2,2,70,0,0
85366,-50,4,2,7,70,0,0
85545,-50,4,2,5,70,0,0
85724,-50,4,2,6,70,0,0
85813,-50,4,2,2,70,0,0
85902,-50,4,2,5,70,0,0
86081,-50,4,2,6,70,0,0
86259,-50,4,2,2,70,0,0
86438,-50,4,2,6,70,0,0
86616,-50,4,2,2,70,0,0
86795,-50,4,2,7,70,0,0
86884,-50,4,2,2,70,0,0
86973,-50,4,2,5,70,0,0
87152,-50,4,2,6,70,0,0
87241,-50,4,2,2,70,0,0
87330,-50,4,2,5,70,0,0
87509,-50,4,2,6,70,0,0
87598,-50,4,2,2,70,0,0
87866,-50,4,2,6,70,0,0
88045,-50,4,2,2,70,0,0
88224,-100,4,2,6,70,0,0
88313,-100,4,2,2,70,0,0
88581,-50,4,2,2,70,0,0
88938,-50,4,2,6,70,0,0
89116,-50,4,2,2,70,0,0
89295,-50,4,2,6,70,0,0
89474,-50,4,2,2,70,0,0
89652,-50,4,2,7,70,0,0
89741,-50,4,2,2,70,0,0
89831,-50,4,2,5,70,0,0
90009,-50,4,2,6,70,0,0
90098,-50,4,2,2,70,0,0
90187,-50,4,2,5,70,0,0
90366,-50,4,2,6,70,0,0
90455,-50,4,2,2,70,0,0
90724,-50,4,2,6,70,0,0
90902,-50,4,2,2,70,0,0
91081,-133.333333333333,4,2,7,70,0,0
91170,-133.333333333333,4,2,2,70,0,0
91259,-133.333333333333,4,2,5,70,0,0
91438,-50,4,2,6,70,0,0
91527,-50,4,2,2,70,0,0
91616,-50,4,2,5,70,0,0
91795,-50,4,2,6,70,0,0
91884,-50,4,2,2,70,0,0
92509,-50,4,2,6,70,0,0
92688,-50,4,2,2,70,0,0
92866,-50,4,2,6,70,0,0
93045,-50,4,2,2,70,0,0
93224,-50,4,2,6,70,0,0
93313,-50,4,2,2,70,0,0
94295,-50,4,2,1,70,0,0
94384,-50,4,2,2,70,0,0
94473,-50,4,2,5,70,0,0
94652,-50,4,2,6,70,0,0
94741,-50,4,2,2,70,0,0
95009,-50,4,2,6,70,0,0
95188,-50,4,2,2,70,0,0
95366,-50,4,2,7,70,0,0
95545,-50,4,2,5,70,0,0
95724,-50,4,2,6,70,0,0
95813,-50,4,2,2,70,0,0
95902,-50,4,2,5,70,0,0
96081,-50,4,2,6,70,0,0
96170,-50,4,2,2,70,0,0
96438,-50,4,2,6,70,0,0
96527,-50,4,2,2,70,0,0
96795,-50,4,2,7,70,0,0
96974,-50,4,2,5,70,0,0
97152,-50,4,2,6,70,0,0
97241,-50,4,2,2,70,0,0
97332,-50,4,2,5,70,0,0
97509,-50,4,2,6,70,0,0
97688,-50,4,2,2,70,0,0
97866,-50,4,2,6,70,0,0
98045,-50,4,2,2,70,0,0
98224,-50,4,2,7,70,0,0
98402,-50,4,2,5,70,0,0
98581,-50,4,2,6,70,0,0
98759,-50,4,2,5,70,0,0
98938,-50,4,2,6,70,0,0
99027,-50,4,2,2,70,0,0
99295,-50,4,2,6,70,0,0
99474,-50,4,2,2,70,0,0
99652,-50,4,2,6,70,0,0
99831,-50,4,2,2,70,0,0
100366,-50,4,2,6,70,0,0
100545,-50,4,2,2,70,0,0
100724,-50,4,2,6,70,0,0
100902,-50,4,2,2,70,0,0
101081,-50,4,2,7,70,0,0
101259,-50,4,2,5,70,0,0
101438,-50,4,2,6,70,0,0
101616,-50,4,2,5,70,0,0
101795,-100,4,2,6,70,0,0
101884,-100,4,2,2,70,0,0
102152,-50,4,2,6,70,0,0
102241,-50,4,2,2,70,0,0
102509,-50,4,2,7,70,0,0
102598,-50,4,2,2,70,0,0
102688,-50,4,2,5,70,0,0
102866,-50,4,2,2,70,0,0
103044,-50,4,2,5,70,0,0
103224,-50,4,2,3,70,0,0
103581,-50,4,2,6,70,0,0
103759,-50,4,2,2,70,0,0
103938,-50,4,2,7,70,0,0
104027,-50,4,2,2,70,0,0
104295,-50,4,2,5,70,0,0
104652,-50,4,2,6,70,0,0
104741,-50,4,2,2,70,0,0
105188,-50,4,2,1,70,0,0
105366,-50,4,2,2,70,0,0
105724,-133.333333333333,4,2,2,50,0,0
115009,-76.9230769230769,4,2,2,50,0,0
115545,-76.9230769230769,4,2,1,50,0,0
116081,-76.9230769230769,4,2,2,50,0,0
116616,-76.9230769230769,4,2,1,50,0,0
116795,-76.9230769230769,4,2,2,50,0,0
117152,-76.9230769230769,4,2,2,60,0,0
117509,-76.9230769230769,4,2,9,60,0,0
117688,-76.9230769230769,4,2,2,60,0,0
117866,-76.9230769230769,4,2,9,60,0,0
117956,-76.9230769230769,4,2,2,60,0,0
118224,-76.9230769230769,4,2,8,60,0,0
118314,-76.9230769230769,4,2,2,60,0,0
118402,-76.9230769230769,4,2,5,60,0,0
118581,-76.9230769230769,4,2,8,60,0,0
118671,-76.9230769230769,4,2,2,60,0,0
118759,-76.9230769230769,4,2,5,60,0,0
118938,-76.9230769230769,4,2,8,60,0,0
119385,-76.9230769230769,4,2,2,60,0,0
119473,-76.9230769230769,4,2,5,60,0,0
119652,-76.9230769230769,4,2,9,60,0,0
119831,-76.9230769230769,4,2,5,60,0,0
120009,-76.9230769230769,4,2,8,60,0,0
120099,-76.9230769230769,4,2,2,60,0,0
120188,-76.9230769230769,4,2,5,60,0,0
120366,-76.9230769230769,4,2,8,60,0,0
120545,-76.9230769230769,4,2,2,60,0,0
121081,-76.9230769230769,4,2,8,60,0,0
121171,-76.9230769230769,4,2,2,60,0,0
121438,-76.9230769230769,4,2,8,60,0,0
121528,-76.9230769230769,4,2,2,60,0,0
121795,-76.9230769230769,4,2,8,60,0,0
122331,-76.9230769230769,4,2,2,60,0,0
122509,-133.333333333333,4,2,7,60,0,0
122599,-133.333333333333,4,2,2,60,0,0
122688,-133.333333333333,4,2,5,60,0,0
122866,-76.9230769230769,4,2,8,60,0,0
122956,-76.9230769230769,4,2,2,60,0,0
123223,-76.9230769230769,4,2,8,60,0,0
123402,-76.9230769230769,4,2,2,60,0,0
123581,-76.9230769230769,4,2,9,60,0,0
123671,-76.9230769230769,4,2,2,60,0,0
123938,-76.9230769230769,4,2,8,60,0,0
124028,-76.9230769230769,4,2,2,60,0,0
124116,-76.9230769230769,4,2,5,60,0,0
124295,-76.9230769230769,4,2,8,60,0,0
124385,-76.9230769230769,4,2,2,60,0,0
124474,-76.9230769230769,4,2,5,60,0,0
124652,-76.9230769230769,4,2,6,60,0,0
125009,-76.9230769230769,4,2,8,60,0,0
125188,-76.9230769230769,4,2,2,60,0,0
125366,-76.9230769230769,4,2,9,60,0,0
125545,-76.9230769230769,4,2,5,60,0,0
125724,-76.9230769230769,4,2,8,60,0,0
125814,-76.9230769230769,4,2,2,60,0,0
125902,-76.9230769230769,4,2,5,60,0,0
126081,-76.9230769230769,4,2,8,60,0,0
126259,-76.9230769230769,4,2,2,60,0,0
126795,-76.9230769230769,4,2,8,60,0,0
126885,-76.9230769230769,4,2,2,60,0,0
127152,-76.9230769230769,4,2,8,60,0,0
127331,-76.9230769230769,4,2,2,60,0,0
127509,-76.9230769230769,4,2,6,60,0,0
127688,-76.9230769230769,4,2,2,60,0,0
128134,-76.9230769230769,4,2,1,60,0,0
128402,-76.9230769230769,4,2,2,60,0,0
128581,-76.9230769230769,4,2,1,60,0,0
128670,-76.9230769230769,4,2,2,60,0,0
128938,-76.9230769230769,4,2,8,60,0,0
129028,-76.9230769230769,4,2,2,60,0,0
129295,-76.9230769230769,4,2,8,60,0,0
129474,-76.9230769230769,4,2,2,60,0,0
129652,-76.9230769230769,4,2,9,60,0,0
129831,-76.9230769230769,4,2,2,60,0,0
130009,-76.9230769230769,4,2,9,60,0,0
130099,-76.9230769230769,4,2,2,60,0,0
130366,-76.9230769230769,4,2,8,60,0,0
130545,-76.9230769230769,4,2,2,60,0,0
130724,-76.9230769230769,4,2,8,60,0,0
130902,-76.9230769230769,4,2,2,60,0,0
131081,-76.9230769230769,4,2,8,60,0,0
131171,-76.9230769230769,4,2,2,60,0,0
131438,-76.9230769230769,4,2,8,60,0,0
131528,-76.9230769230769,4,2,2,60,0,0
131795,-76.9230769230769,4,2,8,60,0,0
131974,-76.9230769230769,4,2,2,60,0,0
132152,-76.9230769230769,4,2,8,60,0,0
132331,-76.9230769230769,4,2,2,60,0,0
132509,-76.9230769230769,4,2,9,60,0,0
132688,-76.9230769230769,4,2,2,60,0,0
132866,-76.9230769230769,4,2,8,60,0,0
132956,-76.9230769230769,4,2,2,60,0,0
133224,-76.9230769230769,4,2,8,60,0,0
133314,-76.9230769230769,4,2,2,60,0,0
133759,-76.9230769230769,4,2,1,60,0,0
133938,-133.333333333333,4,2,2,60,0,0
134295,-76.9230769230769,4,2,2,60,0,0
134652,-76.9230769230769,4,2,8,60,0,0
134831,-76.9230769230769,4,2,2,60,0,0
135009,-76.9230769230769,4,2,9,60,0,0
135099,-76.9230769230769,4,2,2,60,0,0
135366,-76.9230769230769,4,2,9,60,0,0
135456,-76.9230769230769,4,2,2,60,0,0
135724,-76.9230769230769,4,2,8,60,0,0
135814,-76.9230769230769,4,2,2,60,0,0
136081,-76.9230769230769,4,2,8,60,0,0
136171,-76.9230769230769,4,2,2,60,0,0
136438,-76.9230769230769,4,2,8,60,0,0
136616,-76.9230769230769,4,2,2,60,0,0
136795,-76.9230769230769,4,2,8,60,0,0
136974,-76.9230769230769,4,2,5,60,0,0
137152,-76.9230769230769,4,2,8,60,0,0
137242,-76.9230769230769,4,2,2,60,0,0
137509,-76.9230769230769,4,2,8,60,0,0
137688,-76.9230769230769,4,2,2,60,0,0
137866,-76.9230769230769,4,2,8,60,0,0
137955,-76.9230769230769,4,2,2,60,0,0
138224,-76.9230769230769,4,2,8,60,0,0
138314,-76.9230769230769,4,2,2,60,0,0
138581,-76.9230769230769,4,2,8,60,0,0
138759,-76.9230769230769,4,2,2,60,0,0
138938,-76.9230769230769,4,2,6,60,0,0
139116,-76.9230769230769,4,2,2,60,0,0
139830,-76.9230769230769,4,2,3,60,0,0
140009,-333.333333333333,4,2,1,60,0,0
140099,-333.333333333333,4,2,2,60,0,0
140366,-333.333333333333,4,2,2,40,0,0
141974,-333.333333333333,4,2,2,60,0,0
142509,-133.333333333333,4,2,2,60,0,0
142866,714.285714285714,4,2,1,65,1,1
142866,-66.6666666666667,4,2,1,65,0,1
142955,-66.6666666666667,4,2,2,65,0,1
143580,-66.6666666666667,4,2,6,65,0,1
143669,-66.6666666666667,4,2,2,65,0,1
144116,-66.6666666666667,4,2,5,65,0,1
144294,-66.6666666666667,4,2,6,65,0,1
144383,-66.6666666666667,4,2,2,65,0,1
144472,-66.6666666666667,4,2,5,65,0,1
145008,-66.6666666666667,4,2,6,65,0,1
145097,-66.6666666666667,4,2,2,65,0,1
145544,-66.6666666666667,4,2,5,65,0,1
145723,-100,4,2,6,65,0,1
145812,-100,4,2,2,65,0,1
145901,-100,4,2,5,65,0,1
146437,-66.6666666666667,4,2,6,65,0,1
146526,-66.6666666666667,4,2,2,65,0,1
146972,-66.6666666666667,4,2,5,65,0,1
147151,-66.6666666666667,4,2,6,65,0,1
147330,-66.6666666666667,4,2,5,65,0,1
147866,-66.6666666666667,4,2,3,65,0,1
148223,-66.6666666666667,4,2,2,65,0,1
148401,-66.6666666666667,4,2,5,65,0,1
148580,-66.6666666666667,4,2,2,65,0,1
148758,-66.6666666666667,4,2,5,65,0,1
149294,-66.6666666666667,4,2,6,65,0,1
149383,-66.6666666666667,4,2,2,65,0,1
149830,-66.6666666666667,4,2,5,65,0,1
150008,-66.6666666666667,4,2,6,65,0,1
150187,-66.6666666666667,4,2,5,65,0,1
150723,-66.6666666666667,4,2,6,65,0,1
150901,-66.6666666666667,4,2,2,65,0,1
151258,-66.6666666666667,4,2,5,65,0,1
151437,-66.6666666666667,4,2,6,65,0,1
151616,-66.6666666666667,4,2,5,65,0,1
151794,-66.6666666666667,4,2,2,65,0,1
152151,-66.6666666666667,4,2,3,65,0,1
153223,-66.6666666666667,4,2,2,65,0,1
153580,-66.6666666666667,4,2,6,65,0,1
153639,-66.6666666666667,4,2,2,65,0,1
153699,-66.6666666666667,4,2,1,65,0,1
154056,-66.6666666666667,4,2,2,65,0,1
154294,-100,4,2,3,65,0,1
155008,-50,4,2,2,65,0,1
155544,-50,4,2,5,65,0,1
155723,-66.6666666666667,4,2,6,65,0,1
155812,-66.6666666666667,4,2,2,65,0,1
156437,-55.5555555555556,4,2,6,65,0,1
156526,-55.5555555555556,4,2,2,65,0,1
156972,-55.5555555555556,4,2,5,65,0,1
157151,-55.5555555555556,4,2,3,65,0,1
157866,-55.5555555555556,4,2,6,65,0,1
157955,-55.5555555555556,4,2,2,65,0,1
158401,-55.5555555555556,4,2,5,65,0,1
158580,-55.5555555555556,4,2,6,65,0,1
158669,-55.5555555555556,4,2,2,65,0,1
158758,-55.5555555555556,4,2,5,65,0,1
159294,-55.5555555555556,4,2,6,65,0,1
159473,-55.5555555555556,4,2,2,65,0,1
159830,-55.5555555555556,4,2,5,65,0,1
160008,-66.6666666666667,4,2,2,65,0,1
160723,-66.6666666666667,4,2,6,65,0,1
160901,-66.6666666666667,4,2,2,65,0,1
161258,-66.6666666666667,4,2,5,65,0,1
161437,-66.6666666666667,4,2,6,65,0,1
161526,-66.6666666666667,4,2,2,65,0,1
161615,-66.6666666666667,4,2,5,65,0,1
162151,-66.6666666666667,4,2,6,65,0,1
162330,-66.6666666666667,4,2,5,65,0,1
162866,-66.6666666666667,4,2,3,65,0,1
163937,-66.6666666666667,4,2,2,65,0,1
164830,-66.6666666666667,4,2,1,65,0,1
165008,-66.6666666666667,4,2,2,65,0,1
165366,-133.333333333333,4,2,3,65,0,1
165723,-100,4,2,2,60,0,0
166080,-100,4,2,9,60,0,0
166169,-100,4,2,2,60,0,0
166437,-100,4,2,8,60,0,0
166526,-100,4,2,2,60,0,0
166794,-100,4,2,9,60,0,0
166973,-100,4,2,2,60,0,0
167151,-100,4,2,8,60,0,0
167240,-100,4,2,2,60,0,0
167330,-100,4,2,5,60,0,0
167508,-100,4,2,9,60,0,0
167866,-100,4,2,8,60,0,0
167955,-100,4,2,2,60,0,0
168223,-100,4,2,9,60,0,0
168401,-100,4,2,2,60,0,0
168580,-100,4,2,8,60,0,0
168669,-100,4,2,2,60,0,0
168758,-100,4,2,5,60,0,0
168937,-100,4,2,9,60,0,0
169026,-100,4,2,2,60,0,0
169294,-100,4,2,8,60,0,0
169383,-100,4,2,2,60,0,0
169651,-100,4,2,9,60,0,0
169830,-100,4,2,2,60,0,0
170008,-100,4,2,8,60,0,0
170097,-100,4,2,2,60,0,0
170186,-100,4,2,5,60,0,0
170366,-100,4,2,8,60,0,0
170455,-100,4,2,2,60,0,0
170723,-100,4,2,8,60,0,0
170812,-100,4,2,2,60,0,0
171080,-100,4,2,9,60,0,0
171258,-100,4,2,5,60,0,0
171437,-100,4,2,8,60,0,0
171794,-100,4,2,9,60,0,0
171883,-100,4,2,2,60,0,0
172151,-80,4,2,6,60,0,0
172241,-80,4,2,2,60,0,0
172508,-66.6666666666667,4,2,2,60,0,0
173044,-66.6666666666667,4,2,1,60,0,0
173223,-66.6666666666667,4,2,2,60,0,0
173580,-66.6666666666667,4,2,3,60,0,0
173937,-200,4,2,1,60,0,0
174651,-200,4,2,2,55,0,0
176080,-200,4,2,2,50,0,0
177151,-125,4,2,2,50,0,0
180008,-142.857142857143,4,2,2,50,0,0
181437,-66.6666666666667,4,2,2,50,0,0
182865,-166.666666666667,4,2,2,50,0,0
185723,-33.3333333333333,4,2,2,50,0,0
186437,-28.5714285714287,4,2,2,50,0,0
187151,-33.3333333333333,4,2,2,50,0,0
187866,-28.5714285714286,4,2,2,50,0,0
192865,-200,4,2,2,50,0,0
197508,-200,4,2,2,40,0,0
197865,-1000,4,2,2,40,0,0
201794,-1000,4,2,2,60,0,0
202865,714.285714285714,4,2,1,70,1,0
202865,-50,4,2,1,70,0,0
202954,-50,4,2,2,70,0,0
203222,-50,4,2,6,70,0,0
203311,-50,4,2,2,70,0,0
203579,-50,4,2,6,70,0,0
203757,-50,4,2,2,70,0,0
203936,-50,4,2,7,70,0,0
204025,-50,4,2,2,70,0,0
204115,-50,4,2,5,70,0,0
204293,-50,4,2,6,70,0,0
204382,-50,4,2,2,70,0,0
204471,-50,4,2,5,70,0,0
204650,-50,4,2,6,70,0,0
204739,-50,4,2,2,70,0,0
205007,-50,4,2,6,70,0,0
205096,-50,4,2,2,70,0,0
205365,-50,4,2,7,70,0,0
205453,-50,4,2,2,70,0,0
205543,-50,4,2,5,70,0,0
205722,-50,4,2,6,70,0,0
205811,-50,4,2,2,70,0,0
205900,-50,4,2,5,70,0,0
206079,-50,4,2,6,70,0,0
206257,-50,4,2,2,70,0,0
206436,-50,4,2,6,70,0,0
206615,-50,4,2,2,70,0,0
206793,-50,4,2,7,70,0,0
206882,-50,4,2,2,70,0,0
206971,-50,4,2,5,70,0,0
207150,-50,4,2,6,70,0,0
207239,-50,4,2,2,70,0,0
207328,-50,4,2,5,70,0,0
207507,-50,4,2,6,70,0,0
207596,-50,4,2,2,70,0,0
207865,-50,4,2,6,70,0,0
208043,-50,4,2,2,70,0,0
208222,-100,4,2,6,70,0,0
208311,-100,4,2,2,70,0,0
208579,-50,4,2,2,70,0,0
208936,-50,4,2,6,70,0,0
209115,-50,4,2,2,70,0,0
209293,-50,4,2,6,70,0,0
209472,-50,4,2,2,70,0,0
209650,-50,4,2,7,70,0,0
209740,-50,4,2,2,70,0,0
209829,-50,4,2,5,70,0,0
210007,-50,4,2,6,70,0,0
210096,-50,4,2,2,70,0,0
210185,-50,4,2,5,70,0,0
210365,-50,4,2,6,70,0,0
210453,-50,4,2,2,70,0,0
210722,-50,4,2,6,70,0,0
210900,-50,4,2,2,70,0,0
211079,-133.333333333333,4,2,7,70,0,0
211168,-133.333333333333,4,2,2,70,0,0
211257,-133.333333333333,4,2,5,70,0,0
211436,-50,4,2,6,70,0,0
211525,-50,4,2,2,70,0,0
211614,-50,4,2,5,70,0,0
211793,-50,4,2,7,70,0,0
211882,-50,4,2,2,70,0,0
212150,-50,4,2,6,70,0,0
212329,-50,4,2,2,70,0,0
212507,-50,4,2,3,70,0,0
212686,-50,4,2,5,70,0,0
212865,-50,4,2,6,70,0,0
213043,-50,4,2,2,70,0,0
213222,-50,4,2,6,70,0,0
213400,-50,4,2,2,70,0,0
213817,-50,4,2,1,70,0,0
214055,-50,4,2,2,70,0,0
214293,-50,4,2,1,70,0,0
214382,-50,4,2,2,70,0,0
214471,-50,4,2,5,70,0,0
214650,-50,4,2,6,70,0,0
214739,-50,4,2,2,70,0,0
215007,-50,4,2,6,70,0,0
215186,-50,4,2,2,70,0,0
215365,-50,4,2,7,70,0,0
215543,-50,4,2,5,70,0,0
215722,-50,4,2,6,70,0,0
215811,-50,4,2,2,70,0,0
215900,-50,4,2,5,70,0,0
216079,-50,4,2,6,70,0,0
216168,-50,4,2,2,70,0,0
216436,-50,4,2,6,70,0,0
216525,-50,4,2,2,70,0,0
216793,-50,4,2,7,70,0,0
216972,-50,4,2,5,70,0,0
217150,-50,4,2,6,70,0,0
217239,-50,4,2,2,70,0,0
217330,-50,4,2,5,70,0,0
217507,-50,4,2,6,70,0,0
217686,-50,4,2,2,70,0,0
217865,-50,4,2,6,70,0,0
218043,-50,4,2,2,70,0,0
218222,-50,4,2,7,70,0,0
218400,-50,4,2,5,70,0,0
218579,-50,4,2,6,70,0,0
218757,-50,4,2,5,70,0,0
218936,-50,4,2,2,70,0,0
219293,-50,4,2,3,70,0,0
219650,-50,4,2,6,70,0,0
219829,-50,4,2,2,70,0,0
220365,-50,4,2,6,70,0,0
220543,-50,4,2,2,70,0,0
220722,-50,4,2,6,70,0,0
220900,-50,4,2,2,70,0,0
221079,-50,4,2,7,70,0,0
221257,-50,4,2,5,70,0,0
221436,-50,4,2,6,70,0,0
221525,-50,4,2,2,70,0,0
221614,-50,4,2,5,70,0,0
221793,-100,4,2,6,70,0,0
221882,-100,4,2,2,70,0,0
222150,-100,4,2,6,70,0,0
222329,-100,4,2,2,70,0,0
222507,-100,4,2,7,70,0,0
222686,-100,4,2,5,70,0,0
222865,-100,4,2,3,70,0,0
223222,-50,4,2,2,70,0,0
223579,-50,4,2,3,70,0,0
223936,-50,4,2,2,70,0,0
224293,-50,4,2,3,70,0,0
224650,-50,4,2,2,70,0,0
225722,-133.333333333333,4,2,2,65,0,0
226079,-133.333333333333,4,2,10,65,0,0
226436,-50,4,2,3,65,0,0
226793,-50,4,2,11,65,0,0
226972,-50,4,2,5,65,0,0
227150,-50,4,2,10,65,0,0
227239,-50,4,2,2,65,0,0
227328,-50,4,2,5,65,0,0
227507,-50,4,2,10,65,0,0
227596,-50,4,2,2,65,0,0
227865,-50,4,2,10,65,0,0
227954,-50,4,2,2,65,0,0
228222,-50,4,2,10,65,0,0
228311,-50,4,2,2,65,0,0
228400,-50,4,2,5,65,0,0
228579,-50,4,2,10,65,0,0
228668,-50,4,2,2,65,0,0
228757,-50,4,2,5,65,0,0
228936,-50,4,2,10,65,0,0
229025,-50,4,2,2,65,0,0
229293,-50,4,2,10,65,0,0
229531,-50,4,2,2,65,0,0
229650,-50,4,2,10,65,0,0
229769,-50,4,2,2,65,0,0
230007,-50,4,2,10,65,0,0
230096,-50,4,2,2,65,0,0
230365,-50,4,2,10,65,0,0
230454,-50,4,2,2,65,0,0
230722,-50,4,2,10,65,0,0
230811,-50,4,2,2,65,0,0
231079,-50,4,2,10,65,0,0
231257,-50,4,2,5,65,0,0
231436,-50,4,2,2,65,0,0
231614,-50,4,2,5,65,0,0
231793,-50,4,2,10,65,0,0
231972,-50,4,2,2,65,0,0
232150,-50,4,2,10,65,0,0
232329,-50,4,2,2,65,0,0
232507,-50,4,2,10,65,0,0
232686,-50,4,2,5,65,0,0
232865,-50,4,2,10,65,0,0
232954,-50,4,2,2,65,0,0
233043,-50,4,2,5,65,0,0
233222,-50,4,2,11,65,0,0
233400,-50,4,2,2,65,0,0
233579,-50,4,2,10,65,0,0
233757,-50,4,2,2,65,0,0
233936,-50,4,2,3,65,0,0
234115,-50,4,2,5,65,0,0
235186,-50,4,2,1,65,0,0
235365,-50,4,2,2,65,0,0
235543,-50,4,2,5,65,0,0
236615,-50,4,2,1,65,0,0
236793,-50,4,2,2,65,0,0
236972,-50,4,2,3,65,0,0
237507,-50,4,2,6,65,0,0
237597,-50,4,2,2,65,0,0
238222,-50,4,2,10,65,0,0
238311,-50,4,2,2,65,0,0
238579,-50,4,2,10,65,0,0
238668,-50,4,2,2,65,0,0
238936,-50,4,2,10,65,0,0
239114,-50,4,2,2,65,0,0
239293,-50,4,2,10,65,0,0
239382,-50,4,2,2,65,0,0
239650,-50,4,2,11,65,0,0
239739,-50,4,2,2,65,0,0
240364,-50,4,2,10,65,0,0
240454,-50,4,2,2,65,0,0
240722,-50,4,2,3,65,0,0
241079,-50,4,2,6,65,0,0
241257,-50,4,2,2,65,0,0
241436,-50,4,2,8,65,0,0
241525,-50,4,2,2,65,0,0
241793,-50,4,2,5,65,0,0
242150,-40,4,2,2,65,0,0
242507,-50,4,2,2,65,0,0
242864,-50,4,2,3,65,0,0
243579,-50,4,2,5,65,0,0
243936,-50,4,2,10,65,0,0
244025,-50,4,2,2,65,0,0
244293,-50,4,2,10,65,0,0
244382,-50,4,2,2,65,0,0
244650,-50,4,2,10,65,0,0
244829,-50,4,2,2,65,0,0
245007,-50,4,2,5,65,0,0
246257,-50,4,2,1,65,0,0
247150,-50,4,2,6,65,0,0
247210,-50,4,2,2,65,0,0
247686,-50,4,2,1,65,0,0
248043,-50,4,2,2,65,0,0
248579,-125,4,2,2,35,0,0
250007,-200,4,2,2,35,0,0
251436,-125,4,2,2,35,0,0
255722,-200,4,2,2,35,0,0
257150,-125,4,2,2,35,0,0

[Colours]
Combo1 : 249,234,128
Combo2 : 136,169,255
Combo3 : 245,109,109
Combo4 : 143,143,143

[HitObjects]
341,47,2867,6,0,P|346:86|356:125,1,80,2|2,2:0|2:0,2:0:0:0:
190,211,3581,2,0,P|187:191|182:171,1,40,2|0,2:0|2:0,2:0:0:0:
262,118,3938,1,2,2:0:0:0:
262,118,4295,6,0,L|281:215,1,100,2|0,2:0|2:0,2:0:0:0:
159,384,5366,5,2,2:0:0:0:
159,384,5545,1,2,2:0:0:0:
111,319,5724,2,0,P|124:281|129:241,1,80,2|2,2:0|2:0,2:0:0:0:
230,346,6259,2,0,P|235:306|249:269,1,80,2|2,2:0|2:0,2:0:0:0:
234,76,6974,2,0,P|225:137|205:195,1,120,2|2,2:0|2:0,2:0:0:0:
360,222,7866,2,0,P|364:202|372:184,1,40,2|2,2:0|2:0,2:0:0:0:
292,180,8224,1,2,2:0:0:0:
425,306,8581,6,0,P|386:314|349:330,1,80,2|2,2:0|2:0,2:0:0:0:
206,294,9295,2,0,P|244:285|281:269,1,80,2|2,2:0|2:0,2:0:0:0:
374,123,10009,6,0,L|360:226,1,100,2|0,2:0|2:0,2:0:0:0:
214,22,11081,5,2,2:0:0:0:
214,22,11259,1,2,2:0:0:0:
195,100,11438,2,0,P|227:104|270:77,1,80,2|2,2:0|2:0,2:0:0:0:
362,0,11974,2,0,P|342:25|344:76,1,80,2|2,2:0|2:0,2:0:0:0:
493,119,12688,2,0,P|512:93|510:42,1,80,2|2,2:0|2:0,2:0:0:0:
435,1,13224,1,2,2:0:0:0:
434,1,13581,2,0,P|414:5|396:14,1,40,2|2,2:0|2:0,2:0:0:0:
343,72,13938,1,2,2:0:0:0:
343,72,14295,6,0,P|300:52|258:44,1,80,2|2,2:0|2:0,2:0:0:0:
97,156,15009,1,2,2:0:0:0:
198,26,15366,1,2,2:0:0:0:
23,30,15724,6,0,P|30:69|35:117,1,80,2|2,2:0|2:0,2:0:0:0:
190,181,16438,2,0,P|183:142|178:94,2,80,2|2|2,2:0|2:0|2:0,2:0:0:0:
20,363,17509,5,2,2:0:0:0:
20,363,17688,2,0,P|41:355|62:351,1,40,2|0,2:0|2:0,2:0:0:0:
114,237,18045,1,2,2:0:0:0:
114,237,18224,2,0,P|135:245|156:249,1,40,2|0,2:0|2:0,2:0:0:0:
28,272,18581,6,0,P|18:204|12:161,1,80,2|2,2:0|2:0,2:0:0:0:
179,343,19295,2,0,P|158:335|137:331,2,40,2|2|2,2:0|2:0|2:0,2:0:0:0:
179,342,20009,6,0,P|215:331|283:322,1,80,2|2,2:0|2:0,2:0:0:0:
331,133,20724,2,0,P|295:144|227:153,1,80,2|2,2:0|2:0,2:0:0:0:
329,294,21438,5,2,2:0:0:0:
188,207,21795,1,2,2:0:0:0:
258,71,22152,1,2,2:0:0:0:
258,71,22866,5,2,2:0:0:0:
255,63,23224,1,2,2:0:0:0:
252,55,23581,1,2,2:0:0:0:
313,134,23938,6,0,B|437:167|346:274|498:294,1,240,2|2,2:0|2:0,2:0:0:0:
476,290,25366,6,0,L|468:258,1,20,2|0,2:0|2:0,2:0:0:0:
421,202,25545,2,0,L|429:169,1,22.5,2|0,2:0|2:0,2:0:0:0:
512,49,25724,6,0,P|484:87|410:84,1,120,14|0,2:1|2:0,2:0:0:0:
394,99,26081,2,0,P|379:56|373:16,1,80,10|0,2:1|2:0,2:0:0:0:
266,170,26438,2,0,P|291:245|304:324,1,160,10|2,2:0|2:0,2:0:0:0:
372,361,26974,5,8,2:3:0:0:
382,363,27063,1,8,2:3:0:0:
391,365,27152,1,8,2:1:0:0:
452,315,27331,1,8,2:3:0:0:
424,244,27509,1,10,2:1:0:0:
424,244,27866,2,0,P|368:216|244:213,1,160,10|2,2:0|2:0,2:0:0:0:
115,72,28402,1,8,2:3:0:0:
69,166,28581,6,0,P|128:158|186:141,1,120,8|0,2:1|2:0,2:0:0:0:
204,149,28938,2,0,P|181:192|200:247,1,80,10|0,2:1|2:0,2:0:0:0:
316,374,29295,2,0,P|270:312|193:313,1,160,10|2,2:0|2:0,2:0:0:0:
8,294,29831,5,8,2:3:0:0:
4,303,29920,1,8,2:3:0:0:
0,312,30009,1,10,2:1:0:0:
40,379,30188,1,8,2:3:0:0:
122,365,30366,1,8,2:1:0:0:
122,365,30724,2,0,P|108:286|83:210,1,160,10|8,2:0|2:1,2:0:0:0:
35,46,31259,5,8,2:3:0:0:
35,46,31349,1,8,2:3:0:0:
35,46,31438,2,0,P|91:65|150:74,1,120,14|0,2:1|2:0,2:0:0:0:
167,71,31795,2,0,P|190:34|179:-9,1,80,10|0,2:1|2:0,2:0:0:0:
35,138,32152,2,0,P|-5:203|23:274,1,160,10|2,2:0|2:0,2:0:0:0:
101,342,32688,5,8,2:3:0:0:
110,338,32777,1,8,2:3:0:0:
118,335,32866,1,8,2:1:0:0:
166,271,33045,1,8,2:3:0:0:
248,291,33224,1,10,2:1:0:0:
248,291,33581,2,0,P|298:232|280:157,1,160,10|2,2:0|2:0,2:0:0:0:
139,65,34116,1,8,2:3:0:0:
251,11,34295,6,0,P|236:48|226:86,1,80,10|8,2:1|2:3,2:0:0:0:
87,175,34652,2,0,P|124:160|162:150,1,80,10|0,2:1|2:0,2:0:0:0:
322,75,35009,5,14,2:0:0:0:
391,146,35188,1,10,2:0:0:0:
365,241,35366,1,8,2:1:0:0:
196,292,35545,6,0,P|232:275|270:264,1,80,10|0,2:0|2:0,2:0:0:0:
302,168,35902,1,10,2:3:0:0:
269,353,36081,6,0,P|307:364|343:381,1,75,14|0,2:1|2:0,2:0:0:0:
352,384,36438,6,0,B|393:358|393:358|342:355,1,100,14|8,2:0|2:0,2:0:0:0:
271,264,36795,5,10,2:0:0:0:
391,146,36974,1,10,2:0:0:0:
485,353,37152,6,0,P|515:279|490:229,1,120,12|0,2:1|2:0,2:0:0:0:
495,236,37509,2,0,P|444:224|393:223,1,80,10|0,2:1|2:0,2:0:0:0:
454,77,37866,2,0,P|378:105|287:149,1,160,10|2,2:0|2:0,2:0:0:0:
224,187,38402,5,8,2:3:0:0:
220,178,38491,1,8,2:3:0:0:
216,169,38581,1,10,2:1:0:0:
232,84,38759,1,8,2:3:0:0:
145,78,38938,1,10,2:1:0:0:
145,78,39295,2,0,P|67:86|21:19,1,160,10|2,2:0|2:3,2:0:0:0:
0,196,39831,5,8,2:3:0:0:
112,175,40009,2,0,P|94:234|81:308,1,120,8|0,2:1|2:0,2:0:0:0:
89,300,40366,2,0,P|45:308|0:319,1,80,10|0,2:1|2:0,2:0:0:0:
196,150,40724,2,0,P|250:160|378:190,1,160,10|2,2:0|2:0,2:0:0:0:
427,210,41259,5,8,2:3:0:0:
430,200,41349,1,8,2:3:0:0:
435,192,41438,1,10,2:1:0:0:
507,244,41616,1,8,2:3:0:0:
484,326,41795,2,0,P|421:337|380:345,1,80,10|0,2:1|2:0,2:0:0:0:
282,137,42152,6,0,P|290:69|374:47,1,150,10|0,2:0|2:0,2:0:0:0:
370,49,42509,2,0,P|366:90|357:129,1,50,8|0,2:1|2:0,2:0:0:0:
324,262,42688,5,8,2:3:0:0:
324,262,42777,1,8,2:3:0:0:
324,262,42866,2,0,P|225:268|166:277,1,120,14|0,2:1|2:0,2:0:0:0:
194,278,43224,2,0,P|167:238|186:193,1,80,8|0,2:1|2:0,2:0:0:0:
352,184,43581,2,0,P|396:118|365:44,1,160,10|2,2:0|2:0,2:0:0:0:
291,17,44116,5,8,2:3:0:0:
282,22,44206,1,8,2:3:0:0:
275,29,44295,1,10,2:1:0:0:
226,94,44474,1,8,2:3:0:0:
154,46,44652,1,10,2:1:0:0:
154,46,45009,2,0,P|61:62|-13:75,1,160,10|2,2:0|2:3,2:0:0:0:
1,66,45456,1,0,2:0:0:0:
5,59,45545,1,8,2:3:0:0:
164,198,45724,5,10,2:1:0:0:
0,286,45902,1,4,2:3:0:0:
159,282,46081,5,4,2:3:0:0:
73,227,46259,1,8,2:1:0:0:
197,360,46438,6,0,P|261:342|371:319,1,150,14|0,2:0|2:0,2:0:0:0:
350,328,46795,1,10,2:1:0:0:
284,209,46974,2,0,P|277:235|270:285,1,50,10|2,2:0|2:0,2:0:0:0:
433,353,47152,5,10,2:1:0:0:
511,229,47331,1,8,2:0:0:0:
405,122,47509,1,10,2:1:0:0:
485,49,47688,1,8,2:1:0:0:
382,245,47866,6,0,P|305:178|320:111,1,160,10|4,2:0|2:3,2:0:0:0:
348,59,48402,1,8,2:3:0:0:
348,59,48491,1,8,2:3:0:0:
348,59,48581,1,12,2:1:0:0:
131,46,48938,6,0,P|139:24|212:18,1,90,2|0,2:0|2:0,2:0:0:0:
209,19,49295,2,0,P|206:48|197:76,1,60,10|0,2:0|2:0,2:0:0:0:
134,133,49652,1,2,2:0:0:0:
309,155,49831,1,8,2:3:0:0:
309,155,49920,1,8,2:3:0:0:
309,155,50009,2,0,P|248:148|195:194,1,120,8|8,2:1|2:1,2:0:0:0:
25,374,50724,1,8,2:0:0:0:
25,374,51081,2,0,L|10:298,1,60,2|10,2:0|2:3,2:0:0:0:
12,304,51349,1,8,2:3:0:0:
10,294,51438,6,0,L|150:324,1,120,10|2,2:1|2:0,2:0:0:0:
291,300,51974,1,2,2:0:0:0:
131,224,52152,1,8,2:0:0:0:
228,384,52331,2,0,L|202:266,1,120,2|10,2:0|2:3,2:0:0:0:
209,256,52777,1,8,2:3:0:0:
215,246,52866,6,0,P|256:205|318:209,1,120,8|10,2:1|2:1,2:0:0:0:
465,42,53581,2,0,P|471:71|481:99,1,60,10|2,2:0|2:0,2:0:0:0:
388,124,53938,2,0,P|381:94|371:66,1,60,2|8,2:0|2:3,2:0:0:0:
364,58,54206,1,8,2:3:0:0:
356,53,54295,6,0,L|226:87,1,120,8|2,2:1|2:0,2:0:0:0:
165,41,54831,1,2,2:0:0:0:
287,181,55009,2,0,L|157:147,1,120,10|2,2:0|2:0,2:0:0:0:
0,120,55545,1,8,2:3:0:0:
0,120,55634,1,8,2:3:0:0:
0,120,55724,2,0,P|51:83|115:104,1,120,8|8,2:1|2:1,2:0:0:0:
378,216,56438,1,8,2:0:0:0:
378,216,56795,2,0,P|367:243|360:273,1,60,2|10,2:0|2:3,2:0:0:0:
360,283,57063,1,8,2:3:0:0:
361,291,57152,6,0,P|302:303|244:320,1,120,10|2,2:1|2:0,2:0:0:0:
174,268,57688,1,2,2:0:0:0:
291,147,57866,1,8,2:0:0:0:
226,84,58045,2,0,P|199:136|214:192,1,120,2|10,2:0|2:3,2:0:0:0:
224,203,58491,1,8,2:3:0:0:
231,213,58581,6,0,P|260:220|287:231,1,60,8|10,2:1|2:3,2:0:0:0:
361,80,58938,2,0,P|372:107|379:136,1,60,10|0,2:1|2:0,2:0:0:0:
452,279,59295,1,10,2:0:0:0:
375,229,59474,1,2,2:0:0:0:
458,187,59652,1,2,2:0:0:0:
276,357,60009,6,0,P|213:331|147:315,1,120,8|2,2:1|2:0,2:0:0:0:
43,121,60724,1,10,2:0:0:0:
43,121,60902,1,0,2:0:0:0:
120,133,61081,2,0,P|118:162|102:187,1,60,2|8,2:0|2:3,2:0:0:0:
96,194,61349,1,8,2:3:0:0:
89,200,61438,2,0,P|148:198|185:248,1,120,10|10,2:1|2:1,2:0:0:0:
168,74,62152,6,0,P|163:33|158:-6,1,60,10|0,2:0|2:0,2:0:0:0:
246,3,62509,2,0,P|251:44|256:83,1,60,2|8,2:0|2:3,2:0:0:0:
254,71,62777,1,8,2:3:0:0:
255,79,62866,2,0,P|312:65|396:56,1,120,10|2,2:1|2:0,2:0:0:0:
501,152,63402,5,2,2:0:0:0:
419,176,63581,2,0,P|427:129|438:95,1,60,8|2,2:0|2:0,2:0:0:0:
430,117,63938,1,2,2:0:0:0:
351,261,64116,1,8,2:3:0:0:
351,261,64206,1,8,2:3:0:0:
351,261,64295,2,0,P|318:194|300:141,1,120,8|10,2:1|2:1,2:0:0:0:
502,74,65009,5,10,2:0:0:0:
436,8,65188,1,2,2:0:0:0:
347,33,65366,2,0,P|351:62|358:91,1,60,2|8,2:0|2:3,2:0:0:0:
364,98,65634,1,8,2:3:0:0:
370,104,65724,1,8,2:1:0:0:
434,257,66081,6,0,P|487:273|504:332,2,120,2|10|2,2:0|2:0|2:0,2:0:0:0:
390,376,66974,1,8,2:3:0:0:
390,376,67063,1,8,2:3:0:0:
390,376,67152,2,0,P|354:364|306:353,1,60,10|8,2:1|2:3,2:0:0:0:
364,220,67509,2,0,P|328:232|280:243,1,60,10|0,2:1|2:0,2:0:0:0:
181,371,67866,5,10,2:0:0:0:
103,341,68045,1,0,2:0:0:0:
25,311,68224,1,2,2:3:0:0:
90,259,68402,5,8,2:3:0:0:
90,259,68491,1,8,2:3:0:0:
90,259,68581,2,0,P|87:222|71:189,1,60,10|8,2:1|2:3,2:0:0:0:
125,133,68938,2,0,P|95:110|60:100,1,60,10|8,2:1|2:1,2:0:0:0:
225,10,69295,6,0,P|171:18|119:53,1,90,10|0,2:0|2:0,2:0:0:0:
136,44,69652,1,10,2:1:0:0:
178,203,69831,1,8,2:0:0:0:
178,203,70009,2,0,P|241:193|303:152,1,120,2|10,2:0|2:1,2:0:0:0:
289,165,70545,1,8,2:0:0:0:
211,107,70724,5,10,2:0:0:0:
498,24,71081,1,6,2:3:0:0:
427,314,71438,5,12,2:1:0:0:
427,314,71795,2,0,P|420:284|408:257,1,60,2|0,2:0|2:0,2:0:0:0:
250,236,72152,2,0,P|308:230|350:189,1,120,10|2,2:0|2:0,2:0:0:0:
369,104,72688,1,10,2:1:0:0:
165,128,72866,6,0,P|177:156|185:196,1,60,8|0,2:1|2:0,2:0:0:0:
272,152,73224,2,0,P|260:124|252:84,1,60,2|0,2:0|2:0,2:0:0:0:
95,250,73581,2,0,P|153:260|205:289,1,120,10|2,2:0|2:0,2:0:0:0:
263,354,74116,1,8,2:1:0:0:
392,271,74295,6,0,P|393:212|353:169,1,120,10|2,2:1|2:0,2:0:0:0:
494,0,75009,2,0,P|442:28|425:84,1,120,10|2,2:0|2:0,2:0:0:0:
300,248,75545,2,0,P|284:240|260:235,1,30,8|0,2:1|2:0,2:0:0:0:
223,176,75724,1,8,2:1:0:0:
108,384,76081,6,0,P|120:352|110:317,1,60,10|0,2:1|2:0,2:0:0:0:
0,231,76438,2,0,P|18:288|30:346,1,120,10|2,2:0|2:0,2:0:0:0:
160,249,76974,5,8,2:3:0:0:
147,233,77063,1,8,2:3:0:0:
126,236,77152,1,12,2:1:0:0:
44,37,77509,2,0,P|25:78|20:123,1,90,2|0,2:0|2:0,2:0:0:0:
30,136,77866,2,0,P|64:138|99:112,1,60,10|0,2:0|2:0,2:0:0:0:
301,109,78224,5,10,2:1:0:0:
297,123,78343,5,4,2:3:0:0:
284,129,78462,5,4,2:3:0:0:
270,126,78581,5,4,2:3:0:0:
237,38,78759,1,8,2:1:0:0:
331,19,78938,1,10,2:1:0:0:
393,91,79116,1,4,2:3:0:0:
361,180,79295,2,0,B|348:201|351:224|351:224|359:194|391:177,1,90,6|0,2:3|2:0,2:0:0:0:
426,257,79652,6,0,P|231:301|48:381,1,400,14|0,2:1|2:0,2:0:0:0:
194,92,81974,6,0,P|205:108|222:119,1,40,8|8,2:1|2:1,2:0:0:0:
300,193,82152,2,0,P|214:211|133:244,1,175,14|0,2:0|2:0,2:0:0:0:
127,237,82866,6,0,P|171:246|235:257,1,100,12|0,2:1|2:0,2:0:0:0:
152,22,83224,2,0,P|77:31|56:94,1,150,10|0,2:1|2:0,2:0:0:0:
63,100,83581,5,10,2:0:0:0:
129,149,83759,1,2,2:0:0:0:
56,280,83938,1,2,2:0:0:0:
51,271,84027,1,2,2:0:0:0:
46,261,84116,1,10,2:3:0:0:
209,179,84295,6,0,P|219:123|228:63,1,100,8|8,2:1|2:3,2:0:0:0:
389,194,84652,2,0,P|374:114|362:30,1,150,10|0,2:1|2:0,2:0:0:0:
367,36,85009,2,0,P|417:25|451:78,1,100,10|0,2:0|2:0,2:0:0:0:
300,126,85366,1,2,2:0:0:0:
455,253,85545,5,8,2:3:0:0:
461,260,85634,1,8,2:3:0:0:
467,267,85724,2,0,P|415:271|351:285,1,100,10|0,2:1|2:0,2:0:0:0:
240,370,86081,1,10,2:1:0:0:
209,289,86259,1,2,2:0:0:0:
395,350,86438,5,10,2:0:0:0:
299,209,86616,1,2,2:0:0:0:
153,354,86795,2,0,P|106:343|43:334,1,100,2|8,2:0|2:3,2:0:0:0:
48,342,87063,1,8,2:3:0:0:
41,349,87152,6,0,P|71:306|31:242,1,100,8|8,2:1|2:3,2:0:0:0:
216,201,87509,2,0,P|168:155|84:169,1,150,10|0,2:1|2:0,2:0:0:0:
84,173,87866,5,10,2:0:0:0:
188,126,88045,1,2,2:0:0:0:
292,79,88224,2,0,P|265:69|226:56,1,50,10|8,2:1|2:0,2:0:0:0:
239,56,88491,1,8,2:0:0:0:
233,49,88581,6,0,B|347:57|294:-18|415:-13,1,200,12|10,2:1|2:1,2:0:0:0:
470,48,89116,1,2,2:0:0:0:
408,208,89295,5,10,2:0:0:0:
350,132,89474,1,2,2:0:0:0:
225,246,89652,1,2,2:0:0:0:
229,254,89741,1,2,2:0:0:0:
233,262,89831,1,10,2:3:0:0:
371,343,90009,6,0,P|419:322|481:308,1,100,8|8,2:1|2:3,2:0:0:0:
285,185,90366,2,0,P|215:215|126:235,1,150,10|0,2:1|2:0,2:0:0:0:
133,227,90724,5,10,2:0:0:0:
327,271,90902,1,2,2:0:0:0:
107,360,91081,2,0,P|78:351|39:344,1,56.2500000000001,2|8,2:0|2:3,2:0:0:0:
46,352,91438,6,0,P|19:311|31:263,1,100,10|0,2:1|2:0,2:0:0:0:
185,46,91795,2,0,P|224:107|207:178,1,150,10|0,2:1|2:0,2:0:0:0:
202,185,92152,5,14,2:0:0:0:
108,134,92331,1,2,2:0:0:0:
14,83,92509,1,10,2:1:0:0:
17,190,92688,1,8,2:0:0:0:
105,27,92866,5,2,2:3:0:0:
186,56,93045,1,8,2:0:0:0:
300,0,93224,2,0,P|329:36|317:87,1,100,10|8,2:1|2:1,2:0:0:0:
202,185,93581,6,0,P|204:165|222:115,1,50,14|0,2:0|2:0,2:0:0:0:
398,109,93759,2,0,P|404:133|415:156,1,50,10|0,2:0|2:0,2:0:0:0:
296,242,93938,6,0,P|285:219|279:195,1,50,10|0,2:1|2:0,2:0:0:0:
494,53,94116,2,0,P|483:75|476:99,1,50,8|0,2:0|2:0,2:0:0:0:
409,273,94295,6,0,P|452:248|500:235,1,100,12|8,2:1|2:3,2:0:0:0:
329,360,94652,2,0,P|269:371|203:299,1,150,10|0,2:1|2:0,2:0:0:0:
199,303,95009,5,10,2:0:0:0:
366,185,95188,1,2,2:0:0:0:
181,100,95366,1,2,2:0:0:0:
236,216,95545,5,8,2:3:0:0:
246,219,95634,1,8,2:3:0:0:
256,213,95724,2,0,P|270:165|281:116,1,100,8|8,2:1|2:3,2:0:0:0:
130,3,96081,2,0,P|83:59|10:58,1,150,10|0,2:1|2:0,2:0:0:0:
0,52,96438,2,0,P|14:99|25:148,1,100,10|0,2:0|2:0,2:0:0:0:
167,289,96795,1,2,2:0:0:0:
43,379,96974,5,8,2:3:0:0:
29,374,97063,1,8,2:3:0:0:
24,360,97152,2,0,P|44:287|89:227,1,150,10|0,2:1|2:0,2:0:0:0:
93,214,97509,1,10,2:1:0:0:
167,289,97688,1,2,2:0:0:0:
198,178,97866,5,10,2:0:0:0:
56,318,98045,1,2,2:0:0:0:
249,371,98224,1,2,2:0:0:0:
280,271,98402,5,8,2:3:0:0:
269,268,98491,1,8,2:3:0:0:
257,279,98581,1,8,2:1:0:0:
343,348,98759,1,8,2:3:0:0:
457,196,98938,2,0,P|437:242|428:291,1,100,10|2,2:1|2:0,2:0:0:0:
327,11,99295,5,10,2:0:0:0:
492,101,99474,1,2,2:0:0:0:
340,211,99652,1,10,2:1:0:0:
385,105,99831,5,8,2:0:0:0:
392,116,99920,1,8,2:0:0:0:
387,129,100009,2,0,B|332:139|314:107|324:97|298:64|224:91,1,150,12|0,2:1|2:0,2:0:0:0:
238,93,100366,1,10,2:1:0:0:
182,179,100545,1,2,2:0:0:0:
164,41,100724,5,10,2:0:0:0:
265,176,100902,1,2,2:0:0:0:
131,277,101081,1,2,2:0:0:0:
276,384,101259,1,8,2:3:0:0:
286,375,101349,1,8,2:3:0:0:
283,358,101438,1,8,2:1:0:0:
240,269,101616,1,8,2:3:0:0:
71,350,101795,2,0,P|101:380|144:363,1,75,10|0,2:1|2:0,2:0:0:0:
173,364,102152,6,0,P|160:315|130:276,1,100,10|2,2:0|2:0,2:0:0:0:
5,126,102509,2,0,P|42:171|143:147,1,150,2|8,2:0|2:3,2:0:0:0:
219,122,102866,6,0,P|146:130|112:176,1,100,14|8,2:1|2:1,2:0:0:0:
27,273,103224,1,14,2:0:0:0:
226,353,103402,5,8,2:0:0:0:
239,335,103491,1,8,2:0:0:0:
231,315,103581,1,10,2:1:0:0:
140,240,103759,1,10,2:0:0:0:
0,384,103938,2,0,P|67:352|139:328,1,150,2|8,2:0|2:1,2:0:0:0:
232,229,104295,6,0,P|229:205|203:173,1,50,12|0,2:0|2:0,2:0:0:0:
322,273,104474,2,0,P|340:201|315:132,1,150,8|0,2:0|2:0,2:0:0:0:
196,73,104831,5,8,2:0:0:0:
219,93,104920,1,8,2:0:0:0:
245,84,105009,1,10,2:0:0:0:
401,25,105188,1,4,2:3:0:0:
468,172,105366,1,6,2:3:0:0:
468,172,105724,6,0,P|424:187|363:213,1,112.5,2|2,2:0|2:0,2:0:0:0:
192,329,107152,2,0,P|201:283|208:217,1,112.5,2|2,2:0|2:0,2:0:0:0:
194,11,108581,2,0,P|228:41|282:81,1,112.5,2|2,2:0|2:0,2:0:0:0:
363,212,110009,6,0,P|320:226|285:244,1,75.0000000000002,2|2,2:0|2:0,2:0:0:0:
293,239,110545,1,2,2:0:0:0:
208,217,110724,5,2,2:0:0:0:
228,303,110902,1,2,2:0:0:0:
171,364,111081,1,2,2:0:0:0:
171,364,111438,6,0,P|113:347|60:336,1,112.5,2|2,2:0|2:0,2:0:0:0:
138,184,112866,2,0,P|82:172|29:156,1,112.5,2|2,2:0|2:0,2:0:0:0:
250,32,114295,2,0,P|194:20|141:4,1,112.5,2|2,2:0|2:0,2:0:0:0:
137,10,114920,1,2,2:0:0:0:
132,15,115009,6,0,P|130:87|183:110,1,130,2|8,2:0|2:0,2:0:0:0:
254,41,115545,1,6,2:3:0:0:
332,87,115724,6,0,P|321:130|313:165,1,65,2|10,2:0|2:0,2:0:0:0:
423,174,116081,2,0,P|434:217|442:252,1,65,6|10,2:3|2:0,2:0:0:0:
435,242,116349,1,8,2:0:0:0:
431,247,116438,5,10,2:0:0:0:
509,158,116616,1,6,2:3:0:0:
416,82,116795,1,6,2:3:0:0:
502,348,117152,6,0,P|442:342|390:385,1,130,12|2,2:1|2:0,2:0:0:0:
210,299,117688,1,8,2:0:0:0:
210,299,117866,2,0,P|221:329|226:362,1,65,2|8,2:0|2:1,2:0:0:0:
307,339,118224,2,0,P|302:306|291:276,1,65,10|8,2:1|2:3,2:0:0:0:
130,170,118581,6,0,P|178:211|241:205,1,130,8|8,2:1|2:1,2:0:0:0:
55,343,119295,2,0,P|8:360|-20:383,2,65,8|8|2,2:0|2:3|2:0,2:0:0:0:
128,376,119831,1,10,2:3:0:0:
29,258,120009,6,0,P|15:216|10:123,1,130,10|10,2:1|2:1,2:0:0:0:
107,0,120545,1,10,2:0:0:0:
107,0,120902,2,0,P|63:42|-6:27,1,130,10|10,2:1|2:1,2:0:0:0:
185,63,121438,6,0,P|243:80|264:147,1,130,8|10,2:1|2:1,2:0:0:0:
77,283,122152,5,10,2:0:0:0:
40,196,122331,1,10,2:1:0:0:
113,136,122509,2,0,L|174:151,1,56.2500000000001,2|8,2:0|2:3,2:0:0:0:
182,150,122866,6,0,P|198:191|162:265,1,130,8|10,2:1|2:1,2:0:0:0:
339,364,123402,1,8,2:0:0:0:
339,364,123581,2,0,P|307:369|278:384,1,65,2|8,2:0|2:1,2:0:0:0:
313,281,123938,2,0,P|281:286|252:301,1,65,10|8,2:1|2:3,2:0:0:0:
350,192,124295,6,0,P|398:232|402:295,1,130,8|8,2:1|2:1,2:0:0:0:
182,102,125009,1,8,2:0:0:0:
182,102,125188,2,0,P|192:71|197:39,1,65,8|2,2:1|2:0,2:0:0:0:
295,30,125545,5,10,2:3:0:0:
295,30,125634,1,8,2:3:0:0:
295,30,125724,2,0,P|271:99|259:171,1,130,10|10,2:1|2:1,2:0:0:0:
389,56,126259,1,10,2:0:0:0:
389,56,126616,2,0,P|376:119|355:181,1,130,10|10,2:1|2:1,2:0:0:0:
205,277,127152,5,8,2:1:0:0:
176,186,127331,1,8,2:0:0:0:
261,155,127509,1,10,2:1:0:0:
291,247,127688,1,8,2:0:0:0:
420,347,127866,5,10,2:0:0:0:
418,354,127956,1,2,2:0:0:0:
416,362,128045,1,2,2:0:0:0:
414,370,128134,1,6,2:3:0:0:
413,378,128224,1,2,2:0:0:0:
330,335,128402,1,6,2:3:0:0:
491,245,128581,6,0,P|493:200|478:123,1,97.5,12|0,2:1|2:0,2:0:0:0:
479,141,128938,2,0,P|434:148|387:151,1,65,10|0,2:0|2:0,2:0:0:0:
257,32,129295,5,10,2:1:0:0:
276,111,129474,1,8,2:1:0:0:
355,92,129652,1,2,2:0:0:0:
336,13,129831,1,8,2:0:0:0:
319,177,130009,6,0,P|310:229|307:262,1,65,2|8,2:0|2:1,2:0:0:0:
118,60,130366,1,10,2:0:0:0:
195,86,130545,1,0,2:0:0:0:
197,92,130634,1,8,2:0:0:0:
199,98,130724,1,10,2:1:0:0:
257,32,130902,1,8,2:1:0:0:
147,214,131081,2,0,P|138:162|135:129,1,65,10|0,2:0|2:0,2:0:0:0:
131,145,131349,1,0,2:0:0:0:
126,140,131438,6,0,P|63:133|4:202,1,130,10|10,2:1|2:0,2:0:0:0:
4,76,131974,1,2,2:0:0:0:
5,69,132063,1,8,2:0:0:0:
6,62,132152,1,8,2:1:0:0:
64,233,132331,6,0,P|56:282|47:316,1,65,10|2,2:1|2:0,2:0:0:0:
213,150,132688,1,8,2:0:0:0:
262,210,132866,2,0,P|255:241|250:273,1,65,2|8,2:3|2:1,2:0:0:0:
83,364,133224,2,0,P|126:351|160:345,1,65,10|0,2:0|2:0,2:0:0:0:
149,341,133491,1,8,2:0:0:0:
152,335,133581,5,10,2:0:0:0:
255,279,133759,1,6,2:3:0:0:
348,352,133938,2,0,P|357:305|363:286,1,56.2500000000001,6|0,2:3|2:0,2:0:0:0:
366,289,134295,6,0,P|409:255|389:181,1,130,12|10,2:1|2:1,2:0:0:0:
259,59,134831,1,8,2:0:0:0:
343,27,135009,2,0,P|336:66|332:95,1,65,2|8,2:0|2:1,2:0:0:0:
394,179,135366,2,0,P|355:172|326:168,1,65,2|8,2:0|2:1,2:0:0:0:
146,256,135724,6,0,P|209:239|300:226,2,130,10|10|10,2:1|2:1|2:0,2:0:0:0:
80,212,136616,1,8,2:1:0:0:
143,146,136795,1,2,2:3:0:0:
104,52,136974,2,0,L|97:25,2,21.6666666666667,8|8|8,2:3|2:3|2:3,2:0:0:0:
108,60,137152,6,0,P|73:68|16:82,1,65,10|0,2:1|2:0,2:0:0:0:
12,150,137509,1,8,2:1:0:0:
150,251,137688,2,0,P|135:302|133:352,1,97.5,10|0,2:0|2:0,2:0:0:0:
136,353,138045,2,0,P|189:361|239:281,1,130,10|10,2:1|2:1,2:0:0:0:
79,214,138581,5,10,2:1:0:0:
195,140,138759,1,10,2:0:0:0:
288,198,138938,1,10,2:1:0:0:
352,140,139116,1,2,2:0:0:0:
361,150,139295,6,0,P|330:209|428:303,1,195,10|4,2:0|2:3,2:0:0:0:
404,298,139920,1,4,2:3:0:0:
409,294,140009,6,0,L|414:261,5,30,14|2|2|2|2|2,2:1|2:0|2:0|2:0|2:0|2:0,2:0:0:0:
413,264,141974,1,8,2:1:0:0:
339,334,142152,5,14,2:0:0:0:
209,224,142331,1,8,2:1:0:0:
56,266,142509,2,0,P|66:308|72:332,1,56.2500000000001,4|0,2:3|2:0,2:0:0:0:
77,327,142866,6,0,P|112:316|174:364,1,112.5,14|0,2:1|2:0,2:0:0:0:
193,369,143223,2,0,P|229:365|252:337,1,75,10|0,2:1|2:0,2:0:0:0:
417,268,143580,2,0,P|380:264|357:236,1,75,10|0,2:0|2:0,2:0:0:0:
190,178,143937,1,2,2:0:0:0:
247,102,144116,5,10,2:3:0:0:
254,107,144205,1,8,2:3:0:0:
260,113,144294,2,0,P|271:148|279:185,1,75,10|8,2:1|2:3,2:0:0:0:
116,237,144651,2,0,P|104:201|96:164,1,75,10|0,2:1|2:0,2:0:0:0:
192,40,145008,2,0,P|259:70|332:59,1,150,10|2,2:0|2:0,2:0:0:0:
493,46,145544,5,8,2:3:0:0:
494,29,145633,1,8,2:3:0:0:
478,21,145723,2,0,P|434:51|443:146,1,150,10|0,2:1|2:0,2:0:0:0:
489,223,146437,6,0,P|472:276|462:331,1,112.5,10|0,2:0|2:0,2:0:0:0:
453,347,146794,2,0,P|405:348|375:377,1,75,2|8,2:0|2:3,2:0:0:0:
376,360,147062,1,8,2:3:0:0:
366,357,147151,1,10,2:1:0:0:
309,284,147330,1,10,2:3:0:0:
363,211,147508,1,10,2:1:0:0:
363,211,147866,2,0,P|296:245|224:265,1,150,14|2,2:0|2:0,2:0:0:0:
104,95,148401,5,8,2:3:0:0:
113,87,148491,1,8,2:3:0:0:
124,89,148580,2,0,P|148:116|150:153,1,75,14|0,2:1|2:0,2:0:0:0:
55,193,148937,2,0,P|30:165|28:128,1,75,10|0,2:1|2:0,2:0:0:0:
238,169,149294,2,0,P|167:189|123:248,1,150,10|2,2:0|2:0,2:0:0:0:
280,361,149830,5,8,2:3:0:0:
299,354,149919,1,8,2:3:0:0:
296,333,150008,1,10,2:1:0:0:
225,265,150187,1,8,2:3:0:0:
163,331,150366,1,10,2:1:0:0:
163,331,150723,5,10,2:0:0:0:
49,370,150901,1,2,2:0:0:0:
124,217,151080,1,0,2:0:0:0:
10,256,151258,5,10,2:3:0:0:
15,263,151348,1,8,2:3:0:0:
20,270,151437,1,10,2:1:0:0:
92,301,151616,1,10,2:3:0:0:
192,178,151794,1,10,2:1:0:0:
120,209,151973,1,10,2:1:0:0:
230,303,152151,2,0,P|250:258|245:215,2,75,14|2|10,2:0|2:0|2:1,2:0:0:0:
391,364,152687,5,8,2:0:0:0:
388,380,152776,1,8,2:3:0:0:
376,383,152866,2,0,P|338:380|305:363,1,75,10|10,2:1|2:1,2:0:0:0:
348,153,153223,2,0,P|391:192|384:249,1,112.5,14|0,2:0|2:0,2:0:0:0:
380,259,153580,6,0,P|349:254|326:229,1,50,10|4,2:0|2:3,2:0:0:0:
197,110,153818,5,4,2:3:0:0:
184,62,153937,5,4,2:3:0:0:
213,26,154056,5,4,2:3:0:0:
239,20,154175,5,4,2:3:0:0:
259,27,154294,6,0,P|280:51|268:130,1,100,14|10,2:1|2:1,2:0:0:0:
278,116,155008,6,0,P|176:97|69:85,1,200,14|2,2:0|2:0,2:0:0:0:
80,85,155544,1,8,2:3:0:0:
0,203,155723,6,0,P|9:245|15:282,1,75,10|8,2:1|2:3,2:0:0:0:
167,205,156080,2,0,P|158:163|152:126,1,75,10|0,2:1|2:0,2:0:0:0:
85,321,156437,6,0,P|155:324|190:380,1,135,10|0,2:0|2:0,2:0:0:0:
188,382,156794,2,0,P|231:367|251:303,1,89.9999999999999,2|8,2:0|2:3,2:0:0:0:
326,326,157062,1,8,2:3:0:0:
333,330,157151,6,0,P|339:284|292:237,1,89.9999999999999,14|0,2:1|2:0,2:0:0:0:
441,383,157508,2,0,P|481:360|490:294,1,89.9999999999999,10|0,2:1|2:0,2:0:0:0:
375,155,157866,5,10,2:0:0:0:
366,154,157955,1,0,2:0:0:0:
357,154,158044,1,0,2:0:0:0:
398,47,158223,2,0,P|446:52|516:59,1,89.9999999999999,2|8,2:0|2:3,2:0:0:0:
279,172,158580,6,0,P|228:118|264:45,1,135,8|0,2:1|2:0,2:0:0:0:
249,58,158937,2,0,P|201:63|131:70,1,89.9999999999999,10|0,2:1|2:0,2:0:0:0:
16,21,159294,5,10,2:0:0:0:
188,143,159473,1,2,2:0:0:0:
0,222,159651,1,10,2:1:0:0:
50,150,159830,1,8,2:3:0:0:
201,249,160008,6,0,P|146:232|62:226,1,112.5,12|0,2:1|2:0,2:0:0:0:
85,231,160366,2,0,P|76:272|107:307,1,75,10|0,2:1|2:0,2:0:0:0:
257,359,160723,5,10,2:0:0:0:
274,283,160901,1,2,2:0:0:0:
331,335,161080,1,2,2:0:0:0:
406,242,161258,5,8,2:3:0:0:
409,252,161348,1,8,2:3:0:0:
412,262,161437,2,0,P|370:250|325:239,1,75,10|8,2:1|2:3,2:0:0:0:
504,124,161794,2,0,P|431:140|369:154,1,112.5,10|0,2:1|2:0,2:0:0:0:
386,143,162151,1,10,2:0:0:0:
301,41,162330,1,8,2:3:0:0:
307,36,162419,1,8,2:3:0:0:
313,31,162508,2,0,P|355:43|400:54,1,75,10|0,2:0|2:0,2:0:0:0:
266,213,162866,5,14,2:0:0:0:
236,123,163044,1,10,2:1:0:0:
271,206,163223,5,10,2:0:0:0:
241,116,163401,1,10,2:1:0:0:
183,291,163580,5,10,2:1:0:0:
104,207,163758,1,8,2:0:0:0:
246,109,163937,1,6,2:3:0:0:
120,33,164116,1,8,2:1:0:0:
7,145,164294,5,14,2:0:0:0:
190,183,164473,1,8,2:0:0:0:
185,198,164562,1,8,2:0:0:0:
180,213,164651,1,10,2:0:0:0:
138,368,164830,1,4,2:3:0:0:
96,292,165008,5,6,2:3:0:0:
183,291,165187,1,4,2:3:0:0:
236,351,165366,2,0,P|263:346|300:339,1,56.2500000000001,6|0,2:3|2:0,2:0:0:0:
298,332,165723,6,0,P|295:308|291:283,1,50,12|0,2:1|2:0,2:0:0:0:
374,266,166080,2,0,P|376:290|380:315,1,50,2|0,2:0|2:0,2:0:0:0:
263,202,166437,2,0,P|312:202|357:181,1,100,10|2,2:0|2:0,2:0:0:0:
498,112,166973,5,10,2:1:0:0:
504,121,167062,1,0,2:0:0:0:
502,131,167151,2,0,P|452:131|407:110,1,100,8|2,2:1|2:0,2:0:0:0:
283,0,167866,2,0,P|308:42|312:92,1,100,10|2,2:0|2:0,2:0:0:0:
198,219,168401,1,8,2:1:0:0:
292,218,168580,6,0,P|279:196|277:171,1,50,10|8,2:1|2:3,2:0:0:0:
152,147,168937,2,0,P|173:134|198:132,1,50,2|0,2:0|2:0,2:0:0:0:
223,7,169294,2,0,P|235:28|237:53,1,50,10|0,2:0|2:0,2:0:0:0:
316,92,169651,1,2,2:0:0:0:
149,49,169830,5,8,2:1:0:0:
140,46,169919,1,0,2:0:0:0:
131,43,170008,2,0,P|108:54|83:60,1,50,8|8,2:1|2:3,2:0:0:0:
21,130,170366,2,0,P|45:135|68:146,1,50,10|0,2:1|2:0,2:0:0:0:
102,312,170723,2,0,P|109:262|122:214,1,100,10|2,2:0|2:0,2:0:0:0:
182,141,171258,5,8,2:3:0:0:
182,141,171348,1,8,2:3:0:0:
182,141,171437,1,8,2:1:0:0:
384,89,171794,6,0,L|432:101,1,50,2|8,2:0|2:1,2:0:0:0:
294,149,172151,6,0,P|267:112|274:67,1,93.75,10|0,2:0|2:0,2:0:0:0:
287,59,172508,6,0,P|300:98|264:143,1,75,10|8,2:0|2:0,2:0:0:0:
171,264,172866,5,8,2:1:0:0:
285,241,173044,1,4,2:3:0:0:
362,345,173223,1,6,2:3:0:0:
362,345,173580,2,0,P|325:355|290:368,1,75,6|4,2:3|2:3,2:0:0:0:
127,165,173937,6,0,P|296:208|462:263,1,350,14|2,2:1|2:0,2:0:0:0:
294,384,177151,6,0,B|323:336|361:334|364:375|444:366|479:283|422:210|345:250,1,300,0|0,2:0|2:0,2:0:0:0:
344,250,178580,2,0,B|312:168|222:185|192:270|244:329|275:302|303:328|292:384,1,300,0|0,2:0|2:0,2:0:0:0:
292,382,180008,6,0,B|315:340|349:338|354:374|425:364|454:288|401:224|338:259,1,262.5,2|0,2:0|2:0,2:0:0:0:
339,258,181437,6,0,B|315:190|234:201|205:277|250:332|278:308|302:332|292:380,1,262.5,0|0,2:0|2:0,2:0:0:0:
292,378,182151,6,0,B|315:336|349:334|354:370|425:360|454:284|401:220|338:255,1,262.5,2|0,2:0|2:0,2:0:0:0:
339,254,182865,6,0,B|319:196|246:206|220:274|261:322|286:301|307:323|299:355,1,225,0|0,2:0|2:0,2:0:0:0:
299,354,184294,2,0,B|314:323|344:321|349:354|411:344|437:277|390:221|337:251,1,225,0|0,2:0|2:0,2:0:0:0:
336,251,185723,6,0,B|316:193|243:203|217:271|258:319|283:298|304:320|296:352,1,225,2|0,2:0|2:0,2:0:0:0:
296,351,186080,2,0,B|312:321|342:319|346:352|409:343|435:275|388:219|335:249,1,225,2|0,2:0|2:0,2:0:0:0:
334,249,186437,6,0,B|310:181|229:192|200:268|245:323|273:299|297:323|287:371,1,262.499999999999,2|0,2:0|2:0,2:0:0:0:
287,369,186794,2,0,B|309:327|343:325|348:361|419:351|448:275|395:212|332:247,1,262.499999999999,2|0,2:0|2:0,2:0:0:0:
332,246,187151,6,0,B|312:188|239:198|213:266|254:314|279:293|300:315|292:347,1,225,0|0,2:0|2:0,2:0:0:0:
292,346,187508,2,0,B|308:316|338:314|342:347|405:338|431:270|384:214|331:244,1,225,2|0,2:0|2:0,2:0:0:0:
330,244,187866,6,0,B|306:176|225:187|196:263|241:318|269:294|293:318|283:366,1,262.5,2|0,2:0|2:0,2:0:0:0:
283,364,188223,2,0,B|305:322|339:320|344:356|415:346|444:270|391:207|328:242,1,262.5,2|0,2:0|2:0,2:0:0:0:
308,231,188580,5,0,2:0:0:0:
243,161,188937,1,2,2:0:0:0:
143,308,189294,1,2,2:0:0:0:
143,308,190008,5,0,2:0:0:0:
79,246,190366,1,2,2:0:0:0:
200,116,190723,1,2,2:0:0:0:
200,116,191437,5,2,2:0:0:0:
132,178,191794,1,2,2:0:0:0:
160,9,192151,1,2,2:0:0:0:
160,9,192865,6,0,P|136:14|114:25,1,50,0|2,2:0|2:0,2:0:0:0:
37,1,193580,2,0,P|23:22|15:45,1,50,2|2,2:0|2:0,2:0:0:0:
67,204,194294,5,0,2:0:0:0:
139,162,194651,1,2,2:0:0:0:
84,330,195008,1,2,2:0:0:0:
283,199,195723,5,0,2:0:0:0:
277,286,196080,1,2,2:0:0:0:
143,142,196437,2,0,B|154:128|153:101|153:101|174:132|149:161,1,100,2|0,2:0|2:0,2:0:0:0:
202,241,197508,5,2,2:0:0:0:
143,295,197865,2,0,L|142:301,2,5,2|2|2,2:0|2:0|2:0,2:0:0:0:
143,295,201794,5,2,2:0:0:0:
201,245,202151,2,0,L|202:241,2,5,2|2|2,2:0|2:0|2:0,2:0:0:0:
198,251,202865,6,0,P|166:209|175:156,1,100,12|0,2:1|2:0,2:0:0:0:
357,26,203222,2,0,P|333:130|320:214,1,150,10|0,2:1|2:0,2:0:0:0:
329,179,203579,5,10,2:0:0:0:
436,136,203757,1,10,2:0:0:0:
490,292,203936,1,2,2:0:0:0:
480,289,204025,1,2,2:0:0:0:
470,287,204115,1,10,2:3:0:0:
281,242,204293,6,0,P|221:256|164:275,1,100,8|8,2:1|2:3,2:0:0:0:
62,104,204650,2,0,P|137:86|208:62,1,150,10|0,2:1|2:0,2:0:0:0:
214,56,205007,2,0,P|245:94|227:155,1,100,10|8,2:0|2:0,2:0:0:0:
91,340,205365,2,0,P|60:302|78:241,1,100,2|8,2:0|2:3,2:0:0:0:
76,251,205632,1,8,2:3:0:0:
85,248,205722,6,0,P|145:262|202:281,1,100,10|0,2:1|2:0,2:0:0:0:
378,334,206079,1,10,2:1:0:0:
354,255,206257,1,2,2:0:0:0:
223,342,206436,5,10,2:0:0:0:
437,273,206615,1,10,2:0:0:0:
327,61,206793,2,0,P|314:132|308:184,1,100,2|8,2:0|2:3,2:0:0:0:
318,165,207061,1,8,2:3:0:0:
325,171,207150,6,0,P|376:173|417:131,1,100,8|8,2:1|2:3,2:0:0:0:
265,268,207507,2,0,P|191:262|138:325,1,150,10|0,2:1|2:0,2:0:0:0:
143,324,207865,5,10,2:0:0:0:
110,188,208043,1,10,2:0:0:0:
77,52,208222,2,0,L|22:39,1,50,10|8,2:1|2:0,2:0:0:0:
25,47,208490,1,8,2:0:0:0:
22,54,208579,6,0,P|104:22|162:106,1,200,12|10,2:1|2:1,2:0:0:0:
114,182,209115,1,2,2:0:0:0:
352,81,209293,5,10,2:0:0:0:
178,14,209472,1,10,2:0:0:0:
194,205,209650,1,2,2:0:0:0:
203,201,209740,1,2,2:0:0:0:
212,198,209829,1,10,2:3:0:0:
359,87,210007,6,0,P|350:134|337:192,1,100,8|8,2:1|2:3,2:0:0:0:
466,384,210365,2,0,P|479:313|499:226,1,150,10|0,2:1|2:0,2:0:0:0:
504,231,210722,5,10,2:0:0:0:
352,81,210900,1,10,2:0:0:0:
238,277,211079,2,0,P|244:306|246:333,1,56.2500000000001,2|8,2:0|2:3,2:0:0:0:
246,342,211436,6,0,P|204:306|135:313,1,100,10|8,2:1|2:3,2:0:0:0:
72,150,211793,2,0,P|21:171|-2:237,1,100,2|8,2:0|2:1,2:0:0:0:
90,356,212150,5,10,2:0:0:0:
177,224,212329,1,10,2:1:0:0:
264,92,212507,1,14,2:0:0:0:
288,176,212686,1,8,2:3:0:0:
278,177,212775,1,8,2:3:0:0:
267,179,212865,5,8,2:1:0:0:
83,73,213043,1,8,2:1:0:0:
335,35,213222,5,10,2:0:0:0:
147,153,213400,1,8,2:1:0:0:
373,316,213579,5,10,2:0:0:0:
373,316,213817,5,4,2:3:0:0:
326,289,213936,5,6,2:3:0:0:
337,237,214055,5,4,2:3:0:0:
390,231,214174,5,4,2:3:0:0:
412,280,214293,6,0,P|340:248|338:226,1,100,12|0,2:1|2:0,2:0:0:0:
210,39,214650,2,0,P|237:108|247:182,1,150,10|0,2:1|2:0,2:0:0:0:
243,199,215007,1,10,2:0:0:0:
125,338,215186,1,10,2:0:0:0:
219,369,215365,1,2,2:0:0:0:
128,244,215543,1,8,2:3:0:0:
118,238,215632,1,8,2:3:0:0:
109,241,215722,6,0,P|58:267|19:330,1,100,8|8,2:1|2:3,2:0:0:0:
161,147,216079,2,0,P|177:79|107:29,1,150,10|0,2:1|2:0,2:0:0:0:
108,28,216436,2,0,P|86:72|84:122,1,100,10|8,2:0|2:0,2:0:0:0:
227,248,216793,1,2,2:0:0:0:
138,367,216972,5,8,2:3:0:0:
136,357,217061,1,8,2:3:0:0:
133,346,217150,2,0,P|205:335|264:378,1,150,10|0,2:1|2:0,2:0:0:0:
277,380,217507,1,10,2:1:0:0:
328,298,217686,1,2,2:0:0:0:
512,246,217865,5,10,2:0:0:0:
359,206,218043,1,10,2:0:0:0:
407,355,218222,1,2,2:0:0:0:
429,276,218400,5,8,2:3:0:0:
429,276,218579,1,8,2:1:0:0:
328,298,218757,5,8,2:3:0:0:
331,120,218936,2,0,B|366:158|366:158|354:231,1,100,14|2,2:1|2:0,2:0:0:0:
262,378,219293,2,0,B|227:340|227:340|239:267,1,100,14|10,2:0|2:0,2:0:0:0:
206,113,219650,1,10,2:1:0:0:
277,188,219829,5,8,2:0:0:0:
272,199,219918,1,8,2:0:0:0:
268,210,220007,2,0,P|194:195|119:190,1,150,12|0,2:1|2:0,2:0:0:0:
106,181,220365,1,10,2:1:0:0:
65,92,220543,1,2,2:0:0:0:
11,194,220722,5,10,2:0:0:0:
17,11,220900,1,10,2:0:0:0:
174,108,221079,1,2,2:0:0:0:
240,39,221257,5,8,2:3:0:0:
237,29,221347,1,8,2:3:0:0:
236,17,221436,2,0,P|181:17|126:0,1,100,8|8,2:1|2:3,2:0:0:0:
184,216,221793,2,0,P|147:208|109:209,1,75,10|0,2:1|2:0,2:0:0:0:
96,216,222150,1,10,2:0:0:0:
227,324,222329,1,10,2:1:0:0:
348,204,222507,1,2,2:0:0:0:
217,96,222686,5,8,2:3:0:0:
213,107,222775,1,8,2:3:0:0:
209,119,222865,1,14,2:0:0:0:
252,223,223043,1,8,2:1:0:0:
367,112,223222,2,0,P|416:102|464:90,1,100,14|8,2:0|2:1,2:0:0:0:
309,314,223579,5,14,2:0:0:0:
462,194,223757,1,10,2:1:0:0:
431,384,223936,2,0,P|421:334|409:286,1,100,14|0,2:0|2:0,2:0:0:0:
294,40,224293,5,12,2:0:0:0:
294,40,224650,1,10,2:0:0:0:
227,186,224829,1,8,2:0:0:0:
163,32,225007,1,10,2:0:0:0:
333,182,225186,1,8,2:0:0:0:
165,327,225365,1,10,2:0:0:0:
165,327,225722,6,0,P|159:282|153:249,1,75.0000000000002,14|10,2:1|2:1,2:0:0:0:
153,252,226436,6,0,P|240:269|350:329,1,200,14|2,2:0|2:0,2:0:0:0:
500,263,226972,1,8,2:3:0:0:
506,255,227061,1,8,2:3:0:0:
512,247,227150,2,0,P|492:214|459:197,3,50,10|0|10|0,2:1|2:0|2:3|2:0,2:0:0:0:
415,249,227507,2,0,P|376:245|343:261,3,50,10|0|2|0,2:1|2:0|2:0|2:0,2:0:0:0:
507,131,227865,2,0,P|510:92|494:59,3,50,10|0|2|0,2:0|2:0|2:0|2:0,2:0:0:0:
307,194,228222,2,0,P|303:169|308:145,1,50,10|0,2:1|2:0,2:0:0:0:
326,12,228400,5,10,2:3:0:0:
331,20,228490,1,8,2:3:0:0:
336,28,228579,2,0,P|257:86|158:72,2,200,10|10|10,2:1|2:1|2:0,2:0:0:0:
336,28,229531,6,0,P|309:9|257:14,1,66.6666666666667,2|2,2:0|2:3,2:0:0:0:
160,67,229769,6,0,P|133:86|81:81,1,66.6666666666667,2|0,2:0|2:0,2:0:0:0:
12,142,230007,6,0,P|62:186|42:249,1,100,10|8,2:1|2:0,2:0:0:0:
62,215,230365,6,0,L|165:234,1,66.6666666666667,10|0,2:1|2:0,2:0:0:0:
195,285,230603,5,2,2:0:0:0:
183,307,230722,6,0,L|80:326,1,100,8|10,2:0|2:1,2:0:0:0:
12,299,231079,1,2,2:3:0:0:
259,361,231257,1,8,2:3:0:0:
268,357,231347,1,8,2:3:0:0:
277,353,231436,6,0,P|286:297|300:250,1,100,14|0,2:1|2:0,2:0:0:0:
429,353,231793,1,10,2:1:0:0:
481,290,231972,2,0,P|467:241|459:192,1,100,2|8,2:0|2:0,2:0:0:0:
361,35,232329,5,2,2:0:0:0:
439,75,232507,1,2,2:3:0:0:
365,132,232686,1,10,2:3:0:0:
355,129,232775,1,8,2:3:0:0:
345,126,232865,2,0,P|291:134|217:156,1,100,8|8,2:1|2:3,2:0:0:0:
70,37,233222,5,2,2:0:0:0:
137,85,233400,1,10,2:1:0:0:
61,122,233579,5,10,2:0:0:0:
223,60,233757,1,8,2:1:0:0:
198,259,233936,2,0,P|170:251|140:247,1,50,14|0,2:0|2:0,2:0:0:0:
41,231,234115,5,8,2:3:0:0:
31,226,234204,1,8,2:3:0:0:
23,222,234293,2,0,P|20:277|60:307,1,100,10|8,2:1|2:3,2:0:0:0:
83,379,234561,1,8,2:3:0:0:
95,377,234650,2,0,P|137:351|146:321,1,50,10|8,2:1|2:3,2:0:0:0:
257,367,234829,1,8,2:3:0:0:
258,357,234918,1,8,2:0:0:0:
245,329,235007,5,10,2:0:0:0:
284,286,235097,1,8,2:0:0:0:
325,285,235186,1,6,2:3:0:0:
347,296,235275,1,4,2:3:0:0:
354,307,235365,1,6,2:3:0:0:
356,315,235454,1,4,2:3:0:0:
356,339,235543,5,10,2:0:0:0:
375,343,235632,1,8,2:0:0:0:
394,347,235722,1,10,2:0:0:0:
416,231,235900,5,8,2:3:0:0:
437,225,235990,1,8,2:0:0:0:
460,221,236079,1,10,2:0:0:0:
340,141,236257,5,8,2:3:0:0:
360,125,236347,1,8,2:0:0:0:
382,110,236436,1,10,2:0:0:0:
387,55,236525,5,8,2:0:0:0:
359,15,236615,1,4,2:3:0:0:
311,5,236704,1,4,2:3:0:0:
272,24,236793,1,6,2:3:0:0:
253,58,236882,1,4,2:3:0:0:
258,78,236972,1,4,2:3:0:0:
265,90,237061,1,4,2:3:0:0:
274,95,237150,6,0,P|249:191|245:231,1,100,14|2,2:1|2:0,2:0:0:0:
53,140,237507,2,0,P|67:92|77:43,1,100,10|2,2:1|2:0,2:0:0:0:
179,275,237865,2,0,B|136:224|156:135|156:135|133:226|55:245,1,300,14|8,2:0|2:1,2:0:0:0:
51,241,238489,1,8,2:1:0:0:
44,236,238579,6,0,P|24:281|14:330,2,100,10|8|8,2:1|2:0|2:1,2:0:0:0:
104,325,239114,1,2,2:0:0:0:
250,192,239293,2,0,P|356:177|464:343,1,300,14|8,2:0|2:1,2:0:0:0:
464,326,239918,1,8,2:1:0:0:
457,333,240007,6,0,P|408:345|361:363,1,100,14|8,2:1|2:0,2:0:0:0:
243,187,240364,2,0,P|229:235|221:284,1,100,2|10,2:3|2:1,2:0:0:0:
325,269,240722,1,14,2:0:0:0:
325,269,240900,1,10,2:1:0:0:
148,164,241079,5,10,2:0:0:0:
317,93,241257,1,10,2:0:0:0:
221,284,241436,2,0,P|229:234|243:186,1,100,10|8,2:1|2:0,2:0:0:0:
188,0,241793,1,14,2:1:0:0:
188,0,242150,6,0,P|209:77|221:196,1,187.5,14|8,2:0|2:0,2:0:0:0:
210,192,242507,6,0,P|225:216|260:228,1,50,10|0,2:0|2:0,2:0:0:0:
325,369,242686,2,0,P|354:367|382:343,1,50,8|0,2:0|2:0,2:0:0:0:
511,231,242864,6,0,P|413:251|317:281,1,200,14|8,2:1|2:1,2:0:0:0:
137,151,243400,1,2,2:0:0:0:
193,384,243579,6,0,P|222:340|200:278,1,100,14|0,2:0|2:0,2:0:0:0:
243,226,243847,6,0,P|190:222|147:272,1,100,2|0,2:0|2:0,2:0:0:0:
68,347,244114,5,10,2:0:0:0:
80,352,244204,1,8,2:0:0:0:
89,345,244293,2,0,L|62:219,1,100,10|8,2:1|2:0,2:0:0:0:
137,36,244650,1,10,2:1:0:0:
0,183,244829,1,2,2:0:0:0:
198,147,245007,2,0,P|104:110|7:88,1,200,12|8,2:0|2:0,2:0:0:0:
68,247,245543,5,8,2:0:0:0:
81,240,245632,1,8,2:0:0:0:
84,226,245722,1,14,2:1:0:0:
5,384,245989,5,8,2:0:0:0:
1,373,246079,2,0,P|48:339|101:350,1,100,10|4,2:0|2:3,2:0:0:0:
165,384,246436,1,10,2:1:0:0:
157,179,246614,6,0,P|209:202|226:254,1,100,8|10,2:0|2:1,2:0:0:0:
256,318,246912,5,2,2:0:0:0:
303,332,247031,5,2,2:0:0:0:
343,307,247150,6,0,P|352:230|324:163,1,133.333333333333,10|2,2:0|2:0,2:0:0:0:
301,155,247507,5,10,2:0:0:0:
439,190,247686,2,0,P|412:129|363:91,1,100,4|2,2:3|2:0,2:0:0:0:
224,87,248043,5,6,2:3:0:0:
426,26,248222,1,6,2:3:0:0:
390,14,248311,1,0,2:0:0:0:
354,19,248400,1,0,2:0:0:0:
324,42,248490,1,0,2:0:0:0:
308,75,248579,6,0,P|296:122|294:168,1,80,2|2,2:0|2:0,2:0:0:0:
152,50,249293,2,0,P|149:69|144:89,1,40,2|0,2:0|2:0,2:0:0:0:
186,155,249650,1,2,2:0:0:0:
186,155,250007,6,0,P|131:165|80:175,1,100,2|0,2:0|2:0,2:0:0:0:
53,351,251079,5,2,2:0:0:0:
53,351,251257,1,2,2:0:0:0:
34,258,251436,2,0,P|72:263|114:270,1,80,2|2,2:0|2:0,2:0:0:0:
126,378,251972,2,0,P|164:373|206:366,1,80,2|2,2:0|2:0,2:0:0:0:
232,164,252686,6,0,P|290:175|356:187,1,120,2|2,2:0|2:0,2:0:0:0:
454,263,253579,2,0,P|443:305|437:319,1,40,2|2,2:0|2:0,2:0:0:0:
490,380,253936,1,2,2:0:0:0:
490,380,254293,6,0,P|450:374|409:374,1,80,2|2,2:0|2:0,2:0:0:0:
427,187,255007,2,0,P|467:193|508:193,1,80,2|2,2:0|2:0,2:0:0:0:
350,321,255722,6,0,P|310:315|247:315,1,100,2|0,2:0|2:0,2:0:0:0:
374,129,256793,5,2,2:0:0:0:
374,129,256972,1,2,2:0:0:0:
442,90,257150,2,0,P|445:42|451:7,1,80,2|2,2:0|2:0,2:0:0:0:
321,0,257686,2,0,P|319:39|313:79,1,80,2|2,2:0|2:0,2:0:0:0:
244,187,258400,5,2,2:0:0:0:
244,187,258579,2,0,P|204:189|164:195,1,80,0|2,2:0|2:0,2:0:0:0:
57,93,259293,2,0,P|62:69|69:41,1,40,2|2,2:0|2:0,2:0:0:0:
9,6,259650,1,2,2:0:0:0:
89,166,260007,6,0,P|78:210|69:254,1,80,2|2,2:0|2:0,2:0:0:0:
128,377,260722,1,2,2:0:0:0:
0,283,261079,1,2,2:0:0:0:
157,222,261436,2,0,P|201:232|245:241,1,80,2|2,2:0|2:0,2:0:0:0:
347,380,262150,2,0,P|302:369|258:360,2,80,2|2|2,2:0|2:0|2:0,2:0:0:0:
498,270,263222,5,2,2:0:0:0:
498,270,263400,2,0,P|477:260|452:258,1,40,2|0,2:0|2:0,2:0:0:0:
463,138,263757,1,2,2:0:0:0:
463,138,263936,2,0,P|443:151|429:171,1,40,2|0,2:0|2:0,2:0:0:0:
379,275,264293,6,0,P|373:238|341:190,1,80,2|2,2:0|2:0,2:0:0:0:
387,54,265007,2,0,P|390:72|406:96,1,40,2|2,2:0|2:0,2:0:0:0:
463,138,265365,1,2,2:0:0:0:
293,267,265722,6,0,P|255:254|215:247,1,80,2|2,2:0|2:0,2:0:0:0:
80,145,266436,2,0,P|117:157|157:164,1,80,2|2,2:0|2:0,2:0:0:0:
274,38,267150,5,2,2:0:0:0:
161,78,267507,1,2,2:0:0:0:
252,157,267865,1,2,2:0:0:0:
80,369,268579,5,2,2:0:0:0:
157,341,268936,1,2,2:0:0:0:
95,287,269293,1,2,2:0:0:0:
91,296,269650,5,2,2:0:0:0:
