osu file format v14

[General]
AudioFilename: audio.mp3
AudioLeadIn: 0
PreviewTime: 26467
Countdown: 0
SampleSet: Soft
StackLeniency: 0.1
Mode: 0
LetterboxInBreaks: 0
WidescreenStoryboard: 0

[Editor]
DistanceSpacing: 0.5
BeatDivisor: 8
GridSize: 16
TimelineZoom: 1.6

[Metadata]
Title:Cat Loving
TitleUnicode:キャットラビング
Artist:Kotoha
ArtistUnicode:Kotoha
Creator:Kotoha
Version:nya~ (>w<)
Source:
Tags:blitzifyyy mocaotic bongo ayucchi japanese pop j-pop jpop cat rubbing 香椎モイミ Moimi Kashii hakoniwalily ハコニワリリィ honeyworks ハニーワークス ハニワ kamitsubaki studio 神椿スタジオ
BeatmapID:3711613
BeatmapSetID:1809604

[Difficulty]
HPDrainRate:6
CircleSize:5
OverallDifficulty:8.5
ApproachRate:8
SliderMultiplier:1.7
SliderTickRate:1

[Events]
//Background and Video events
0,0,"kotohacute.jpg",0,0
//Break Periods
2,79745,84888
//Storyboard Layer 0 (Background)
//Storyboard Layer 1 (Fail)
//Storyboard Layer 2 (Pass)
//Storyboard Layer 3 (Foreground)
//Storyboard Layer 4 (Overlay)
//Storyboard Sound Samples

[TimingPoints]
241,368.098159509202,4,2,1,60,1,0
3185,368.098159509202,4,2,1,55,1,0
14964,-100,4,2,1,65,0,0
25638,-83.3333333333333,4,2,1,65,0,0
26007,-71.4285714285714,4,2,1,65,0,0
26743,-71.4285714285714,4,2,1,75,0,1
27479,-62.5,4,2,1,75,0,1
42939,-62.5,4,2,1,75,0,0
44043,-62.5,4,2,1,30,0,0
44411,-62.5,4,2,1,45,0,0
45700,-142.857142857143,4,2,1,45,0,0
56191,-142.857142857143,4,2,1,55,0,0
66313,-100,4,2,1,55,0,0
67970,-100,4,2,1,65,0,0
78645,-83.3333333333333,4,2,1,65,0,0
79013,-71.4285714285714,4,2,1,65,0,0
85638,-71.4285714285714,4,2,1,55,0,0
87111,-71.4285714285714,4,2,1,60,0,0
88583,-71.4285714285714,4,2,1,65,0,0
90056,-71.4285714285714,4,2,1,50,0,0
91528,-142.857142857143,4,2,1,50,0,0
93000,368.098159509202,4,2,1,65,1,0
93000,-142.857142857143,4,2,1,65,0,0
95576,-333.333333333333,4,2,1,65,0,0
95944,-333.333333333333,4,2,1,75,0,1
99625,-62.5,4,2,1,75,0,1
109196,-62.5,4,2,1,50,0,1
110668,-55.5555555555556,4,2,1,70,0,0
110852,-62.5,4,2,1,70,0,0
111036,-71.4285714285714,4,2,1,70,0,0
111220,-83.3333333333333,4,2,1,70,0,0
111404,-100,4,2,1,70,0,0
111588,-125,4,2,1,70,0,0
112509,-90.9090909090909,4,2,1,70,0,0
112877,-30.3030303030303,4,2,1,70,0,0

[Colours]
Combo1 : 249,193,255
Combo2 : 139,245,254
Combo3 : 160,255,147

[HitObjects]
139,62,241,5,2,2:0:0:0:
103,136,425,1,0,2:0:0:0:
302,137,609,5,2,2:0:0:0:
266,63,793,1,0,2:0:0:0:
103,136,977,5,2,2:0:0:0:
139,62,1161,1,0,2:0:0:0:
266,63,1345,5,2,2:0:0:0:
302,137,1529,1,0,2:0:0:0:
159,237,1713,5,2,2:0:0:0:
212,187,1897,1,2,2:0:0:0:
220,189,1989,1,2,2:0:0:0:
228,191,2081,1,2,2:0:0:0:
103,136,2265,1,2,2:0:0:0:
236,193,2449,2,0,L|376:171,1,127.5,2|0,2:0|2:0,2:0:0:0:
379,162,2817,5,4,1:2:0:0:
366,144,2909,5,0,1:2:0:0:
380,112,3001,5,0,1:2:0:0:
355,72,3093,5,0,1:2:0:0:
376,37,3185,5,2,3:2:0:0:
376,37,3369,1,0,2:0:0:0:
283,64,3553,1,2,3:2:0:0:
283,64,3737,1,0,2:0:0:0:
198,22,3921,5,2,3:2:0:0:
297,148,4105,1,2,2:0:0:0:
158,182,4289,5,2,3:2:0:0:
192,111,4473,1,2,2:0:0:0:
312,224,4657,5,2,3:2:0:0:
312,224,4841,1,0,2:0:0:0:
214,246,5025,1,2,3:2:0:0:
214,246,5209,1,0,2:0:0:0:
281,316,5393,5,2,3:2:0:0:
383,203,5577,1,2,2:0:0:0:
448,315,5761,5,2,3:2:0:0:
359,290,5945,1,2,2:0:0:0:
223,370,6129,5,2,3:2:0:0:
223,370,6313,1,0,2:0:0:0:
133,300,6497,1,2,3:2:0:0:
67,326,6681,1,0,2:0:0:0:
93,172,6865,5,2,3:2:0:0:
133,300,7234,1,2,3:2:0:0:
180,245,7418,1,2,2:0:0:0:
26,192,7602,5,2,3:2:0:0:
160,152,7786,1,0,2:0:0:0:
16,69,7970,5,2,3:2:0:0:
81,95,8154,1,2,2:0:0:0:
199,26,8338,5,2,3:2:0:0:
160,152,8522,1,0,2:0:0:0:
199,26,8706,1,2,3:2:0:0:
207,28,8798,1,0,2:0:0:0:
215,30,8890,1,2,2:0:0:0:
72,25,9074,5,6,3:2:0:0:
72,25,9258,1,0,2:0:0:0:
23,139,9442,1,2,3:2:0:0:
23,139,9626,1,0,2:0:0:0:
144,216,9810,5,2,3:2:0:0:
81,95,9994,1,2,2:0:0:0:
39,259,10178,5,2,3:2:0:0:
75,188,10362,1,2,2:0:0:0:
210,248,10546,5,0,3:2:0:0:
210,248,10731,1,0,2:0:0:0:
303,185,10915,1,2,3:2:0:0:
303,185,11099,1,0,2:0:0:0:
401,266,11283,5,2,3:2:0:0:
474,141,11467,1,2,2:0:0:0:
502,283,11651,5,2,3:2:0:0:
464,218,11835,1,2,2:0:0:0:
485,67,12019,5,2,3:2:0:0:
485,67,12203,1,0,2:0:0:0:
398,157,12387,1,2,3:2:0:0:
336,108,12571,1,0,2:0:0:0:
442,7,12755,5,2,3:2:0:0:
398,157,13123,1,2,3:2:0:0:
336,108,13307,1,2,2:0:0:0:
224,194,13491,5,2,3:2:0:0:
164,40,13675,1,0,2:0:0:0:
267,132,13859,5,2,3:2:0:0:
293,52,14043,1,2,2:0:0:0:
112,92,14227,1,2,3:2:0:0:
112,92,14596,1,2,1:2:0:0:
99,121,14688,1,0,3:2:0:0:
115,156,14780,1,0,3:2:0:0:
87,192,14872,1,0,3:2:0:0:
115,230,14964,5,6,3:2:0:0:
241,242,15148,1,2,3:2:0:0:
115,230,15516,2,0,L|245:243,1,127.5,6|0,3:2|2:0,2:0:0:0:
255,259,15884,5,0,2:0:0:0:
225,328,16068,1,2,3:2:0:0:
225,328,16252,1,2,3:2:0:0:
384,273,16436,5,6,3:2:0:0:
302,170,16620,1,2,3:2:0:0:
384,273,16988,2,0,P|381:220|349:182,1,85,6|0,3:2|3:2,2:0:0:0:
302,170,17264,1,0,3:2:0:0:
302,170,17356,1,2,3:2:0:0:
455,171,17540,5,2,3:2:0:0:
315,248,17724,1,0,2:0:0:0:
170,168,17908,5,4,3:2:0:0:
185,294,18092,1,2,3:2:0:0:
170,168,18461,2,0,L|187:310,1,127.5,6|0,3:2|2:0,2:0:0:0:
175,314,18829,5,0,3:2:0:0:
108,275,19013,1,2,3:2:0:0:
108,275,19197,1,0,2:0:0:0:
22,362,19381,6,0,L|31:317,1,42.5,6|0,1:2|2:0,2:0:0:0:
108,201,19565,1,2,2:3:0:0:
30,320,19749,2,0,L|39:275,1,42.5,2|0,1:2|2:0,2:0:0:0:
118,134,19933,1,2,2:3:0:0:
38,278,20117,2,0,L|47:233,1,42.5,2|0,1:2|2:0,2:0:0:0:
128,67,20301,1,2,2:3:0:0:
46,236,20485,6,0,L|173:228,1,127.5,2|0,1:2|2:0,2:0:0:0:
188,241,20853,5,2,3:2:0:0:
188,241,21037,1,2,3:2:0:0:
215,133,21405,2,0,P|229:183|177:244,1,127.5,2|0,3:2|2:0,2:0:0:0:
173,227,21773,5,0,3:2:0:0:
238,293,21958,1,2,3:2:0:0:
238,293,22142,1,2,3:2:0:0:
352,205,22326,5,2,3:2:0:0:
352,205,22510,1,2,3:2:0:0:
317,336,22878,2,0,L|300:244,1,85,2|0,3:2|3:2,2:0:0:0:
352,205,23154,1,0,3:2:0:0:
352,205,23246,1,0,3:2:0:0:
444,304,23430,5,2,3:2:0:0:
280,183,23614,1,0,2:0:0:0:
441,85,23798,5,2,3:2:0:0:
441,85,23982,1,2,3:2:0:0:
426,211,24350,2,0,P|435:122|443:68,1,127.5,2|0,3:2|2:0,2:0:0:0:
428,66,24718,5,2,3:2:0:0:
324,112,24902,1,2,3:2:0:0:
324,112,25086,1,0,3:2:0:0:
225,75,25270,6,0,P|247:62|280:59,1,42.5,2|0,1:2|2:0,2:0:0:0:
361,49,25454,1,2,2:3:0:0:
172,64,25638,6,0,P|220:88|240:118,1,51.000000000000014,2|0,1:2|2:0,2:0:0:0:
361,49,25823,1,2,2:3:0:0:
119,84,26007,6,0,P|150:71|194:29,1,59.50000000000002,2|0,1:2|2:0,2:0:0:0:
361,49,26191,1,2,2:3:0:0:
324,112,26375,5,0,3:2:0:0:
324,112,26467,1,0,3:2:0:0:
324,112,26559,1,0,3:2:0:0:
324,112,26651,1,0,3:2:0:0:
324,112,26743,5,6,1:2:0:0:
485,162,26927,1,0,2:0:0:0:
299,178,27111,5,2,1:2:0:0:
138,228,27295,1,2,2:0:0:0:
407,347,27479,2,0,P|417:262|428:199,1,136,2|0,1:2|2:0,2:0:0:0:
371,169,27847,5,2,1:2:0:0:
371,169,28031,1,2,2:0:0:0:
250,324,28215,5,0,1:2:0:0:
67,234,28399,1,0,2:0:0:0:
141,25,28583,5,2,1:2:0:0:
324,115,28767,1,2,2:0:0:0:
210,260,28951,1,2,1:2:0:0:
23,340,29319,2,0,P|114:294|210:260,1,204,2|0,1:2|2:0,2:0:0:0:
250,324,29688,5,2,1:2:0:0:
103,83,29872,1,0,2:0:0:0:
250,324,30056,5,2,1:2:0:0:
103,83,30240,1,2,2:0:0:0:
250,324,30424,5,0,1:2:0:0:
103,83,30608,1,0,2:0:0:0:
250,324,30792,5,2,1:2:0:0:
103,83,30976,1,2,2:0:0:0:
89,153,31160,5,0,1:2:0:0:
370,140,31344,1,2,2:0:0:0:
89,153,31528,5,2,1:2:0:0:
370,140,31712,1,2,2:0:0:0:
89,153,31896,5,2,1:2:0:0:
370,140,32080,1,0,1:2:0:0:
370,140,32264,5,2,1:2:0:0:
377,157,32356,1,0,1:2:0:0:
370,192,32448,1,0,1:2:0:0:
404,221,32540,1,0,1:2:0:0:
387,268,32632,5,6,1:2:0:0:
149,333,32816,1,0,2:0:0:0:
364,332,33000,5,2,1:2:0:0:
429,94,33184,1,2,2:0:0:0:
201,243,33369,2,0,P|232:277|321:278,1,136,2|0,1:2|2:0,2:0:0:0:
303,211,33737,5,2,1:2:0:0:
303,211,33921,1,2,2:0:0:0:
471,42,34105,5,0,1:2:0:0:
253,120,34289,1,0,2:0:0:0:
156,314,34473,5,2,1:2:0:0:
374,236,34657,1,2,2:0:0:0:
358,17,34841,1,2,1:2:0:0:
181,115,35209,2,0,P|272:76|382:-6,1,204,2|0,1:2|2:0,2:0:0:0:
381,86,35577,5,2,1:2:0:0:
121,84,35761,1,0,2:0:0:0:
381,86,35945,5,2,1:2:0:0:
121,84,36129,1,2,2:0:0:0:
381,86,36313,5,0,1:2:0:0:
121,84,36497,1,0,2:0:0:0:
381,86,36681,5,2,1:2:0:0:
121,84,36865,1,2,2:0:0:0:
178,42,37050,5,0,1:2:0:0:
176,302,37234,1,2,2:0:0:0:
178,42,37418,5,2,1:2:0:0:
176,302,37602,1,2,2:0:0:0:
178,42,37786,5,2,1:2:0:0:
176,302,37970,1,0,2:0:0:0:
176,302,38154,5,2,1:2:0:0:
175,282,38246,1,0,1:2:0:0:
149,262,38338,1,0,1:2:0:0:
145,225,38430,1,0,1:2:0:0:
101,209,38522,5,2,1:2:0:0:
47,167,38706,1,0,2:0:0:0:
77,106,38890,1,2,1:2:0:0:
143,118,39074,1,0,2:0:0:0:
196,75,39258,1,0,1:2:0:0:
251,114,39442,1,0,2:0:0:0:
230,178,39626,1,2,1:2:0:0:
230,178,39810,1,0,2:0:0:0:
276,227,39994,1,2,1:2:0:0:
337,198,40178,1,0,2:0:0:0:
276,227,40362,1,2,1:2:0:0:
337,198,40546,1,2,2:0:0:0:
398,228,40731,1,2,1:2:0:0:
448,182,41099,1,2,1:2:0:0:
448,182,41283,1,0,2:0:0:0:
403,130,41467,5,2,1:2:0:0:
341,271,41651,1,2,2:0:0:0:
388,320,41835,5,2,1:2:0:0:
250,92,42019,1,2,2:0:0:0:
300,42,42203,5,2,1:2:0:0:
189,333,42387,1,2,2:0:0:0:
116,335,42571,6,0,L|133:261,1,68,6|0,1:2|2:0,2:0:0:0:
178,88,42755,2,0,L|195:14,1,68,6|0,1:2|2:0,2:0:0:0:
193,21,44043,5,2,2:0:0:0:
194,29,44135,1,2,2:0:0:0:
195,37,44227,1,2,2:0:0:0:
196,45,44319,1,2,2:0:0:0:
197,53,44411,5,6,3:2:0:0:
137,86,44596,1,2,2:0:0:0:
97,145,44780,1,0,3:2:0:0:
104,26,44964,1,0,2:0:0:0:
37,36,45148,1,0,3:2:0:0:
37,36,45332,1,2,2:0:0:0:
44,102,45516,1,2,3:2:0:0:
97,145,45700,2,0,L|84:219,1,59.49999999999993,2|0,2:0|3:2,2:0:0:0:
86,203,46068,2,0,L|97:145,2,59.49999999999993,0|0|2,2:0|3:2|2:0,2:0:0:0:
43,299,46620,1,0,3:2:0:0:
128,264,46804,1,2,2:0:0:0:
133,265,46896,1,2,2:0:0:0:
138,266,46988,1,2,3:2:0:0:
43,299,47172,1,2,2:0:0:0:
88,353,47356,5,2,3:2:0:0:
204,229,47724,1,2,3:2:0:0:
268,263,47908,1,0,2:0:0:0:
204,229,48092,1,2,3:2:0:0:
268,263,48277,1,2,2:0:0:0:
211,304,48645,2,0,L|226:367,1,59.49999999999993,2|0,2:0|3:2,2:0:0:0:
224,361,49013,2,0,L|211:304,1,59.49999999999993,2|0,2:0|3:2,2:0:0:0:
263,194,49381,1,0,2:0:0:0:
327,302,49565,1,2,3:2:0:0:
431,257,49749,1,2,2:0:0:0:
428,251,49841,1,2,2:0:0:0:
425,245,49933,1,2,3:2:0:0:
356,231,50117,1,2,2:0:0:0:
482,362,50301,5,6,3:2:0:0:
451,181,50669,1,2,3:2:0:0:
501,236,50853,1,0,2:0:0:0:
451,181,51037,1,2,3:2:0:0:
501,236,51221,1,0,2:0:0:0:
451,181,51405,1,2,3:2:0:0:
501,236,51589,2,0,L|492:307,1,59.49999999999993,0|0,2:0|3:2,2:0:0:0:
495,127,51958,1,2,2:0:0:0:
492,121,52050,1,2,2:0:0:0:
489,115,52142,1,2,3:2:0:0:
382,146,52326,1,2,2:0:0:0:
408,53,52510,1,2,3:2:0:0:
489,115,52694,1,2,2:0:0:0:
492,121,52786,1,2,2:0:0:0:
495,127,52878,1,2,3:2:0:0:
451,181,53062,1,2,2:0:0:0:
493,12,53246,5,2,3:2:0:0:
345,87,53614,1,2,3:2:0:0:
281,66,53798,1,2,2:0:0:0:
345,87,53982,1,2,3:2:0:0:
281,66,54166,1,2,2:0:0:0:
256,192,54350,1,2,1:2:0:0:
256,192,54442,1,0,1:2:0:0:
256,192,54534,1,0,1:2:0:0:
256,192,54902,2,0,L|251:165,4,14.874999999999984,0|0|0|0|0,3:2|3:2|3:2|3:2|3:2,2:0:0:0:
223,252,55270,1,0,3:2:0:0:
223,252,55454,1,0,3:2:0:0:
159,220,55823,1,0,1:2:0:0:
137,202,55915,1,0,1:2:0:0:
108,196,56007,2,0,L|68:229,1,29.749999999999968,0|0,1:2|2:0,2:0:0:0:
71,281,56191,5,4,3:2:0:0:
71,281,56375,1,0,2:0:0:0:
22,180,56559,1,2,3:2:0:0:
159,220,56743,1,0,2:0:0:0:
130,85,56927,5,2,3:2:0:0:
85,214,57111,1,0,2:0:0:0:
58,102,57295,5,2,3:2:0:0:
186,131,57479,1,2,2:0:0:0:
319,49,57663,5,2,3:2:0:0:
256,20,57847,1,2,2:0:0:0:
201,61,58215,1,2,2:0:0:0:
382,15,58583,1,0,2:0:0:0:
352,113,58767,1,2,3:2:0:0:
416,203,58951,1,2,2:0:0:0:
467,151,59135,5,2,3:2:0:0:
467,151,59319,1,2,2:0:0:0:
314,174,59504,1,2,3:2:0:0:
314,174,59688,1,0,2:0:0:0:
411,277,59872,5,0,3:2:0:0:
481,368,60056,1,0,2:0:0:0:
353,361,60240,5,2,3:2:0:0:
481,296,60424,1,2,2:0:0:0:
344,254,60608,5,2,3:2:0:0:
299,309,60792,1,0,2:0:0:0:
185,366,60976,1,2,3:2:0:0:
138,254,61160,1,2,2:0:0:0:
236,156,61344,1,2,3:2:0:0:
201,291,61712,1,2,3:2:0:0:
239,230,61896,1,0,2:0:0:0:
177,196,62080,5,4,3:2:0:0:
177,196,62264,1,0,2:0:0:0:
305,245,62448,1,2,3:2:0:0:
341,307,62632,1,0,2:0:0:0:
272,360,62816,5,2,3:2:0:0:
444,281,63000,1,0,2:0:0:0:
510,217,63184,5,2,3:2:0:0:
409,171,63369,1,2,2:0:0:0:
341,307,63553,5,2,3:2:0:0:
269,182,63737,1,2,2:0:0:0:
435,101,63921,1,2,3:2:0:0:
409,171,64105,1,2,2:0:0:0:
409,171,64473,5,2,2:0:0:0:
348,125,64657,1,2,3:2:0:0:
409,171,64841,1,2,2:0:0:0:
313,242,65025,5,2,3:2:0:0:
377,57,65209,1,0,2:0:0:0:
228,78,65393,5,2,3:2:0:0:
435,101,65577,1,0,2:0:0:0:
367,286,65761,5,2,3:2:0:0:
283,144,65945,1,2,2:0:0:0:
122,167,66129,1,2,3:2:0:0:
186,277,66313,6,0,L|199:190,1,85,2|0,2:0|3:2,2:0:0:0:
186,277,66681,2,0,L|199:190,1,85,2|0,2:0|3:2,2:0:0:0:
198,192,67050,2,0,L|186:277,1,85,2|0,2:0|3:2,2:0:0:0:
113,350,67418,1,2,2:0:0:0:
23,229,67602,1,2,1:2:0:0:
40,205,67694,1,0,1:2:0:0:
18,175,67786,1,0,1:2:0:0:
46,142,67878,1,0,1:2:0:0:
21,101,67970,5,6,3:2:0:0:
143,76,68154,1,2,3:2:0:0:
143,76,68522,2,0,P|97:95|13:100,1,127.5,6|0,3:2|2:0,2:0:0:0:
15,88,68890,5,0,2:0:0:0:
137,159,69074,1,2,3:2:0:0:
137,159,69258,1,2,3:2:0:0:
275,32,69442,5,6,3:2:0:0:
211,167,69626,1,2,3:2:0:0:
211,167,69994,2,0,L|231:69,1,85,6|0,3:2|3:2,2:0:0:0:
275,32,70270,1,0,3:2:0:0:
275,32,70362,1,2,3:2:0:0:
372,93,70546,5,2,3:2:0:0:
265,210,70731,1,0,2:0:0:0:
426,277,70915,5,4,3:2:0:0:
386,171,71099,1,2,3:2:0:0:
386,171,71467,2,0,P|430:219|421:289,1,127.5,6|0,3:2|2:0,2:0:0:0:
419,290,71835,5,0,3:2:0:0:
265,210,72019,1,2,3:2:0:0:
265,210,72203,1,0,2:0:0:0:
205,319,72387,6,0,L|211:361,1,42.5,6|0,1:2|2:0,2:0:0:0:
321,259,72571,1,2,2:3:0:0:
199,276,72755,2,0,L|205:318,1,42.5,2|0,1:2|2:0,2:0:0:0:
342,192,72939,1,2,2:3:0:0:
193,233,73123,2,0,L|199:275,1,42.5,2|0,1:2|2:0,2:0:0:0:
363,125,73307,1,2,2:3:0:0:
193,233,73491,6,0,P|137:197|166:116,1,127.5,2|0,1:2|2:0,2:0:0:0:
154,130,73859,5,2,3:2:0:0:
28,109,74043,1,2,3:2:0:0:
154,130,74411,2,0,L|24:109,1,127.5,2|0,3:2|2:0,2:0:0:0:
17,120,74780,5,0,3:2:0:0:
94,13,74964,1,2,3:2:0:0:
94,13,75148,1,2,3:2:0:0:
241,50,75332,5,2,3:2:0:0:
297,157,75516,1,2,3:2:0:0:
241,50,75884,2,0,P|226:93|252:148,1,85,2|0,3:2|3:2,2:0:0:0:
297,157,76160,1,0,3:2:0:0:
297,157,76252,1,0,3:2:0:0:
362,83,76436,5,2,3:2:0:0:
206,200,76620,1,0,2:0:0:0:
292,297,76804,5,2,3:2:0:0:
310,171,76988,1,2,3:2:0:0:
292,297,77356,2,0,L|313:148,1,127.5,2|0,3:2|2:0,2:0:0:0:
297,157,77724,5,2,3:2:0:0:
222,274,77908,1,2,3:2:0:0:
222,274,78092,1,0,3:2:0:0:
378,206,78277,6,0,P|390:229|392:267,1,42.5,2|0,1:2|2:0,2:0:0:0:
348,342,78461,1,2,2:3:0:0:
385,150,78645,6,0,P|373:179|372:213,1,51.000000000000014,2|0,1:2|2:0,2:0:0:0:
348,342,78829,1,2,2:3:0:0:
367,89,79013,6,0,P|385:122|394:169,1,59.50000000000002,2|0,1:2|2:0,2:0:0:0:
348,342,79197,1,0,2:0:0:0:
412,309,79381,1,8,2:1:0:0:
256,40,85638,5,2,3:2:0:0:
256,40,85823,1,2,2:0:0:0:
256,53,86007,1,2,3:2:0:0:
256,53,86191,1,2,2:0:0:0:
256,67,86375,1,2,3:2:0:0:
256,80,86743,1,2,3:2:0:0:
256,80,86927,1,2,2:0:0:0:
256,94,87111,1,0,3:2:0:0:
256,94,87295,1,2,2:0:0:0:
256,108,87479,1,2,3:2:0:0:
256,108,87663,1,2,2:0:0:0:
256,121,87847,1,2,3:2:0:0:
256,135,88215,1,2,3:2:0:0:
256,148,88399,1,0,2:0:0:0:
256,161,88583,1,2,3:2:0:0:
256,175,88767,1,2,3:2:0:0:
256,189,88951,1,2,3:2:0:0:
256,202,89135,1,2,3:2:0:0:
256,216,89319,1,0,3:2:0:0:
256,230,89411,1,0,3:2:0:0:
256,243,89504,1,2,3:2:0:0:
256,256,89596,1,0,3:2:0:0:
256,270,89688,1,2,3:2:0:0:
256,284,89780,1,0,3:2:0:0:
256,297,89872,1,2,3:2:0:0:
256,311,89964,1,0,3:2:0:0:
256,325,90056,1,0,3:2:0:0:
256,338,90424,1,2,3:2:0:0:
256,352,90792,1,2,3:2:0:0:
256,352,91160,1,2,2:0:0:0:
256,352,91528,6,0,L|184:341,4,59.49999999999993,2|0|2|0|2,2:0|2:0|2:0|2:0|2:0,2:0:0:0:
323,363,92448,1,0,3:2:0:0:
131,332,92632,1,4,1:2:0:0:
131,332,93000,6,0,P|123:304|92:273,1,59.49999999999993,2|0,3:2|2:0,2:0:0:0:
131,332,93368,2,0,P|123:304|92:273,1,59.49999999999993,2|2,3:2|2:0,2:0:0:0:
131,332,93736,2,0,P|123:304|92:273,1,59.49999999999993,2|0,3:2|2:0,2:0:0:0:
103,280,94104,2,0,P|122:303|131:332,1,59.49999999999993,2|2,3:2|2:0,2:0:0:0:
82,380,94472,5,0,3:2:0:0:
41,98,94656,1,0,3:2:0:0:
241,1,94840,1,2,3:2:0:0:
425,108,95024,1,2,3:2:0:0:
347,306,95208,1,2,3:2:0:0:
330,293,95300,1,0,3:2:0:0:
293,302,95392,1,0,3:2:0:0:
259,274,95484,1,0,3:2:0:0:
211,281,95576,2,0,L|174:273,1,38.25000000000004,2|0,2:1|2:0,2:0:0:0:
130,330,95944,5,6,1:2:0:0:
359,73,96128,1,0,2:0:0:0:
130,330,96312,5,2,1:2:0:0:
359,73,96496,1,2,2:0:0:0:
130,330,96680,5,0,1:2:0:0:
359,73,96865,1,0,2:0:0:0:
130,330,97049,5,2,1:2:0:0:
359,73,97233,1,2,2:0:0:0:
425,108,97417,5,0,1:2:0:0:
88,86,97601,1,2,2:0:0:0:
425,108,97785,5,2,1:2:0:0:
88,86,97969,1,2,2:0:0:0:
425,108,98153,5,2,1:2:0:0:
88,86,98337,1,0,1:2:0:0:
88,86,98521,5,2,1:2:0:0:
115,93,98613,1,0,1:2:0:0:
125,138,98705,1,0,1:2:0:0:
174,135,98797,1,0,1:2:0:0:
204,174,98889,5,6,1:2:0:0:
16,342,99073,1,0,2:0:0:0:
249,230,99257,5,2,1:2:0:0:
485,142,99441,1,2,2:0:0:0:
306,314,99625,2,0,L|328:168,1,136,2|0,1:2|2:0,2:0:0:0:
283,124,99993,5,2,1:2:0:0:
283,124,100177,1,2,2:0:0:0:
482,69,100361,5,0,1:2:0:0:
345,257,100546,1,0,2:0:0:0:
134,224,100730,5,2,1:2:0:0:
286,53,100914,1,2,2:0:0:0:
455,149,101098,1,2,1:2:0:0:
360,326,101466,2,0,P|389:240|462:142,1,204,2|0,1:2|2:0,2:0:0:0:
512,195,101834,5,2,1:2:0:0:
237,105,102018,1,0,2:0:0:0:
512,195,102202,5,2,1:2:0:0:
237,105,102386,1,2,2:0:0:0:
512,195,102570,5,0,1:2:0:0:
237,105,102754,1,0,2:0:0:0:
512,195,102938,5,2,1:2:0:0:
237,105,103122,1,2,2:0:0:0:
288,165,103306,5,0,1:2:0:0:
42,317,103490,1,2,2:0:0:0:
288,165,103674,5,2,1:2:0:0:
42,317,103858,1,2,2:0:0:0:
288,165,104042,5,2,1:2:0:0:
42,317,104226,1,0,2:0:0:0:
42,317,104411,5,2,1:2:0:0:
58,324,104503,1,0,1:2:0:0:
87,301,104595,1,0,1:2:0:0:
125,322,104687,1,0,1:2:0:0:
161,287,104779,5,2,1:2:0:0:
127,228,104963,1,0,2:0:0:0:
170,175,105147,1,2,1:2:0:0:
229,207,105331,1,0,2:0:0:0:
268,151,105515,1,0,1:2:0:0:
226,97,105699,1,0,2:0:0:0:
262,39,105883,1,2,1:2:0:0:
262,39,106067,1,0,2:0:0:0:
320,74,106251,1,2,1:2:0:0:
383,48,106435,1,0,2:0:0:0:
320,74,106619,1,2,1:2:0:0:
383,48,106803,1,2,2:0:0:0:
437,88,106987,1,2,1:2:0:0:
495,53,107355,1,2,1:2:0:0:
495,53,107539,1,0,2:0:0:0:
483,144,107723,5,2,1:2:0:0:
319,354,107907,1,2,2:0:0:0:
385,368,108092,5,2,1:2:0:0:
249,69,108276,1,2,2:0:0:0:
317,93,108460,5,2,1:2:0:0:
23,185,108644,1,2,2:0:0:0:
66,131,108828,5,6,1:2:0:0:
80,141,108920,1,2,1:2:0:0:
124,128,109012,1,2,1:2:0:0:
157,160,109104,1,0,1:2:0:0:
202,140,109196,5,2,2:0:0:0:
212,210,109564,5,0,2:0:0:0:
184,276,109932,5,0,2:0:0:0:
118,307,110300,5,0,2:0:0:0:
49,286,110668,6,0,P|39:248|48:211,1,76.49999999999993,2|0,1:2|2:0,2:0:0:0:
90,34,110852,6,0,P|129:37|156:55,1,68,2|0,3:2|2:0,2:0:0:0:
4,149,111036,6,0,P|29:119|57:108,1,59.50000000000002,2|0,1:2|2:0,2:0:0:0:
233,38,111220,6,0,P|252:72|250:103,1,51.000000000000014,2|0,3:2|2:0,2:0:0:0:
90,34,111404,6,0,P|123:35|154:55,1,42.5,2|0,1:2|2:0,2:0:0:0:
311,157,111588,6,0,P|294:192|274:204,1,34,2|2,3:2|3:2,2:0:0:0:
170,234,111773,5,2,1:2:0:0:
140,203,111865,1,2,1:2:0:0:
152,166,111957,1,2,1:2:0:0:
152,166,112325,1,2,3:2:0:0:
224,305,112509,6,0,P|284:267|350:246,1,140.25,2|0,1:2|2:0,2:0:0:0:
350,246,112877,6,0,P|284:267|224:305,1,140.25,2|0,1:2|2:0,2:0:0:0:
224,305,113245,5,2,3:1:0:0:
