osu file format v14

[General]
AudioFilename: audio.mp3
AudioLeadIn: 0
PreviewTime: 26467
Countdown: 0
SampleSet: Soft
StackLeniency: 0.4
Mode: 0
LetterboxInBreaks: 0
WidescreenStoryboard: 1

[Editor]
DistanceSpacing: 1
BeatDivisor: 4
GridSize: 16
TimelineZoom: 1.6

[Metadata]
Title:Cat Loving
TitleUnicode:キャットラビング
Artist:Kotoha
ArtistUnicode:Kotoha
Creator:Kotoha
Version:Mocaotic's Normal
Source:
Tags:blitzifyyy mocaotic bongo ayucchi japanese pop j-pop jpop cat rubbing 香椎モイミ Moimi Kashii hakoniwalily ハコニワリリィ honeyworks ハニーワークス ハニワ kamitsubaki studio 神椿スタジオ
BeatmapID:3712763
BeatmapSetID:1809604

[Difficulty]
HPDrainRate:3
CircleSize:3.6
OverallDifficulty:5
ApproachRate:5
SliderMultiplier:1
SliderTickRate:1

[Events]
//Background and Video events
0,0,"kotohacute.jpg",0,0
//Break Periods
2,79582,84438
//Storyboard Layer 0 (Background)
//Storyboard Layer 1 (Fail)
//Storyboard Layer 2 (Pass)
//Storyboard Layer 3 (Foreground)
//Storyboard Layer 4 (Overlay)
//Storyboard Sound Samples

[TimingPoints]
241,368.098159509202,4,2,1,60,1,0
3185,368.098159509202,4,2,1,55,1,0
14964,-100,4,2,1,65,0,0
26743,-100,4,2,1,75,0,0
44411,-100,4,2,1,45,0,0
56191,-100,4,2,1,55,0,0
67970,-100,4,2,1,65,0,0
85638,-100,4,2,1,55,0,0
87111,-100,4,2,1,60,0,0
88583,-100,4,2,1,65,0,0
90056,-100,4,2,1,50,0,0
93000,368.098159509202,4,2,1,65,1,0
95944,-100,4,2,1,75,0,0
96312,-95.2380952380952,4,2,1,75,0,0
109196,-95.2380952380952,4,2,1,50,0,0
110668,-95.2380952380952,4,2,1,70,0,0
113337,-95.2380952380952,4,2,1,5,0,0

[Colours]
Combo1 : 249,193,255
Combo2 : 139,245,254
Combo3 : 160,255,147

[HitObjects]
256,192,241,12,2,2449,2:0:0:0:
438,60,3185,6,0,L|447:109,3,50,2|0|2|0,3:2|2:0|3:2|2:0,2:0:0:0:
456,158,3921,2,0,L|474:256,1,100,2|2,3:2|3:2,2:0:0:0:
377,278,4657,2,0,L|367:228,3,50,2|0|2|0,3:2|2:0|3:2|2:0,2:0:0:0:
359,180,5393,2,0,L|340:81,1,100,2|2,3:2|3:2,2:0:0:0:
241,97,6129,6,0,L|250:146,3,50,2|0|2|0,3:2|2:0|3:2|2:0,2:0:0:0:
260,195,6865,1,2,3:2:0:0:
280,293,7234,2,0,L|230:302,1,50,2|2,3:2|2:0,2:0:0:0:
181,312,7602,2,0,L|172:262,3,50,2|0|2|2,3:2|2:0|3:2|2:0,2:0:0:0:
163,214,8338,2,0,L|144:115,1,100,2|2,3:2|3:2,2:0:0:0:
45,134,9074,6,0,L|56:194,3,50,6|0|2|0,3:2|2:0|3:2|2:0,2:0:0:0:
64,232,9810,2,0,L|84:343,1,100,2|2,3:2|3:2,2:0:0:0:
181,312,10546,2,0,L|170:252,3,50,0|0|2|0,3:2|2:0|3:2|2:0,2:0:0:0:
162,214,11283,2,0,L|141:102,1,100,2|2,3:2|3:2,2:0:0:0:
243,96,12019,6,0,L|256:170,3,50,2|0|2|0,3:2|2:0|3:2|2:0,2:0:0:0:
261,195,12755,1,2,3:2:0:0:
280,293,13123,2,0,L|354:279,1,50,2|2,3:2|2:0,2:0:0:0:
379,276,13491,2,0,L|365:201,3,50,2|0|2|2,3:2|2:0|3:2|2:0,2:0:0:0:
361,178,14227,1,2,3:2:0:0:
344,79,14596,1,2,1:2:0:0:
446,63,14964,5,6,3:2:0:0:
446,63,15148,1,2,3:2:0:0:
467,160,15516,2,0,L|487:271,1,100,6|0,3:2|2:0,2:0:0:0:
494,307,16068,1,2,3:2:0:0:
399,325,16436,5,6,3:2:0:0:
399,325,16620,1,2,3:2:0:0:
302,346,16988,2,0,L|190:366,1,100,6|2,3:2|3:2,2:0:0:0:
155,373,17540,1,2,3:2:0:0:
137,278,17908,5,4,3:2:0:0:
137,278,18092,1,2,3:2:0:0:
116,181,18461,2,0,L|95:69,1,100,6|0,3:2|3:2,2:0:0:0:
89,34,19013,1,2,3:2:0:0:
187,15,19381,6,0,L|276:-2,1,50,6|2,1:2|2:3,2:0:0:0:
285,0,19749,2,0,L|294:49,3,50,2|2|2|2,1:2|2:3|1:2|2:3,2:0:0:0:
303,98,20485,1,2,1:2:0:0:
210,116,20853,5,2,3:2:0:0:
210,116,21037,1,2,3:2:0:0:
113,137,21405,2,0,L|1:158,1,100,2|0,3:2|3:2,2:0:0:0:
23,204,21958,1,2,3:2:0:0:
45,306,22326,5,2,3:2:0:0:
45,306,22510,1,2,3:2:0:0:
142,282,22878,2,0,L|254:258,1,100,2|0,3:2|3:2,2:0:0:0:
230,211,23430,1,2,3:2:0:0:
217,116,23798,5,2,3:2:0:0:
217,116,23982,1,2,3:2:0:0:
315,96,24350,2,0,L|427:72,1,100,2|2,3:2|3:2,2:0:0:0:
426,123,24902,1,2,3:2:0:0:
448,222,25270,6,0,L|462:289,1,50,2|2,1:2|2:3,2:0:0:0:
467,320,25638,2,0,L|400:334,1,50,2|2,1:2|2:3,2:0:0:0:
369,342,26007,2,0,L|257:363,1,100,2|0,1:2|3:2,2:0:0:0:
179,382,26743,5,6,1:2:0:0:
179,382,26927,1,0,2:0:0:0:
179,382,27111,2,0,L|163:301,1,50,2|2,1:2|2:0,2:0:0:0:
159,283,27479,2,0,L|138:171,1,100,2|2,1:2|1:2,2:0:0:0:
131,135,28031,1,2,2:0:0:0:
116,40,28399,5,0,2:0:0:0:
116,40,28583,2,0,L|35:56,1,50,2|2,1:2|2:0,2:0:0:0:
18,60,28951,2,0,L|39:172,1,100,2|2,1:2|1:2,2:0:0:0:
57,256,29688,5,2,1:2:0:0:
57,256,29872,1,0,2:0:0:0:
57,256,30056,2,0,L|73:337,1,50,2|2,1:2|2:0,2:0:0:0:
76,354,30424,2,0,L|157:338,3,50,0|0|2|2,1:2|2:0|1:2|2:0,2:0:0:0:
173,332,31160,2,0,L|254:316,3,50,0|2|2|2,1:2|2:0|1:2|2:0,2:0:0:0:
269,308,31896,2,0,L|248:196,1,100,2|2,1:2|1:2,2:0:0:0:
235,120,32632,5,6,1:2:0:0:
235,120,32816,1,0,2:0:0:0:
235,120,33000,2,0,L|316:104,1,50,2|2,1:2|2:0,2:0:0:0:
333,102,33369,2,0,L|354:215,1,100,2|2,1:2|1:2,2:0:0:0:
361,249,33921,1,2,2:0:0:0:
385,350,34289,5,0,2:0:0:0:
385,350,34473,2,0,L|466:334,1,50,2|2,1:2|2:0,2:0:0:0:
482,329,34841,2,0,L|461:216,1,100,2|2,1:2|1:2,2:0:0:0:
446,132,35577,5,2,1:2:0:0:
446,132,35761,1,0,2:0:0:0:
446,132,35945,2,0,L|430:51,1,50,2|2,1:2|2:0,2:0:0:0:
426,33,36313,2,0,L|345:49,3,50,0|0|2|2,1:2|2:0|1:2|2:0,2:0:0:0:
327,53,37050,2,0,L|246:69,3,50,0|2|2|2,1:2|2:0|1:2|2:0,2:0:0:0:
229,73,37786,2,0,L|250:186,1,100,2|2,1:2|1:2,2:0:0:0:
267,268,38522,6,0,L|283:349,3,50,2|0|2|0,1:2|2:0|1:2|2:0,2:0:0:0:
285,366,39258,2,0,L|204:382,3,50,0|0|2|0,1:2|2:0|1:2|2:0,2:0:0:0:
187,384,39994,2,0,L|171:303,1,50,2|0,1:2|2:0,2:0:0:0:
165,286,40362,2,0,L|140:165,1,100,2|2,1:2|1:2,2:0:0:0:
125,89,41099,1,2,1:2:0:0:
27,109,41467,6,0,L|43:190,3,50,2|2|2|2,1:2|2:0|1:2|2:0,2:0:0:0:
47,206,42203,2,0,L|63:287,1,50,2|2,1:2|2:0,2:0:0:0:
66,304,42571,1,6,1:2:0:0:
75,353,42755,1,6,1:2:0:0:
75,353,44411,6,0,L|188:332,1,100,6|0,3:2|3:2,2:0:0:0:
271,312,45148,2,0,L|352:296,3,50,0|2|2|2,3:2|2:0|3:2|2:0,2:0:0:0:
417,278,46068,2,0,L|396:165,1,100,0|2,2:0|2:0,2:0:0:0:
388,130,46620,2,0,L|372:49,1,50,0|2,3:2|2:0,2:0:0:0:
370,31,46988,1,2,3:2:0:0:
271,48,47356,5,2,3:2:0:0:
172,67,47724,2,0,L|91:83,3,50,2|0|2|2,3:2|2:0|3:2|2:0,2:0:0:0:
24,94,48645,2,0,L|45:207,1,100,2|2,2:0|2:0,2:0:0:0:
61,290,49381,2,0,L|142:274,3,50,0|2|2|2,2:0|3:2|2:0|3:2,2:0:0:0:
208,261,50301,5,6,3:2:0:0:
190,162,50669,2,0,L|174:81,1,50,2|0,3:2|2:0,2:0:0:0:
171,63,51037,2,0,L|252:47,3,50,2|0|2|0,3:2|2:0|3:2|2:0,2:0:0:0:
318,32,51958,2,0,L|448:12,1,100,2|2,2:0|2:0,2:0:0:0:
466,8,52510,1,2,3:2:0:0:
482,106,52878,6,0,L|502:236,1,100,2|2,3:2|3:2,2:0:0:0:
399,227,53614,2,0,L|318:243,3,50,2|2|2|2,3:2|2:0|3:2|2:0,2:0:0:0:
304,247,54350,1,2,1:2:0:0:
304,247,54534,1,0,1:2:0:0:
304,247,55823,1,0,1:2:0:0:
317,345,56191,6,0,L|187:365,1,100,4|2,3:2|3:2,2:0:0:0:
119,378,56927,2,0,L|99:258,1,100,2|2,3:2|3:2,2:0:0:0:
96,234,57479,1,2,2:0:0:0:
96,234,57663,2,0,L|85:164,1,50,2|2,3:2|2:0,2:0:0:0:
71,85,58215,6,0,L|191:65,1,100,2|0,2:0|2:0,2:0:0:0:
218,59,58767,2,0,L|288:48,3,50,2|2|2|2,3:2|2:0|3:2|2:0,2:0:0:0:
316,43,59504,2,0,L|436:23,1,100,2|0,3:2|3:2,2:0:0:0:
437,123,60240,6,0,L|448:193,1,50,2|2,3:2|2:0,2:0:0:0:
453,221,60608,2,0,L|464:291,3,50,2|0|2|2,3:2|2:0|3:2|2:0,2:0:0:0:
467,319,61344,1,2,3:2:0:0:
367,332,61712,2,0,L|347:212,1,100,2|4,3:2|3:2,2:0:0:0:
334,134,62448,6,0,L|323:64,3,50,2|0|2|0,3:2|2:0|3:2|2:0,2:0:0:0:
315,35,63184,2,0,L|245:46,3,50,2|2|2|2,3:2|2:0|3:2|2:0,2:0:0:0:
215,50,63921,2,0,L|145:61,1,50,2|2,3:2|2:0,2:0:0:0:
70,76,64473,5,2,2:0:0:0:
70,76,64657,2,0,L|81:146,1,50,2|2,3:2|2:0,2:0:0:0:
84,174,65025,2,0,L|14:185,3,50,2|0|2|0,3:2|2:0|3:2|2:0,2:0:0:0:
42,231,65761,2,0,L|53:301,3,50,2|2|2|2,3:2|2:0|3:2|2:0,2:0:0:0:
67,378,66681,2,0,L|187:358,1,100,2|2,2:0|2:0,2:0:0:0:
267,343,67418,1,2,2:0:0:0:
267,343,67602,2,0,L|336:331,1,50,2|0,1:2|1:2,2:0:0:0:
369,330,67970,5,6,3:2:0:0:
369,330,68154,1,2,3:2:0:0:
467,312,68522,2,0,L|447:192,1,100,6|0,3:2|2:0,2:0:0:0:
442,163,69074,1,2,3:2:0:0:
431,67,69442,5,6,3:2:0:0:
431,67,69626,1,2,3:2:0:0:
333,85,69994,2,0,L|353:205,1,100,6|2,3:2|3:2,2:0:0:0:
359,232,70546,1,2,3:2:0:0:
378,334,70915,5,4,3:2:0:0:
378,334,71099,1,2,3:2:0:0:
279,353,71467,2,0,L|259:233,1,100,6|0,3:2|3:2,2:0:0:0:
254,205,72019,1,2,3:2:0:0:
238,106,72387,6,0,L|227:36,1,50,6|2,1:2|2:3,2:0:0:0:
219,7,72755,2,0,L|149:18,3,50,2|2|2|2,1:2|2:3|1:2|2:3,2:0:0:0:
120,23,73491,1,2,1:2:0:0:
137,125,73859,5,2,3:2:0:0:
137,125,74043,1,2,3:2:0:0:
154,223,74411,2,0,L|174:343,1,100,2|0,3:2|3:2,2:0:0:0:
178,371,74964,1,2,3:2:0:0:
280,357,75332,5,2,3:2:0:0:
280,357,75516,1,2,3:2:0:0:
262,258,75884,2,0,L|242:138,1,100,2|0,3:2|3:2,2:0:0:0:
237,109,76436,1,2,3:2:0:0:
339,97,76804,5,2,3:2:0:0:
339,97,76988,1,2,3:2:0:0:
357,196,77356,2,0,L|377:316,1,100,2|2,3:2|3:2,2:0:0:0:
382,345,77908,1,2,3:2:0:0:
481,332,78277,6,0,L|467:265,1,50,2|2,1:2|2:3,2:0:0:0:
461,234,78645,2,0,L|447:167,1,50,2|2,1:2|2:3,2:0:0:0:
439,136,79013,2,0,L|418:24,1,100,2|8,1:2|2:1,2:0:0:0:
420,37,85638,6,0,L|308:58,3,100,2|2|2|2,3:2|3:2|3:2|3:2,2:0:0:0:
223,77,87111,2,0,L|244:189,3,100,0|2|2|2,3:2|3:2|3:2|3:2,2:0:0:0:
145,203,88583,2,0,L|78:217,3,50,2|2|2|2,3:2|3:2|3:2|3:2,2:0:0:0:
47,223,89319,2,0,L|33:156,1,50,0|2,3:2|3:2,2:0:0:0:
25,125,89688,2,0,L|11:58,1,50,2|2,3:2|3:2,2:0:0:0:
4,27,90056,6,0,L|116:6,3,100,0|2|2|2,3:2|3:2|3:2|2:0,2:0:0:0:
122,106,91528,1,2,2:0:0:0:
122,106,93000,6,0,L|143:218,3,100,2|2|2|2,3:2|3:2|3:2|3:2,2:0:0:0:
161,302,94472,2,0,L|175:369,3,50,0|0|2|2,3:2|3:2|3:2|3:2,2:0:0:0:
220,342,95208,2,0,L|287:328,1,50,2|0,3:2|3:2,2:0:0:0:
318,323,95576,1,2,2:1:0:0:
420,301,95944,5,6,1:2:0:0:
420,301,96128,1,0,2:0:0:0:
420,301,96312,2,0,L|406:234,1,52.50000000000002,2|2,1:2|2:0,2:0:0:0:
397,198,96680,2,0,L|464:184,3,52.50000000000002,0|0|2|2,1:2|2:0|1:2|2:0,2:0:0:0:
499,175,97417,2,0,L|485:108,3,52.50000000000002,0|2|2|2,1:2|2:0|1:2|2:0,2:0:0:0:
478,72,98153,2,0,L|366:93,1,105.00000000000003,2|2,1:2|1:2,2:0:0:0:
278,115,98889,5,6,1:2:0:0:
278,115,99073,1,0,2:0:0:0:
278,115,99257,2,0,L|264:48,1,52.50000000000002,2|2,1:2|2:0,2:0:0:0:
253,12,99625,2,0,L|141:33,1,105.00000000000003,2|2,1:2|1:2,2:0:0:0:
54,60,100361,5,0,1:2:0:0:
54,60,100546,1,0,2:0:0:0:
54,60,100730,2,0,L|68:127,1,52.50000000000002,2|2,1:2|2:0,2:0:0:0:
76,162,101098,2,0,L|188:141,1,105.00000000000003,2|2,1:2|1:2,2:0:0:0:
282,121,101834,5,2,1:2:0:0:
282,121,102018,1,0,2:0:0:0:
282,121,102202,2,0,L|296:188,1,52.50000000000002,2|2,1:2|2:0,2:0:0:0:
303,223,102570,2,0,L|236:237,3,52.50000000000002,0|0|2|2,1:2|2:0|1:2|2:0,2:0:0:0:
200,245,103306,2,0,L|214:312,1,52.50000000000002,0|2,1:2|2:0,2:0:0:0:
222,347,103674,2,0,L|155:361,1,52.50000000000002,2|2,1:2|2:0,2:0:0:0:
119,371,104042,1,2,1:2:0:0:
96,268,104411,1,2,1:2:0:0:
72,165,104779,6,0,L|58:98,3,52.50000000000002,2|0|2|0,1:2|2:0|1:2|2:0,2:0:0:0:
51,62,105515,2,0,L|118:48,3,52.50000000000002,0|0|2|0,1:2|2:0|1:2|2:0,2:0:0:0:
153,39,106251,2,0,L|220:25,1,52.50000000000002,2|0,1:2|2:0,2:0:0:0:
256,20,106619,2,0,L|270:87,1,52.50000000000002,2|2,1:2|2:0,2:0:0:0:
277,122,106987,1,2,1:2:0:0:
300,225,107355,1,2,1:2:0:0:
402,202,107723,6,0,L|469:188,3,52.50000000000002,2|2|2|2,1:2|2:0|1:2|2:0,2:0:0:0:
505,180,108460,2,0,L|491:113,1,52.50000000000002,2|2,1:2|2:0,2:0:0:0:
480,77,108828,2,0,L|466:10,1,52.50000000000002,6|2,1:2|1:2,2:0:0:0:
417,35,109196,2,0,L|305:58,3,105.00000000000003,2|0|0|0,2:0|2:0|2:0|2:0,2:0:0:0:
332,159,110668,6,0,L|355:271,1,105.00000000000003,2|2,1:2|1:2,2:0:0:0:
367,317,111220,1,2,3:2:0:0:
367,317,111404,2,0,L|300:331,1,52.50000000000002,2|2,1:2|3:2,2:0:0:0:
265,343,111773,2,0,L|198:357,1,52.50000000000002,2|2,1:2|1:2,2:0:0:0:
194,255,112325,1,2,3:2:0:0:
194,255,112509,2,0,L|306:232,1,105.00000000000003,2|2,1:2|1:2,2:0:0:0:
399,213,113245,2,0,L|448:203,1,26.25000000000001,2|0,3:1|2:0,2:0:0:0:
