osu file format v14

[General]
AudioFilename: audio.mp3
AudioLeadIn: 0
PreviewTime: 26467
Countdown: 0
SampleSet: Soft
StackLeniency: 0.2
Mode: 0
LetterboxInBreaks: 0
WidescreenStoryboard: 1

[Editor]
DistanceSpacing: 0.4
BeatDivisor: 8
GridSize: 16
TimelineZoom: 1.6

[Metadata]
Title:Cat Loving
TitleUnicode:キャットラビング
Artist:Kotoha
ArtistUnicode:Kotoha
Creator:Kotoha
Version:Hard
Source:
Tags:blitzifyyy mocaotic bongo ayucchi japanese pop j-pop jpop cat rubbing 香椎モイミ Moimi Kashii hakoniwalily ハコニワリリィ honeyworks ハニーワークス ハニワ kamitsubaki studio 神椿スタジオ
BeatmapID:3724719
BeatmapSetID:1809604

[Difficulty]
HPDrainRate:4
CircleSize:3.8
OverallDifficulty:6.5
ApproachRate:6
SliderMultiplier:1.4
SliderTickRate:1

[Events]
//Background and Video events
0,0,"kotohacute.jpg",0,0
//Break Periods
2,79949,84588
//Storyboard Layer 0 (Background)
//Storyboard Layer 1 (Fail)
//Storyboard Layer 2 (Pass)
//Storyboard Layer 3 (Foreground)
//Storyboard Layer 4 (Overlay)
//Storyboard Sound Samples

[TimingPoints]
241,368.098159509202,4,2,1,60,1,0
3185,368.098159509202,4,2,1,55,1,0
14964,-100,4,2,1,65,0,0
26743,-83.3333333333333,4,2,1,75,0,0
44043,-83.3333333333333,4,2,1,30,0,0
44411,-83.3333333333333,4,2,1,45,0,1
51958,-100,4,2,1,45,0,1
56191,-100,4,2,1,55,0,0
67970,-100,4,2,1,65,0,0
79749,-100,4,2,1,40,0,0
85638,-100,4,2,1,55,0,1
87111,-100,4,2,1,60,0,1
88583,-100,4,2,1,65,0,1
90056,-100,4,2,1,50,0,1
93000,368.098159509202,4,2,1,65,1,0
95944,-83.3333333333333,4,2,1,75,0,0
109196,-83.3333333333333,4,2,1,50,0,0
110668,-83.3333333333333,4,2,1,70,0,0

[Colours]
Combo1 : 249,193,255
Combo2 : 139,245,254
Combo3 : 160,255,147

[HitObjects]
104,61,241,6,0,L|113:132,1,70,2|0,2:0|2:0,2:0:0:0:
207,150,609,2,0,L|198:79,1,70,2|0,2:0|2:0,2:0:0:0:
107,144,977,2,0,L|99:75,1,70,2|0,2:0|2:0,2:0:0:0:
202,164,1345,2,0,L|193:93,1,70,2|0,2:0|2:0,2:0:0:0:
257,30,1713,5,2,2:0:0:0:
320,86,1897,2,0,L|281:113,2,35,2|2|2,2:0|2:0|2:0,2:0:0:0:
394,54,2265,1,2,2:0:0:0:
257,30,2449,2,0,L|406:57,1,140,2|4,2:0|1:2,2:0:0:0:
415,41,2909,1,0,1:2:0:0:
415,41,3001,1,0,1:2:0:0:
487,75,3185,6,0,L|500:163,1,70,2|0,3:2|2:0,2:0:0:0:
409,138,3553,2,0,L|422:226,1,70,2|0,3:2|2:0,2:0:0:0:
411,286,3921,2,0,P|445:284|473:264,3,70,2|2|2|2,3:2|2:0|3:2|2:0,2:0:0:0:
393,362,4657,6,0,L|297:376,1,70,2|0,3:2|2:0,2:0:0:0:
308,292,5025,2,0,L|212:306,1,70,2|0,3:2|2:0,2:0:0:0:
163,337,5393,2,0,P|188:370|241:376,3,70,2|2|2|2,3:2|2:0|3:2|2:0,2:0:0:0:
242,306,6129,5,2,3:2:0:0:
242,306,6313,1,0,2:0:0:0:
180,241,6497,2,0,L|108:227,1,70,2|0,3:2|2:0,2:0:0:0:
246,189,6865,2,0,L|86:234,1,140,2|2,3:2|3:2,2:0:0:0:
58,291,7418,1,2,2:0:0:0:
127,349,7602,6,0,L|202:325,1,70,2|0,3:2|2:0,2:0:0:0:
280,343,7970,1,2,3:2:0:0:
280,343,8154,1,2,2:0:0:0:
298,262,8338,1,2,3:2:0:0:
288,248,8890,5,2,2:0:0:0:
342,195,9074,2,0,L|421:217,1,70,6|0,3:2|2:0,2:0:0:0:
469,144,9442,2,0,L|401:125,1,70,2|0,3:2|2:0,2:0:0:0:
323,98,9810,2,0,P|338:66|367:48,3,70,2|2|2|2,3:2|2:0|3:2|2:0,2:0:0:0:
238,98,10546,6,0,L|255:190,1,70,0|0,3:2|2:0,2:0:0:0:
176,219,10915,2,0,L|159:127,1,70,2|0,3:2|2:0,2:0:0:0:
90,104,11283,2,0,P|116:73|160:68,3,70,2|2|2|2,3:2|2:0|3:2|2:0,2:0:0:0:
0,108,12019,5,2,3:2:0:0:
0,108,12203,1,0,2:0:0:0:
43,182,12387,2,0,P|78:208|92:248,1,70,2|0,3:2|2:0,2:0:0:0:
90,104,12755,2,0,P|66:156|92:234,1,140,2|2,3:2|3:2,2:0:0:0:
167,261,13307,1,2,2:0:0:0:
246,224,13491,6,0,P|253:173|225:144,1,70,2|0,3:2|2:0,2:0:0:0:
176,110,13859,1,2,3:2:0:0:
176,110,14043,1,2,2:0:0:0:
232,51,14227,1,2,3:2:0:0:
232,51,14596,2,0,L|350:70,1,105,2|0,1:2|3:2,2:0:0:0:
356,52,14964,5,6,3:2:0:0:
356,52,15148,1,2,3:2:0:0:
429,94,15516,6,0,L|396:237,1,140,6|0,3:2|2:0,2:0:0:0:
397,230,16068,2,0,L|379:156,1,70,2|2,3:2|3:2,2:0:0:0:
512,188,16436,5,6,3:2:0:0:
512,188,16620,1,2,3:2:0:0:
479,258,16988,6,0,P|408:266|369:348,1,140,6|2,3:2|3:2,2:0:0:0:
370,318,17540,2,0,P|398:345|446:344,1,70,2|0,3:2|2:0,2:0:0:0:
293,322,17908,5,4,3:2:0:0:
293,322,18092,1,2,3:2:0:0:
232,380,18461,6,0,L|265:240,1,140,6|0,3:2|3:2,2:0:0:0:
264,243,19013,2,0,L|184:263,1,70,2|0,3:2|2:0,2:0:0:0:
142,331,19381,5,6,1:2:0:0:
142,331,19565,1,2,2:3:0:0:
118,248,19749,5,2,1:2:0:0:
118,248,19933,1,2,2:3:0:0:
204,267,20117,5,2,1:2:0:0:
204,267,20301,1,2,2:3:0:0:
204,267,20485,2,0,L|229:143,1,105,2|0,1:2|2:0,2:0:0:0:
232,142,20853,5,2,3:2:0:0:
232,142,21037,1,2,3:2:0:0:
317,154,21405,6,0,P|351:94|320:29,1,140,2|0,3:2|3:2,2:0:0:0:
325,33,21958,2,0,P|292:55|252:61,1,70,2|2,3:2|3:2,2:0:0:0:
156,101,22326,5,2,3:2:0:0:
156,101,22510,1,2,3:2:0:0:
192,26,22878,6,0,P|122:20|75:70,1,140,2|0,3:2|3:2,2:0:0:0:
76,66,23430,2,0,L|60:158,1,70,2|0,3:2|2:0,2:0:0:0:
11,255,23798,5,2,3:2:0:0:
11,255,23982,1,2,3:2:0:0:
87,215,24350,6,0,L|225:247,1,140,2|2,3:2|3:2,2:0:0:0:
223,246,24902,2,0,L|174:268,2,35,2|0|0,3:2|3:2|3:2,2:0:0:0:
299,209,25270,5,2,1:2:0:0:
299,209,25454,1,2,2:3:0:0:
292,295,25638,5,2,1:2:0:0:
292,295,25823,1,2,2:3:0:0:
349,358,26007,2,0,L|417:337,1,70,2|2,1:2|2:3,2:0:0:0:
501,317,26375,2,0,L|494:354,3,35,0|0|0|0,3:2|3:2|3:2|3:2,2:0:0:0:
495,301,26743,6,0,P|457:255|470:207,1,84.00000000000003,6|0,1:2|2:0,2:0:0:0:
381,195,27111,2,0,P|399:138|447:123,1,84.00000000000003,2|2,1:2|2:0,2:0:0:0:
418,127,27479,2,0,L|237:91,1,168.00000000000006,2|2,1:2|1:2,2:0:0:0:
184,33,28031,6,0,L|164:114,1,84.00000000000003,2|0,2:0|1:2,2:0:0:0:
226,172,28399,1,0,2:0:0:0:
184,251,28583,2,0,L|102:231,1,84.00000000000003,2|2,1:2|2:0,2:0:0:0:
102,231,28951,1,2,1:2:0:0:
53,297,29319,6,0,P|94:348|168:335,1,126.00000000000004,2|0,1:2|2:0,2:0:0:0:
160,329,29688,2,0,L|241:309,1,84.00000000000003,2|0,1:2|2:0,2:0:0:0:
294,372,30056,2,0,L|375:352,1,84.00000000000003,2|2,1:2|2:0,2:0:0:0:
389,332,30332,1,2,2:0:0:0:
389,332,30424,1,0,1:2:0:0:
324,267,30608,2,0,P|300:226|324:175,1,84.00000000000003,0|2,2:0|1:2,2:0:0:0:
307,192,30976,6,0,P|389:211|450:145,1,168.00000000000006,2|2,2:0|2:0,2:0:0:0:
387,106,31528,2,0,L|370:22,2,84.00000000000003,2|2|2,1:2|2:0|1:2,2:0:0:0:
299,91,32264,5,2,1:2:0:0:
299,91,32356,1,0,1:2:0:0:
299,91,32448,1,0,1:2:0:0:
221,38,32632,6,0,L|137:55,1,84.00000000000003,6|0,1:2|2:0,2:0:0:0:
91,120,33000,2,0,L|108:204,1,84.00000000000003,2|2,1:2|2:0,2:0:0:0:
107,202,33369,2,0,P|183:186|251:257,1,168.00000000000006,2|2,1:2|1:2,2:0:0:0:
214,328,33921,6,0,L|315:320,1,84.00000000000003,2|0,2:0|1:2,2:0:0:0:
373,360,34289,1,0,2:0:0:0:
449,329,34473,2,0,P|472:292|459:243,1,84.00000000000003,2|2,1:2|2:0,2:0:0:0:
466,253,34841,1,2,1:2:0:0:
430,185,35209,6,0,L|304:205,1,126.00000000000004,2|0,1:2|2:0,2:0:0:0:
295,198,35577,2,0,P|267:241|234:250,1,84.00000000000003,2|0,1:2|2:0,2:0:0:0:
225,337,35945,2,0,P|173:338|147:316,1,84.00000000000003,2|2,1:2|2:0,2:0:0:0:
150,305,36221,1,2,2:0:0:0:
150,305,36313,1,0,1:2:0:0:
81,246,36497,2,0,L|56:330,1,84.00000000000003,0|2,2:0|1:2,2:0:0:0:
57,326,36865,6,0,L|35:151,1,168.00000000000006,2|2,2:0|2:0,2:0:0:0:
110,91,37418,2,0,L|12:71,2,84.00000000000003,2|2|2,1:2|2:0|1:2,2:0:0:0:
179,35,38154,5,2,1:2:0:0:
179,35,38246,1,0,1:2:0:0:
179,35,38338,1,0,1:2:0:0:
210,111,38522,6,0,L|310:82,1,84.00000000000003,2|0,1:2|2:0,2:0:0:0:
290,87,38890,2,0,L|319:187,1,84.00000000000003,2|0,1:2|2:0,2:0:0:0:
308,181,39166,1,0,2:0:0:0:
308,181,39258,2,0,L|408:152,1,84.00000000000003,0|0,1:2|2:0,2:0:0:0:
388,157,39626,2,0,L|417:257,1,84.00000000000003,2|0,1:2|2:0,2:0:0:0:
471,304,39994,6,0,L|391:328,1,84.00000000000003,2|0,1:2|2:0,2:0:0:0:
391,328,40362,2,0,L|310:304,1,84.00000000000003,2|2,1:2|2:0,2:0:0:0:
310,304,40731,1,2,1:2:0:0:
239,352,41099,5,2,1:2:0:0:
239,352,41283,1,0,2:0:0:0:
166,311,41467,2,0,P|145:270|173:215,1,84.00000000000003,2|2,1:2|2:0,2:0:0:0:
153,234,41835,2,0,P|174:193|146:138,1,84.00000000000003,2|2,1:2|2:0,2:0:0:0:
165,157,42203,2,0,P|144:116|172:61,1,84.00000000000003,2|2,1:2|2:0,2:0:0:0:
224,41,42571,1,6,1:2:0:0:
82,2,42755,1,6,1:2:0:0:
82,2,44043,5,2,2:0:0:0:
78,14,44135,5,2,2:0:0:0:
75,26,44227,5,2,2:0:0:0:
72,38,44319,5,2,2:0:0:0:
70,50,44411,5,6,3:2:0:0:
124,106,44780,1,0,3:2:0:0:
67,161,45148,1,0,3:2:0:0:
118,218,45516,1,2,3:2:0:0:
192,192,45884,1,0,3:2:0:0:
242,255,46252,1,0,3:2:0:0:
194,318,46620,1,0,3:2:0:0:
265,373,46804,5,2,2:0:0:0:
265,373,46896,1,2,2:0:0:0:
265,373,46988,1,2,3:2:0:0:
328,328,47172,5,2,2:0:0:0:
394,371,47356,5,2,3:2:0:0:
418,295,47724,1,2,3:2:0:0:
442,219,48092,1,2,3:2:0:0:
466,143,48461,1,0,3:2:0:0:
479,60,48829,1,0,3:2:0:0:
403,84,49197,1,0,3:2:0:0:
327,108,49565,1,2,3:2:0:0:
270,52,49749,5,2,2:0:0:0:
270,52,49841,1,2,2:0:0:0:
270,52,49933,1,2,3:2:0:0:
208,111,50117,5,2,2:0:0:0:
272,169,50301,5,6,3:2:0:0:
208,111,50669,1,2,3:2:0:0:
144,53,51037,1,2,3:2:0:0:
86,117,51405,1,2,3:2:0:0:
28,181,51773,1,0,3:2:0:0:
100,247,51958,6,0,L|146:209,2,35,2|2|2,2:0|2:0|3:2,2:0:0:0:
180,286,52326,5,2,2:0:0:0:
158,361,52510,5,2,3:2:0:0:
78,344,52694,6,0,L|32:382,2,35,2|2|2,2:0|2:0|3:2,2:0:0:0:
22,284,53062,5,2,2:0:0:0:
100,247,53246,5,2,3:2:0:0:
64,164,53614,1,2,3:2:0:0:
28,81,53982,1,2,3:2:0:0:
98,27,54350,1,2,1:2:0:0:
98,27,54442,1,0,1:2:0:0:
98,27,54534,1,0,1:2:0:0:
164,80,54902,1,0,3:2:0:0:
233,37,55270,1,0,3:2:0:0:
305,83,55454,5,0,3:2:0:0:
373,35,55823,1,0,1:2:0:0:
373,35,55915,1,0,1:2:0:0:
373,35,56007,1,0,1:2:0:0:
441,85,56191,6,0,L|429:157,1,70,4|0,3:2|2:0,2:0:0:0:
365,205,56559,2,0,L|521:181,2,140,2|2|2,3:2|3:2|3:2,2:0:0:0:
295,165,57479,1,2,2:0:0:0:
239,224,57663,5,2,3:2:0:0:
239,224,57847,1,2,2:0:0:0:
294,349,58215,1,2,2:0:0:0:
239,224,58583,1,0,2:0:0:0:
189,291,58767,2,0,L|111:274,1,70,2|2,3:2|2:0,2:0:0:0:
63,334,59135,6,0,P|38:287|51:249,1,70,2|2,3:2|2:0,2:0:0:0:
39,272,59504,2,0,L|74:118,1,140,2|0,3:2|3:2,2:0:0:0:
93,49,60056,2,0,L|19:68,2,70,0|2|2,2:0|3:2|2:0,2:0:0:0:
166,12,60608,6,0,P|198:33|207:74,1,70,2|0,3:2|2:0,2:0:0:0:
157,129,60976,1,2,3:2:0:0:
157,129,61160,1,2,2:0:0:0:
222,178,61344,1,2,3:2:0:0:
181,252,61712,5,2,3:2:0:0:
226,316,62080,6,0,L|303:299,1,70,4|0,3:2|2:0,2:0:0:0:
367,354,62448,2,0,L|385:282,1,70,2|0,3:2|2:0,2:0:0:0:
383,286,62816,2,0,L|366:218,1,70,2|0,3:2|2:0,2:0:0:0:
429,164,63184,1,2,3:2:0:0:
429,164,63369,1,2,2:0:0:0:
351,116,63553,6,0,P|373:87|409:78,1,70,2|2,3:2|2:0,2:0:0:0:
404,77,63921,1,2,3:2:0:0:
318,21,64105,1,2,2:0:0:0:
318,21,64473,2,0,L|388:-1,2,70,2|2|2,2:0|3:2|2:0,2:0:0:0:
267,81,65025,6,0,P|214:62|197:28,1,70,2|0,3:2|2:0,2:0:0:0:
206,52,65393,2,0,P|153:71|136:105,1,70,2|0,3:2|2:0,2:0:0:0:
176,152,65761,2,0,L|155:230,1,70,2|2,3:2|2:0,2:0:0:0:
96,276,66129,1,2,3:2:0:0:
146,341,66313,5,2,2:0:0:0:
146,341,66681,1,2,2:0:0:0:
146,341,67050,2,0,L|222:327,1,70,2|0,2:0|3:2,2:0:0:0:
292,355,67418,1,2,2:0:0:0:
356,302,67602,1,2,1:2:0:0:
356,302,67694,1,0,1:2:0:0:
356,302,67786,1,0,1:2:0:0:
425,355,67970,5,6,3:2:0:0:
425,355,68154,1,2,3:2:0:0:
487,293,68522,6,0,P|504:244|451:178,1,140,6|0,3:2|2:0,2:0:0:0:
454,179,69074,2,0,P|421:211|424:241,1,70,2|2,3:2|3:2,2:0:0:0:
287,190,69442,5,6,3:2:0:0:
287,190,69626,1,2,3:2:0:0:
343,251,69994,6,0,L|198:212,1,140,6|2,3:2|3:2,2:0:0:0:
207,214,70546,2,0,L|296:191,1,70,2|0,3:2|2:0,2:0:0:0:
253,308,70915,5,4,3:2:0:0:
253,308,71099,1,2,3:2:0:0:
189,362,71467,6,0,P|121:321|125:258,1,140,6|0,3:2|3:2,2:0:0:0:
120,267,72019,2,0,P|103:305|72:322,1,70,2|0,3:2|2:0,2:0:0:0:
31,247,72387,5,6,1:2:0:0:
31,247,72571,1,2,2:3:0:0:
83,173,72755,5,2,1:2:0:0:
83,173,72939,1,2,2:3:0:0:
12,128,73123,5,2,1:2:0:0:
12,128,73307,1,2,2:3:0:0:
12,128,73491,2,0,P|12:79|63:48,1,105,2|0,1:2|2:0,2:0:0:0:
79,49,73859,5,2,3:2:0:0:
79,49,74043,1,2,3:2:0:0:
140,102,74411,6,0,L|283:64,1,140,2|0,3:2|3:2,2:0:0:0:
275,66,74964,2,0,L|198:46,1,70,2|2,3:2|3:2,2:0:0:0:
346,0,75332,5,2,3:2:0:0:
346,0,75516,1,2,3:2:0:0:
400,71,75884,6,0,P|358:120|378:193,1,140,2|0,3:2|3:2,2:0:0:0:
373,188,76436,2,0,P|327:173|307:144,1,70,2|0,3:2|2:0,2:0:0:0:
445,144,76804,5,2,3:2:0:0:
445,144,76988,1,2,3:2:0:0:
475,216,77356,6,0,L|441:355,1,140,2|2,3:2|3:2,2:0:0:0:
441,351,77908,2,0,P|413:368|373:360,1,70,2|0,3:2|3:2,2:0:0:0:
335,296,78277,5,2,1:2:0:0:
335,296,78461,1,2,2:3:0:0:
292,370,78645,5,2,1:2:0:0:
296,372,78829,1,2,2:3:0:0:
227,324,79013,2,0,L|241:245,1,70,2|0,1:2|2:0,2:0:0:0:
335,296,79381,5,8,2:1:0:0:
154,359,79749,5,2,3:2:0:0:
98,308,85638,6,0,L|122:235,1,70,2|2,3:2|2:0,2:0:0:0:
119,241,86007,2,0,L|143:168,1,70,2|2,3:2|2:0,2:0:0:0:
168,100,86375,1,2,3:2:0:0:
195,25,86743,5,2,3:2:0:0:
246,85,86927,2,0,L|292:137,1,70,2|0,2:0|3:2,2:0:0:0:
292,137,87295,2,0,L|343:194,1,70,2|2,2:0|3:2,2:0:0:0:
389,249,87663,1,2,2:0:0:0:
440,309,87847,1,2,3:2:0:0:
362,323,88215,6,0,L|286:338,1,70,2|0,3:2|2:0,2:0:0:0:
216,351,88583,1,2,3:2:0:0:
138,365,88767,1,2,3:2:0:0:
164,290,88951,1,2,3:2:0:0:
190,215,89135,1,2,3:2:0:0:
221,139,89319,2,0,L|257:178,3,35,0|0|2|0,3:2|3:2|3:2|3:2,2:0:0:0:
255,173,89688,2,0,L|291:212,3,35,2|0|2|0,3:2|3:2|3:2|3:2,2:0:0:0:
287,208,90056,5,0,3:2:0:0:
338,268,90424,1,2,3:2:0:0:
389,328,90792,1,2,3:2:0:0:
311,342,91160,1,2,2:0:0:0:
224,354,91528,6,0,L|248:281,3,70,2|0|2|0,2:0|2:0|2:0|2:0,2:0:0:0:
272,213,92264,1,2,2:0:0:0:
302,142,92448,1,0,3:2:0:0:
302,142,92632,1,4,1:2:0:0:
360,204,93000,6,0,P|390:226|439:227,1,70,2|0,3:2|2:0,2:0:0:0:
421,230,93368,2,0,P|458:221|490:184,1,70,2|2,3:2|2:0,2:0:0:0:
481,200,93736,2,0,P|498:166|490:118,1,70,2|0,3:2|2:0,2:0:0:0:
496,134,94104,2,0,P|482:99|440:74,1,70,2|2,3:2|2:0,2:0:0:0:
408,16,94472,5,0,3:2:0:0:
332,29,94656,1,0,3:2:0:0:
256,42,94840,1,2,3:2:0:0:
180,55,95024,1,2,3:2:0:0:
104,68,95208,2,0,L|86:12,3,35,2|0|0|0,3:2|3:2|3:2|3:2,2:0:0:0:
109,83,95576,2,0,L|79:194,1,105,2|0,2:1|2:0,2:0:0:0:
80,200,95944,6,0,P|120:181|160:190,1,84.00000000000003,6|0,1:2|2:0,2:0:0:0:
222,138,96312,2,0,P|258:163|270:202,1,84.00000000000003,2|2,1:2|2:0,2:0:0:0:
262,218,96588,1,2,2:0:0:0:
262,218,96680,1,0,1:2:0:0:
234,294,96865,2,0,L|152:313,1,84.00000000000003,0|2,2:0|1:2,2:0:0:0:
152,312,97233,6,0,L|351:345,1,168.00000000000006,2|2,2:0|2:0,2:0:0:0:
381,286,97785,2,0,P|404:329|395:372,2,84.00000000000003,2|2|2,1:2|2:0|1:2,2:0:0:0:
325,229,98521,5,2,1:2:0:0:
325,229,98613,1,0,1:2:0:0:
325,229,98705,1,0,1:2:0:0:
374,152,98889,6,0,L|287:133,1,84.00000000000003,6|0,1:2|2:0,2:0:0:0:
239,197,99257,2,0,L|220:284,1,84.00000000000003,2|2,1:2|2:0,2:0:0:0:
221,279,99625,2,0,P|173:224|58:248,1,168.00000000000006,2|2,1:2|1:2,2:0:0:0:
84,227,100177,1,2,2:0:0:0:
24,175,100361,6,0,L|40:78,1,84.00000000000003,0|0,1:2|2:0,2:0:0:0:
96,34,100730,1,2,1:2:0:0:
96,34,100914,1,2,2:0:0:0:
157,87,101098,2,0,P|210:97|244:75,1,84.00000000000003,2|0,1:2|2:0,2:0:0:0:
288,22,101466,2,0,P|349:17|403:75,1,126.00000000000004,2|0,1:2|2:0,2:0:0:0:
401,67,101834,6,0,L|375:172,1,84.00000000000003,2|0,1:2|2:0,2:0:0:0:
330,219,102202,2,0,L|435:245,1,84.00000000000003,2|2,1:2|2:0,2:0:0:0:
431,225,102478,1,2,2:0:0:0:
431,225,102570,1,0,1:2:0:0:
498,283,102754,2,0,P|497:329|473:357,1,84.00000000000003,0|2,2:0|1:2,2:0:0:0:
473,356,103122,6,0,L|291:326,1,168.00000000000006,2|2,2:0|2:0,2:0:0:0:
220,302,103674,2,0,L|238:386,2,84.00000000000003,2|2|2,1:2|2:0|1:2,2:0:0:0:
279,242,104411,5,2,1:2:0:0:
279,242,104503,1,0,1:2:0:0:
279,242,104595,1,0,1:2:0:0:
207,187,104779,6,0,P|189:138|209:99,1,84.00000000000003,2|0,1:2|2:0,2:0:0:0:
199,110,105147,2,0,P|217:61|197:22,1,84.00000000000003,2|0,1:2|2:0,2:0:0:0:
194,17,105423,1,0,2:0:0:0:
194,17,105515,2,0,P|145:-1|106:19,1,84.00000000000003,0|0,1:2|2:0,2:0:0:0:
117,9,105883,2,0,P|101:55|119:97,1,84.00000000000003,2|0,1:2|2:0,2:0:0:0:
125,170,106251,6,0,P|79:186|37:168,1,84.00000000000003,2|0,1:2|2:0,2:0:0:0:
46,175,106619,2,0,P|30:221|48:263,1,84.00000000000003,2|2,1:2|2:0,2:0:0:0:
40,253,106987,1,2,1:2:0:0:
0,328,107355,5,2,1:2:0:0:
0,328,107539,1,0,2:0:0:0:
66,377,107723,2,0,L|155:365,1,84.00000000000003,2|2,1:2|2:0,2:0:0:0:
149,365,108092,2,0,L|238:377,1,84.00000000000003,2|2,1:2|2:0,2:0:0:0:
232,376,108460,2,0,L|321:364,1,84.00000000000003,2|2,1:2|2:0,2:0:0:0:
373,309,108828,1,6,1:2:0:0:
373,309,108920,1,2,1:2:0:0:
373,309,109012,1,2,1:2:0:0:
287,261,109196,5,2,2:0:0:0:
287,261,109564,5,0,2:0:0:0:
287,261,109932,5,0,2:0:0:0:
287,261,110300,5,0,2:0:0:0:
287,261,110668,6,0,L|196:247,1,84.00000000000003,2|2,1:2|3:2,2:0:0:0:
203,248,111036,2,0,L|217:157,1,84.00000000000003,2|2,1:2|3:2,2:0:0:0:
215,164,111404,2,0,L|124:150,1,84.00000000000003,2|2,1:2|3:2,2:0:0:0:
75,96,111773,1,2,1:2:0:0:
75,96,111865,1,2,1:2:0:0:
75,96,111957,1,2,1:2:0:0:
131,151,112325,5,2,3:2:0:0:
60,201,112509,2,0,L|103:377,1,168.00000000000006,2|2,1:2|1:2,2:0:0:0:
60,201,113245,1,2,3:1:0:0:
