osu file format v14

[General]
AudioFilename: audio.mp3
AudioLeadIn: 0
PreviewTime: 26467
Countdown: 0
SampleSet: Soft
StackLeniency: 0.4
Mode: 0
LetterboxInBreaks: 0
WidescreenStoryboard: 1

[Editor]
Bookmarks: 33369
DistanceSpacing: 0.9
BeatDivisor: 4
GridSize: 16
TimelineZoom: 1.6

[Metadata]
Title:Cat Loving
TitleUnicode:キャットラビング
Artist:Kotoha
ArtistUnicode:Kotoha
Creator:Kotoha
Version:Blitzifyyy's Easy
Source:
Tags:blitzifyyy mocaotic bongo ayucchi japanese pop j-pop jpop cat rubbing 香椎モイミ Moimi Kashii hakoniwalily ハコニワリリィ honeyworks ハニーワークス ハニワ kamitsubaki studio 神椿スタジオ
BeatmapID:3736288
BeatmapSetID:1809604

[Difficulty]
HPDrainRate:2
CircleSize:3
OverallDifficulty:2.5
ApproachRate:4
SliderMultiplier:1
SliderTickRate:1

[Events]
//Background and Video events
0,0,"kotohacute.jpg",0,0
//Break Periods
//Storyboard Layer 0 (Background)
//Storyboard Layer 1 (Fail)
//Storyboard Layer 2 (Pass)
//Storyboard Layer 3 (Foreground)
//Storyboard Layer 4 (Overlay)
//Storyboard Sound Samples

[TimingPoints]
241,368.098159509202,4,2,1,60,1,0
3185,368.098159509202,4,2,1,55,1,0
14964,-100,4,2,1,65,0,0
26743,-100,4,2,1,75,0,0
44411,-100,4,2,1,45,0,0
56191,-100,4,2,1,55,0,0
67970,-100,4,2,1,65,0,0
79749,-100,4,2,1,40,0,0
85638,-100,4,2,1,55,0,0
87111,-100,4,2,1,60,0,0
88583,-100,4,2,1,65,0,0
90056,-100,4,2,1,50,0,0
93000,368.098159509202,4,2,1,65,1,0
95944,-100,4,2,1,75,0,0
110668,-100,4,2,1,70,0,0

[Colours]
Combo1 : 249,193,255
Combo2 : 139,245,254
Combo3 : 160,255,147

[HitObjects]
12,317,3185,6,0,P|-11:272|10:222,2,100,2|2|2,3:2|3:2|3:2,2:0:0:0:
79,376,4289,1,2,3:2:0:0:
154,326,4657,2,0,B|200:290|261:335|230:354|293:384|350:350,1,200,2|2,3:2|3:2,2:0:0:0:
417,315,5761,1,2,3:2:0:0:
478,249,6129,6,0,B|474:149,1,100,2|2,3:2|3:2,2:0:0:0:
405,90,6865,2,0,B|358:75|358:75|302:94,1,100,2|2,3:2|3:2,2:0:0:0:
245,153,7602,2,0,B|249:253,2,100,2|2|2,3:2|3:2|3:2,2:0:0:0:
176,94,8706,1,2,3:2:0:0:
242,32,9074,6,0,B|279:22|286:-8|286:-8|372:-28|393:61,1,200,6|2,3:2|3:2,2:0:0:0:
352,133,10178,1,2,3:2:0:0:
412,199,10546,2,0,L|517:197,2,100,0|2|2,3:2|3:2|3:2,2:0:0:0:
373,280,11651,1,2,3:2:0:0:
295,233,12019,6,0,P|250:218|203:236,1,100,2|2,3:2|3:2,2:0:0:0:
139,300,12755,2,0,P|94:315|47:297,1,100,2|2,3:2|3:2,2:0:0:0:
1,219,13491,2,0,L|2:115,2,100,2|2|2,3:2|3:2|3:2,2:0:0:0:
112,360,14964,6,0,B|137:365|137:365|168:360,1,50,6|2,3:2|3:2,2:0:0:0:
242,321,15516,2,0,L|241:212,1,100,6|0,3:2|2:0,2:0:0:0:
241,176,16068,1,2,3:2:0:0:
176,112,16436,2,0,L|176:58,1,50,6|2,3:2|3:2,2:0:0:0:
246,6,16988,2,0,B|305:6|305:6|310:9|310:9|363:9,1,100,6|2,3:2|3:2,2:0:0:0:
390,7,17540,1,2,3:2:0:0:
454,69,17908,6,0,P|460:92|455:120,1,50,4|2,3:2|3:2,2:0:0:0:
396,185,18461,2,0,L|281:183,1,100,6|0,3:2|3:2,2:0:0:0:
251,185,19013,1,2,3:2:0:0:
174,232,19381,2,0,B|152:283|152:283|167:331,1,100,6|2,1:2|1:2,2:0:0:0:
237,378,20117,2,0,L|346:376,1,100,2|2,1:2|1:2,2:0:0:0:
411,325,20853,6,0,L|410:274,1,50,2|2,3:2|3:2,2:0:0:0:
464,203,21405,2,0,L|462:86,1,100,2|0,3:2|3:2,2:0:0:0:
461,57,21958,1,2,3:2:0:0:
386,6,22326,2,0,P|361:0|337:5,1,50,2|2,3:2|3:2,2:0:0:0:
264,57,22878,2,0,B|217:55|217:55|210:59|210:59|158:56,1,100,2|0,3:2|3:2,2:0:0:0:
120,52,23430,1,2,3:2:0:0:
50,109,23798,6,0,B|37:133|37:133|44:160,1,50,2|2,3:2|3:2,2:0:0:0:
102,222,24350,2,0,P|150:205|202:222,1,100,2|2,3:2|3:2,2:0:0:0:
229,247,24902,1,2,3:2:0:0:
305,199,25270,2,0,L|414:201,1,100,2|2,1:2|1:2,2:0:0:0:
485,241,26007,1,2,1:2:0:0:
365,375,26743,6,0,B|299:375,1,50,6|0,1:2|2:0,2:0:0:0:
270,375,27111,1,2,1:2:0:0:
193,327,27479,2,0,P|170:284|191:233,1,100,2|2,1:2|1:2,2:0:0:0:
217,206,28031,2,0,L|321:207,2,100,2|0|2,2:0|2:0|2:0,2:0:0:0:
196,165,28951,1,2,1:2:0:0:
126,107,29319,1,2,1:2:0:0:
62,170,29688,6,0,P|41:218|58:264,1,100,2|2,1:2|1:2,2:0:0:0:
115,327,30424,2,0,B|161:309|161:309|212:326,1,100,0|2,1:2|1:2,2:0:0:0:
250,343,30976,2,0,B|265:308|243:276|243:276|251:265|251:265|233:237|252:201,1,150,2|2,2:0|1:2,2:0:0:0:
333,164,31896,1,2,1:2:0:0:
391,95,32264,1,2,1:2:0:0:
329,29,32632,6,0,P|302:15|262:20,1,50,6|0,1:2|2:0,2:0:0:0:
243,36,33000,1,2,1:2:0:0:
206,118,33369,2,0,P|160:139|104:128,1,100,2|2,1:2|1:2,2:0:0:0:
28,98,34105,2,0,B|27:-5|32:98|31:-5,2,100,0|2|2,1:2|1:2|1:2,2:0:0:0:
0,183,35209,1,2,1:2:0:0:
74,233,35577,6,0,L|178:230,1,100,2|2,1:2|1:2,2:0:0:0:
235,164,36313,2,0,L|304:166,1,50,0|0,1:2|2:0,2:0:0:0:
332,169,36681,1,2,1:2:0:0:
418,194,37050,2,0,B|436:180|431:155|431:155|485:206|436:300,1,200,0|2,1:2|1:2,2:0:0:0:
373,364,38154,1,2,1:2:0:0:
294,319,38522,6,0,P|277:271|293:224,1,100,2|2,1:2|1:2,2:0:0:0:
373,188,39258,2,0,P|390:140|374:93,1,100,0|2,1:2|1:2,2:0:0:0:
305,40,39994,2,0,L|197:43,2,100,2|2|2,1:2|1:2|1:2,2:0:0:0:
387,2,41099,1,2,1:2:0:0:
450,66,41467,6,0,L|446:173,1,100,2|2,1:2|1:2,2:0:0:0:
391,237,42203,2,0,B|343:254|343:254|290:237,1,100,2|6,1:2|1:2,2:0:0:0:
254,222,42755,1,6,1:2:0:0:
438,90,44411,6,0,P|425:42|448:0,2,100,6|0|0,3:2|3:2|3:2,2:0:0:0:
511,203,45700,2,0,B|359:199|511:207|359:204,1,150,2|0,2:0|3:2,2:0:0:0:
277,235,46620,1,0,3:2:0:0:
204,182,46988,1,2,3:2:0:0:
122,220,47356,6,0,P|99:264|109:317,1,100,2|2,3:2|3:2,2:0:0:0:
166,381,48092,1,2,3:2:0:0:
277,304,48645,2,0,B|315:279|358:313|332:321|384:347|422:316,1,150,2|0,2:0|3:2,2:0:0:0:
483,262,49565,1,2,3:2:0:0:
495,172,49933,1,2,3:2:0:0:
439,101,50301,6,0,B|383:77|354:129|354:129|304:164|255:116,1,200,6|2,3:2|3:2,2:0:0:0:
183,80,51405,1,2,3:2:0:0:
111,134,51773,2,0,L|7:133,2,100,0|2|2,3:2|3:2|3:2,2:0:0:0:
182,189,52878,1,2,3:2:0:0:
256,138,53246,6,0,P|303:122|352:140,1,100,2|2,3:2|3:2,2:0:0:0:
414,199,53982,2,0,L|413:315,1,100,2|2,3:2|1:2,2:0:0:0:
411,343,54534,1,0,1:2:0:0:
92,16,56191,6,0,B|45:1|45:1|-4:16,2,100,4|2|2,3:2|3:2|3:2,2:0:0:0:
167,65,57295,1,2,3:2:0:0:
241,14,57663,2,0,B|280:-19|327:8|336:29|340:9|323:21|346:20|328:8|392:49|434:4,1,200,2|0,3:2|3:2,2:0:0:0:
499,66,58767,1,2,3:2:0:0:
439,133,59135,5,2,3:2:0:0:
499,200,59504,2,0,B|554:264|501:345|501:345|481:303,1,200,2|2,3:2|3:2,2:0:0:0:
416,245,60608,2,0,L|313:248,2,100,2|2|2,3:2|3:2|3:2,2:0:0:0:
499,200,61712,1,2,3:2:0:0:
453,122,62080,6,0,P|405:105|356:123,1,100,4|2,3:2|3:2,2:0:0:0:
304,190,62816,2,0,P|256:207|207:189,1,100,2|2,3:2|3:2,2:0:0:0:
138,139,63553,2,0,L|139:35,2,100,2|2|0,3:2|3:2|3:2,2:0:0:0:
75,203,64657,1,2,3:2:0:0:
133,271,65025,6,0,B|196:329|247:279|247:279|276:255|318:270,1,200,2|2,3:2|3:2,2:0:0:0:
381,327,66129,1,2,3:2:0:0:
444,262,66497,2,0,L|443:145,2,100,0|0|0,3:2|3:2|3:2,2:0:0:0:
299,370,67970,6,0,L|243:370,1,50,6|2,3:2|3:2,2:0:0:0:
175,318,68522,2,0,P|156:272|173:226,1,100,6|0,3:2|2:0,2:0:0:0:
208,199,69074,1,2,3:2:0:0:
281,147,69442,2,0,P|291:124|286:95,1,50,6|2,3:2|3:2,2:0:0:0:
222,37,69994,2,0,L|120:38,1,100,6|2,3:2|3:2,2:0:0:0:
77,37,70546,1,2,3:2:0:0:
22,108,70915,6,0,L|23:161,1,50,4|2,3:2|3:2,2:0:0:0:
81,226,71467,2,0,B|130:244|130:244|181:224,1,100,6|0,3:2|3:2,2:0:0:0:
215,207,72019,1,2,3:2:0:0:
280,144,72387,2,0,P|328:128|374:143,1,100,6|2,1:2|1:2,2:0:0:0:
429,212,73123,2,0,L|427:315,1,100,2|2,1:2|1:2,2:0:0:0:
366,378,73859,6,0,B|342:383|342:383|316:377,1,50,2|2,3:2|3:2,2:0:0:0:
247,320,74411,2,0,L|248:220,1,100,2|0,3:2|3:2,2:0:0:0:
249,174,74964,1,2,3:2:0:0:
311,109,75332,2,0,P|337:103|364:109,1,50,2|2,3:2|3:2,2:0:0:0:
431,165,75884,2,0,P|452:211|435:260,1,100,2|0,3:2|3:2,2:0:0:0:
405,286,76436,1,2,3:2:0:0:
331,337,76804,6,0,L|280:336,1,50,2|2,3:2|3:2,2:0:0:0:
200,296,77356,2,0,B|180:249|180:249|199:196,1,100,2|2,3:2|3:2,2:0:0:0:
220,165,77908,1,2,3:2:0:0:
168,90,78277,2,0,P|122:74|73:92,1,100,2|2,1:2|1:2,2:0:0:0:
15,157,79013,1,2,1:2:0:0:
128,296,79749,6,0,P|150:340|128:387,2,100,2|2|2,3:2|3:2|3:2,2:0:0:0:
62,234,80853,1,2,3:2:0:0:
125,169,81221,2,0,B|174:133|229:167|229:167|240:155|240:155|279:175|324:152,1,200,0|2,3:2|3:2,2:0:0:0:
387,111,82326,1,2,3:2:0:0:
459,164,82694,6,0,P|479:214|462:261,1,100,2|2,3:2|3:2,2:0:0:0:
392,310,83430,2,0,L|290:309,1,100,0|2,3:2|3:2,2:0:0:0:
212,267,84166,2,0,L|110:268,2,100,0|2|2,3:2|3:2|3:2,2:0:0:0:
290,223,85270,1,2,3:2:0:0:
225,160,85638,6,0,B|197:145|192:111|192:111|108:100|79:188,1,200,2|2,3:2|3:2,2:0:0:0:
44,257,86743,1,2,3:2:0:0:
100,326,87111,2,0,L|209:323,1,100,0|2,3:2|3:2,2:0:0:0:
274,272,87847,2,0,L|383:275,1,100,2|2,3:2|3:2,2:0:0:0:
453,317,88583,6,0,B|481:278|481:278|472:116,1,200,2|0,3:2|3:2,2:0:0:0:
411,59,89688,1,2,3:2:0:0:
333,103,90056,2,0,P|287:115|234:96,2,100,0|2|2,3:2|3:2|3:2,2:0:0:0:
33,375,92448,6,0,L|92:373,1,50,0|4,3:2|1:2,2:0:0:0:
156,322,93000,2,0,P|173:288|168:258,1,50,2|0,3:2|2:0,2:0:0:0:
160,233,93368,1,2,3:2:0:0:
77,196,93736,2,0,P|61:146|82:99,1,100,2|2,3:2|3:2,2:0:0:0:
139,38,94472,2,0,L|242:40,2,100,0|2|2,3:2|3:2|3:2,2:0:0:0:
5,163,95944,6,0,L|7:222,1,50,6|0,1:2|2:0,2:0:0:0:
9,257,96312,1,2,1:2:0:0:
79,313,96680,2,0,P|129:324|176:304,1,100,0|2,1:2|1:2,2:0:0:0:
203,272,97233,2,0,B|198:171,2,100,2|2|2,2:0|2:0|2:0,2:0:0:0:
245,287,98153,1,2,1:2:0:0:
320,336,98521,1,2,1:2:0:0:
384,273,98889,6,0,B|395:249|395:249|391:210,1,50,6|0,1:2|2:0,2:0:0:0:
377,182,99257,1,2,1:2:0:0:
307,125,99625,2,0,B|259:109|259:109|206:129,1,100,2|2,1:2|1:2,2:0:0:0:
153,194,100361,2,0,L|153:297,2,100,0|2|2,1:2|1:2|1:2,2:0:0:0:
87,131,101466,1,2,1:2:0:0:
135,55,101834,6,0,P|183:39|231:56,1,100,2|2,1:2|1:2,2:0:0:0:
308,95,102570,2,0,P|335:101|364:94,1,50,0|0,1:2|2:0,2:0:0:0:
392,70,102938,1,2,1:2:0:0:
479,89,103306,2,0,B|508:128|475:198|454:164|415:232|458:286,1,200,0|2,1:2|1:2,2:0:0:0:
503,345,104411,1,2,1:2:0:0:
420,381,104779,6,0,B|319:382,1,100,2|2,1:2|1:2,2:0:0:0:
236,347,105515,2,0,B|224:297|224:297|239:243,1,100,0|2,1:2|1:2,2:0:0:0:
309,196,106251,2,0,L|415:197,2,100,2|2|2,1:2|1:2|1:2,2:0:0:0:
234,144,107355,1,2,1:2:0:0:
168,205,107723,6,0,P|118:217|73:203,1,100,2|2,1:2|1:2,2:0:0:0:
2,146,108460,2,0,L|2:40,1,100,2|6,1:2|1:2,2:0:0:0:
3,1,109012,1,2,1:2:0:0:
369,173,110668,6,0,P|417:186|469:170,2,100,2|2|2,1:2|1:2|1:2,2:0:0:0:
297,117,111773,2,0,P|273:111|245:119,1,50,2|2,1:2|1:2,2:0:0:0:
134,189,112509,2,0,L|134:291,1,100,2|2,1:2|1:2,2:0:0:0:
133,378,113245,1,2,3:1:0:0:
