osu file format v14

[General]
AudioFilename: audio.mp3
AudioLeadIn: 0
PreviewTime: 26667
Countdown: 0
SampleSet: Soft
StackLeniency: 0.2
Mode: 0
LetterboxInBreaks: 0
WidescreenStoryboard: 1

[Editor]
DistanceSpacing: 1.1
BeatDivisor: 4
GridSize: 4
TimelineZoom: 2

[Metadata]
Title:CH4NGE
TitleUnicode:CH4NGE
Artist:Kotoha
ArtistUnicode:Kotoha
Creator:Kotoha
Version:Hard
Source:
Tags:slyze- ayucchi hakolili hakoniwalily ハコニワリリィ ハコリリ GigaP ギガ ギガP KAFU 可不 CHANGE cover electronic japanese pop jpop j-pop
BeatmapID:3649317
BeatmapSetID:1782023

[Difficulty]
HPDrainRate:5
CircleSize:3.8
OverallDifficulty:7
ApproachRate:8
SliderMultiplier:2.2
SliderTickRate:1

[Events]
//Background and Video events
0,0,"kotohathighs.jpg",0,0
//Break Periods
2,69148,76546
//Storyboard Layer 0 (Background)
//Storyboard Layer 1 (Fail)
//Storyboard Layer 2 (Pass)
//Storyboard Layer 3 (Foreground)
//Storyboard Layer 4 (Overlay)
//Storyboard Sound Samples

[TimingPoints]
80,521.739130434783,4,2,1,40,1,0
2166,521.739130434783,4,2,1,40,1,0
9470,-100,4,2,1,50,0,0
18861,-90.9090909090909,4,2,2,60,0,0
25122,-90.9090909090909,4,2,2,50,0,0
26166,-90.9090909090909,4,2,1,50,0,0
26687,-111.111111111111,4,2,1,60,0,0
27209,-83.3333333333333,4,2,2,75,0,1
43383,-90.9090909090909,4,2,2,100,0,0
43416,-90.9090909090909,4,2,2,60,0,0
52252,-100,4,2,1,50,0,0
58513,-100,4,2,1,65,0,0
60600,-100,4,2,1,50,0,0
68948,-100,4,2,1,30,0,0
77296,-125,4,2,1,40,0,0
85644,-125,4,2,1,50,0,0
87731,-125,4,2,3,60,0,0
89818,521.739130434783,4,2,2,60,1,0
89818,-90.9090909090909,4,2,2,60,0,0
96078,-90.9090909090909,4,2,2,50,0,0
97644,-111.111111111111,4,2,2,60,0,0
98165,-83.3333333333333,4,2,2,70,0,1
114339,-100,4,2,2,40,0,0
114861,-100,4,2,4,55,0,0
117991,-142.857142857143,4,2,4,55,0,0
119035,-100,4,2,4,55,0,0
123209,-90.9090909090909,4,2,2,60,0,0
130513,-90.9090909090909,4,2,2,40,0,0

[Colours]
Combo1 : 247,241,145
Combo2 : 139,245,254
Combo3 : 160,255,147

[HitObjects]
256,192,80,12,0,1645,0:0:0:0:
71,23,2166,5,2,0:2:0:0:
190,70,2426,1,0,3:0:0:0:
174,195,2687,1,0,1:0:0:0:
111,246,2861,2,0,P|124:288|183:320,1,110,0|0,3:0|0:0,0:0:0:0:
189,326,3209,6,0,B|137:341|149:373|85:388,2,110,2|2|0,3:2|0:3|1:0,0:0:0:0:
316,289,3992,1,0,3:0:0:0:
442,360,4252,6,0,P|449:320|469:247,1,110,2|0,0:3|3:0,0:0:0:0:
350,186,4774,1,2,1:3:0:0:
410,135,4948,1,0,3:0:0:0:
422,146,5035,2,0,P|468:136|511:128,1,73.3333333333333,2|0,0:2|0:0,0:0:0:0:
503,127,5296,6,0,P|488:56|413:65,1,110,2|2,3:2|0:3,0:0:0:0:
338,79,5818,1,0,1:0:0:0:
234,33,6079,2,0,L|221:107,1,73.3333333333333,0|0,3:0|0:0,0:0:0:0:
231,118,6339,1,2,0:1:0:0:
150,247,6600,6,0,P|210:219|263:213,2,110,0|0|2,3:0|1:0|0:3,0:0:0:0:
26,185,7383,2,0,P|-6:142|0:89,1,110,2|2,3:2|0:3,0:0:0:0:
100,11,7905,2,0,L|188:24,1,73.3333333333333,0|0,1:0|0:0,0:0:0:0:
177,36,8166,2,0,L|265:23,1,73.3333333333333,0|0,3:0|0:0,0:0:0:0:
259,16,8426,5,2,0:3:0:0:
261,139,8687,2,0,L|246:221,1,73.3333333333333,0|0,3:0|0:0,0:0:0:0:
260,224,8948,1,0,1:0:0:0:
335,190,9122,1,0,3:0:0:0:
342,179,9209,1,2,0:2:0:0:
366,64,9470,5,2,3:1:0:0:
433,27,9600,2,0,P|483:56|488:116,1,110
431,153,9992,1,0,1:0:0:0:
417,233,10122,1,0,0:0:0:0:
417,233,10252,2,0,L|444:355,1,110,0|2,3:0|0:1,0:0:0:0:
279,355,10774,6,0,L|264:276,1,73.3333333333333,2|0,3:2|0:0,0:0:0:0:
248,280,11035,2,0,L|263:201,1,73.3333333333333,0|0,1:0|3:0,0:0:0:0:
252,196,11296,1,2,0:3:0:0:
152,81,11557,6,0,B|210:72|189:40|264:33,2,110,0|2|2,3:0|0:3|1:2,0:0:0:0:
25,32,12339,2,0,P|6:57|13:125,1,73.3333333333333,2|0,3:1|0:0,0:0:0:0:
15,114,12600,1,2,0:1:0:0:
111,203,12861,6,0,L|-10:220,2,110,0|2|2,3:0|1:3|0:2,0:0:0:0:
196,344,13644,2,0,P|222:315|214:267,1,73.3333333333333,2|0,3:2|0:0,0:0:0:0:
207,268,13905,2,0,L|200:188,1,73.3333333333333,2|0,0:3|0:0,0:0:0:0:
210,180,14166,1,2,1:1:0:0:
281,91,14426,1,0,3:0:0:0:
404,112,14687,6,0,L|426:-11,2,110,2|0|2,0:1|3:0|1:2,0:0:0:0:
338,169,15383,1,0,3:0:0:0:
347,179,15470,2,0,P|342:212|360:240,1,55,2|0,0:3|0:0,0:0:0:0:
364,242,15731,6,0,L|500:212,2,110,2|2|0,3:2|0:3|1:0,0:0:0:0:
284,347,16513,1,0,3:0:0:0:
144,374,16774,2,0,L|54:361,1,73.3333333333333,2|0,0:3|0:0,0:0:0:0:
56,372,17035,2,0,P|36:341|40:285,1,73.3333333333333,0|0,3:0|0:0,0:0:0:0:
44,293,17296,1,2,1:3:0:0:
96,230,17470,1,0,3:0:0:0:
108,239,17557,1,0,0:0:0:0:
22,150,17818,6,0,L|8:17,1,110,2|0,3:3|0:0,0:0:0:0:
145,96,18339,2,0,B|186:86|186:86|217:58|217:58|260:50,1,110,2|0,1:2|0:0,0:0:0:0:
242,53,18861,6,0,P|286:91|265:171,1,121.000003692627,2|2,3:2|0:3,0:0:0:0:
169,224,19383,1,2,3:2:0:0:
233,273,19513,2,0,P|288:271|317:338,1,121.000003692627,2|0,0:2|0:0,0:0:0:0:
317,336,19905,6,0,L|452:321,1,121.000003692627,2|2,3:2|0:3,0:0:0:0:
491,203,20426,1,2,1:2:0:0:
414,221,20557,2,0,P|384:163|418:107,1,121.000003692627,2|0,0:2|0:0,0:0:0:0:
418,109,20948,5,2,3:2:0:0:
355,8,21209,2,0,L|263:24,1,60.5000018463135,2|2,0:3|0:2,0:0:0:0:
295,18,21470,1,2,3:2:0:0:
260,88,21600,2,0,L|119:62,1,121.000003692627,2|0,0:2|0:0,0:0:0:0:
135,60,21992,5,2,3:1:0:0:
85,132,22122,2,0,L|101:193,1,60.5000018463135
129,55,22513,5,2,1:1:0:0:
79,127,22643,2,0,L|95:188,1,60.5000018463135
0,304,23035,6,0,P|32:271|107:268,1,121.000003692627,2|2,3:2|0:3,0:0:0:0:
147,382,23557,1,2,3:2:0:0:
192,314,23687,2,0,L|326:293,1,121.000003692627,2|0,0:2|0:0,0:0:0:0:
318,302,24079,6,0,L|349:176,1,121.000003692627,2|2,3:2|0:3,0:0:0:0:
225,105,24600,1,2,1:2:0:0:
290,58,24731,2,0,P|338:94|414:80,1,121.000003692627,2|0,0:2|0:0,0:0:0:0:
409,83,25122,5,2,3:2:0:0:
444,161,25252,1,0,0:0:0:0:
444,161,25644,5,2,3:2:0:0:
383,221,25774,2,0,L|324:213,2,60.5000018463135
424,308,26166,1,4,0:1:0:0:
424,308,26687,6,0,L|318:295,1,98.9999969787599,2|2,1:2|0:2,0:0:0:0:
144,360,27209,6,0,P|90:346|74:267,1,131.99999597168,6|2,3:2|0:3,0:0:0:0:
120,219,27644,1,0,0:0:0:0:
129,223,27731,2,0,L|112:131,1,87.9999973144532,0|0,1:0|0:0,0:0:0:0:
126,124,27992,1,2,0:3:0:0:
83,35,28166,5,0,3:0:0:0:
90,29,28252,2,0,L|251:54,2,131.99999597168,2|2|2,3:2|0:3|1:2,0:0:0:0:
242,145,29035,2,0,L|332:121,1,87.9999973144532,0|0,3:0|0:0,0:0:0:0:
337,127,29296,1,2,3:2:0:0:
337,127,29557,6,0,P|336:86|368:46,1,87.9999973144532,2|0,0:3|3:0,0:0:0:0:
439,72,29818,2,0,P|440:113|408:153,1,87.9999973144532,2|0,1:2|0:0,0:0:0:0:
322,107,30079,6,0,P|330:66|370:35,1,87.9999973144532,2|0,0:3|3:0,0:0:0:0:
450,93,30339,2,0,P|435:154|357:207,1,131.99999597168,2|2,3:2|0:3,0:0:0:0:
305,188,30774,5,0,0:0:0:0:
303,201,30861,2,0,L|318:294,1,87.9999973144532,2|0,1:2|3:2,0:0:0:0:
326,297,31122,1,2,0:3:0:0:
252,368,31296,1,2,3:2:0:0:
260,360,31383,2,0,P|219:312|121:325,2,131.99999597168,0|2|2,3:0|0:3|1:2,0:0:0:0:
303,201,32166,6,0,L|292:112,1,87.9999973144532,2|2,0:3|3:2,0:0:0:0:
286,98,32426,2,0,P|246:140|174:134,1,131.99999597168,2|2,3:2|0:3,0:0:0:0:
125,77,32861,1,0,0:0:0:0:
114,80,32948,2,0,P|89:120|104:174,1,87.9999973144532,2|0,1:2|0:0,0:0:0:0:
100,179,33209,2,0,L|2:188,1,87.9999973144532,2|0,0:3|0:0,0:0:0:0:
5,199,33470,1,2,3:2:0:0:
139,277,33731,6,0,L|-18:295,2,131.99999597168,2|0|2,0:3|1:0|0:3,0:0:0:0:
204,345,34426,1,0,3:0:0:0:
213,340,34513,2,0,L|233:247,1,87.9999973144532,0|0,3:0|0:0,0:0:0:0:
240,246,34774,2,0,P|295:248|337:328,1,131.99999597168,2|2,0:3|1:2,0:0:0:0:
382,370,35209,1,0,3:0:0:0:
377,380,35296,1,0,3:0:0:0:
450,228,35557,6,0,B|456:121|358:179|394:23,1,219.999993286133,6|2,3:2|0:2,0:0:0:0:
403,24,36079,2,0,L|492:40,1,87.9999973144532,0|0,1:0|0:0,0:0:0:0:
495,120,36339,2,0,L|352:96,1,131.99999597168,2|0,0:3|3:0,0:0:0:0:
227,59,36861,6,0,L|243:157,1,87.9999973144532,2|0,0:3|0:0,0:0:0:0:
234,161,37122,5,0,1:0:0:0:
316,171,37252,5,2,0:2:0:0:
351,247,37383,5,2,0:3:0:0:
280,372,37644,6,0,P|206:315|84:363,1,219.999993286133,2|2,3:2|3:2,0:0:0:0:
85,365,38166,2,0,P|42:335|39:286,1,87.9999973144532,0|0,1:0|0:0,0:0:0:0:
90,247,38426,2,0,P|131:196|102:131,1,131.99999597168,2|0,0:3|3:0,0:0:0:0:
25,42,38948,6,0,L|127:59,1,87.9999973144532,2|0,0:3|0:0,0:0:0:0:
121,50,39209,1,2,1:2:0:0:
206,15,39383,1,0,3:0:0:0:
215,20,39470,2,0,L|226:130,1,87.9999973144532,2|0,0:3|0:0,0:0:0:0:
284,161,39731,6,0,P|343:162|379:248,2,131.99999597168,2|2|2,3:2|0:3|1:2,0:0:0:0:
212,286,40513,2,0,L|308:278,1,87.9999973144532,2|0,0:3|3:0,0:0:0:0:
310,285,40774,2,0,P|296:332|329:369,1,87.9999973144532,2|0,3:2|0:0,0:0:0:0:
330,370,41035,2,0,L|426:362,1,87.9999973144532,2|0,0:3|0:0,0:0:0:0:
429,356,41296,1,0,1:0:0:0:
478,282,41470,1,0,3:0:0:0:
488,282,41557,2,0,P|496:228|471:203,1,87.9999973144532,2|0,0:3|0:0,0:0:0:0:
433,142,41818,6,0,B|366:149|401:205|317:209,1,131.99999597168,2|2,3:2|0:3,0:0:0:0:
244,174,42252,1,2,3:2:0:0:
234,173,42339,2,0,L|218:84,1,87.9999973144532,0|0,1:0|0:0,0:0:0:0:
208,76,42600,1,2,0:3:0:0:
134,241,42861,6,0,P|93:187|7:203,2,131.99999597168,2|2|4,3:2|0:3|1:1,0:0:0:0:
134,241,43905,6,0,L|223:253,1,60.5000018463135,2|0,3:2|0:0,0:0:0:0:
236,319,44166,2,0,L|325:331,1,60.5000018463135,2|0,0:3|0:0,0:0:0:0:
377,352,44426,2,0,L|393:206,1,121.000003692627,10|2,1:2|0:3,0:0:0:0:
461,191,44818,1,0,0:0:0:0:
461,191,44948,6,0,P|456:150|425:114,1,60.5000018463135,2|0,3:2|0:0,0:0:0:0:
480,60,45209,2,0,P|444:39|396:42,1,60.5000018463135,2|0,0:3|0:0,0:0:0:0:
370,102,45470,2,0,P|326:132|258:118,1,121.000003692627,10|2,1:2|0:3,0:0:0:0:
230,50,45861,1,2,0:3:0:0:
230,50,45992,6,0,L|149:66,1,60.5000018463135,2|0,3:2|0:0,0:0:0:0:
99,103,46252,2,0,L|83:22,1,60.5000018463135,2|0,0:3|0:0,0:0:0:0:
0,32,46513,2,0,L|37:232,1,181.500005538941,10|0,3:2|0:0,0:0:0:0:
39,219,47035,5,2,3:2:0:0:
110,263,47166,2,0,L|175:245,1,60.5000018463135,2|2,0:2|0:3,0:0:0:0:
46,225,47557,5,10,1:2:0:0:
117,269,47688,2,0,L|182:251,1,60.5000018463135,2|2,0:2|0:3,0:0:0:0:
309,324,48079,6,0,P|320:367|354:384,1,60.5000018463135,2|0,3:2|0:0,0:0:0:0:
410,376,48339,2,0,P|429:353|431:323,1,60.5000018463135,2|0,0:3|0:0,0:0:0:0:
368,269,48600,2,0,P|337:209|373:157,1,121.000003692627,10|2,1:2|0:3,0:0:0:0:
441,142,48992,1,0,0:0:0:0:
441,142,49122,6,0,L|452:54,1,60.5000018463135,2|0,3:2|0:0,0:0:0:0:
382,29,49383,2,0,L|294:18,1,60.5000018463135,2|0,0:3|0:0,0:0:0:0:
270,82,49644,2,0,L|144:66,1,121.000003692627,10|2,1:2|0:3,0:0:0:0:
86,15,50035,1,2,0:3:0:0:
86,15,50166,6,0,P|69:39|75:88,1,60.5000018463135,2|0,3:2|0:0,0:0:0:0:
112,137,50426,2,0,P|110:166|93:191,1,60.5000018463135,2|0,0:3|0:0,0:0:0:0:
18,240,50687,2,0,P|81:237|127:321,1,121.000003692627,2|2,3:2|0:3,0:0:0:0:
80,341,51079,1,0,0:0:0:0:
80,341,51209,1,0,3:0:0:0:
232,364,51470,6,0,L|252:235,2,121.000003692627,2|0|0,0:3|1:0|3:0,0:0:0:0:
329,225,52252,6,0,P|342:195|326:143,1,73.3333333333333,2|0,3:2|0:0,0:0:0:0:
321,145,52513,2,0,L|241:159,1,73.3333333333333,8|0,0:3|0:0,0:0:0:0:
238,151,52774,1,2,1:2:0:0:
164,193,52948,2,0,P|112:172|114:111,1,110,8|2,0:3|0:2,0:0:0:0:
119,115,53296,6,0,L|144:9,1,73.3333333333333,2|0,3:2|0:0,0:0:0:0:
132,31,53557,2,0,L|70:43,2,55,2|2|0,0:2|0:2|1:0,0:0:0:0:
229,30,53992,1,0,0:0:0:0:
237,40,54079,2,0,L|244:141,1,73.3333333333333,8|2,0:3|0:3,0:0:0:0:
247,126,54339,6,0,P|301:105|358:125,1,110,2|8,3:2|0:3,0:0:0:0:
423,157,54774,1,0,3:0:0:0:
433,152,54861,2,0,P|433:82|387:36,1,110,2|0,1:2|0:0,0:0:0:0:
353,122,55296,5,0,3:0:0:0:
345,130,55383,2,0,L|335:234,1,73.3333333333333,8|0,0:3|0:0,0:0:0:0:
333,214,55644,2,0,L|255:207,2,55,2|2|0,0:2|0:2|1:0,0:0:0:0:
411,247,56079,1,0,0:0:0:0:
411,259,56166,2,0,P|377:301|383:336,1,73.3333333333333,8|0,0:3|0:0,0:0:0:0:
373,330,56426,6,0,P|316:314|263:361,1,110,2|8,3:2|0:3,0:0:0:0:
176,227,56948,2,0,P|128:252|77:235,1,110,2|2,1:2|0:2,0:0:0:0:
6,214,57383,1,0,3:0:0:0:
0,224,57470,2,0,L|20:102,1,110,10|0,0:3|0:0,0:0:0:0:
3,37,57905,5,0,0:0:0:0:
13,33,57992,2,0,L|89:49,1,73.3333333333333,0|0,1:0|0:0,0:0:0:0:
96,65,58252,2,0,L|172:49,1,73.3333333333333,10|0,0:3|0:0,0:0:0:0:
242,12,58513,6,0,P|267:42|261:81,1,73.3333333333333,2|0,1:2|0:0,0:0:0:0:
250,87,58774,2,0,P|248:122|272:149,1,73.3333333333333,8|0,0:3|0:0,0:0:0:0:
295,151,59035,1,2,1:2:0:0:
280,235,59209,1,8,0:3:0:0:
289,239,59296,1,0,0:0:0:0:
342,299,59470,5,0,0:0:0:0:
353,301,59557,2,0,P|382:265|447:261,1,110,2|2,1:2|0:3,0:0:0:0:
512,210,59992,1,2,0:3:0:0:
504,217,60079,2,0,L|479:130,1,73.3333333333333,2|0,1:2|0:0,0:0:0:0:
512,76,60339,1,2,0:3:0:0:
376,16,60600,6,0,P|324:56|256:36,1,110,2|8,3:2|0:3,0:0:0:0:
208,22,61035,1,0,0:0:0:0:
214,13,61122,2,0,L|94:42,1,110,2|2,1:2|0:3,0:0:0:0:
24,18,61557,5,0,3:2:0:0:
19,27,61644,2,0,L|44:135,1,110,8|2,3:3|0:3,0:0:0:0:
117,161,62079,1,8,0:3:0:0:
126,158,62166,2,0,P|139:192|115:242,1,73.3333333333333,0|0,1:0|0:0,0:0:0:0:
121,246,62426,2,0,L|197:252,1,73.3333333333333,8|0,0:3|0:0,0:0:0:0:
265,208,62687,6,0,P|260:150|297:102,1,110,2|8,3:2|0:3,0:0:0:0:
362,121,63122,1,0,3:0:0:0:
369,130,63209,2,0,P|374:188|337:236,1,110,2|2,1:2|0:3,0:0:0:0:
290,285,63644,5,0,0:0:0:0:
299,292,63731,2,0,L|424:275,1,110,2|2,3:2|0:3,0:0:0:0:
479,312,64166,1,8,0:3:0:0:
476,321,64252,1,2,1:2:0:0:
338,368,64513,1,8,0:3:0:0:
192,375,64774,6,0,P|154:324|187:259,1,110,2|8,3:2|0:3,0:0:0:0:
234,247,65209,1,0,0:0:0:0:
231,236,65296,2,0,L|210:141,1,73.3333333333333,2|8,1:2|0:3,0:0:0:0:
220,155,65557,1,2,0:3:0:0:
232,67,65731,5,0,3:0:0:0:
235,57,65818,2,0,L|106:79,1,110,2|2,3:2|0:3,0:0:0:0:
44,47,66252,1,8,0:3:0:0:
40,57,66339,2,0,L|55:142,1,73.3333333333333,2|0,1:2|0:0,0:0:0:0:
64,142,66600,2,0,L|79:227,1,73.3333333333333,8|0,0:3|0:0,0:0:0:0:
134,281,66861,6,0,L|26:301,1,110,2|8,3:2|0:3,0:0:0:0:
26,379,67296,1,0,3:0:0:0:
36,383,67383,2,0,L|145:364,1,110,2|2,1:2|0:3,0:0:0:0:
214,307,67818,5,0,3:0:0:0:
222,313,67905,2,0,P|267:291|270:229,2,110,2|2|0,3:2|0:3|1:0,0:0:0:0:
203,167,68687,6,0,L|222:90,1,73.3333333333333,2|0,3:2|0:0,0:0:0:0:
229,86,68948,1,2,0:2:0:0:
272,113,77296,6,0,B|181:120|220:48|91:53,1,176,0|0,3:0|0:0,0:0:0:0:
112,52,78079,2,0,L|97:127,1,44,2|0,0:2|0:0,0:0:0:0:
41,170,78339,2,0,P|120:193|130:291,1,176,0|2,1:0|0:2,0:0:0:0:
79,335,78992,1,2,0:3:0:0:
79,335,79122,1,2,0:3:0:0:
221,289,79383,6,0,L|414:322,2,176,2|0|0,0:2|3:0|1:0,0:0:0:0:
221,289,80687,2,0,L|236:190,1,88,0|2,0:0|0:2,0:0:0:0:
387,192,81209,1,2,0:2:0:0:
387,192,81339,1,0,3:0:0:0:
444,247,81470,6,0,P|473:210|453:146,1,88,0|0,3:0|0:0,0:0:0:0:
491,39,81992,2,0,L|379:56,1,88
337,105,82383,1,0,0:0:0:0:
337,105,82513,2,0,P|315:64|325:20,2,88,0|0|2,1:0|0:0|0:3,0:0:0:0:
398,161,83166,1,2,0:3:0:0:
398,161,83296,1,2,0:3:0:0:
464,340,83557,6,0,L|362:319,1,88,2|0,0:2|0:0,0:0:0:0:
241,367,84079,2,0,P|220:322|240:274,1,88,0|2,3:0|0:2,0:0:0:0:
298,242,84470,1,0,0:0:0:0:
298,242,84600,2,0,B|303:147|212:193|242:58,2,176,0|2|8,1:0|0:2|0:1,0:0:0:0:
256,192,85774,12,0,89296,1:0:0:0:
298,242,89818,6,0,L|422:258,1,121.000003692627,2|2,3:2|0:3,0:0:0:0:
428,139,90339,1,2,3:2:0:0:
503,161,90470,2,0,P|523:112|480:45,1,121.000003692627,2|0,0:2|0:0,0:0:0:0:
483,45,90861,6,0,L|361:63,1,121.000003692627,2|2,3:2|0:3,0:0:0:0:
297,169,91383,1,2,1:2:0:0:
223,142,91513,2,0,L|207:5,1,121.000003692627,2|0,0:2|0:0,0:0:0:0:
198,14,91904,5,2,3:2:0:0:
63,51,92165,2,0,L|69:126,1,60.5000018463135,2|2,0:3|0:2,0:0:0:0:
67,111,92426,1,2,3:2:0:0:
6,158,92557,2,0,P|29:216|114:225,1,121.000003692627,2|0,0:2|0:0,0:0:0:0:
90,240,92948,5,2,3:1:0:0:
48,312,93078,2,0,L|69:385,1,60.5000018463135
99,243,93470,5,2,1:1:0:0:
57,315,93600,2,0,L|78:388,1,60.5000018463135
186,282,93991,6,0,P|208:227|172:172,1,121.000003692627,2|2,3:2|0:3,0:0:0:0:
151,48,94513,1,2,3:2:0:0:
218,15,94644,2,0,L|346:5,1,121.000003692627,2|0,0:2|0:0,0:0:0:0:
348,13,95035,6,0,L|319:137,1,121.000003692627,2|2,3:2|0:3,0:0:0:0:
382,255,95557,1,2,1:2:0:0:
309,216,95687,2,0,P|253:240|242:298,1,121.000003692627,2|0,0:2|0:0,0:0:0:0:
249,304,96078,5,2,3:2:0:0:
303,369,96209,1,0,0:0:0:0:
303,369,96600,5,2,3:2:0:0:
366,313,96731,2,0,L|384:245,2,60.5000018463135
448,339,97122,1,2,3:2:0:0:
448,339,97644,6,0,L|475:225,1,98.9999969787599,2|2,1:2|0:2,0:0:0:0:
507,62,98165,6,0,L|376:81,1,131.99999597168,6|2,3:2|0:3,0:0:0:0:
313,33,98600,1,0,0:0:0:0:
302,40,98687,2,0,P|287:92|327:134,1,87.9999973144532,0|0,1:0|0:0,0:0:0:0:
312,125,98948,1,2,0:3:0:0:
381,197,99122,5,0,3:0:0:0:
377,208,99209,2,0,P|315:211|276:293,2,131.99999597168,2|2|2,3:2|0:3|1:2,0:0:0:0:
237,159,99991,2,0,L|147:135,1,87.9999973144532,0|0,3:0|0:0,0:0:0:0:
142,141,100252,1,2,3:2:0:0:
142,141,100513,6,0,P|136:100|98:65,1,87.9999973144532,2|0,0:3|3:0,0:0:0:0:
32,102,100774,2,0,P|37:142|75:177,1,87.9999973144532,2|0,1:2|0:0,0:0:0:0:
153,118,101035,6,0,P|138:78|94:54,1,87.9999973144532,2|0,0:3|3:0,0:0:0:0:
25,125,101295,2,0,P|49:182|134:223,1,131.99999597168,2|2,3:2|0:3,0:0:0:0:
182,194,101731,5,0,0:0:0:0:
192,205,101818,2,0,P|185:257|147:291,1,87.9999973144532,2|0,1:2|3:2,0:0:0:0:
150,289,102078,1,2,0:3:0:0:
194,357,102252,5,2,3:2:0:0:
204,365,102339,2,0,L|353:356,2,131.99999597168,0|2|2,3:0|0:3|1:2,0:0:0:0:
192,205,103122,6,0,L|210:112,1,87.9999973144532,2|2,0:3|3:2,0:0:0:0:
202,109,103383,2,0,P|256:143|326:98,1,131.99999597168,2|2,3:2|0:3,0:0:0:0:
283,37,103818,1,0,0:0:0:0:
295,34,103904,2,0,L|395:54,1,87.9999973144532,2|0,1:2|0:0,0:0:0:0:
384,67,104165,2,0,L|484:47,1,87.9999973144532,2|0,0:3|0:0,0:0:0:0:
478,37,104426,1,2,3:2:0:0:
399,181,104687,6,0,P|455:137|530:165,2,131.99999597168,2|0|2,0:3|1:0|0:3,0:0:0:0:
477,233,105383,1,0,3:0:0:0:
486,237,105470,2,0,P|500:273|479:316,1,87.9999973144532,0|0,3:0|0:0,0:0:0:0:
468,325,105731,2,0,L|334:314,1,131.99999597168,2|2,0:3|1:2,0:0:0:0:
272,350,106165,1,0,3:0:0:0:
268,359,106252,1,0,3:0:0:0:
133,206,106513,6,0,B|113:153|52:171|0:254|137:327,1,219.999993286133,6|2,3:2|0:2,0:0:0:0:
118,316,107035,2,0,L|213:301,1,87.9999973144532,0|0,1:0|0:0,0:0:0:0:
274,264,107296,2,0,P|300:207|260:150,1,131.99999597168,2|0,0:3|3:0,0:0:0:0:
144,106,107818,6,0,L|161:12,1,87.9999973144532,2|0,0:3|0:0,0:0:0:0:
151,8,108078,5,0,1:0:0:0:
71,20,108209,5,2,0:2:0:0:
31,89,108340,5,2,0:3:0:0:
140,199,108600,6,0,B|246:189|204:94|332:99,1,219.999993286133,2|2,3:2|3:2,0:0:0:0:
334,110,109122,2,0,L|351:15,1,87.9999973144532,0|0,1:0|0:0,0:0:0:0:
427,53,109383,2,0,P|443:124|389:177,1,131.99999597168,2|0,0:3|3:0,0:0:0:0:
493,328,109904,6,0,L|389:314,1,87.9999973144532,2|0,0:3|0:0,0:0:0:0:
393,306,110165,1,2,1:2:0:0:
358,230,110339,1,0,3:0:0:0:
348,231,110426,2,0,P|317:257|309:317,1,87.9999973144532,2|0,0:3|0:0,0:0:0:0:
231,319,110687,6,0,P|294:329|326:385,2,131.99999597168,2|2|2,3:2|0:3|1:2,0:0:0:0:
101,370,111470,6,0,L|89:272,1,87.9999973144532,2|0,0:3|3:0,0:0:0:0:
91,272,111731,2,0,P|44:281|7:253,1,87.9999973144532,2|0,3:2|0:0,0:0:0:0:
14,246,111991,2,0,L|2:148,1,87.9999973144532,2|0,0:3|0:0,0:0:0:0:
6,147,112252,1,0,1:0:0:0:
69,90,112426,1,0,3:0:0:0:
74,78,112513,2,0,P|115:65|173:90,1,87.9999973144532,2|0,0:3|0:0,0:0:0:0:
232,93,112774,6,0,B|233:178|169:130|195:252,1,131.99999597168,2|2,3:2|0:3,0:0:0:0:
280,212,113165,1,0,0:0:0:0:
287,217,113296,2,0,L|376:195,1,87.9999973144532,0|0,1:0|0:0,0:0:0:0:
378,183,113557,1,2,0:3:0:0:
370,352,113818,6,0,P|428:309|487:327,2,131.99999597168,2|2|0,3:2|0:3|0:0,0:0:0:0:
268,244,114861,6,0,B|173:247|215:319|106:317,2,165,2|2|2,3:2|0:2|3:2,0:0:0:0:
286,71,116035,1,0,3:0:0:0:
286,71,116165,2,0,L|164:66,1,110,2|0,0:2|1:0,0:0:0:0:
48,128,116687,5,2,0:3:0:0:
48,128,116818,1,2,0:3:0:0:
129,142,116948,2,0,P|135:63|72:17,2,165,2|2|2,3:2|0:2|3:2,0:0:0:0:
152,229,117861,5,0,0:0:0:0:
152,229,117991,2,0,L|138:291,3,38.4999988250733,2|2|2|2,0:1|0:1|0:1|0:1,0:0:0:0:
153,279,118513,2,0,L|139:341,3,38.4999988250733,2|2|2|2,1:1|0:1|0:1|0:1,0:0:0:0:
153,334,119035,6,0,P|107:269|9:284,2,165,2|2|2,3:2|0:2|3:2,0:0:0:0:
191,152,120209,1,0,3:0:0:0:
191,152,120339,2,0,P|174:96|225:42,1,110,2|0,0:2|1:0,0:0:0:0:
362,132,120861,5,2,0:3:0:0:
362,132,120991,1,2,0:3:0:0:
420,79,121122,2,0,L|228:112,2,165,2|2|2,3:2|0:2|0:2,0:0:0:0:
502,171,122165,5,0,3:0:0:0:
502,171,122296,1,0,3:0:0:0:
435,217,122426,5,2,0:3:0:0:
435,217,122557,1,2,0:3:0:0:
492,275,122687,6,0,L|471:399,1,110,0|2,1:0|0:3,0:0:0:0:
473,383,123209,6,0,L|378:373,1,60.5000018463135,2|0,3:2|0:0,0:0:0:0:
364,307,123470,2,0,L|269:297,1,60.5000018463135,2|0,0:3|0:0,0:0:0:0:
260,369,123731,2,0,L|96:351,1,121.000003692627,2|2,1:2|0:3,0:0:0:0:
67,380,124122,1,0,0:0:0:0:
67,380,124252,6,0,P|47:345|68:292,1,60.5000018463135,2|0,3:2|0:0,0:0:0:0:
0,260,124513,2,0,P|17:223|72:210,1,60.5000018463135,2|0,0:3|0:0,0:0:0:0:
115,245,124774,2,0,P|132:186|83:124,1,121.000003692627,2|2,1:2|0:3,0:0:0:0:
53,69,125165,1,2,0:3:0:0:
53,69,125296,6,0,L|145:54,1,60.5000018463135,2|0,3:2|0:0,0:0:0:0:
176,13,125557,2,0,L|268:-2,1,60.5000018463135,2|0,0:3|0:0,0:0:0:0:
318,21,125818,2,0,L|281:229,1,181.500005538941,2|0,3:2|0:0,0:0:0:0:
291,210,126339,5,2,3:2:0:0:
372,172,126470,2,0,L|435:187,1,60.5000018463135,2|2,0:2|0:3,0:0:0:0:
295,219,126861,5,2,1:2:0:0:
376,181,126992,2,0,L|439:196,1,60.5000018463135,2|2,0:2|0:3,0:0:0:0:
338,332,127383,6,0,P|303:348|238:315,1,60.5000018463135,2|0,3:2|0:0,0:0:0:0:
219,295,127644,2,0,P|189:295|162:310,1,60.5000018463135,2|0,0:3|0:0,0:0:0:0:
115,384,127904,2,0,P|78:336|101:262,1,121.000003692627,2|2,1:2|0:3,0:0:0:0:
65,198,128296,1,0,0:0:0:0:
65,198,128426,6,0,L|148:207,1,60.5000018463135,2|0,3:2|0:0,0:0:0:0:
167,135,128687,2,0,L|250:144,1,60.5000018463135,2|0,0:3|0:0,0:0:0:0:
299,213,128948,2,0,L|313:92,1,121.000003692627,2|10,1:2|0:3,0:0:0:0:
401,83,129339,1,0,0:0:0:0:
401,83,129470,6,0,P|384:47|332:22,1,60.5000018463135,2|0,3:2|0:0,0:0:0:0:
284,11,129731,2,0,P|249:31|229:85,1,60.5000018463135,2|0,0:3|0:0,0:0:0:0:
158,15,129991,2,0,P|148:116|235:186,1,181.500005538941,2|0,3:2|0:0,0:0:0:0:
205,175,130513,5,0,3:0:0:0:
241,250,130644,2,0,L|226:315,2,60.5000018463135,0|2|0,0:0|0:3|0:0,0:0:0:0:
212,175,131035,5,2,0:3:0:0:
248,250,131165,1,0,0:0:0:0:
