osu file format v14

[General]
AudioFilename: audio.mp3
AudioLeadIn: 0
PreviewTime: 75700
Countdown: 0
SampleSet: Soft
StackLeniency: 0.7
Mode: 0
LetterboxInBreaks: 0
WidescreenStoryboard: 1

[Editor]
DistanceSpacing: 0.9
BeatDivisor: 4
GridSize: 32
TimelineZoom: 1.9

[Metadata]
Title:Ai Kotoba IV
TitleUnicode:愛言葉Ⅳ
Artist:Kotoha
ArtistUnicode:Kotoha
Creator:Yuuma
Version:Insane
Source:
Tags:karen kumocha shirokumocha cclemon -yua yua hakku ayamemymommy pile DECO*27 初音ミク hatsune miku vocaloid four japanese pop jpop j-pop cover hakoniwalily ハコニワリリィ hakolili ハコリリ
BeatmapID:3687078
BeatmapSetID:1798615

[Difficulty]
HPDrainRate:5
CircleSize:4
OverallDifficulty:7
ApproachRate:8
SliderMultiplier:1.7
SliderTickRate:1

[Events]
//Background and Video events
0,0,"FWqCs7_aIAEHjMX.jpg",0,0
Video,-38,"kotoha.avi"
//Break Periods
2,123165,127396
//Storyboard Layer 0 (Background)
//Storyboard Layer 1 (Fail)
//Storyboard Layer 2 (Pass)
//Storyboard Layer 3 (Foreground)
//Storyboard Layer 4 (Overlay)
//Storyboard Sound Samples

[TimingPoints]
377,431.654676258993,4,2,1,60,1,0
377,-125,4,2,1,60,0,0
5772,-125,4,2,1,70,0,0
6851,-125,4,2,1,50,0,0
7283,-100,4,2,1,80,0,0
21096,-200,4,2,1,60,0,0
28002,-142.857142857143,4,2,1,60,0,0
34909,-111.111111111111,4,2,1,70,0,0
48722,-125,4,2,1,80,0,0
55628,-100,4,2,1,80,0,0
61887,-200,4,2,1,80,0,0
62103,-200,4,2,1,50,0,0
62535,-90.9090909090909,4,2,1,80,0,1
89082,-200,4,2,1,80,0,1
90161,-125,4,2,1,60,0,0
93614,431.654676258993,4,2,1,60,1,0
93614,-142.857142857143,4,2,1,60,0,0
96527,-142.857142857143,4,2,1,5,0,0
96635,-142.857142857143,4,2,1,60,0,0
96959,-142.857142857143,4,2,1,5,0,0
97067,-142.857142857143,4,2,1,60,0,0
99980,-142.857142857143,4,2,1,5,0,0
100088,-142.857142857143,4,2,1,60,0,0
100412,-142.857142857143,4,2,1,5,0,0
100520,-142.857142857143,4,2,1,60,0,0
103434,-142.857142857143,4,2,1,5,0,0
103542,-142.857142857143,4,2,1,60,0,0
103865,-142.857142857143,4,2,1,5,0,0
103973,-142.857142857143,4,2,1,60,0,0
107426,-111.111111111111,4,2,1,70,0,0
121239,-111.111111111111,4,2,1,60,0,0
128146,-142.857142857142,4,2,1,60,0,0
131599,-142.857142857142,4,2,1,60,0,0
133326,-142.857142857142,4,2,1,60,0,0
134189,-142.857142857142,4,2,1,60,0,0
135052,-100,4,2,1,80,0,0
141311,-142.857142857143,4,2,1,80,0,0
141959,-100,4,2,1,80,0,0
148865,-200,4,2,1,50,0,0
150592,431.654676258993,4,2,1,80,1,1
150592,-90.9090909090909,4,2,1,80,0,1
192030,-333.333333333333,4,2,1,60,0,1
192462,-83.3333333333333,4,2,1,90,0,1
192894,-90.9090909090909,4,2,1,80,0,1
205843,-90.9090909090909,4,2,1,80,0,0
209081,-142.857142857143,4,2,1,60,0,0

[Colours]
Combo1 : 128,0,0
Combo2 : 255,128,255
Combo3 : 128,255,255
Combo4 : 192,192,192

[HitObjects]
446,136,377,6,0,L|532:120,2,68,2|2|2,3:2|0:0|3:2,0:0:0:0:
365,71,1024,2,0,L|343:208,1,136,2|2,0:0|0:0,0:0:0:0:
343,205,1671,1,2,3:2:0:0:
141,251,1887,2,0,P|191:231|225:230,1,68,2|0,0:0|3:0,0:0:0:0:
264,160,2319,2,0,P|225:142|187:143,1,68,2|0,0:0|3:0,0:0:0:0:
99,138,2751,6,0,L|92:158,2,17,10|10|10,0:0|0:0|0:0,0:0:0:0:
82,173,2966,2,0,L|43:183,3,34,10|10|2|10,0:0|0:0|0:0|0:0,0:0:0:0:
36,202,3398,2,0,L|-3:212,3,34,10|10|2|2,0:0|0:0|3:2|3:2,0:0:0:0:
38,288,3830,6,0,L|22:360,2,68,2|2|2,3:2|0:0|3:2,0:0:0:0:
130,273,4477,2,0,P|157:306|262:300,1,136,2|2,0:0|0:0,0:0:0:0:
391,283,5125,2,0,P|359:255|323:254,1,68,2|2,3:2|0:0,0:0:0:0:
209,236,5556,1,2,3:2:0:0:
325,338,5772,5,10,0:0:0:0:
400,179,5988,1,10,0:0:0:0:
415,157,6420,5,10,0:0:0:0:
496,307,6635,1,10,0:0:0:0:
332,222,6851,2,0,P|303:169|322:117,1,102,4|0,0:1|0:0,0:0:0:0:
371,54,7283,5,6,3:2:0:0:
211,185,7499,1,2,0:0:0:0:
225,46,7715,1,10,0:0:0:0:
395,147,7930,2,0,L|302:128,1,85,2|0,0:0|3:0,0:0:0:0:
133,23,8362,2,0,L|151:121,1,85,2|8,0:0|0:0,0:0:0:0:
195,268,8794,2,0,L|210:184,1,85,2|0,0:0|3:0,0:0:0:0:
29,91,9225,2,0,P|12:131|23:197,1,85,2|8,0:0|0:0,0:0:0:0:
19,320,9657,2,0,P|61:300|109:290,1,85,2|0,0:0|3:0,0:0:0:0:
291,204,10089,2,0,P|244:187|209:184,1,85,2|8,0:0|0:0,0:0:0:0:
117,198,10520,1,2,0:0:0:0:
224,285,10736,5,2,3:2:0:0:
280,123,10952,2,0,P|296:181|278:224,1,85,2|8,0:0|0:0,0:0:0:0:
233,363,11384,2,0,P|214:319|230:275,1,85,2|0,0:0|3:0,0:0:0:0:
373,217,11815,2,0,P|313:206|279:202,1,85,2|8,0:0|0:0,0:0:0:0:
419,324,12247,2,0,P|376:329|335:337,1,85,2|0,0:0|3:0,0:0:0:0:
457,193,12679,2,0,P|397:182|363:178,1,85,2|8,0:0|0:0,0:0:0:0:
502,347,13110,2,0,P|459:352|418:360,1,85,2|0,0:0|3:0,0:0:0:0:
232,266,13542,2,0,P|292:255|326:251,1,85,2|8,0:0|0:0,0:0:0:0:
439,274,13974,1,2,0:0:0:0:
297,350,14189,5,2,3:2:0:0:
243,181,14405,2,0,L|230:279,1,85,2|8,0:0|0:0,0:0:0:0:
128,377,14837,2,0,L|116:292,1,85,2|0,0:0|3:0,0:0:0:0:
38,163,15269,2,0,P|72:138|125:142,1,85,2|8,0:0|0:0,0:0:0:0:
278,212,15700,2,0,P|244:237|191:233,1,85,2|0,0:0|3:0,0:0:0:0:
180,66,16132,2,0,P|197:118|202:167,1,85,2|8,0:0|0:0,0:0:0:0:
354,282,16564,2,0,P|361:240|375:200,1,85,2|0,0:0|3:0,0:0:0:0:
282,39,16995,2,0,P|296:78|303:120,1,85,2|8,0:0|0:0,0:0:0:0:
249,265,17427,1,2,0:0:0:0:
391,185,17643,5,2,3:2:0:0:
205,108,17859,2,0,P|190:147|183:189,1,85,2|8,0:0|0:0,0:0:0:0:
315,301,18290,2,0,P|288:268|255:241,1,85,2|0,0:0|3:0,0:0:0:0:
92,299,18722,2,0,P|133:292|173:277,1,85,2|8,0:0|0:0,0:0:0:0:
286,86,19153,2,0,P|244:92|204:107,1,85,2|0,0:0|3:0,0:0:0:0:
55,26,19585,2,0,P|81:58|114:85,1,85,2|8,0:0|0:0,0:0:0:0:
119,256,20017,2,0,P|134:216|141:174,1,85,2|0,0:0|3:0,0:0:0:0:
179,14,20448,5,2,0:0:0:0:
268,178,20664,1,10,0:0:0:0:
317,10,20880,1,2,0:0:0:0:
403,165,21096,6,0,P|442:166|488:91,2,127.5,2|2|2,3:2|0:0|3:2,0:0:0:0:
330,118,22607,1,2,0:0:0:0:
268,178,22823,1,2,3:2:0:0:
425,270,23038,1,2,0:0:0:0:
344,229,23254,1,2,3:2:0:0:
275,293,23470,1,2,0:0:0:0:
367,372,23686,2,0,L|356:312,1,42.5,2|0,3:2|0:0,0:0:0:0:
195,244,24118,2,0,L|187:299,1,42.5,2|0,3:2|0:0,0:0:0:0:
38,365,24549,6,0,B|32:319|32:319|46:283|46:283|41:239,2,127.5,2|2|0,3:2|0:0|3:2,0:0:0:0:
130,358,26060,1,2,0:0:0:0:
188,286,26276,1,2,0:0:0:0:
164,200,26492,2,0,P|139:174|73:170,1,85,2|2,0:0|0:0,0:0:0:0:
188,286,27139,2,0,P|218:303|245:304,1,42.5,2|0,3:2|0:0,0:0:0:0:
300,288,27571,2,0,P|322:277|339:247,1,42.5,2|0,3:2|0:0,0:0:0:0:
394,144,28002,6,0,L|383:62,1,59.4999981842042,2|2,3:2|0:0,0:0:0:0:
460,205,28434,1,2,3:2:0:0:
297,133,28650,2,0,L|285:213,1,59.4999981842042,2|0,0:0|3:0,0:0:0:0:
225,68,29082,1,2,0:0:0:0:
311,30,29297,1,2,3:2:0:0:
199,173,29513,1,2,0:0:0:0:
116,128,29729,5,2,3:2:0:0:
53,196,29945,1,2,0:0:0:0:
134,241,30161,1,2,3:2:0:0:
199,173,30377,1,2,0:0:0:0:
123,69,30592,2,0,P|116:107|118:145,1,59.4999981842042,2|2,3:2|0:0,0:0:0:0:
218,322,31024,2,0,P|225:284|223:246,1,59.4999981842042,2|2,3:2|0:0,0:0:0:0:
283,131,31456,6,0,L|208:120,1,59.4999981842042,2|0,3:2|0:0,0:0:0:0:
318,213,31887,1,0,3:0:0:0:
371,89,32103,2,0,L|309:37,1,59.4999981842042,2|2,0:0|3:2,0:0:0:0:
407,177,32535,1,2,0:0:0:0:
462,43,32751,2,0,L|470:116,1,59.4999981842042,2|2,3:2|0:0,0:0:0:0:
480,253,33182,5,2,1:2:0:0:
480,253,33290,1,2,1:2:0:0:
480,253,33398,2,0,L|425:244,1,29.7499990921021,2|2,1:2|0:0,0:0:0:0:
376,288,33614,5,2,1:2:0:0:
376,288,33722,1,2,1:2:0:0:
376,288,33830,2,0,L|321:279,1,29.7499990921021,2|2,1:2|0:0,0:0:0:0:
267,306,34046,6,0,L|212:297,3,29.7499990921021,2|2|2|2,1:2|1:2|1:2|1:2,0:0:0:0:
215,323,34477,2,0,L|151:312,1,59.4999981842042,10|2,0:0|0:0,0:0:0:0:
21,210,34909,5,6,3:2:0:0:
115,177,35125,1,2,0:0:0:0:
39,111,35341,1,10,0:0:0:0:
217,163,35556,1,2,0:0:0:0:
92,35,35772,1,2,3:2:0:0:
92,35,35988,1,2,0:0:0:0:
134,208,36204,1,10,0:0:0:0:
134,208,36420,1,2,0:0:0:0:
261,61,36635,6,0,L|185:75,1,76.4999976654053,2|2,3:2|0:0,0:0:0:0:
243,251,37067,1,10,0:0:0:0:
410,123,37283,2,0,L|328:105,1,76.4999976654053,2|0,0:0|3:0,0:0:0:0:
340,288,37715,1,2,0:0:0:0:
431,265,37930,1,10,0:0:0:0:
364,197,38146,1,2,0:0:0:0:
158,321,38362,6,0,P|209:370|293:359,1,152.999995330811,2|10,3:2|0:0,0:0:0:0:
382,302,39010,1,2,0:0:0:0:
382,302,39225,2,0,P|399:341|395:382,1,76.4999976654053,2|2,3:2|0:0,0:0:0:0:
241,285,39657,1,10,0:0:0:0:
241,285,39873,2,0,P|240:247|256:212,1,76.4999976654053,2|0,0:0|3:0,0:0:0:0:
406,85,40305,5,2,0:0:0:0:
336,166,40520,1,10,0:0:0:0:
244,103,40736,2,0,L|154:118,1,76.4999976654053,2|0,0:0|3:0,0:0:0:0:
81,197,41168,1,2,0:0:0:0:
217,224,41384,1,10,0:0:0:0:
79,111,41600,1,2,0:0:0:0:
53,320,41815,5,2,3:2:0:0:
140,259,42031,1,2,0:0:0:0:
44,213,42247,1,10,0:0:0:0:
206,134,42463,1,2,0:0:0:0:
274,304,42679,1,2,3:2:0:0:
274,304,42894,1,2,0:0:0:0:
327,127,43110,1,10,0:0:0:0:
327,127,43326,1,2,0:0:0:0:
469,263,43542,6,0,L|384:244,1,76.4999976654053,2|2,3:2|0:0,0:0:0:0:
254,212,43974,1,10,0:0:0:0:
401,110,44189,2,0,L|313:130,1,76.4999976654053,2|0,0:0|3:0,0:0:0:0:
122,186,44621,1,2,0:0:0:0:
150,89,44837,1,10,0:0:0:0:
220,161,45053,1,2,0:0:0:0:
53,275,45269,6,0,P|6:211|27:142,2,152.999995330811,2|10|2,3:2|0:0|3:2,0:0:0:0:
120,345,46348,2,0,L|208:322,1,76.4999976654053,2|8,0:0|0:0,0:0:0:0:
277,259,46779,1,2,0:0:0:0:
122,186,46995,5,10,0:0:0:0:
194,325,47211,2,0,L|204:271,1,38.2499988327027,10|10,0:0|0:0,0:0:0:0:
246,128,47427,2,0,L|252:165,1,38.2499988327027,2|10,3:2|0:0,0:0:0:0:
323,309,47643,2,0,L|333:255,1,38.2499988327027,2|2,3:2|3:2,0:0:0:0:
358,120,47859,1,2,3:2:0:0:
358,120,48074,1,2,3:2:0:0:
446,292,48290,2,0,L|461:211,1,76.4999976654053,10|2,0:0|0:0,0:0:0:0:
373,37,48722,5,6,3:2:0:0:
288,116,48938,1,2,0:0:0:0:
368,223,49153,1,2,3:2:0:0:
351,239,49261,1,2,0:0:0:0:
330,250,49369,1,2,3:2:0:0:
307,255,49477,1,2,0:0:0:0:
283,251,49585,2,0,B|175:255|215:150|99:163,1,204,10|2,0:0|3:2,0:0:0:0:
76,173,50341,1,2,3:2:0:0:
76,173,50448,6,0,L|60:277,1,102,2|2,3:2|3:2,0:0:0:0:
139,304,50880,2,0,L|154:212,1,68,2|0,0:0|3:0,0:0:0:0:
271,169,51312,2,0,P|360:152|352:29,1,204,10|2,0:0|0:0,0:0:0:0:
255,24,52175,5,2,3:2:0:0:
227,22,52283,1,2,0:0:0:0:
201,31,52391,1,2,0:0:0:0:
179,49,52499,1,2,0:0:0:0:
166,73,52607,1,2,0:0:0:0:
162,101,52715,1,2,0:0:0:0:
169,127,52823,1,2,3:2:0:0:
271,169,53038,6,0,L|257:258,1,68,10|2,0:0|0:0,0:0:0:0:
255,260,53362,1,2,0:0:0:0:
171,306,53578,2,0,L|178:350,2,34,2|2|2,0:0|0:0|0:0,0:0:0:0:
162,281,53902,6,0,L|87:292,1,68,2|2,3:2|0:0,0:0:0:0:
62,314,54225,1,2,3:2:0:0:
62,314,54333,2,0,L|-13:300,1,68,2|2,3:2|3:2,0:0:0:0:
55,184,54765,1,10,0:0:0:0:
191,197,54981,1,0,1:2:0:0:
191,197,55089,1,0,1:2:0:0:
191,197,55197,2,0,L|221:190,6,17,2|2|2|2|2|2|2,1:2|0:0|0:0|0:0|0:0|0:0|0:0,0:0:0:0:
222,210,55628,6,0,L|316:187,1,85,6|2,3:2|0:0,0:0:0:0:
466,245,56060,1,10,0:0:0:0:
412,151,56276,1,2,0:0:0:0:
346,323,56492,2,0,P|285:265|321:175,1,170,2|10,3:2|0:0,0:0:0:0:
412,151,57139,6,0,L|436:157,4,21.25,2|2|2|2|2,1:2|1:2|1:2|1:2|3:2,0:0:0:0:
303,189,57571,1,2,0:0:0:0:
228,105,57787,1,10,0:0:0:0:
312,31,58002,2,0,L|360:23,2,42.5,2|2|2,0:0|0:0|3:2,0:0:0:0:
228,105,58434,1,2,0:0:0:0:
303,189,58650,1,10,0:0:0:0:
236,275,58866,2,0,L|209:270,3,21.25,2|2|2|2,1:2|1:2|1:2|1:2,0:0:0:0:
204,280,59082,6,0,L|154:271,3,42.5,2|2|2|2,1:2|1:2|1:2|1:2,0:0:0:0:
133,299,59513,2,0,L|83:290,3,42.5,10|2|2|2,1:2|1:2|1:2|1:2,0:0:0:0:
52,307,59945,1,2,1:2:0:0:
48,287,60053,1,2,1:2:0:0:
45,268,60161,1,2,1:2:0:0:
42,249,60269,1,2,1:2:0:0:
39,229,60377,1,10,1:2:0:0:
58,204,60484,1,10,0:0:0:0:
83,189,60592,1,10,0:0:0:0:
112,182,60700,1,10,0:0:0:0:
144,187,60808,1,2,3:2:0:0:
236,275,61024,5,10,0:0:0:0:
309,107,61240,1,10,0:0:0:0:
321,91,61671,5,10,0:0:0:0:
379,275,61887,2,0,P|379:299|372:321,2,42.5,10|2|2,0:0|0:0|0:0,0:0:0:0:
201,204,62535,5,6,3:2:0:0:
234,67,62751,1,2,0:0:0:0:
288,297,62966,2,0,L|390:272,1,93.5000028533936,10|2,0:0|0:0,0:0:0:0:
403,286,63290,1,2,0:0:0:0:
404,286,63398,1,0,3:2:0:0:
298,148,63614,5,2,0:0:0:0:
195,268,63830,1,10,0:0:0:0:
106,160,64046,1,2,0:0:0:0:
207,122,64261,5,2,3:2:0:0:
134,71,64477,1,2,0:0:0:0:
20,196,64693,2,0,L|42:286,1,93.5000028533936,10|2,0:0|0:0,0:0:0:0:
52,307,65017,1,2,0:0:0:0:
52,307,65125,1,0,3:0:0:0:
106,160,65341,5,2,0:0:0:0:
151,294,65556,1,10,0:0:0:0:
283,247,65772,1,2,0:0:0:0:
319,59,65988,5,2,3:2:0:0:
207,182,66204,1,2,0:0:0:0:
405,139,66420,1,8,0:0:0:0:
406,274,66635,2,0,L|417:215,2,46.7500014266968,2|2|0,0:0|0:0|3:0,0:0:0:0:
191,356,67067,5,2,0:0:0:0:
195,260,67283,1,10,0:0:0:0:
289,215,67499,1,2,0:0:0:0:
289,215,67607,1,2,0:0:0:0:
289,215,67715,6,0,P|297:162|285:121,1,93.5000028533936,2|2,3:2|0:0,0:0:0:0:
98,79,68146,2,0,P|87:124|95:169,1,93.5000028533936,10|2,0:0|0:0,0:0:0:0:
117,190,68470,1,2,0:0:0:0:
117,190,68578,1,2,3:2:0:0:
201,58,68794,1,10,0:0:0:0:
260,211,69010,1,10,0:0:0:0:
350,66,69225,1,2,0:0:0:0:
432,246,69441,6,0,L|336:230,1,93.5000028533936,2|2,3:2|0:0,0:0:0:0:
197,139,69873,1,10,0:0:0:0:
350,66,70089,2,0,P|371:115|357:171,1,93.5000028533936,2|0,0:0|3:0,0:0:0:0:
223,249,70520,1,2,0:0:0:0:
334,314,70736,1,10,0:0:0:0:
284,124,70952,6,0,B|202:136|202:136|185:157|185:157|97:173,1,187.000005706787,2|2,0:0|0:0,0:0:0:0:
24,269,71600,1,10,0:0:0:0:
143,335,71815,2,0,L|158:230,1,93.5000028533936,2|0,0:0|3:0,0:0:0:0:
53,91,72247,1,2,0:0:0:0:
53,91,72463,2,0,L|73:193,1,93.5000028533936,10|2,0:0|0:0,0:0:0:0:
143,335,72894,5,2,3:2:0:0:
165,330,73002,1,2,0:0:0:0:
188,325,73110,1,2,0:0:0:0:
211,320,73218,1,2,0:0:0:0:
234,315,73326,2,0,L|294:302,3,46.7500014266968,10|2|2|2,0:0|0:0|0:0|0:0,0:0:0:0:
316,328,73758,2,0,L|382:284,3,46.7500014266968,2|2|2|2,3:2|0:0|0:0|0:0,0:0:0:0:
394,286,74189,2,0,L|384:189,1,93.5000028533936,10|2,0:0|0:0,0:0:0:0:
256,54,74621,5,2,3:2:0:0:
235,169,74837,2,0,L|229:205,4,23.3750007133484,2|2|2|2|10,1:2|1:2|1:2|1:2|0:0,0:0:0:0:
368,61,75269,2,0,L|374:122,1,46.7500014266968,2|2,1:2|1:2,0:0:0:0:
391,278,75484,1,2,3:2:0:0:
235,169,75700,2,0,L|231:192,2,23.3750007133484,2|2|2,1:2|1:2|1:2,0:0:0:0:
215,158,75916,2,0,L|195:267,1,93.5000028533936,10|2,0:0|0:0,0:0:0:0:
97,370,76348,5,6,3:2:0:0:
47,238,76564,1,2,0:0:0:0:
241,342,76779,2,0,L|348:317,1,93.5000028533936,10|2,0:0|0:0,0:0:0:0:
349,316,77103,1,2,0:0:0:0:
349,316,77211,1,0,3:0:0:0:
139,202,77427,5,2,0:0:0:0:
259,227,77643,1,10,0:0:0:0:
116,74,77859,1,2,0:0:0:0:
240,102,78074,5,2,3:2:0:0:
196,22,78290,1,2,0:0:0:0:
286,183,78506,2,0,L|264:278,1,93.5000028533936,10|2,0:0|0:0,0:0:0:0:
265,298,78830,1,2,0:0:0:0:
265,298,78938,1,0,3:0:0:0:
395,199,79153,5,2,0:0:0:0:
276,96,79369,1,10,0:0:0:0:
406,23,79585,1,2,0:0:0:0:
486,211,79801,5,2,3:2:0:0:
369,111,80017,1,2,0:0:0:0:
361,306,80233,1,10,0:0:0:0:
221,238,80448,2,0,P|193:240|151:247,2,46.7500014266968,2|2|0,0:0|0:0|3:0,0:0:0:0:
334,200,80880,5,2,0:0:0:0:
174,70,81096,1,10,0:0:0:0:
323,21,81312,1,2,0:0:0:0:
323,21,81420,1,2,0:0:0:0:
323,21,81528,5,2,3:2:0:0:
221,238,81743,1,0,0:0:0:0:
84,186,81959,1,10,0:0:0:0:
138,50,82175,1,2,0:0:0:0:
138,50,82283,1,2,0:0:0:0:
138,50,82391,1,0,3:2:0:0:
96,272,82607,1,10,0:0:0:0:
223,108,82823,1,10,0:0:0:0:
193,248,83038,1,2,0:0:0:0:
46,338,83254,6,0,L|32:242,1,93.5000028533936,2|2,3:2|0:0,0:0:0:0:
61,114,83686,1,10,0:0:0:0:
214,229,83902,2,0,L|229:131,1,93.5000028533936,2|0,0:0|3:0,0:0:0:0:
135,45,84333,1,2,0:0:0:0:
191,191,84549,1,10,0:0:0:0:
288,36,84765,6,0,P|366:30|405:135,1,187.000005706787,2|2,0:0|0:0,0:0:0:0:
392,221,85412,1,10,0:0:0:0:
246,132,85628,2,0,P|224:182|236:238,1,93.5000028533936,2|0,0:0|3:0,0:0:0:0:
319,357,86060,5,2,0:0:0:0:
145,246,86276,1,10,0:0:0:0:
329,152,86492,1,2,0:0:0:0:
197,367,86707,5,2,1:2:0:0:
173,368,86815,1,2,1:2:0:0:
150,367,86923,1,2,1:2:0:0:
127,361,87031,1,2,1:2:0:0:
104,351,87139,2,0,L|95:287,3,46.7500014266968,10|2|2|2,1:2|1:2|1:2|1:2,0:0:0:0:
36,253,87571,2,0,L|45:189,3,46.7500014266968,2|2|2|2,1:2|1:2|1:2|1:2,0:0:0:0:
102,151,88002,2,0,P|120:106|106:53,1,93.5000028533936,10|2,0:0|0:0,0:0:0:0:
173,234,88434,5,10,0:0:0:0:
221,97,88650,1,2,3:2:0:0:
329,198,88866,1,10,0:0:0:0:
360,52,89082,2,0,P|404:37|461:35,2,85,2|2|2,3:2|0:0|0:0,0:0:0:0:
317,130,90161,6,0,L|331:211,1,68,2|2,3:2|0:0,0:0:0:0:
349,221,90484,1,2,3:2:0:0:
349,221,90592,2,0,L|336:308,1,68,0|2,0:0|3:2,0:0:0:0:
286,353,91024,1,2,0:0:0:0:
286,353,91132,1,2,3:2:0:0:
286,353,91240,1,2,0:0:0:0:
211,309,91456,2,0,L|122:294,1,68,2|2,3:2|0:0,0:0:0:0:
107,314,91779,1,2,3:2:0:0:
107,314,91887,6,0,P|85:263|95:231,1,68,0|2,0:0|3:2,0:0:0:0:
101,219,92211,1,2,3:2:0:0:
101,219,92319,2,0,P|117:174|110:145,1,68,2|2,3:2|0:0,0:0:0:0:
73,82,92751,2,0,L|48:87,4,17,2|0|0|0|2,3:2|3:2|3:0|3:0|3:2,0:0:0:0:
157,31,93182,2,0,L|232:43,1,68,2|2,0:0|0:0,0:0:0:0:
291,127,93614,6,0,P|349:112|481:97,2,178.499994552612,2|2|2,3:2|0:0|3:2,0:0:0:0:
229,197,95124,1,2,0:0:0:0:
297,259,95340,1,2,3:2:0:0:
153,362,95556,1,2,0:0:0:0:
209,289,95772,1,2,3:2:0:0:
141,229,95988,1,2,0:0:0:0:
82,304,96203,2,0,L|73:365,1,59.4999981842042,2|0,3:2|0:0,0:0:0:0:
27,186,96635,2,0,L|35:127,1,59.4999981842042,2|0,3:2|0:0,0:0:0:0:
162,58,97067,6,0,P|251:67|338:88,2,178.499994552612,2|2|2,3:2|0:0|3:2,0:0:0:0:
123,139,98578,1,2,0:0:0:0:
34,127,98793,1,2,3:2:0:0:
158,223,99009,1,2,0:0:0:0:
69,210,99225,1,2,3:2:0:0:
104,294,99441,1,2,0:0:0:0:
193,307,99657,2,0,L|267:291,1,59.4999981842042,2|0,3:2|0:0,0:0:0:0:
469,242,100088,2,0,L|395:226,1,59.4999981842042,2|0,3:2|0:0,0:0:0:0:
353,360,100520,6,0,L|344:284,1,59.4999981842042,2|0,3:2|0:0,0:0:0:0:
328,178,100952,1,0,3:0:0:0:
208,277,101167,2,0,L|217:201,1,59.4999981842042,2|0,0:0|0:0,0:0:0:0:
233,95,101599,1,0,0:0:0:0:
328,178,101815,1,2,3:2:0:0:
339,58,102031,1,2,0:0:0:0:
214,217,102247,5,2,3:2:0:0:
122,145,102462,1,2,0:0:0:0:
233,95,102678,1,2,3:2:0:0:
328,178,102894,1,2,0:0:0:0:
299,296,103110,2,0,P|265:317|225:316,1,59.4999981842042,2|0,3:2|0:0,0:0:0:0:
50,277,103542,2,0,P|84:256|124:257,1,59.4999981842042,2|0,3:2|0:0,0:0:0:0:
170,365,103973,6,0,P|160:311|172:289,1,59.4999981842042,2|2,3:2|0:0,0:0:0:0:
196,195,104405,1,2,3:2:0:0:
299,296,104621,2,0,P|311:267|302:223,1,59.4999981842042,2|0,0:0|0:0,0:0:0:0:
280,119,105052,1,2,0:0:0:0:
280,119,105160,1,2,0:0:0:0:
280,119,105268,1,2,3:2:0:0:
196,195,105484,1,2,0:0:0:0:
309,239,105700,6,0,L|376:224,1,59.4999981842042,2|2,3:2|0:0,0:0:0:0:
394,241,106024,1,2,0:0:0:0:
394,241,106131,2,0,L|404:177,1,59.4999981842042,0|2,3:2|0:0,0:0:0:0:
289,60,106563,2,0,L|279:118,1,59.4999981842042,4|2,0:1|0:0,0:0:0:0:
196,195,106995,1,2,3:2:0:0:
181,198,107103,1,2,0:0:0:0:
166,201,107211,1,2,0:0:0:0:
152,204,107319,1,2,0:0:0:0:
137,207,107426,6,0,L|44:188,1,76.4999976654053,6|2,3:2|0:0,0:0:0:0:
2,59,107858,1,10,0:0:0:0:
2,59,107966,2,0,L|87:46,1,76.4999976654053,2|2,0:0|0:0,0:0:0:0:
113,40,108290,2,0,P|123:83|116:123,1,76.4999976654053,2|2,3:2|0:0,0:0:0:0:
32,186,108721,2,0,P|22:229|29:269,1,76.4999976654053,10|0,0:0|0:0,0:0:0:0:
109,348,109153,6,0,L|59:359,2,50.9999984436036,2|2|2,3:2|0:0|0:0,0:0:0:0:
218,318,109585,2,0,L|267:329,2,50.9999984436036,10|2|2,0:0|0:0|0:0,0:0:0:0:
134,243,110016,2,0,L|84:254,2,50.9999984436036,2|2|2,3:2|0:0|0:0,0:0:0:0:
238,197,110448,2,0,L|317:215,1,76.4999976654053,10|0,0:0|0:0,0:0:0:0:
363,296,110880,5,2,3:2:0:0:
383,287,110988,1,2,0:0:0:0:
401,274,111096,1,2,0:0:0:0:
416,258,111203,1,2,0:0:0:0:
427,239,111311,1,10,0:0:0:0:
432,217,111419,1,2,0:0:0:0:
433,195,111527,1,2,0:0:0:0:
429,173,111635,1,2,0:0:0:0:
420,153,111743,2,0,L|469:143,3,38.2499988327027,2|2|2|0,3:2|0:0|0:0|0:0,0:0:0:0:
351,104,112175,2,0,L|302:94,3,38.2499988327027,10|2|2|2,0:0|0:0|0:0|0:0,0:0:0:0:
423,68,112606,6,0,L|432:9,2,50.9999984436036,2|2|2,3:2|0:0|0:0,0:0:0:0:
347,185,113038,2,0,L|354:235,2,50.9999984436036,10|2|2,0:0|0:0|0:0,0:0:0:0:
217,137,113470,2,0,L|226:74,2,50.9999984436036,2|2|2,3:2|0:0|0:0,0:0:0:0:
110,223,113901,2,0,P|63:211|42:101,1,152.999995330811,10|6,0:0|3:2,0:0:0:0:
146,23,114549,5,2,0:0:0:0:
114,138,114765,1,10,0:0:0:0:
234,109,114980,1,2,0:0:0:0:
146,23,115196,2,0,L|53:43,1,76.4999976654053,2|0,3:2|0:0,0:0:0:0:
3,130,115628,1,10,0:0:0:0:
59,235,115844,6,0,L|44:323,1,76.4999976654053,2|0,0:0|3:0,0:0:0:0:
162,206,116275,1,2,0:0:0:0:
162,206,116491,1,10,0:0:0:0:
229,332,116707,2,0,L|146:309,1,76.4999976654053,2|0,0:0|3:0,0:0:0:0:
269,228,117139,1,2,0:0:0:0:
337,314,117355,1,10,0:0:0:0:
229,332,117570,1,2,0:0:0:0:
157,255,117786,2,0,P|146:199|166:170,1,76.4999976654053,2|0,3:2|0:0,0:0:0:0:
301,102,118218,5,10,0:0:0:0:
275,255,118434,1,2,0:0:0:0:
386,147,118649,1,2,3:2:0:0:
233,169,118865,1,2,0:0:0:0:
369,241,119081,2,0,L|453:220,1,76.4999976654053,10|2,0:0|0:0,0:0:0:0:
410,86,119513,6,0,L|317:69,1,76.4999976654053,2|2,3:2|0:0,0:0:0:0:
301,102,119837,1,2,0:0:0:0:
301,102,119944,2,0,L|201:88,1,76.4999976654053,10|2,0:0|0:0,0:0:0:0:
137,23,120376,1,2,3:2:0:0:
117,44,120484,1,2,3:2:0:0:
106,70,120592,1,2,3:2:0:0:
105,98,120700,1,2,3:2:0:0:
115,127,120808,2,0,L|128:215,1,76.4999976654053,10|0,0:0|0:0,0:0:0:0:
236,334,121239,6,0,B|245:316|251:254|345:304|372:246|395:186|349:127|287:132|253:161|253:161|186:96|109:165|107:295|241:254|229:323,1,611.999981323243,2|2,0:0|0:0,0:0:0:0:
412,170,128146,6,0,L|428:245,1,59.4999981842042,2|2,1:2|0:0,0:0:0:0:
427,317,128578,2,0,L|354:293,1,59.4999981842042,2|2,1:2|0:0,0:0:0:0:
292,256,129009,2,0,L|348:204,1,59.4999981842042,2|2,1:2|0:0,0:0:0:0:
196,250,129441,2,0,L|212:324,1,59.4999981842042,2|2,1:2|0:0,0:0:0:0:
249,169,129765,1,2,0:0:0:0:
249,169,129872,6,0,L|176:145,1,59.4999981842042,2|2,1:2|0:0,0:0:0:0:
126,87,130304,2,0,L|113:28,1,59.4999981842042,2|2,1:2|0:0,0:0:0:0:
105,176,130736,2,0,L|60:215,1,59.4999981842042,2|2,1:2|0:0,0:0:0:0:
170,234,131167,1,2,1:2:0:0:
249,169,131383,1,2,0:0:0:0:
249,169,131491,1,2,0:0:0:0:
249,169,131599,6,0,L|236:110,1,59.4999981842042,2|2,1:2|0:0,0:0:0:0:
241,22,132031,2,0,L|297:40,1,59.4999981842042,2|2,1:2|0:0,0:0:0:0:
372,88,132462,2,0,L|327:127,1,59.4999981842042,2|2,1:2|0:0,0:0:0:0:
353,208,132894,2,0,L|409:226,1,59.4999981842042,2|2,1:2|0:0,0:0:0:0:
467,164,133218,1,2,0:0:0:0:
467,164,133326,6,0,L|454:105,1,59.4999981842042,2|2,1:2|0:0,0:0:0:0:
365,266,133757,2,0,L|352:207,1,59.4999981842042,2|2,1:2|0:0,0:0:0:0:
263,368,134189,5,2,0:0:0:0:
205,353,134405,1,2,0:0:0:0:
147,338,134621,1,2,0:0:0:0:
89,323,134837,1,2,0:0:0:0:
2,254,135052,6,0,P|47:212|156:231,1,170,6|10,3:2|0:0,0:0:0:0:
228,284,135700,1,2,0:0:0:0:
225,106,135916,2,0,L|241:201,1,85,2|0,3:2|0:0,0:0:0:0:
334,293,136347,2,0,L|348:209,1,85,10|0,0:0|0:0,0:0:0:0:
469,148,136779,2,0,P|440:80|325:77,1,170,2|10,3:2|0:0,0:0:0:0:
225,106,137426,1,2,0:0:0:0:
348,209,137642,5,2,3:2:0:0:
148,166,137858,1,2,3:2:0:0:
128,162,138506,6,0,L|151:340,1,170,6|8,3:2|0:0,0:0:0:0:
46,256,139153,1,2,0:0:0:0:
128,162,139369,2,0,L|237:181,1,85,2|0,3:2|0:0,0:0:0:0:
339,282,139801,2,0,L|230:301,1,85,10|0,0:0|0:0,0:0:0:0:
240,66,140232,6,0,P|302:89|305:206,1,170,2|10,3:2|0:0,0:0:0:0:
255,296,140880,1,2,0:0:0:0:
406,225,141096,5,2,3:2:0:0:
232,154,141311,2,0,B|173:147|180:200|118:189,1,118.999996368408,2|2,3:2|0:0,0:0:0:0:
32,101,141959,6,0,P|-20:171|19:264,1,170,6|10,3:2|0:0,0:0:0:0:
70,330,142606,1,2,0:0:0:0:
200,222,142822,2,0,P|145:194|109:187,1,85,2|2,3:2|0:0,0:0:0:0:
203,360,143254,1,10,0:0:0:0:
203,360,143470,1,2,0:0:0:0:
314,287,143685,6,0,P|409:262|504:247,1,170,2|10,3:2|0:0,0:0:0:0:
365,152,144333,1,2,0:0:0:0:
227,216,144549,2,0,P|208:160|229:114,1,85,2|2,3:2|0:0,0:0:0:0:
351,72,144980,2,0,P|370:128|349:174,1,85,10|2,0:0|0:0,0:0:0:0:
314,287,145412,6,0,B|233:298|252:218|155:226,1,170,2|10,3:2|0:0,0:0:0:0:
19,268,146060,1,2,0:0:0:0:
55,135,146275,2,0,B|136:146|117:66|213:74,1,170,2|10,3:2|0:0,0:0:0:0:
337,149,146923,1,2,0:0:0:0:
195,208,147139,5,2,3:2:0:0:
302,61,147355,1,2,3:2:0:0:
385,227,147570,1,10,3:2:0:0:
223,119,147786,1,2,3:2:0:0:
175,323,148002,2,0,L|275:299,1,85,2|2,3:2|3:2,0:0:0:0:
445,156,148434,2,0,L|353:135,1,85,10|2,3:2|3:2,0:0:0:0:
210,25,148865,6,0,P|219:59|222:77,1,42.5,2|2,0:0|0:0,0:0:0:0:
278,151,149297,2,0,P|269:185|266:203,1,42.5,2|2,0:0|0:0,0:0:0:0:
210,277,149729,1,2,0:0:0:0:
210,277,149944,2,0,P|219:311|222:329,2,42.5,2|2|2,0:0|0:0|0:0,0:0:0:0:
29,216,150592,5,6,3:2:0:0:
73,77,150807,1,2,0:0:0:0:
99,325,151023,2,0,L|205:296,1,93.5000028533936,10|2,0:0|0:0,0:0:0:0:
219,296,151347,1,2,0:0:0:0:
219,296,151455,1,0,3:0:0:0:
119,132,151671,5,2,0:0:0:0:
249,169,151886,1,10,0:0:0:0:
308,42,152102,1,2,0:0:0:0:
437,75,152318,5,2,3:2:0:0:
350,165,152534,1,2,0:0:0:0:
200,43,152750,2,0,L|222:155,1,93.5000028533936,10|2,0:0|0:0,0:0:0:0:
227,158,153074,1,2,0:0:0:0:
227,158,153181,1,0,3:0:0:0:
24,125,153397,5,2,0:0:0:0:
49,269,153613,1,10,0:0:0:0:
120,104,153829,1,2,0:0:0:0:
155,313,154045,5,2,3:2:0:0:
274,244,154261,1,2,0:0:0:0:
340,370,154476,1,10,0:0:0:0:
422,324,154692,2,0,L|443:259,2,46.7500014266968,2|2|0,0:0|0:0|3:0,0:0:0:0:
292,166,155124,5,2,0:0:0:0:
362,65,155340,1,10,0:0:0:0:
484,116,155556,1,2,0:0:0:0:
484,116,155663,1,2,0:0:0:0:
484,116,155771,5,2,3:2:0:0:
360,253,155987,1,2,0:0:0:0:
292,166,156203,1,8,0:0:0:0:
257,353,156419,1,0,0:0:0:0:
257,353,156527,1,2,0:0:0:0:
257,353,156635,1,2,3:2:0:0:
82,303,156850,1,10,0:0:0:0:
209,153,157066,1,10,0:0:0:0:
267,250,157282,1,2,0:0:0:0:
412,261,157498,6,0,P|445:213|440:157,1,93.5000028533936,2|2,3:2|0:0,0:0:0:0:
357,78,157930,1,10,0:0:0:0:
209,153,158145,2,0,P|150:171|103:154,1,93.5000028533936,2|0,0:0|3:0,0:0:0:0:
25,101,158577,1,2,0:0:0:0:
155,42,158793,1,10,0:0:0:0:
25,101,159009,6,0,P|0:149|72:271,1,187.000005706787,2|2,0:0|0:0,0:0:0:0:
136,316,159656,1,10,0:0:0:0:
229,213,159872,2,0,P|174:184|136:182,1,93.5000028533936,2|0,0:0|3:0,0:0:0:0:
235,347,160304,1,2,0:0:0:0:
235,347,160520,2,0,P|290:376|328:378,1,93.5000028533936,10|2,0:0|0:0,0:0:0:0:
425,333,160951,5,2,3:2:0:0:
427,309,161059,1,2,0:0:0:0:
429,286,161167,1,2,0:0:0:0:
431,263,161275,1,2,0:0:0:0:
433,239,161383,2,0,L|438:175,3,46.7500014266968,10|2|2|2,0:0|0:0|0:0|0:0,0:0:0:0:
508,158,161815,2,0,L|500:93,3,46.7500014266968,2|2|2|2,3:2|0:0|0:0|0:0,0:0:0:0:
441,60,162246,2,0,L|340:77,1,93.5000028533936,10|2,0:0|0:0,0:0:0:0:
207,74,162678,5,2,3:2:0:0:
272,231,162894,2,0,L|268:209,4,23.3750007133484,2|2|2|2|10,1:2|1:2|1:2|1:2|0:0,0:0:0:0:
102,120,163325,2,0,L|89:195,1,46.7500014266968,2|2,1:2|1:2,0:0:0:0:
68,300,163541,1,2,3:2:0:0:
272,231,163757,2,0,L|268:209,2,23.3750007133484,2|2|2,1:2|1:2|1:2,0:0:0:0:
289,221,163973,2,0,L|269:116,1,93.5000028533936,10|0,0:0|0:0,0:0:0:0:
66,77,164404,5,6,3:2:0:0:
197,25,164620,1,2,0:0:0:0:
114,224,164836,2,0,L|10:199,1,93.5000028533936,10|2,0:0|0:0,0:0:0:0:
6,199,165160,1,2,0:0:0:0:
6,199,165268,1,0,3:0:0:0:
62,317,165484,5,2,0:0:0:0:
193,258,165699,1,8,0:0:0:0:
259,382,165915,1,2,0:0:0:0:
360,286,166131,5,2,3:2:0:0:
290,218,166347,1,2,0:0:0:0:
176,340,166563,2,0,L|66:316,1,93.5000028533936,10|2,0:0|0:0,0:0:0:0:
62,317,166886,1,2,0:0:0:0:
62,317,166994,1,0,3:0:0:0:
176,141,167210,5,2,0:0:0:0:
290,218,167426,1,10,0:0:0:0:
422,184,167642,1,2,0:0:0:0:
267,50,167858,5,2,3:2:0:0:
203,227,168074,1,2,0:0:0:0:
88,82,168289,1,10,0:0:0:0:
48,188,168505,2,0,P|40:229|40:256,2,46.7500014266968,2|2|0,0:0|0:0|3:0,0:0:0:0:
190,55,168937,5,2,0:0:0:0:
350,43,169153,1,10,0:0:0:0:
175,187,169368,1,2,0:0:0:0:
175,187,169476,1,2,0:0:0:0:
175,187,169584,5,2,3:2:0:0:
411,127,169800,1,2,0:0:0:0:
336,252,170016,1,10,0:0:0:0:
280,25,170232,1,2,0:0:0:0:
280,25,170340,1,2,0:0:0:0:
280,25,170448,1,0,3:2:0:0:
106,65,170663,1,10,0:0:0:0:
270,195,170879,1,10,0:0:0:0:
175,217,171095,1,2,0:0:0:0:
320,345,171311,6,0,L|338:242,1,93.5000028533936,2|2,3:2|0:0,0:0:0:0:
314,115,171743,1,10,0:0:0:0:
193,253,171958,2,0,L|175:150,1,93.5000028533936,2|0,0:0|3:0,0:0:0:0:
199,23,172390,1,2,0:0:0:0:
314,115,172606,1,10,0:0:0:0:
176,160,172822,6,0,L|62:142,1,93.5000028533936,2|0,0:0|3:0,0:0:0:0:
271,213,173253,1,2,0:0:0:0:
390,57,173469,1,10,0:0:0:0:
390,57,173685,2,0,L|403:155,1,93.5000028533936,2|0,0:0|3:0,0:0:0:0:
369,357,174117,1,2,0:0:0:0:
260,131,174333,1,10,0:0:0:0:
243,378,174548,1,2,0:0:0:0:
115,216,174764,5,2,3:2:0:0:
102,196,174872,1,2,0:0:0:0:
95,174,174980,1,2,0:0:0:0:
96,151,175088,1,2,0:0:0:0:
103,129,175196,2,0,L|94:67,3,46.7500014266968,10|2|2|2,0:0|0:0|0:0|0:0,0:0:0:0:
184,95,175627,2,0,L|175:33,3,46.7500014266968,2|2|2|2,3:2|0:0|0:0|0:0,0:0:0:0:
260,6,176059,2,0,L|276:111,1,93.5000028533936,10|2,0:0|0:0,0:0:0:0:
327,278,176491,5,2,3:2:0:0:
418,206,176707,1,0,1:2:0:0:
418,206,176815,1,0,1:2:0:0:
418,206,176922,2,0,P|436:155|425:113,1,93.5000028533936,8|10,0:0|0:0,0:0:0:0:
414,92,177246,1,2,1:2:0:0:
414,92,177354,2,0,L|363:80,3,46.7500014266968,2|0|2|0,3:2|0:0|1:2|0:0,0:0:0:0:
354,157,177786,2,0,L|252:132,1,93.5000028533936,10|2,0:0|0:0,0:0:0:0:
113,58,178217,6,0,P|87:111|100:163,1,93.5000028533936,6|0,3:2|0:0,0:0:0:0:
226,293,178649,2,0,P|198:237|75:239,1,187.000005706787,10|2,0:0|3:2,0:0:0:0:
15,333,179297,1,2,0:0:0:0:
140,295,179512,1,10,0:0:0:0:
242,377,179728,2,0,L|350:350,1,93.5000028533936,2|2,0:0|3:2,0:0:0:0:
420,256,180160,2,0,L|312:229,1,93.5000028533936,2|10,0:0|0:0,0:0:0:0:
181,158,180592,5,2,0:0:0:0:
344,132,180807,1,2,3:2:0:0:
227,250,181023,1,2,0:0:0:0:
253,85,181239,1,10,0:0:0:0:
329,233,181455,1,2,0:0:0:0:
181,158,181671,6,0,P|165:117|176:71,1,93.5000028533936,2|2,3:2|0:0,0:0:0:0:
381,38,182102,2,0,P|345:113|234:92,1,187.000005706787,10|2,0:0|3:2,0:0:0:0:
148,18,182750,1,2,0:0:0:0:
297,36,182966,1,10,0:0:0:0:
151,116,183181,2,0,P|91:135|51:148,1,93.5000028533936,2|2,0:0|3:2,0:0:0:0:
264,210,183613,2,0,P|324:229|364:242,1,93.5000028533936,2|10,0:0|0:0,0:0:0:0:
110,329,184045,5,2,0:0:0:0:
143,220,184261,1,2,3:2:0:0:
252,253,184476,1,2,0:0:0:0:
219,362,184692,2,0,L|113:335,1,93.5000028533936,10|2,0:0|0:0,0:0:0:0:
23,267,185124,1,2,3:2:0:0:
23,267,185340,2,0,P|5:223|24:172,1,93.5000028533936,2|10,0:0|0:0,0:0:0:0:
195,108,185771,5,2,0:0:0:0:
107,215,185987,2,0,L|98:113,1,93.5000028533936,2|2,3:2|0:0,0:0:0:0:
280,40,186419,1,10,0:0:0:0:
280,40,186635,2,0,L|288:133,1,93.5000028533936,2|2,0:0|3:2,0:0:0:0:
247,273,187066,2,0,L|350:243,1,93.5000028533936,2|10,0:0|0:0,0:0:0:0:
470,102,187498,2,0,L|356:76,1,93.5000028533936,2|0,0:0|3:0,0:0:0:0:
174,112,187930,5,2,0:0:0:0:
290,171,188145,1,10,0:0:0:0:
280,40,188361,1,2,0:0:0:0:
174,112,188577,5,2,3:2:0:0:
174,112,188793,2,0,P|158:160|171:216,1,93.5000028533936,2|10,0:0|0:0,0:0:0:0:
248,302,189225,1,2,0:0:0:0:
362,237,189440,1,2,3:2:0:0:
250,165,189656,1,2,0:0:0:0:
248,302,189872,1,10,0:0:0:0:
362,237,190088,1,2,0:0:0:0:
250,165,190304,6,0,L|148:183,1,93.5000028533936,10|2,0:0|0:0,0:0:0:0:
47,351,190735,2,0,L|139:334,1,93.5000028533936,10|2,0:0|0:0,0:0:0:0:
328,373,191167,1,10,1:2:0:0:
328,373,191275,1,2,1:2:0:0:
328,373,191383,1,2,1:2:0:0:
229,278,191599,1,10,0:0:0:0:
317,168,191815,1,2,0:0:0:0:
221,47,192030,6,0,L|215:95,1,38.2499988327027,2|0,0:0|0:0,0:0:0:0:
188,188,192462,6,0,L|207:37,1,152.999995330811,6|2,1:2|0:0,0:0:0:0:
292,15,192894,6,0,P|381:54|436:57,1,140.25000428009,2|2,3:2|0:0,0:0:0:0:
500,26,193325,1,10,0:0:0:0:
480,183,193541,2,0,P|406:149|362:148,1,93.5000028533936,2|0,0:0|3:0,0:0:0:0:
267,170,193973,2,0,P|222:188|189:225,1,93.5000028533936,2|10,0:0|0:0,0:0:0:0:
156,336,194404,1,2,0:0:0:0:
353,339,194620,2,0,P|343:283|248:266,1,140.25000428009,2|2,3:2|0:0,0:0:0:0:
254,279,195052,2,0,L|265:374,1,93.5000028533936,8|2,0:0|0:0,0:0:0:0:
267,170,195484,6,0,P|273:119|256:77,1,93.5000028533936,0|2,3:0|0:0,0:0:0:0:
171,37,195807,1,2,0:0:0:0:
171,37,195915,2,0,P|123:57|95:92,1,93.5000028533936,10|2,0:0|0:0,0:0:0:0:
98,178,196239,1,2,0:0:0:0:
98,178,196347,2,0,P|139:208|183:215,1,93.5000028533936,2|2,3:2|0:0,0:0:0:0:
267,170,196671,1,2,0:0:0:0:
267,170,196779,2,0,P|303:159|325:159,1,46.7500014266968,10|0,0:0|0:0,0:0:0:0:
409,208,196994,6,0,L|387:369,1,140.25000428009,2|0,0:0|0:0,0:0:0:0:
369,365,197426,1,2,0:0:0:0:
310,239,197642,1,10,0:0:0:0:
171,363,197858,5,2,0:0:0:0:
171,363,198074,2,0,L|280:340,1,93.5000028533936,2|2,3:2|0:0,0:0:0:0:
409,208,198505,2,0,L|300:185,1,93.5000028533936,10|2,0:0|0:0,0:0:0:0:
181,59,198937,6,0,L|158:262,1,187.000005706787,2|10,3:2|0:0,0:0:0:0:
41,350,199584,2,0,L|28:246,1,93.5000028533936,2|0,0:0|3:2,0:0:0:0:
96,102,200016,2,0,P|51:73|0:85,1,93.5000028533936,2|10,0:0|0:0,0:0:0:0:
159,244,200448,6,0,B|249:261|231:171|336:185,1,187.000005706787,2|2,0:0|0:0,0:0:0:0:
436,248,201095,2,0,P|392:280|344:275,1,93.5000028533936,10|2,0:0|0:0,0:0:0:0:
175,154,201527,1,2,3:2:0:0:
175,154,201743,1,2,0:0:0:0:
367,72,201958,1,10,0:0:0:0:
367,72,202174,1,2,0:0:0:0:
318,267,202390,6,0,L|296:154,1,93.5000028533936,2|2,3:2|0:0,0:0:0:0:
96,93,202822,2,0,L|78:184,1,93.5000028533936,10|2,0:0|0:0,0:0:0:0:
149,352,203253,1,2,3:2:0:0:
149,352,203469,1,2,0:0:0:0:
181,168,203685,1,10,0:0:0:0:
181,168,203901,1,2,0:0:0:0:
338,295,204117,5,2,3:2:0:0:
134,260,204333,2,0,L|91:270,4,23.3750007133484,2|2|2|2|10,1:2|1:2|1:2|1:2|0:0,0:0:0:0:
292,184,204764,1,2,1:2:0:0:
293,147,204872,1,2,1:2:0:0:
275,115,204980,1,2,3:2:0:0:
139,42,205196,2,0,L|117:48,2,23.3750007133484,2|2|2,1:2|1:2|1:2,0:0:0:0:
108,73,205412,2,0,L|215:48,1,93.5000028533936,10|2,0:0|0:0,0:0:0:0:
347,77,205843,5,6,3:2:0:0:
386,212,206059,1,2,0:0:0:0:
255,178,206275,1,10,0:0:0:0:
446,82,206491,2,0,P|471:122|463:184,1,93.5000028533936,2|2,0:0|3:2,0:0:0:0:
340,291,206922,5,2,0:0:0:0:
380,148,207138,1,10,0:0:0:0:
228,60,207354,1,2,0:0:0:0:
250,263,207570,5,2,3:2:0:0:
72,212,207786,1,2,0:0:0:0:
253,142,208002,1,10,0:0:0:0:
84,81,208217,1,2,0:0:0:0:
129,301,208433,5,2,3:2:0:0:
327,213,208649,1,2,0:0:0:0:
189,37,208865,1,10,0:0:0:0:
149,246,209081,6,0,B|89:239|98:282|35:280,1,118.999996368408,6|2,3:2|0:0,0:0:0:0:
52,120,209728,1,2,0:0:0:0:
52,120,209944,2,0,P|59:162|61:184,1,59.4999981842042,2|0,0:0|0:0,0:0:0:0:
149,246,210376,2,0,P|142:288|140:310,1,59.4999981842042,2|0,0:0|0:0,0:0:0:0:
299,211,210807,2,0,P|268:201|231:195,1,59.4999981842042,2|0,0:0|0:0,0:0:0:0:
342,316,211239,2,0,P|312:321|284:330,1,59.4999981842042,2|0,0:0|0:0,0:0:0:0:
432,173,211671,2,0,P|401:163|364:157,1,59.4999981842042,2|2,0:0|0:0,0:0:0:0:
479,327,212102,2,0,P|449:332|421:341,2,59.4999981842042,2|0|2,0:0|0:0|0:0,0:0:0:0:
492,208,212750,5,0,0:0:0:0:
492,208,212966,2,0,L|505:138,1,59.4999981842042,2|2,0:0|0:0,0:0:0:0:
362,94,213397,2,0,L|372:152,1,59.4999981842042,2|2,0:0|0:0,0:0:0:0:
232,208,213829,2,0,L|242:149,1,59.4999981842042,2|2,0:0|0:0,0:0:0:0:
102,94,214261,1,2,0:0:0:0:
102,94,214368,1,2,0:0:0:0:
102,94,214476,6,0,L|112:152,1,59.4999981842042,2|2,0:0|0:0,0:0:0:0:
68,258,214908,1,2,0:0:0:0:
232,208,215124,1,2,0:0:0:0:
232,208,215232,1,2,0:0:0:0:
232,208,215340,1,2,0:0:0:0:
166,314,215556,1,2,0:0:0:0:
112,152,215771,1,10,0:0:0:0:
306,96,215987,5,10,0:0:0:0:
