osu file format v14

[General]
AudioFilename: audio.mp3
AudioLeadIn: 0
PreviewTime: 82206
Countdown: 0
SampleSet: Soft
StackLeniency: 0.6
Mode: 0
LetterboxInBreaks: 0
WidescreenStoryboard: 1

[Editor]
Bookmarks: 412,11706,25823,37117,48411,71000,82294,107706,121823,133117,144411,167000,178294,203706,214823,230529,241823,281353,293529,298117
DistanceSpacing: 0.5
BeatDivisor: 4
GridSize: 16
TimelineZoom: 1.7

[Metadata]
Title:Million Litmus
TitleUnicode:ミリオンリトマス
Artist:Kotobuki Minako
ArtistUnicode:寿美菜子
Creator:Fuiba Fuyu
Version:Showering Palettes
Source:
Tags:tycani japanese pop jpop j-pop emotion yuki_momoiro722 pile ayamemymommy akane-_ xahlt kuon- airiesu mujina tsumugi 琴吹紬
BeatmapID:2682758
BeatmapSetID:1292727

[Difficulty]
HPDrainRate:5
CircleSize:4
OverallDifficulty:8
ApproachRate:9
SliderMultiplier:1.9
SliderTickRate:1

[Events]
//Background and Video events
0,0,"moog.jpg",0,0
Video,-1123,"XOFTF5CM.mp4"
//Break Periods
//Storyboard Layer 0 (Background)
//Storyboard Layer 1 (Fail)
//Storyboard Layer 2 (Pass)
//Storyboard Layer 3 (Foreground)
//Storyboard Layer 4 (Overlay)
//Storyboard Sound Samples

[TimingPoints]
412,352.941176470588,4,2,1,40,1,0
10912,-100,4,2,1,5,0,0
11000,-100,4,2,1,80,0,0
23000,-100,4,2,1,60,0,0
25823,-133.333333333333,4,2,1,60,0,0
34294,-133.333333333333,4,2,1,40,0,0
35000,-133.333333333333,4,2,1,55,0,0
35706,-133.333333333333,4,2,1,70,0,0
36411,-133.333333333333,4,2,1,80,0,0
37117,-100,4,2,1,70,0,0
45588,-200,4,2,1,70,0,0
45941,-100,4,2,1,70,0,0
48411,-200,4,2,1,70,0,0
48764,-100,4,2,1,70,0,0
51235,-200,4,2,1,70,0,0
51588,-100,4,2,1,70,0,0
54059,-200,4,2,1,70,0,0
54411,-100,4,2,1,70,0,0
62529,-200,4,2,1,70,0,0
62882,-100,4,2,1,70,0,0
65353,-200,4,2,1,70,0,0
65706,-100,4,2,1,70,0,0
82294,-76.9230769230769,4,2,1,80,0,1
92176,-76.9230769230769,4,2,1,80,0,0
93588,-76.9230769230769,4,2,1,80,0,1
99235,-133.333333333333,4,2,1,80,0,1
99588,-76.9230769230769,4,2,1,80,0,1
99941,-133.333333333333,4,2,1,80,0,1
100294,-76.9230769230769,4,2,1,80,0,1
100647,-133.333333333333,4,2,1,80,0,1
101000,-76.9230769230769,4,2,1,80,0,1
101353,-133.333333333333,4,2,1,80,0,1
101706,-76.9230769230769,4,2,1,80,0,1
106294,-133.333333333333,4,2,1,80,0,0
107706,-100,4,2,1,80,0,0
119176,-100,4,2,1,60,0,0
121823,-133.333333333333,4,2,1,60,0,0
130294,-133.333333333333,4,2,1,40,0,0
131000,-133.333333333333,4,2,1,55,0,0
131706,-133.333333333333,4,2,1,70,0,0
132411,-133.333333333333,4,2,1,80,0,0
133117,-100,4,2,1,70,0,0
141588,-200,4,2,1,70,0,0
141941,-100,4,2,1,70,0,0
144411,-200,4,2,1,70,0,0
144764,-100,4,2,1,70,0,0
147235,-200,4,2,1,70,0,0
147588,-100,4,2,1,70,0,0
150059,-200,4,2,1,70,0,0
150411,-100,4,2,1,70,0,0
158529,-200,4,2,1,70,0,0
158882,-100,4,2,1,70,0,0
161353,-200,4,2,1,70,0,0
161706,-100,4,2,1,70,0,0
178294,-76.9230769230769,4,2,1,80,0,1
188176,-76.9230769230769,4,2,1,80,0,0
189588,-76.9230769230769,4,2,1,80,0,1
195235,-200,4,2,1,80,0,1
195588,-76.9230769230769,4,2,1,80,0,1
195941,-200,4,2,1,80,0,1
196294,-76.9230769230769,4,2,1,80,0,1
196647,-200,4,2,1,80,0,1
197000,-76.9230769230769,4,2,1,80,0,1
197353,-200,4,2,1,80,0,1
197706,-76.9230769230769,4,2,1,80,0,1
202294,-133.333333333333,4,2,1,80,0,0
203176,-133.333333333333,4,2,1,50,0,0
203706,-133.333333333333,4,2,1,50,0,0
209353,-133.333333333333,4,2,1,65,0,0
214470,-400,4,2,1,65,0,0
214823,-66.6666666666667,4,2,1,90,0,1
227706,-200,4,2,1,90,0,1
228059,-100,4,2,1,90,0,0
228235,-100,4,2,1,55,0,0
230441,-100,4,2,1,5,0,0
230529,-333.333333333333,4,2,1,80,0,0
233529,-333.333333333333,4,2,1,60,0,0
236176,-333.333333333333,4,2,1,80,0,0
239353,-76.9230769230769,4,2,1,80,0,0
241823,-76.9230769230769,4,2,1,80,0,1
247470,-200,4,2,1,80,0,1
247823,-76.9230769230769,4,2,1,80,0,1
248176,-200,4,2,1,80,0,1
248529,-76.9230769230769,4,2,1,80,0,1
248882,-200,4,2,1,80,0,1
249235,-76.9230769230769,4,2,1,80,0,1
249588,-200,4,2,1,80,0,1
249941,-76.9230769230769,4,2,1,80,0,1
253117,-333.333333333333,4,2,1,80,0,0
253470,-66.6666666666667,4,2,1,80,0,0
255941,-66.6666666666667,4,2,1,80,0,1
270059,-200,4,2,1,80,0,1
270411,-76.9230769230769,4,2,1,80,0,1
270764,-200,4,2,1,80,0,1
271117,-76.9230769230769,4,2,1,80,0,1
271470,-200,4,2,1,80,0,1
271823,-76.9230769230769,4,2,1,80,0,1
272176,-200,4,2,1,80,0,1
272529,-76.9230769230769,4,2,1,80,0,1
277117,-133.333333333333,4,2,1,80,0,0
278529,-200,4,2,1,20,0,0
278882,-200,4,2,1,30,0,0
279235,-133.333333333333,4,2,1,40,0,0
279588,-133.333333333333,4,2,1,50,0,0
279941,-100,4,2,1,60,0,0
280294,-100,4,2,1,70,0,0
280823,-100,4,2,1,80,0,0
281000,-76.9230769230769,4,2,1,80,0,0
281353,-100,4,2,1,80,0,0
296794,-100,4,2,1,5,0,0
296882,-100,4,2,1,80,0,0

[Colours]
Combo1 : 91,202,137
Combo2 : 250,136,150
Combo3 : 251,37,59
Combo4 : 168,251,239
Combo5 : 44,172,210
Combo6 : 253,242,117
Combo7 : 251,191,25
Combo8 : 143,222,121

[HitObjects]
256,192,6059,12,0,10911,0:0:0:0:
174,295,11000,5,8,2:0:0:0:
108,49,11176,1,8,2:0:0:0:
115,56,11529,1,2,2:0:0:0:
115,56,11617,1,2,2:0:0:0:
114,57,11706,86,0,B|184:47|184:47|231:75|231:75|298:65,1,190,6|8,1:2|2:0,0:0:0:0:
391,2,12235,1,2,2:0:0:0:
471,93,12412,2,0,L|448:199,1,95,2|2,1:2|1:2,0:0:0:0:
279,251,12764,6,0,P|265:203|375:141,1,190,10|0,2:0|1:0,0:0:0:0:
450,185,13294,1,2,2:0:0:0:
380,276,13470,2,0,L|397:378,1,95,10|2,2:0|2:0,0:0:0:0:
259,236,13823,2,0,L|276:134,2,95,2|2|10,1:2|1:2|2:0,0:0:0:0:
259,236,14529,102,0,B|164:207|174:276|74:260,1,190,6|8,1:2|2:0,0:0:0:0:
14,155,15059,2,0,P|30:110|19:64,2,95,2|2|2,2:0|1:2|1:2,0:0:0:0:
149,42,15588,6,0,B|277:68|277:68|285:98|304:121,1,190,10|0,2:0|1:0,0:0:0:0:
414,36,16117,2,0,P|467:53|511:61,2,95,2|10|2,2:0|2:0|2:0,0:0:0:0:
303,120,16647,2,0,P|291:168|304:212,1,95,2|2,1:2|1:2,0:0:0:0:
420,320,17000,1,14,2:0:0:0:
420,320,17353,102,0,P|413:264|302:210,1,190,6|10,1:2|2:0,0:0:0:0:
240,270,17882,1,2,2:0:0:0:
117,190,18059,2,0,P|62:175|19:172,1,95,2|2,1:2|1:2,0:0:0:0:
197,104,18412,2,0,P|252:89|295:86,1,95,10|2,2:0|2:0,0:0:0:0:
73,17,18764,6,0,P|34:38|13:93,2,95,2|2|10,1:2|2:0|2:0,0:0:0:0:
197,104,19294,2,0,L|211:208,1,95,2|0,2:0|1:0,0:0:0:0:
228,331,19647,1,2,1:2:0:0:
209,198,19823,2,0,P|252:179|301:188,1,95,8|2,2:0|2:0,0:0:0:0:
132,344,20176,101,4,1:2:0:0:
132,344,20353,2,0,L|83:353,2,47.5,4|4|8,3:0|3:0|3:0,0:0:0:0:
115,259,20706,2,0,L|66:268,2,47.5,4|4|4,3:0|3:0|3:0,0:0:0:0:
103,175,21059,2,0,L|54:184,2,47.5,4|4|8,3:0|3:0|2:0,0:0:0:0:
93,89,21412,1,0,2:0:0:0:
333,69,21588,5,6,1:2:0:0:
371,266,21764,2,0,L|345:363,1,95,2|8,1:2|2:0,0:0:0:0:
284,222,22117,2,0,P|343:170|453:216,1,190,2|2,1:2|1:2,0:0:0:0:
371,266,22647,1,8,2:0:0:0:
333,69,22823,1,4,1:2:0:0:
256,192,22912,12,8,25470,2:0:0:0:
84,194,25823,54,0,B|51:131|51:131|67:107|86:65,2,142.500005435944,6|2|2,1:2|1:2|1:2,0:0:0:0:
156,253,26706,2,0,L|224:229,1,71.2500000000002,2|2,2:0|1:2,0:0:0:0:
294,152,27059,102,0,P|261:212|298:281,1,142.5,2|2,2:0|2:0,0:0:0:0:
370,331,27588,1,0,1:0:0:0:
440,268,27764,1,2,2:0:0:0:
440,268,27941,2,0,L|460:117,1,142.5,0|0,1:0|1:0,0:0:0:0:
473,47,28470,1,0,2:0:0:0:
330,96,28647,6,0,P|295:41|217:33,1,142.5,2|2,1:2|1:2,0:0:0:0:
154,102,29176,1,2,2:0:0:0:
70,54,29353,2,0,L|-2:40,2,71.2500000000002,2|2|2,1:2|2:0|1:2,0:0:0:0:
154,102,29882,102,0,L|184:253,1,142.5,2|2,2:0|2:0,0:0:0:0:
271,302,30412,1,0,1:0:0:0:
196,371,30588,1,2,2:0:0:0:
196,371,30676,1,0,2:0:0:0:
196,371,30764,2,0,P|142:347|118:345,1,71.2500000000002,0|0,1:0|2:0,0:0:0:0:
271,302,31117,2,0,P|265:243|255:221,1,71.2500000000002,0|2,1:0|2:0,0:0:0:0:
367,369,31470,6,0,P|419:350|444:346,2,71.2500027179719,6|2|2,1:2|0:0|1:2,0:0:0:0:
271,302,32000,1,2,0:0:0:0:
354,236,32176,2,0,B|369:149|369:149|321:107,1,142.500005435944,0|0,1:0|1:0,0:0:0:0:
244,69,32706,102,0,L|228:-8,1,71.2500027179719,2|0,0:0|1:0,0:0:0:0:
189,142,33059,2,0,P|147:124|119:122,1,71.2500027179719,2|2,0:0|1:2,0:0:0:0:
328,113,33411,2,0,P|380:76|357:0,1,142.500005435944,2|2,0:0|3:2,0:0:0:0:
349,15,33853,1,0,3:0:0:0:
333,23,33941,1,2,1:3:0:0:
244,69,34117,1,2,0:0:0:0:
320,208,34294,6,0,L|309:254,3,35.625001358986,8|8|8|8,0:0|0:0|0:0|0:0,0:0:0:0:
247,296,34647,2,0,L|258:342,3,35.625001358986,8|8|8|8,0:0|0:0|0:0|0:0,0:0:0:0:
333,365,35000,101,8,0:0:0:0:
357,375,35088,1,8,0:0:0:0:
383,379,35176,1,8,0:0:0:0:
410,376,35264,1,8,0:0:0:0:
435,367,35353,1,8,0:0:0:0:
458,340,35441,1,8,0:0:0:0:
468,306,35529,1,8,0:0:0:0:
464,271,35617,1,8,0:0:0:0:
447,240,35706,5,8,0:0:0:0:
476,196,35794,1,8,0:0:0:0:
478,144,35882,1,8,0:0:0:0:
451,98,35970,1,8,0:0:0:0:
403,73,36059,1,8,0:0:0:0:
352,79,36147,1,8,0:0:0:0:
311,113,36235,1,8,0:0:0:0:
295,164,36323,1,8,0:0:0:0:
308,215,36411,101,8,0:0:0:0:
24,159,36588,1,8,0:0:0:0:
24,159,37117,6,0,B|101:139|98:185|165:174,1,142.5,6|0,1:2|0:0,0:0:0:0:
199,149,37470,2,0,P|211:101|195:51,1,95,10|0,0:0|0:0,0:0:0:0:
313,183,37823,2,0,P|365:195|408:182,2,95,2|2|10,1:2|1:2|0:0,0:0:0:0:
215,318,38353,102,0,P|260:306|306:319,1,95,2|0,0:0|1:0,0:0:0:0:
443,384,38706,2,0,P|431:338|444:292,1,95,2|8,0:0|0:0,0:0:0:0:
507,200,39059,1,2,0:0:0:0:
426,107,39235,2,0,L|402:6,1,95,0|0,1:0|1:0,0:0:0:0:
313,183,39588,1,8,0:0:0:0:
313,183,39941,6,0,B|285:163|269:134|269:134|145:159,1,190,2|10,1:2|0:0,0:0:0:0:
59,113,40470,1,0,0:0:0:0:
131,26,40647,2,0,P|184:42|228:49,2,95,2|2|10,1:2|1:2|0:0,0:0:0:0:
59,113,41176,102,0,P|46:166|55:206,1,95,2|0,0:0|1:0,0:0:0:0:
138,329,41529,2,0,P|146:282|133:237,1,95,2|8,0:0|0:0,0:0:0:0:
10,289,41882,1,2,0:0:0:0:
134,238,42059,2,0,L|232:224,1,95,0|0,1:0|1:0,0:0:0:0:
368,161,42411,1,8,0:0:0:0:
368,161,42764,6,0,P|380:124|357:68,2,95,6|2|10,1:2|0:0|0:0,0:0:0:0:
304,240,43294,2,0,P|285:283|297:328,1,95,2|0,0:0|1:0,0:0:0:0:
445,324,43647,2,0,P|456:278|438:235,1,95,2|8,1:2|0:0,0:0:0:0:
368,161,44000,1,2,0:0:0:0:
231,62,44176,102,0,L|128:94,2,95,6|2|10,1:2|0:0|0:0,0:0:0:0:
69,224,44706,2,0,L|275:160,1,190,6|0,1:2|1:0,0:0:0:0:
384,345,45235,1,10,0:0:0:0:
383,299,45323,1,2,0:0:0:0:
356,260,45411,1,2,0:0:0:0:
312,244,45499,1,2,0:0:0:0:
267,255,45588,6,0,L|256:305,1,47.5,2|0,1:2|0:0,0:0:0:0:
83,382,45941,102,0,B|29:336|29:336|70:219,1,190,14|2,0:0|1:2,0:0:0:0:
164,132,46470,2,0,L|138:20,1,95,2|8,1:2|0:0,0:0:0:0:
288,164,46823,6,0,B|396:123|331:104|454:54,1,190,2|0,1:2|1:0,0:0:0:0:
268,192,47353,2,0,L|236:298,1,95,8|0,0:0|0:0,0:0:0:0:
442,356,47706,101,2,1:2:0:0:
463,327,47794,1,2,0:0:0:0:
472,293,47882,1,2,0:0:0:0:
467,258,47970,1,2,0:0:0:0:
448,228,48059,1,2,1:2:0:0:
420,190,48147,1,2,0:0:0:0:
409,144,48235,1,2,1:2:0:0:
417,98,48323,1,2,0:0:0:0:
442,58,48411,86,0,P|490:45|500:44,1,47.5,0|0,1:0|1:0,0:0:0:0:
268,192,48764,6,0,P|199:199|176:28,1,285,14|0,0:0|1:0,0:0:0:0:
23,143,49470,2,0,P|2:220|-2:250,1,95,10|0,0:0|0:0,0:0:0:0:
26,349,49823,101,2,1:2:0:0:
121,293,50000,2,0,L|218:317,1,95,2|8,0:0|0:0,0:0:0:0:
323,369,50353,2,0,L|278:181,1,190,2|2,1:2|1:2,0:0:0:0:
217,319,50882,1,8,0:0:0:0:
217,319,51235,6,0,L|205:370,1,47.5,0|0,1:0|1:0,0:0:0:0:
481,269,51588,102,0,B|406:233|334:277|358:307|289:348|210:316,1,285,14|0,0:0|1:0,0:0:0:0:
91,197,52294,2,0,P|76:150|84:105,1,95,10|0,0:0|0:0,0:0:0:0:
189,27,52647,5,2,1:2:0:0:
274,95,52823,2,0,L|383:73,1,95,2|8,1:2|0:0,0:0:0:0:
427,0,53176,2,0,B|388:88|388:88|445:173,1,190,2|2,1:2|1:2,0:0:0:0:
327,282,53706,1,8,0:0:0:0:
465,372,53882,1,8,0:0:0:0:
465,372,53970,1,8,0:0:0:0:
465,372,54059,102,0,P|482:336|489:326,1,47.5,0|0,1:0|1:0,0:0:0:0:
298,180,54411,6,0,B|235:212|189:269|189:269|184:204|134:130,1,285,14|0,0:0|1:0,0:0:0:0:
267,28,55117,2,0,P|317:14|368:10,1,95,10|0,0:0|0:0,0:0:0:0:
467,85,55470,101,2,1:2:0:0:
412,164,55647,2,0,P|428:209|413:259,1,95,2|8,0:0|0:0,0:0:0:0:
300,347,56000,2,0,P|239:347|212:240,1,190,2|2,1:2|1:2,0:0:0:0:
306,144,56529,1,8,0:0:0:0:
189,38,56706,1,2,0:0:0:0:
61,208,56882,5,12,0:0:0:0:
15,146,57059,1,0,1:0:0:0:
44,76,57235,1,0,1:0:0:0:
169,302,57411,101,12,0:0:0:0:
215,240,57588,1,0,1:0:0:0:
186,170,57764,1,0,1:0:0:0:
352,206,57941,5,12,0:0:0:0:
306,144,58118,1,0,1:0:0:0:
335,74,58294,1,0,1:0:0:0:
448,309,58470,101,12,0:0:0:0:
494,247,58647,1,0,1:0:0:0:
465,177,58823,1,0,1:0:0:0:
298,336,59000,5,8,0:0:0:0:
272,264,59176,1,0,1:0:0:0:
123,153,59353,101,8,0:0:0:0:
149,81,59529,1,0,1:0:0:0:
123,153,59706,2,0,L|135:204,1,47.5,0|0,1:0|1:0,0:0:0:0:
49,168,59882,2,0,L|61:219,1,47.5,0|0,1:0|1:0,0:0:0:0:
224,334,60059,6,0,P|320:303|289:148,1,285,14|0,0:0|1:0,0:0:0:0:
467,38,60764,2,0,P|452:80|439:152,1,95,10|2,0:0|0:0,0:0:0:0:
250,6,61117,101,2,1:2:0:0:
149,81,61294,2,0,P|103:63|45:67,1,95,2|8,0:0|0:0,0:0:0:0:
202,166,61647,2,0,B|260:149|282:98|282:98|321:82|369:125,1,190,2|2,1:2|1:2,0:0:0:0:
449,208,62176,2,0,L|422:304,1,95,10|0,0:0|0:0,0:0:0:0:
342,371,62529,6,0,P|331:345|330:323,1,47.5,0|0,1:0|1:0,0:0:0:0:
105,198,62882,102,0,B|169:194|215:222|215:222|241:291|241:291|282:328|339:325,1,285,14|0,0:0|1:0,0:0:0:0:
438,222,63588,2,0,P|454:169|459:119,1,95,10|0,0:0|0:0,0:0:0:0:
338,26,63941,5,2,1:2:0:0:
273,94,64117,2,0,P|233:78|184:98,1,95,2|8,1:2|0:0,0:0:0:0:
68,11,64470,2,0,L|105:202,1,190,2|2,1:2|1:2,0:0:0:0:
42,336,65000,1,8,0:0:0:0:
71,299,65088,1,8,0:0:0:0:
114,279,65176,1,8,0:0:0:0:
161,283,65264,1,8,0:0:0:0:
201,307,65353,102,0,P|196:343|190:358,1,47.5,0|0,1:0|1:0,0:0:0:0:
346,302,65706,6,0,B|393:253|381:205|381:205|419:179|426:129|426:129|387:122|359:75,1,285,14|0,0:0|1:0,0:0:0:0:
156,38,66411,2,0,P|221:12|254:8,1,95,10|0,0:0|0:0,0:0:0:0:
276,120,66764,101,2,1:2:0:0:
215,195,66941,2,0,P|201:245|227:292,1,95,2|8,1:2|0:0,0:0:0:0:
76,325,67294,2,0,P|109:238|80:149,1,190,2|2,1:2|1:2,0:0:0:0:
156,38,67823,1,8,0:0:0:0:
40,7,68000,1,2,1:2:0:0:
40,7,68088,1,0,1:0:0:0:
40,7,68176,6,0,L|14:115,2,95,6|0|2,1:2|1:0|1:2,0:0:0:0:
244,41,68706,2,0,L|221:133,2,95,2|0|2,1:2|1:0|1:2,0:0:0:0:
51,216,69235,101,12,0:0:0:0:
120,172,69411,1,0,1:0:0:0:
169,237,69588,1,0,1:0:0:0:
358,114,69764,5,8,0:0:0:0:
429,66,69941,1,8,0:0:0:0:
495,134,70117,1,0,1:0:0:0:
495,134,70206,1,0,1:0:0:0:
495,134,70294,1,0,1:0:0:0:
263,328,70470,102,0,B|239:275|268:222|268:222|298:167|253:98,1,237.5,14|0,0:0|0:0,0:0:0:0:
255,102,71000,86,0,B|275:147|250:193|250:193|224:241|263:300,1,190,6|10,1:2|0:0,0:0:0:0:
354,351,71529,2,0,P|411:329|456:325,1,95,2|0,0:0|1:0,0:0:0:0:
338,215,71882,2,0,P|384:222|428:240,1,95,2|8,1:2|0:0,0:0:0:0:
393,119,72235,1,2,0:0:0:0:
479,26,72411,6,0,P|446:77|319:60,1,190,0|10,1:0|0:0,0:0:0:0:
85,95,72941,2,0,B|123:8|123:8|209:68,1,190,6|0,1:2|1:0,0:0:0:0:
266,162,73470,2,0,L|238:271,1,95,8|0,0:0|0:0,0:0:0:0:
118,356,73823,102,0,P|61:355|33:224,1,190,2|10,1:2|0:0,0:0:0:0:
81,154,74353,2,0,L|177:132,1,95,2|0,0:0|1:0,0:0:0:0:
242,254,74706,2,0,L|146:276,1,95,2|8,1:2|0:0,0:0:0:0:
192,141,75059,1,2,0:0:0:0:
312,302,75235,6,0,P|327:254|313:209,2,95,6|2|10,1:2|1:2|0:0,0:0:0:0:
485,352,75764,2,0,P|455:256|483:166,1,190,6|8,1:2|0:0,0:0:0:0:
312,302,76294,1,8,0:0:0:0:
389,148,76470,1,2,1:2:0:0:
389,148,76559,1,8,0:0:0:0:
389,148,76647,102,0,P|413:93|382:20,1,142.5,6|2,1:2|0:0,0:0:0:0:
352,11,77000,1,8,0:0:0:0:
307,90,77176,1,2,0:0:0:0:
208,23,77353,6,0,L|59:53,1,142.5,2|2,1:2|0:0,0:0:0:0:
32,60,77706,1,8,0:0:0:0:
106,146,77882,1,2,0:0:0:0:
30,222,78059,102,0,B|0:285|0:285|29:356,1,142.5,2|2,1:2|0:0,0:0:0:0:
49,383,78411,1,8,0:0:0:0:
125,296,78588,1,2,0:0:0:0:
203,363,78764,6,0,P|231:316|324:318,1,142.5,2|2,1:2|0:0,0:0:0:0:
340,338,79117,1,8,0:0:0:0:
382,257,79294,1,2,0:0:0:0:
461,90,79470,102,0,L|428:-17,1,95,14|0,0:0|0:0,0:0:0:0:
367,145,79823,2,0,L|334:38,1,95,8|0,0:0|0:0,0:0:0:0:
277,200,80176,2,0,L|244:93,1,95,8|0,0:0|0:0,0:0:0:0:
179,243,80529,1,8,0:0:0:0:
182,246,80617,1,8,0:0:0:0:
186,250,80706,1,10,0:0:0:0:
119,59,80882,5,14,0:0:0:0:
37,161,81059,2,0,L|12:269,1,95,14|0,0:0|0:0,0:0:0:0:
164,342,81411,2,0,L|189:234,1,95,14|0,0:0|0:0,0:0:0:0:
361,321,81764,102,0,L|387:333,2,23.75,2|2|2,0:0|0:0|0:0,0:0:0:0:
339,294,81941,2,0,L|326:235,1,47.5,2|2,0:0|0:0,0:0:0:0:
348,334,82117,2,0,L|329:391,1,47.5,10|10,0:0|0:0,0:0:0:0:
478,266,82294,38,0,B|499:164|423:188|460:87,1,185.249991519928,6|0,1:2|0:0,0:0:0:0:
490,52,82647,1,8,0:0:0:0:
358,162,82823,1,2,0:0:0:0:
264,44,83000,2,0,P|190:25|125:18,1,123.499994346619,2|0,1:2|1:0,0:0:0:0:
58,132,83353,1,8,0:0:0:0:
95,196,83529,1,2,0:0:0:0:
36,30,83706,53,2,1:2:0:0:
196,106,83882,2,0,P|211:178|188:222,1,123.499994346619,2|8,0:0|0:0,0:0:0:0:
19,305,84235,2,0,B|157:250|142:361|264:326,1,246.999988693238,2|2,1:2|1:2,0:0:0:0:
388,209,84764,1,8,0:0:0:0:
469,320,84941,2,0,L|446:384,1,61.7499971733095,2|0,0:0|0:0,0:0:0:0:
365,182,85117,22,0,P|368:110|466:65,1,185.249991519928,6|0,1:2|0:0,0:0:0:0:
489,100,85470,1,8,0:0:0:0:
337,10,85647,1,2,0:0:0:0:
241,103,85823,2,0,L|267:226,1,123.499994346619,2|0,1:2|1:0,0:0:0:0:
295,366,86176,1,8,0:0:0:0:
368,211,86353,1,2,0:0:0:0:
139,132,86529,53,2,1:2:0:0:
16,231,86706,2,0,L|42:103,1,123.499994346619,2|8,0:0|0:0,0:0:0:0:
159,331,87059,2,0,P|158:255|9:238,1,246.999988693238,2|2,1:2|1:2,0:0:0:0:
244,109,87588,2,0,P|323:77|372:67,1,123.499994346619,14|0,0:0|0:0,0:0:0:0:
244,109,87941,86,0,B|229:49|178:49|178:49|140:99|174:138,1,185.249991519928,6|0,1:2|0:0,0:0:0:0:
184,165,88294,1,8,0:0:0:0:
283,249,88470,1,2,0:0:0:0:
181,370,88647,2,0,P|117:347|61:346,1,123.499994346619,2|0,1:2|1:0,0:0:0:0:
200,241,89000,1,8,0:0:0:0:
288,351,89176,1,2,0:0:0:0:
357,183,89353,53,2,1:2:0:0:
454,322,89529,2,0,P|424:269|454:221,1,123.499994346619,2|8,0:0|0:0,0:0:0:0:
473,68,89882,2,0,P|425:154|299:120,1,246.999988693238,2|2,1:2|1:2,0:0:0:0:
205,5,90411,1,8,0:0:0:0:
157,71,90588,1,2,0:0:0:0:
15,297,90764,22,0,B|73:273|73:273|125:303|125:303|182:280,1,185.249991519928,6|0,1:2|0:0,0:0:0:0:
211,256,91117,1,8,0:0:0:0:
98,13,91294,1,2,1:2:0:0:
16,215,91470,53,10,0:0:0:0:
304,275,91647,1,0,1:0:0:0:
234,13,91823,85,8,0:0:0:0:
118,270,92000,1,2,1:2:0:0:
386,63,92176,53,10,0:0:0:0:
465,117,92353,1,10,0:0:0:0:
465,117,92706,1,10,0:0:0:0:
465,117,93059,2,0,L|486:52,1,61.7499971733095,10|8,0:0|0:0,0:0:0:0:
424,247,93235,1,8,0:0:0:0:
406,305,93323,1,8,0:0:0:0:
361,345,93411,1,8,0:0:0:0:
301,355,93499,1,8,0:0:0:0:
244,332,93588,22,0,B|162:294|159:372|58:339,1,185.249991519928,6|0,1:2|0:0,0:0:0:0:
26,299,93941,1,8,0:0:0:0:
134,182,94117,1,2,0:0:0:0:
21,20,94294,2,0,P|45:103|54:156,1,123.499994346619,2|0,1:2|1:0,0:0:0:0:
229,16,94647,1,8,0:0:0:0:
325,136,94823,1,2,0:0:0:0:
325,136,94911,1,2,0:0:0:0:
325,136,95000,53,2,1:2:0:0:
199,235,95176,2,0,P|174:170|201:119,1,123.499994346619,2|8,0:0|0:0,0:0:0:0:
332,248,95529,2,0,P|416:264|445:109,1,246.999988693238,2|2,1:2|1:2,0:0:0:0:
310,9,96059,1,8,0:0:0:0:
261,83,96235,1,2,0:0:0:0:
74,309,96411,86,0,B|210:270|210:270|230:290|255:302,1,185.249991519928,6|0,1:2|0:0,0:0:0:0:
272,322,96764,1,8,0:0:0:0:
374,384,96941,1,2,0:0:0:0:
467,270,97117,2,0,P|496:201|493:139,1,123.499994346619,2|0,1:2|1:0,0:0:0:0:
355,52,97470,1,8,0:0:0:0:
436,20,97647,1,2,0:0:0:0:
356,192,97823,53,2,1:2:0:0:
195,90,98000,1,2,1:2:0:0:
234,20,98176,1,8,0:0:0:0:
55,110,98353,1,8,3:0:0:0:
55,110,98441,1,8,3:0:0:0:
55,110,98529,1,8,3:0:0:0:
118,190,98706,1,2,1:2:0:0:
35,332,98882,1,8,0:0:0:0:
140,372,99059,1,0,1:0:0:0:
157,367,99147,1,0,1:0:0:0:
174,362,99235,22,0,P|235:373|260:381,1,71.2500027179719,0|0,1:0|1:0,0:0:0:0:
118,190,99588,54,0,P|221:159|243:85,1,185.249991519928,14|0,0:0|0:0,0:0:0:0:
295,27,99941,86,0,P|341:6|371:3,1,71.2500027179719,0|0,1:0|1:0,0:0:0:0:
484,267,100294,54,0,B|379:225|453:201|335:155,1,185.249991519928,14|0,0:0|0:0,0:0:0:0:
281,208,100647,22,0,P|269:258|269:287,1,71.2500027179719,0|0,1:0|1:0,0:0:0:0:
108,61,101000,54,0,B|123:125|123:125|103:174|103:174|118:241,1,185.249991519928,14|0,0:0|0:0,0:0:0:0:
79,311,101353,86,0,P|39:292|9:291,1,71.2500027179719,0|0,1:0|1:0,0:0:0:0:
243,92,101706,54,0,B|369:119|369:119|378:147|400:169,1,185.249991519928,14|0,0:0|0:0,0:0:0:0:
452,225,102059,22,0,P|479:154|343:104,1,246.999988693238,6|8,1:2|0:0,0:0:0:0:
320,202,102588,1,8,0:0:0:0:
109,132,102764,53,8,0:0:0:0:
144,251,102941,1,8,0:0:0:0:
291,37,103117,85,8,0:0:0:0:
233,250,103294,1,8,0:0:0:0:
49,63,103470,54,0,P|117:42|170:67,1,123.499994346619,6|2,1:2|0:0,0:0:0:0:
21,219,103823,1,10,0:0:0:0:
169,355,104000,2,0,B|233:250|233:250|338:326,1,246.999988693238,6|6,1:2|1:2,0:0:0:0:
438,181,104529,1,10,0:0:0:0:
225,109,104706,22,0,P|314:132|352:5,1,246.999988693238,6|0,1:2|1:0,0:0:0:0:
209,129,105235,2,0,L|234:251,1,123.499994346619,8|0,0:0|0:0,0:0:0:0:
393,369,105588,1,8,0:0:0:0:
397,351,105676,1,8,0:0:0:0:
401,333,105764,1,8,0:0:0:0:
438,181,105941,2,0,P|389:161|316:191,1,123.499994346619,8|4,3:0|3:0,0:0:0:0:
497,15,106294,53,0,1:0:0:0:
497,15,107176,1,0,1:0:0:0:
424,111,107353,2,0,L|439:190,1,71.2500027179719,8|0,0:0|0:0,0:0:0:0:
294,35,107706,102,0,B|190:2|212:75|106:57,1,190,6|8,1:2|0:0,0:0:0:0:
21,134,108235,2,0,P|40:185|23:224,2,95,2|2|2,0:0|1:2|1:2,0:0:0:0:
162,156,108764,2,0,P|97:137|25:222,1,190,10|0,0:0|1:0,0:0:0:0:
53,307,109294,1,2,0:0:0:0:
204,379,109470,2,0,P|180:319|171:276,1,95,10|2,0:0|1:2,0:0:0:0:
293,138,109823,1,2,1:2:0:0:
223,90,110000,1,2,1:2:0:0:
162,156,110176,1,10,0:0:0:0:
162,156,110529,6,0,L|363:197,1,190,6|8,1:2|0:0,0:0:0:0:
419,257,111059,2,0,L|442:355,2,95,2|2|2,0:0|1:2|1:2,0:0:0:0:
493,142,111588,102,0,P|501:80|388:37,1,190,10|0,0:0|1:0,0:0:0:0:
347,95,112117,1,2,0:0:0:0:
251,33,112294,2,0,P|200:17|147:17,1,95,10|2,0:0|0:0,0:0:0:0:
261,136,112647,2,0,P|213:138|168:153,1,95,2|2,1:2|1:2,0:0:0:0:
69,266,113000,1,14,0:0:0:0:
69,266,113353,6,0,B|103:354|103:354|197:288,1,190,6|10,1:2|0:0,0:0:0:0:
244,350,113882,1,2,0:0:0:0:
332,286,114059,2,0,P|385:271|433:267,1,95,2|2,1:2|1:2,0:0:0:0:
262,170,114411,2,0,P|315:185|363:189,1,95,10|2,0:0|0:0,0:0:0:0:
468,96,114764,102,0,P|452:52|466:6,2,95,2|2|10,1:2|0:0|0:0,0:0:0:0:
361,45,115294,2,0,L|261:32,1,95,2|0,0:0|1:0,0:0:0:0:
148,19,115647,1,2,1:2:0:0:
154,41,115735,1,0,1:0:0:0:
160,63,115823,1,4,1:2:0:0:
184,145,116000,1,2,0:0:0:0:
241,359,116176,21,8,0:0:0:0:
184,145,116353,1,0,1:0:0:0:
184,145,117235,2,0,L|200:93,1,47.5,0|0,1:0|0:0,0:0:0:0:
129,293,117411,6,0,P|63:295|18:190,1,190,6|2,1:2|1:2,0:0:0:0:
63,115,117941,1,0,0:0:0:0:
129,293,118117,2,0,L|101:393,1,95,10|0,0:0|0:0,0:0:0:0:
216,251,118470,2,0,B|316:215|309:287|408:268,1,190,10|0,0:0|0:0,0:0:0:0:
482,97,119000,101,6,1:2:0:0:
256,192,119088,12,0,121470,1:0:0:0:
98,252,121823,6,0,P|71:192|91:121,2,142.500005435944,6|2|2,1:2|0:0|1:2,0:0:0:0:
160,310,122706,2,0,L|144:383,1,71.2500027179719,2|2,0:0|0:0,0:0:0:0:
236,277,123059,102,0,P|291:257|371:309,2,142.500005435944,2|2|2,0:0|0:0|1:2,0:0:0:0:
290,355,123941,1,0,1:0:0:0:
290,355,124294,2,0,L|221:369,1,71.2500027179719
361,293,124647,6,0,B|464:313|464:313|480:343|486:352,1,142.500005435944,2|2,0:0|0:0,0:0:0:0:
482,345,125176,1,0,0:0:0:0:
445,232,125353,2,0,P|439:202|456:162,2,71.2500027179719,2|2|2,1:2|0:0|0:0,0:0:0:0:
358,181,125882,102,0,B|295:146|295:146|231:187,2,142.500005435944,2|2|2,0:0|0:0|0:0,0:0:0:0:
367,165,126676,1,0,0:0:0:0:
376,149,126764,1,0,1:0:0:0:
226,30,127117,2,0,L|206:105,1,71.2500027179719,0|2,0:0|0:0,0:0:0:0:
15,55,127470,6,0,P|80:22|148:55,3,142.500005435944,6|0|0|0,1:2|1:0|1:0|1:0,0:0:0:0:
142,190,128882,2,0,B|77:223|77:223|9:190,3,142.500005435944,0|0|0|2,1:0|1:0|1:0|1:3,0:0:0:0:
14,192,130294,102,0,P|46:180|65:176,3,35.625001358986,8|8|8|8,0:0|0:0|0:0|0:0,0:0:0:0:
102,247,130647,2,0,P|134:259|153:263,3,35.625001358986,8|8|8|8,0:0|0:0|0:0|0:0,0:0:0:0:
210,241,131000,5,8,0:0:0:0:
231,225,131088,1,8,0:0:0:0:
256,216,131176,1,8,0:0:0:0:
283,213,131264,1,8,0:0:0:0:
309,217,131353,1,8,0:0:0:0:
339,236,131441,1,8,0:0:0:0:
374,245,131529,1,8,0:0:0:0:
409,244,131617,1,8,0:0:0:0:
443,233,131706,101,8,0:0:0:0:
390,227,131794,1,8,0:0:0:0:
346,197,131882,1,8,0:0:0:0:
323,150,131970,1,8,0:0:0:0:
326,97,132059,1,8,0:0:0:0:
311,47,132147,1,8,0:0:0:0:
270,13,132235,1,8,0:0:0:0:
218,7,132323,1,8,0:0:0:0:
171,32,132411,5,8,0:0:0:0:
427,137,132588,1,8,0:0:0:0:
427,137,133117,102,0,P|447:78|465:43,1,95,6|2,1:2|0:0,0:0:0:0:
323,150,133470,2,0,P|285:92|170:129,1,190,10|2,0:0|1:2,0:0:0:0:
128,184,134000,1,2,1:2:0:0:
21,121,134176,1,10,0:0:0:0:
21,121,134353,6,0,P|41:179|42:215,1,95,2|0,0:0|1:0,0:0:0:0:
182,301,134706,2,0,P|185:253|203:209,1,95,2|8,0:0|0:0,0:0:0:0:
49,351,135059,1,2,0:0:0:0:
49,351,135235,2,0,P|116:367|154:382,1,95,0|0,1:0|1:0,0:0:0:0:
287,279,135588,1,8,0:0:0:0:
287,279,135941,102,0,B|321:309|336:329|336:329|379:317|462:306,1,190,2|10,1:2|0:0,0:0:0:0:
492,240,136470,1,2,0:0:0:0:
381,168,136647,2,0,P|335:163|286:142,2,95,2|2|10,1:2|1:2|0:0,0:0:0:0:
489,109,137176,6,0,P|503:51|392:46,1,190,2|2,0:0|0:0,0:0:0:0:
369,154,137706,1,8,0:0:0:0:
295,62,137882,1,2,0:0:0:0:
295,62,138059,2,0,P|248:41|187:40,1,95,0|0,1:0|1:0,0:0:0:0:
92,156,138411,2,0,P|139:135|200:134,1,95,8|2,0:0|0:0,0:0:0:0:
11,70,138764,102,0,P|23:25|72:18,2,95,6|2|10,1:2|0:0|0:0,0:0:0:0:
92,156,139294,2,0,L|58:349,1,190,2|2,0:0|1:2,0:0:0:0:
219,296,139823,1,8,0:0:0:0:
193,212,140000,1,2,0:0:0:0:
296,342,140176,6,0,P|340:323|388:333,2,95,6|2|10,1:2|0:0|0:0,0:0:0:0:
397,234,140706,2,0,P|377:186|479:141,1,190,6|2,1:2|1:2,0:0:0:0:
371,46,141235,1,8,0:0:0:0:
347,42,141323,1,0,0:0:0:0:
323,38,141411,1,0,0:0:0:0:
192,132,141588,102,0,P|226:118|239:117,1,47.5,0|0,1:0|0:0,0:0:0:0:
93,8,141941,6,0,P|58:53|32:202,1,190,14|2,0:0|1:2,0:0:0:0:
86,235,142470,1,0,1:0:0:0:
33,364,142647,1,8,0:0:0:0:
103,212,142823,102,0,B|203:182|192:244|288:230,1,190,4|0,1:2|1:0,0:0:0:0:
419,294,143353,2,0,P|401:342|390:386,1,95,8|0,0:0|0:0,0:0:0:0:
288,230,143706,5,2,1:2:0:0:
282,195,143794,1,2,1:2:0:0:
292,161,143882,1,2,1:2:0:0:
316,135,143970,1,2,0:0:0:0:
349,122,144059,1,2,1:2:0:0:
395,120,144147,1,2,0:0:0:0:
434,93,144235,1,2,1:2:0:0:
453,50,144323,1,2,0:0:0:0:
448,4,144411,6,0,P|431:36|425:54,1,47.5,0|0,1:0|1:0,0:0:0:0:
494,284,144764,6,0,B|424:250|343:295|387:331|298:371|230:338,1,285,14|0,0:0|0:0,0:0:0:0:
123,233,145470,2,0,P|105:179|101:135,1,95,10|0,0:0|0:0,0:0:0:0:
68,301,145823,101,2,1:2:0:0:
201,220,146000,2,0,P|272:207|311:206,1,95,2|8,0:0|0:0,0:0:0:0:
101,141,146353,2,0,P|76:98|181:56,1,190,2|2,1:2|1:2,0:0:0:0:
194,205,146882,2,0,P|175:244|164:297,1,95,8|0,0:0|0:0,0:0:0:0:
286,350,147235,6,0,P|278:323|265:301,1,47.5,0|0,1:0|1:0,0:0:0:0:
452,101,147588,102,0,P|476:153|314:214,1,285,14|0,0:0|1:0,0:0:0:0:
225,109,148294,2,0,P|247:42|258:20,1,95,10|0,0:0|0:0,0:0:0:0:
129,110,148647,5,2,1:2:0:0:
129,110,148823,2,0,P|97:68|54:64,1,95,2|8,1:2|0:0,0:0:0:0:
225,109,149176,2,0,B|325:80|288:44|392:14,1,190,2|2,1:2|1:2,0:0:0:0:
483,133,149706,1,8,0:0:0:0:
393,234,149882,1,8,0:0:0:0:
393,234,149970,1,8,0:0:0:0:
393,234,150059,102,0,P|388:262|392:283,1,47.5,0|0,1:0|1:0,0:0:0:0:
135,343,150411,6,0,B|53:279|124:193|165:240|212:170|141:95,1,285,14|0,0:0|1:0,0:0:0:0:
30,32,151117,2,0,P|6:107|3:140,1,95,10|0,0:0|0:0,0:0:0:0:
158,87,151470,101,2,1:2:0:0:
242,35,151647,2,0,P|306:19|354:15,1,95,2|8,0:0|0:0,0:0:0:0:
290,199,152000,2,0,P|280:159|402:115,1,190,2|2,0:0|1:2,0:0:0:0:
489,248,152529,2,0,L|511:340,1,95,14|2,0:0|0:0,0:0:0:0:
287,288,152882,5,12,0:0:0:0:
219,245,153059,1,0,1:2:0:0:
155,289,153235,1,0,1:2:0:0:
146,114,153411,101,12,0:0:0:0:
78,157,153588,1,0,1:2:0:0:
14,113,153764,1,0,1:2:0:0:
428,114,153941,5,12,0:0:0:0:
360,157,154118,1,0,1:2:0:0:
296,112,154294,1,0,1:2:0:0:
287,288,154470,101,12,0:0:0:0:
219,245,154647,1,0,1:2:0:0:
155,289,154823,1,8,0:0:0:0:
148,311,154911,1,8,0:0:0:0:
141,333,155000,2,0,P|119:342|95:353,3,47.5,8|8|8|8,1:3|1:3|1:3|1:3,0:0:0:0:
57,274,155353,2,0,P|35:265|11:254,3,47.5,4|4|4|4,1:3|1:3|1:3|1:3,0:0:0:0:
95,189,155706,5,0,1:0:0:0:
49,118,155882,2,0,P|66:63|71:55,1,47.5,2|2,0:0|0:0,0:0:0:0:
248,275,156059,102,0,B|371:350|371:350|432:220,1,285,14|0,0:0|1:0,0:0:0:0:
512,109,156764,2,0,P|499:37|487:3,1,95,10|2,0:0|0:0,0:0:0:0:
379,82,157117,5,2,1:2:0:0:
287,33,157294,2,0,P|229:22|176:22,1,95,2|8,0:0|0:0,0:0:0:0:
185,152,157647,2,0,P|250:159|264:43,1,190,2|2,1:2|1:2,0:0:0:0:
120,0,158176,2,0,P|67:21|18:31,1,95,8|0,0:0|0:0,0:0:0:0:
90,126,158529,102,0,P|82:163|76:178,1,47.5,0|0,1:0|1:0,0:0:0:0:
313,316,158882,6,0,B|282:259|314:208|314:208|270:155|270:155|297:113|277:56,1,285,14|0,0:0|1:0,0:0:0:0:
416,182,159588,2,0,P|475:164|526:158,1,95,10|0,0:0|0:0,0:0:0:0:
414,287,159941,101,2,1:2:0:0:
331,165,160117,2,0,P|272:150|232:149,1,95,2|8,1:2|0:0,0:0:0:0:
160,280,160470,2,0,P|231:271|230:164,1,190,2|2,1:2|1:2,0:0:0:0:
145,76,161000,1,8,0:0:0:0:
110,84,161088,1,8,0:0:0:0:
75,92,161176,1,8,0:0:0:0:
40,100,161264,1,8,0:0:0:0:
6,108,161353,6,0,P|47:124|62:132,1,47.5,0|0,1:0|1:0,0:0:0:0:
6,363,161706,102,0,P|93:300|280:276,1,285,14|0,0:0|1:0,0:0:0:0:
414,379,162411,2,0,P|430:333|434:285,1,95,10|0,0:0|0:0,0:0:0:0:
341,192,162764,5,2,1:2:0:0:
407,86,162941,2,0,P|456:73|511:67,1,95,2|8,0:0|0:0,0:0:0:0:
393,110,163294,2,0,P|327:106|289:1,1,190,2|2,1:2|1:2,0:0:0:0:
166,64,163823,1,8,0:0:0:0:
55,2,164000,1,2,1:2:0:0:
55,2,164088,1,0,1:0:0:0:
55,2,164176,102,0,P|40:51|41:98,1,95,6|0,1:2|1:0,0:0:0:0:
116,193,164529,1,2,1:2:0:0:
40,305,164706,2,0,P|78:240|199:235,1,190,2|2,1:2|1:2,0:0:0:0:
398,366,165235,5,12,0:0:0:0:
343,305,165411,1,0,1:0:0:0:
274,356,165588,1,0,1:0:0:0:
446,164,165764,101,8,0:0:0:0:
184,227,165941,1,8,0:0:0:0:
325,96,166117,1,0,1:0:0:0:
325,96,166206,1,0,1:0:0:0:
325,96,166294,1,0,1:0:0:0:
170,314,166470,2,0,B|131:192|131:192|177:151,1,190,12|0,0:0|1:0,0:0:0:0:
0,256,167000,54,0,P|40:201|2:91,1,190,6|10,1:2|0:0,0:0:0:0:
177,150,167529,2,0,P|197:104|181:58,1,95,2|0,0:0|1:0,0:0:0:0:
104,0,167882,2,0,P|84:46|100:92,1,95,2|8,1:2|0:0,0:0:0:0:
251,14,168235,1,2,0:0:0:0:
419,138,168411,6,0,B|371:52|371:52|287:115,1,190,4|10,1:2|0:0,0:0:0:0:
228,248,168941,2,0,B|319:214|323:282|414:262,1,190,6|0,1:2|1:0,0:0:0:0:
301,110,169470,1,8,0:0:0:0:
301,110,169823,102,0,P|233:115|207:8,1,190,6|10,1:2|0:0,0:0:0:0:
52,68,170353,2,0,P|33:135|29:170,1,95,2|0,0:0|1:0,0:0:0:0:
115,214,170706,2,0,P|134:281|138:316,1,95,2|8,1:2|0:0,0:0:0:0:
61,368,171059,1,2,0:0:0:0:
222,265,171235,6,0,P|263:282|311:262,2,95,6|2|10,1:2|0:0|0:0,0:0:0:0:
472,267,171764,2,0,P|387:225|302:272,1,190,6|8,1:2|0:0,0:0:0:0:
311,268,172206,1,8,0:0:0:0:
307,264,172294,1,8,0:0:0:0:
267,185,172470,1,2,0:0:0:0:
197,22,172647,102,0,P|146:59|73:32,1,142.5,6|2,1:2|0:0,0:0:0:0:
52,9,173000,1,8,0:0:0:0:
15,102,173176,1,2,0:0:0:0:
81,194,173353,6,0,L|115:339,1,142.5,2|2,1:2|0:0,0:0:0:0:
95,372,173706,1,8,0:0:0:0:
208,327,173882,1,2,0:0:0:0:
340,382,174059,102,0,P|397:357|396:281,1,142.5,2|2,1:2|0:0,0:0:0:0:
367,253,174411,1,8,0:0:0:0:
402,169,174588,1,2,0:0:0:0:
289,42,174764,6,0,L|431:15,1,142.5,2|2,1:2|0:0,0:0:0:0:
471,8,175117,1,8,0:0:0:0:
449,103,175294,1,2,0:0:0:0:
215,106,175470,102,0,L|194:219,1,95,6|0,1:2|0:0,0:0:0:0:
122,68,175823,2,0,L|101:181,1,95,8|0,0:0|0:0,0:0:0:0:
28,30,176176,2,0,L|7:143,1,95,8|0,0:0|0:0,0:0:0:0:
87,252,176529,1,8,0:0:0:0:
109,258,176617,1,8,0:0:0:0:
131,264,176706,1,10,0:0:0:0:
12,317,176882,5,8,3:0:0:0:
197,199,177059,2,0,L|261:182,2,47.5,8|8|8,3:0|3:0|0:0,0:0:0:0:
28,30,177411,2,0,P|64:79|150:72,1,142.5,14|0,0:0|0:0,0:0:0:0:
207,34,177764,2,0,P|211:18|205:1,2,23.75,14|2|10,0:0|0:0|0:0,0:0:0:0:
232,66,177941,1,8,0:0:0:0:
265,99,178029,1,8,0:0:0:0:
310,113,178117,1,8,0:0:0:0:
357,106,178205,1,8,0:0:0:0:
396,80,178294,86,0,B|452:131|452:131|424:240,1,185.249991519928,6|0,1:2|0:0,0:0:0:0:
411,277,178647,1,8,0:0:0:0:
490,384,178823,1,2,0:0:0:0:
411,277,179000,2,0,P|334:254|290:254,1,123.499994346619,2|0,1:2|1:0,0:0:0:0:
146,346,179353,1,8,0:0:0:0:
172,246,179529,1,2,0:0:0:0:
24,301,179706,53,2,1:2:0:0:
172,246,179882,2,0,P|143:193|167:138,1,123.499994346619,2|8,0:0|0:0,0:0:0:0:
32,48,180235,2,0,P|102:112|236:47,1,246.999988693238,2|2,1:2|1:2,0:0:0:0:
65,192,180764,1,8,0:0:0:0:
134,26,180941,1,2,0:0:0:0:
268,202,181117,22,0,B|377:179|325:139|433:115,1,185.249991519928,6|0,1:2|0:0,0:0:0:0:
465,142,181470,1,8,0:0:0:0:
337,24,181647,1,2,0:0:0:0:
422,214,181823,2,0,P|393:289|384:330,1,123.499994346619,2|0,1:2|1:0,0:0:0:0:
259,186,182176,1,8,0:0:0:0:
465,142,182353,1,2,0:0:0:0:
289,299,182529,53,2,1:2:0:0:
173,171,182706,2,0,P|193:93|215:47,1,123.499994346619,2|8,0:0|0:0,0:0:0:0:
99,255,183059,2,0,P|82:178|21:18,1,246.999988693238,2|2,1:2|1:2,0:0:0:0:
259,186,183588,2,0,P|333:154|379:148,1,123.499994346619,14|0,0:0|0:0,0:0:0:0:
259,186,183941,86,0,P|270:279|187:306,1,185.249991519928,6|0,1:2|0:0,0:0:0:0:
169,287,184294,1,8,0:0:0:0:
77,350,184470,1,2,0:0:0:0:
0,231,184647,2,0,P|23:162|42:110,1,123.499994346619,2|0,1:2|1:0,0:0:0:0:
160,18,185000,1,8,0:0:0:0:
63,96,185176,1,2,0:0:0:0:
184,206,185353,53,2,1:2:0:0:
279,116,185529,2,0,P|255:66|279:7,1,123.499994346619,2|8,0:0|0:0,0:0:0:0:
479,121,185882,2,0,B|381:46|381:46|267:123,1,246.999988693238,2|2,1:2|1:2,0:0:0:0:
374,246,186411,1,8,0:0:0:0:
380,148,186588,1,2,0:0:0:0:
296,344,186764,22,0,B|367:328|367:328|420:355|420:355|483:341,1,185.249991519928,6|0,1:2|0:0,0:0:0:0:
487,311,187117,1,8,0:0:0:0:
276,207,187294,1,2,1:2:0:0:
462,108,187470,53,10,0:0:0:0:
383,324,187647,1,0,1:0:0:0:
236,83,187823,85,8,0:0:0:0:
470,200,188000,1,2,1:2:0:0:
224,334,188176,53,10,0:0:0:0:
336,64,188353,1,10,0:0:0:0:
336,64,188706,1,14,0:0:0:0:
337,65,189059,1,14,0:0:0:0:
340,68,189147,1,8,0:0:0:0:
344,72,189235,1,8,3:0:0:0:
311,39,189323,1,8,3:0:0:0:
268,24,189411,1,4,3:0:0:0:
222,30,189499,1,4,3:0:0:0:
184,55,189588,22,0,B|79:95|79:95|42:77|25:30,1,185.249991519928,6|0,1:2|0:0,0:0:0:0:
47,12,189941,1,8,0:0:0:0:
142,143,190117,1,2,0:0:0:0:
32,259,190294,2,0,P|5:343|1:378,1,123.499994346619,2|0,1:2|1:0,0:0:0:0:
176,247,190647,1,8,0:0:0:0:
26,130,190823,1,2,0:0:0:0:
241,60,191000,53,2,1:2:0:0:
176,247,191176,2,0,P|120:251|91:193,1,123.499994346619,2|8,0:0|0:0,0:0:0:0:
258,334,191529,2,0,P|261:249|399:219,1,246.999988693238,2|2,1:2|1:2,0:0:0:0:
475,368,192059,1,8,0:0:0:0:
340,289,192235,1,2,0:0:0:0:
406,43,192411,86,0,B|347:82|347:82|386:189,1,185.249991519928,6|0,1:2|0:0,0:0:0:0:
398,218,192764,1,8,0:0:0:0:
483,93,192941,1,2,0:0:0:0:
314,13,193117,2,0,L|183:-1,1,123.499994346619,2|0,1:2|1:0,0:0:0:0:
271,139,193470,1,8,0:0:0:0:
200,232,193647,1,2,0:0:0:0:
57,82,193823,53,2,1:2:0:0:
200,232,194000,2,0,P|172:290|201:340,1,123.499994346619,2|8,0:0|0:0,0:0:0:0:
22,383,194353,2,0,P|74:276|17:171,1,246.999988693238,2|2,1:2|1:2,0:0:0:0:
132,31,194882,1,8,0:0:0:0:
132,31,194970,1,8,0:0:0:0:
132,31,195059,1,10,0:0:0:0:
191,96,195235,22,0,P|201:125|205:149,1,47.5,0|0,1:0|1:0,0:0:0:0:
405,218,195588,54,0,B|424:203|453:190|453:190|391:187|314:219,1,185.249991519928,12|0,0:0|0:0,0:0:0:0:
280,280,195941,86,0,P|265:320|264:333,1,47.5,0|0,1:0|1:0,0:0:0:0:
35,257,196294,54,0,B|7:160|78:178|35:75,1,185.249991519928,12|0,0:0|0:0,0:0:0:0:
18,0,196647,22,0,P|53:9|84:13,1,47.5,0|0,1:0|1:0,0:0:0:0:
256,104,197000,54,0,P|325:83|444:20,1,185.249991519928,12|0,0:0|0:0,0:0:0:0:
496,1,197353,86,0,P|511:32|515:52,1,47.5,0|0,1:0|1:0,0:0:0:0:
401,302,197706,54,0,B|370:275|344:258|344:258|383:149,1,185.249991519928,12|0,0:0|0:0,0:0:0:0:
451,119,198059,22,0,B|333:80|336:181|203:152,1,246.999988693238,4|8,1:2|0:0,0:0:0:0:
134,41,198588,1,8,0:0:0:0:
72,231,198764,53,8,0:0:0:0:
233,62,198941,1,8,0:0:0:0:
207,314,199117,85,8,0:0:0:0:
45,83,199294,1,8,0:0:0:0:
273,232,199470,54,0,P|329:252|394:230,1,123.499994346619,6|2,1:2|0:0,0:0:0:0:
233,62,199823,1,10,0:0:0:0:
511,181,200000,2,0,B|479:146|465:109|465:109|301:140,1,246.999988693238,6|6,1:2|1:2,0:0:0:0:
207,314,200529,1,10,0:0:0:0:
33,167,200706,22,0,P|6:108|156:87,1,246.999988693238,6|0,1:2|1:0,0:0:0:0:
136,267,201235,2,0,P|119:188|104:130,1,123.499994346619,12|0,0:0|0:0,0:0:0:0:
229,37,201588,1,8,0:0:0:0:
256,50,201676,1,8,0:0:0:0:
286,45,201764,1,8,0:0:0:0:
417,1,201941,2,0,P|391:61|425:111,1,123.499994346619,8|4,3:0|3:0,0:0:0:0:
256,192,202294,53,0,1:0:0:0:
256,192,203176,1,0,1:0:0:0:
339,270,203353,2,0,L|317:356,1,71.2500027179719,8|0,0:0|0:0,0:0:0:0:
174,165,203706,54,0,P|169:211|179:235,3,71.2500027179719,6|2|0|0,1:2|0:0|1:0|0:0,0:0:0:0:
232,297,204411,2,0,P|237:343|227:367,1,71.2500027179719,0|0,1:2|0:0,0:0:0:0:
82,365,204764,102,0,P|71:331|78:296,2,71.2500027179719,2|2|0,1:2|0:0|1:0,0:0:0:0:
152,326,205294,1,0,0:0:0:0:
227,365,205470,2,0,P|237:331|230:296,1,71.2500027179719,0|0,1:2|0:0,0:0:0:0:
177,233,205823,2,0,P|167:199|174:165,3,71.2500027179719,2|2|0|0,1:2|0:0|1:0|0:0,0:0:0:0:
226,98,206529,6,0,P|261:106|303:94,3,71.2500027179719,2|2|0|0,1:2|0:0|1:0|0:0,0:0:0:0:
352,42,207235,2,0,P|386:33|420:41,1,71.2500027179719,0|0,1:0|0:0,0:0:0:0:
469,107,207588,102,0,P|476:141|468:175,3,71.2500027179719,2|2|0|0,1:2|0:0|1:0|0:0,0:0:0:0:
421,239,208294,2,0,P|409:290|421:342,1,106.875004076958,2|8,1:3|0:0,0:0:0:0:
451,373,208647,1,8,0:0:0:0:
497,293,208823,1,8,3:0:0:0:
302,370,209000,1,4,3:0:0:0:
331,283,209176,1,4,3:0:0:0:
74,232,209353,37,6,1:2:0:0:
166,298,209529,2,0,P|196:242|175:168,1,142.500005435944,2|0,1:2|1:0,0:0:0:0:
41,127,210059,2,0,B|74:141|74:141|108:127,1,71.2500027179719,8|0,0:0|0:0,0:0:0:0:
266,17,210411,21,2,1:2:0:0:
331,89,210588,2,0,P|271:122|206:95,1,142.500005435944,2|8,1:2|0:0,0:0:0:0:
331,89,211117,2,0,B|349:121|349:121|333:158,1,71.2500027179719,0|0,1:0|1:0,0:0:0:0:
279,298,211470,1,10,0:0:0:0:
335,152,211647,1,2,1:2:0:0:
335,152,212000,1,8,0:0:0:0:
335,152,212088,1,8,0:0:0:0:
335,152,212176,85,6,1:2:0:0:
481,257,212353,2,0,B|440:224|440:224|470:133,1,142.500005435944,2|0,1:2|1:0,0:0:0:0:
512,17,212882,2,0,P|477:30|441:19,1,71.2500027179719,8|0,0:0|0:0,0:0:0:0:
349,75,213235,21,2,1:2:0:0:
468,138,213411,2,0,L|494:286,1,142.500005435944,2|8,1:2|0:0,0:0:0:0:
420,346,213941,2,0,P|387:334|346:350,1,71.2500027179719,0|0,1:0|1:0,0:0:0:0:
383,199,214294,85,2,1:2:0:0:
243,356,214470,22,2,L|234:319,1,35.625,2|0,1:2|0:0,0:1:0:0:
212,294,214823,54,0,B|79:270|79:270|35:296|59:348,1,213.750008153916,6|0,1:2|0:0,0:0:0:0:
81,369,215176,1,2,1:2:0:0:
209,202,215353,2,0,P|186:140|216:67,1,142.500005435944,10|2,0:0|0:0,0:0:0:0:
21,59,215706,2,0,P|46:123|23:189,1,142.500005435944,2|2,1:2|1:2,0:0:0:0:
279,136,216059,1,10,0:0:0:0:
121,22,216235,1,2,0:0:0:0:
111,248,216411,53,2,1:2:0:0:
279,136,216588,2,0,P|345:113|409:140,1,142.500005435944,2|8,0:0|0:0,0:0:0:0:
437,330,216941,2,0,P|322:328|362:184,1,285.000010871888,2|2,1:2|1:2,0:0:0:0:
495,77,217470,1,8,0:0:0:0:
495,77,217647,1,2,0:0:0:0:
495,77,217735,1,2,0:0:0:0:
495,77,217823,54,0,B|454:77|420:64|420:64|370:95|370:95|346:80|292:81,1,213.750008153916,6|0,1:2|0:0,0:0:0:0:
245,77,218176,2,0,P|210:143|239:202,1,142.500005435944,10|0,0:0|0:0,0:0:0:0:
446,320,218529,1,2,1:2:0:0:
380,268,218706,1,0,1:0:0:0:
319,323,218882,1,10,0:0:0:0:
108,212,219059,54,0,B|73:191|36:187|36:187|140:143|242:203,1,285.000010871888,6|2,1:2|1:2,0:0:0:0:
6,69,219588,2,0,P|73:62|103:-4,1,142.500005435944,10|0,0:0|0:0,0:0:0:0:
236,199,219941,1,2,1:2:0:0:
314,77,220117,1,2,1:2:0:0:
102,348,220294,1,12,0:0:0:0:
102,348,220647,54,0,L|118:265,1,71.2500027179719,6|0,1:2|0:0,0:0:0:0:
149,116,220823,1,2,0:0:0:0:
213,318,221000,1,10,0:0:0:0:
102,0,221176,2,0,B|10:60|10:60|38:232,1,285.000010871888,6|2,1:2|1:2,0:0:0:0:
252,148,221706,1,10,0:0:0:0:
494,352,221882,54,0,P|419:368|413:192,1,285.000010871888,6|2,1:2|1:2,0:0:0:0:
167,88,222411,1,10,0:0:0:0:
484,0,222588,2,0,P|459:103|439:283,1,285.000010871888,6|0,1:2|1:0,0:0:0:0:
446,287,223029,1,0,1:0:0:0:
445,286,223117,2,0,B|378:256|378:256|316:288,1,142.500005435944,10|0,0:0|0:0,0:0:0:0:
73,77,223470,54,0,B|210:56|210:56|248:80|237:134,1,213.750008153916,4|0,1:2|0:0,0:0:0:0:
220,156,223823,1,8,0:0:0:0:
467,30,224000,1,0,1:0:0:0:
337,276,224176,53,8,0:0:0:0:
243,11,224353,1,0,1:0:0:0:
488,145,224529,53,8,0:0:0:0:
296,368,224706,1,0,1:0:0:0:
190,141,224882,53,8,0:0:0:0:
450,272,225059,1,0,1:0:0:0:
99,302,225235,53,12,0:0:0:0:
389,106,225411,1,0,1:0:0:0:
392,109,225500,1,0,1:0:0:0:
396,113,225588,53,8,3:0:0:0:
142,26,225764,1,8,3:0:0:0:
83,186,225941,1,4,3:0:0:0:
337,273,226117,1,4,3:0:0:0:
2,56,226294,54,0,P|55:42|164:22,1,142.500005435944,6|0,1:2|1:0,0:0:0:0:
274,97,226647,1,0,1:0:0:0:
476,303,226823,54,0,P|423:289|314:269,1,142.500005435944,6|0,1:2|1:0,0:0:0:0:
204,344,227176,1,0,1:0:0:0:
396,113,227353,53,6,1:2:0:0:
78,58,227529,1,8,0:0:0:0:
78,58,227617,1,8,0:0:0:0:
78,58,227706,22,0,P|65:93|60:107,1,47.5,0|0,1:0|1:0,0:0:0:0:
317,95,228059,22,0,B|378:31|438:143|334:186|334:186|317:194|295:225|295:225|284:189|270:176|270:176|190:106|277:15|317:87,1,475,6|2,1:2|0:0,0:0:0:0:
297,65,229029,1,2,0:0:0:0:
297,65,229117,1,2,0:0:0:0:
256,192,229206,12,0,230441,0:0:0:0:
256,192,230529,101,6,1:2:0:0:
256,192,233353,21,6,1:2:0:0:
263,199,234588,1,4,3:0:0:0:
263,199,234676,1,4,3:0:0:0:
263,199,234765,5,8,3:0:0:0:
160,124,234941,2,0,P|133:116|102:114,2,56.9999982604981,8|8|4,3:0|3:0|3:0,0:0:0:0:
229,55,235823,2,0,P|238:30|237:18,1,28.4999991302491,4|0,3:0|0:0,0:0:0:0:
256,192,236176,5,6,1:2:0:0:
260,196,239000,5,0,1:0:0:0:
260,196,239176,1,0,1:0:0:0:
74,354,239353,6,0,B|19:306|19:306|47:225|60:177,1,185.249991519928,4|8,1:2|0:0,0:0:0:0:
30,151,239706,1,8,0:0:0:0:
152,26,239882,2,0,P|175:95|185:145,2,123.499994346619,8|8|4,3:0|3:0|3:0,0:0:0:0:
260,196,240411,5,2,1:2:0:0:
348,102,240588,2,0,P|409:81|466:100,1,123.499994346619,2|0,1:2|0:0,0:0:0:0:
134,97,240941,2,0,P|224:151|352:95,1,246.999988693238,2|2,1:2|1:2,0:0:0:0:
83,16,241470,1,8,0:0:0:0:
50,48,241558,1,8,0:0:0:0:
38,92,241646,1,8,0:0:0:0:
48,137,241734,1,8,0:0:0:0:
78,172,241823,54,0,P|98:248|1:273,1,185.249991519928,6|0,1:2|0:0,0:0:0:0:
0,242,242176,1,8,0:0:0:0:
90,349,242353,1,2,0:0:0:0:
189,215,242529,2,0,P|246:192|325:193,1,123.499994346619,2|0,1:2|1:0,0:0:0:0:
249,350,242882,1,8,0:0:0:0:
110,247,243059,1,2,0:0:0:0:
274,103,243235,21,2,1:2:0:0:
376,256,243411,2,0,P|349:206|375:143,1,123.499994346619,2|8,0:0|0:0,0:0:0:0:
164,89,243764,2,0,P|215:199|161:306,1,246.999988693238,2|2,1:2|1:2,0:0:0:0:
23,187,244294,1,8,0:0:0:0:
164,89,244470,1,2,0:0:0:0:
346,4,244647,54,0,B|411:23|411:23|446:72|446:72|503:94,1,185.249991519928,6|0,1:2|0:0,0:0:0:0:
512,122,245000,1,8,0:0:0:0:
445,223,245176,1,2,0:0:0:0:
480,371,245353,2,0,P|417:347|358:349,1,123.499994346619,2|0,1:2|1:0,0:0:0:0:
466,198,245706,1,8,0:0:0:0:
335,90,245882,1,2,0:0:0:0:
229,252,246059,85,2,1:2:0:0:
136,171,246235,2,0,P|157:105|136:53,1,123.499994346619,2|8,0:0|0:0,0:0:0:0:
32,239,246588,2,0,B|136:171|136:171|231:253,1,246.999988693238,2|8,1:2|0:0,0:0:0:0:
228,251,247029,1,8,0:0:0:0:
227,250,247117,1,8,0:0:0:0:
129,345,247294,1,2,0:0:0:0:
32,239,247470,54,0,P|43:200|45:188,1,47.5,0|0,1:0|1:0,0:0:0:0:
276,44,247823,22,0,P|225:28|158:124,1,185.249991519928,12|0,0:0|0:0,0:0:0:0:
215,174,248176,54,0,P|250:170|267:162,1,47.5,0|0,1:0|1:0,0:0:0:0:
439,335,248529,86,0,B|455:290|410:271|410:271|291:311,1,185.249991519928,12|0,0:0|0:0,0:0:0:0:
244,340,248882,54,0,P|231:371|228:389,1,47.5,0|0,1:0|1:0,0:0:0:0:
71,282,249235,22,0,B|22:204|22:204|87:127,1,185.249991519928,14|0,0:0|0:0,0:0:0:0:
157,120,249588,54,0,P|192:135|210:137,1,47.5,0|0,1:0|1:0,0:0:0:0:
482,10,249941,86,0,B|376:55|451:72|328:127,1,185.249991519928,14|0,0:0|0:0,0:0:0:0:
350,198,250294,54,0,P|267:155|338:45,1,246.999988693238,4|8,1:2|0:0,0:0:0:0:
480,106,250823,1,8,0:0:0:0:
385,299,251000,21,8,0:0:0:0:
339,121,251176,1,8,0:0:0:0:
264,340,251353,53,8,0:0:0:0:
466,199,251529,1,8,0:0:0:0:
216,45,251706,86,0,P|148:32|97:51,1,123.499994346619,6|2,1:2|0:0,0:0:0:0:
104,257,252059,2,0,P|162:275|221:262,1,123.499994346619,14|2,0:0|0:0,0:0:0:0:
98,50,252411,85,8,3:0:0:0:
53,58,252499,1,8,3:0:0:0:
20,90,252587,1,4,3:0:0:0:
10,134,252675,1,4,3:0:0:0:
25,177,252763,1,14,0:0:0:0:
25,177,253117,102,2,P|35:197|41:224,1,42.7499986953736,2|0,1:2|1:0,0:1:0:0:
14,295,253470,5,12,0:0:0:0:
131,98,253647,1,8,0:0:0:0:
131,98,253735,1,8,0:0:0:0:
131,98,253823,2,0,P|204:75|279:74,1,142.500005435944,8|8,0:0|3:0,0:0:0:0:
68,25,254176,1,4,3:0:0:0:
46,21,254264,1,4,3:0:0:0:
24,17,254353,1,4,3:0:0:0:
212,180,254529,101,14,0:0:0:0:
221,214,254617,1,8,0:0:0:0:
231,248,254706,1,8,0:0:0:0:
240,282,254794,1,8,0:0:0:0:
250,316,254882,1,8,0:0:0:0:
383,208,255059,2,0,P|405:138|367:81,1,142.500005435944,14|0,0:0|0:0,0:0:0:0:
212,180,255411,1,6,1:2:0:0:
215,183,255500,1,0,1:0:0:0:
219,187,255588,1,8,0:0:0:0:
312,152,255764,1,2,0:0:0:0:
154,368,255941,38,0,B|29:334|29:334|12:280|46:254,1,213.750008153916,6|0,1:2|0:0,0:0:0:0:
80,236,256294,1,8,0:0:0:0:
4,68,256470,1,2,1:2:0:0:
216,93,256647,53,10,0:0:0:0:
18,178,256823,1,0,1:0:0:0:
265,255,257000,101,8,0:0:0:0:
23,83,257176,1,2,1:2:0:0:
294,12,257353,21,10,0:0:0:0:
180,243,257529,1,2,1:2:0:0:
378,92,257706,53,8,0:0:0:0:
108,196,257882,1,2,1:2:0:0:
306,346,258059,5,8,0:0:0:0:
196,116,258235,1,2,1:2:0:0:
199,119,258323,1,0,1:0:0:0:
203,123,258411,1,14,0:0:0:0:
425,252,258588,85,8,0:0:0:0:
462,256,258676,1,8,0:0:0:0:
495,238,258764,2,0,B|393:203|391:285|286:261,1,213.750008153916,6|0,1:2|0:0,0:0:0:0:
252,235,259117,1,8,0:0:0:0:
359,25,259294,1,2,1:2:0:0:
161,204,259470,53,10,0:0:0:0:
413,117,259647,1,0,1:0:0:0:
126,63,259823,101,8,0:0:0:0:
192,304,260000,1,2,1:2:0:0:
315,96,260176,21,10,0:0:0:0:
81,243,260353,1,2,1:2:0:0:
378,306,260529,53,8,0:0:0:0:
144,192,260706,1,2,1:2:0:0:
323,378,260882,5,8,0:0:0:0:
427,148,261059,1,2,1:2:0:0:
217,45,261235,85,8,0:0:0:0:
421,244,261411,1,2,1:2:0:0:
103,364,261588,54,0,B|228:321|159:286|295:246,1,213.750008153916,6|0,1:2|0:0,0:0:0:0:
320,279,261941,1,8,0:0:0:0:
403,44,262117,1,2,1:2:0:0:
488,298,262294,101,10,0:0:0:0:
321,107,262470,1,0,1:0:0:0:
427,371,262647,1,12,0:0:0:0:
502,207,262823,1,2,0:0:0:0:
236,353,263000,21,10,0:0:0:0:
502,207,263176,2,0,P|429:182|376:212,1,142.500005435944,10|0,0:0|0:0,0:0:0:0:
134,207,263529,2,0,P|234:272|384:197,1,285.000010871888,10|10,1:2|0:0,0:0:0:0:
401,172,263971,1,8,0:0:0:0:
409,125,264059,1,8,0:0:0:0:
395,80,264147,1,8,0:0:0:0:
363,46,264235,1,8,0:0:0:0:
319,28,264324,1,8,0:0:0:0:
272,32,264412,53,6,1:2:0:0:
497,126,264588,1,0,1:0:0:0:
497,126,264676,1,0,1:0:0:0:
497,126,264764,6,0,L|267:164,1,213.750008153916,8|0,0:0|0:0,0:0:0:0:
258,198,265117,1,10,0:0:0:0:
399,32,265294,1,0,1:0:0:0:
409,242,265470,85,8,0:0:0:0:
189,114,265647,1,2,1:2:0:0:
421,10,265823,53,10,0:0:0:0:
324,240,266000,1,2,1:2:0:0:
228,24,266176,101,8,0:0:0:0:
469,178,266353,1,2,1:2:0:0:
156,212,266529,21,8,0:0:0:0:
400,87,266706,1,2,1:2:0:0:
63,40,266882,53,8,0:0:0:0:
312,149,267059,1,2,1:2:0:0:
36,345,267235,6,0,B|10:303|47:270|47:270|190:301,1,213.750008153916,6|0,1:2|0:0,0:0:0:0:
201,332,267588,1,8,0:0:0:0:
136,94,267764,1,10,0:0:0:0:
139,97,267853,1,8,0:0:0:0:
143,101,267941,1,8,3:0:0:0:
475,32,268117,1,8,3:0:0:0:
505,228,268294,1,4,3:0:0:0:
173,297,268470,1,4,3:0:0:0:
351,20,268647,85,10,0:0:0:0:
304,342,268823,1,10,0:0:0:0:
304,342,269176,1,10,0:0:0:0:
304,342,269529,1,2,1:2:0:0:
304,342,269617,1,0,1:0:0:0:
304,342,269706,1,4,1:2:0:0:
333,261,269882,1,2,0:0:0:0:
212,180,270059,54,0,P|179:190|162:200,1,47.5,0|0,1:0|1:0,0:0:0:0:
328,25,270411,102,0,B|444:45|444:45|467:85|445:110,1,185.249991519928,14|0,0:0|0:0,0:0:0:0:
393,163,270764,22,0,P|409:199|416:212,1,47.5,0|0,1:0|1:0,0:0:0:0:
145,124,271117,54,0,P|66:57|103:17,1,185.249991519928,14|0,0:0|0:0,0:0:0:0:
176,1,271470,6,0,P|200:15|228:22,1,47.5,0|0,1:0|1:0,0:0:0:0:
30,228,271823,86,0,B|101:211|101:211|151:236|151:236|209:222,1,185.249991519928,14|0,0:0|0:0,0:0:0:0:
267,172,272176,54,0,P|280:197|283:224,1,47.5,0|0,1:0|1:0,0:0:0:0:
497,377,272529,102,0,B|400:340|459:317|339:273,1,185.249991519928,14|0,0:0|0:0,0:0:0:0:
307,346,272882,22,0,P|379:353|398:211,1,246.999988693238,6|8,1:2|0:0,0:0:0:0:
267,172,273411,1,8,0:0:0:0:
442,109,273588,53,8,0:0:0:0:
259,256,273764,1,8,0:0:0:0:
195,44,273941,5,8,0:0:0:0:
465,258,274117,1,8,0:0:0:0:
153,356,274294,86,0,P|108:338|36:364,1,123.499994346619,6|2,1:2|0:0,0:0:0:0:
108,201,274647,1,10,0:0:0:0:
7,42,274823,2,0,B|105:123|105:123|203:36,1,246.999988693238,6|2,1:2|1:2,0:0:0:0:
307,172,275353,1,10,0:0:0:0:
409,5,275529,54,0,B|494:59|494:59|454:215,1,246.999988693238,6|0,1:2|1:0,0:0:0:0:
335,361,276059,2,0,P|304:313|330:248,1,123.499994346619,8|0,0:0|0:0,0:0:0:0:
470,361,276411,1,8,0:0:0:0:
475,329,276500,1,8,0:0:0:0:
481,298,276588,1,8,0:0:0:0:
335,361,276764,2,0,P|276:378|216:358,1,123.499994346619,8|4,3:0|3:0,0:0:0:0:
0,384,277117,101,0,1:0:0:0:
0,384,278529,38,0,P|7:359|9:333,1,47.5,2|2,0:0|0:0,0:0:0:0:
55,275,278882,2,0,P|48:250|46:224,1,47.5,2|2,0:0|0:0,0:0:0:0:
154,384,279235,102,0,P|163:350|166:314,1,71.2500027179719,2|2,0:0|0:0,0:0:0:0:
228,235,279588,2,0,P|218:201|215:165,1,71.2500027179719,2|2,0:0|0:0,0:0:0:0:
329,384,279941,6,0,P|343:334|347:282,1,95,2|2,0:0|0:0,0:0:0:0:
439,166,280294,2,0,P|425:116|421:64,1,95,2|2,0:0|0:0,0:0:0:0:
228,235,280647,101,2,0:0:0:0:
295,186,280823,1,0,1:0:0:0:
126,33,281000,6,0,B|20:60|20:60|6:103|40:130,1,185.249991519928,12|0,0:0|0:0,0:0:0:0:
76,153,281353,22,0,B|119:248|40:244|84:336,1,190,6|8,1:2|0:0,0:0:0:0:
191,384,281882,1,2,0:0:0:0:
284,318,282059,2,0,L|301:213,1,95,2|2,1:2|1:2,0:0:0:0:
435,304,282411,54,0,P|375:357|282:315,1,190,10|0,0:0|1:0,0:0:0:0:
215,236,282941,1,2,0:0:0:0:
329,145,283117,2,0,P|369:134|433:126,1,95,10|2,0:0|0:0,0:0:0:0:
259,26,283470,2,0,P|306:32|351:44,2,95,2|2|10,1:2|1:2|0:0,0:0:0:0:
259,26,284176,102,0,B|158:3|177:73|74:58,1,190,6|8,1:2|0:0,0:0:0:0:
7,169,284706,2,0,P|27:213|6:257,2,95,2|2|2,0:0|1:2|1:2,0:0:0:0:
134,222,285235,22,0,P|186:185|301:223,1,190,10|0,0:0|1:0,0:0:0:0:
430,330,285764,2,0,P|439:275|450:233,2,95,2|10|2,0:0|0:0|0:0,0:0:0:0:
298,219,286294,2,0,P|236:206|192:203,1,95,2|2,1:2|1:2,0:0:0:0:
375,80,286647,2,0,P|437:67|481:64,1,95,14|2,0:0|0:0,0:0:0:0:
375,80,287000,54,0,B|309:97|259:53|259:53|277:45|319:15,1,190,6|8,1:2|0:0,0:0:0:0:
180,86,287529,1,2,0:0:0:0:
53,9,287706,2,0,P|30:67|18:109,1,95,2|2,1:2|1:2,0:0:0:0:
153,245,288059,2,0,P|138:199|120:155,1,95,10|2,0:0|0:0,0:0:0:0:
18,350,288411,6,0,P|46:302|82:295,2,95,2|2|10,1:2|0:0|0:0,0:0:0:0:
153,245,288941,2,0,P|197:240|251:268,1,95,2|0,0:0|1:0,0:0:0:0:
120,155,289294,2,0,P|73:159|30:140,1,95,2|8,1:2|0:0,0:0:0:0:
168,57,289647,1,2,0:0:0:0:
184,328,289823,21,4,1:2:0:0:
184,328,290000,2,0,P|145:343|132:351,2,47.5,4|4|8,3:0|3:0|3:0,0:0:0:0:
267,246,290353,2,0,P|288:256|310:263,2,47.5,4|4|8,3:0|3:0|3:0,0:0:0:0:
176,151,290706,2,0,P|137:166|124:174,2,47.5,4|4|4,3:0|3:0|3:0,0:0:0:0:
256,51,291059,1,4,3:0:0:0:
400,255,291235,101,6,1:2:0:0:
476,165,291411,2,0,P|456:123|477:80,1,95,2|8,0:0|0:0,0:0:0:0:
400,255,291764,2,0,B|315:210|315:210|245:272,1,190,2|2,1:2|1:2,0:0:0:0:
244,272,292294,1,8,0:0:0:0:
71,382,292470,6,0,B|40:289|105:297|53:176,1,190,6|2,1:2|1:2,0:0:0:0:
0,87,293000,1,8,0:0:0:0:
163,162,293176,2,0,B|263:109|203:89|317:34,1,190,2|2,1:2|1:2,0:0:0:0:
380,83,293706,1,8,0:0:0:0:
244,272,293882,102,0,B|233:320|279:342|279:342|394:307,1,190,6|2,1:2|1:2,0:0:0:0:
460,180,294411,1,8,0:0:0:0:
224,117,294588,2,0,L|194:221,1,95,2|0,1:2|0:0,0:0:0:0:
258,103,294941,2,0,L|228:-1,1,95,2|0,1:2|0:0,0:0:0:0:
114,288,295294,5,6,1:2:0:0:
256,192,295382,12,0,296794,0:0:0:0:
121,310,296882,101,6,1:2:0:0:
34,88,297059,1,2,1:2:0:0:
256,207,297235,1,10,0:0:0:0:
43,329,297411,1,2,1:2:0:0:
43,329,297764,5,10,0:0:0:0:
188,89,297941,1,10,0:0:0:0:
307,343,298117,1,10,0:0:0:0:
