osu file format v14

[General]
AudioFilename: audio.mp3
AudioLeadIn: 0
PreviewTime: 82206
Countdown: 0
SampleSet: Soft
StackLeniency: 0.5
Mode: 0
LetterboxInBreaks: 0
WidescreenStoryboard: 1

[Editor]
Bookmarks: 412,11706,25823,37117,48412,71000,82294,107706,121823,133117,144412,167000,178294,203706,208294,214823,230529,241823,281353,293529,298117
DistanceSpacing: 0.9
BeatDivisor: 4
GridSize: 16
TimelineZoom: 1.3

[Metadata]
Title:Million Litmus
TitleUnicode:ミリオンリトマス
Artist:Kotobuki Minako
ArtistUnicode:寿美菜子
Creator:Fuiba Fuyu
Version:Airiesu's Insane
Source:
Tags:tycani japanese pop jpop j-pop emotion yuki_momoiro722 pile ayamemymommy akane-_ xahlt kuon- airiesu mujina tsumugi 琴吹紬
BeatmapID:2978352
BeatmapSetID:1292727

[Difficulty]
HPDrainRate:5
CircleSize:3.8
OverallDifficulty:7.7
ApproachRate:9
SliderMultiplier:1.7
SliderTickRate:1

[Events]
//Background and Video events
0,0,"moog.jpg",0,0
Video,-1123,"XOFTF5CM.mp4"
//Break Periods
2,122022,126841
2,203906,207341
//Storyboard Layer 0 (Background)
//Storyboard Layer 1 (Fail)
//Storyboard Layer 2 (Pass)
//Storyboard Layer 3 (Foreground)
//Storyboard Layer 4 (Overlay)
//Storyboard Sound Samples

[TimingPoints]
412,352.941176470588,4,2,1,40,1,0
412,-250,4,2,1,40,0,0
3147,-250,4,2,1,5,0,0
3235,-250,4,2,1,40,0,0
5264,-250,4,2,1,5,0,0
5353,-133.333333333333,4,2,1,40,0,0
5970,-133.333333333333,4,2,1,5,0,0
6059,-250,4,2,1,40,0,0
7382,-250,4,2,1,5,0,0
7470,-250,4,2,1,40,0,0
8264,-250,4,2,1,5,0,0
8353,-250,4,2,1,40,0,0
9853,-250,4,2,1,5,0,0
9941,-250,4,2,1,40,0,0
10029,-250,4,2,1,5,0,0
10117,-166.666666666667,4,2,1,40,0,0
10205,-166.666666666667,4,2,1,5,0,0
10294,-125,4,2,1,40,0,0
10382,-125,4,2,1,5,0,0
10470,-100,4,2,1,40,0,0
10647,-133.333333333333,4,2,1,40,0,0
10911,-133.333333333333,4,2,1,5,0,0
11000,-133.333333333333,4,2,1,80,0,0
11706,-100,4,2,1,80,0,0
22206,-100,4,2,1,5,0,0
22470,-100,4,2,1,80,0,0
22559,-100,4,2,1,5,0,0
22823,-133.333333333333,4,2,1,80,0,0
23000,-133.333333333333,4,2,1,60,0,0
25470,-200,4,2,1,60,0,0
25735,-200,4,2,1,5,0,0
25823,-125,4,2,1,60,0,0
34294,-125,4,2,1,40,0,0
35000,-125,4,2,1,55,0,0
35706,-125,4,2,1,70,0,0
36411,-125,4,2,1,80,0,0
37117,-100,4,2,1,70,0,0
48412,-133.333333333333,4,2,1,70,0,0
48764,-100,4,2,1,70,0,0
54059,-133.333333333333,4,2,1,70,0,0
54412,-100,4,2,1,70,0,0
65353,-133.333333333333,4,2,1,70,0,0
65706,-100,4,2,1,70,0,0
70470,-200,4,2,1,70,0,0
70911,-200,4,2,1,5,0,0
71000,-100,4,2,1,70,0,0
81500,-100,4,2,1,5,0,0
81764,-100,4,2,1,70,0,0
82294,-90.9090909090909,4,2,1,80,0,1
92441,-90.9090909090909,4,2,1,5,0,1
92706,-90.9090909090909,4,2,1,80,0,1
92794,-90.9090909090909,4,2,1,5,0,1
93059,-90.9090909090909,4,2,1,80,0,1
99588,-66.6666666666667,4,2,1,80,0,1
104000,-90.9090909090909,4,2,1,80,0,1
106294,-90.9090909090909,4,2,1,80,0,0
107353,-200,4,2,1,80,0,0
107617,-200,4,2,1,5,0,0
107706,-100,4,2,1,80,0,0
117323,-100,4,2,1,5,0,0
117412,-83.3333333333333,4,2,1,80,0,0
117676,-83.3333333333333,4,2,1,5,0,0
117764,-83.3333333333333,4,2,1,80,0,0
118028,-83.3333333333333,4,2,1,5,0,0
118117,-83.3333333333333,4,2,1,80,0,0
118381,-83.3333333333333,4,2,1,5,0,0
118470,-100,4,2,1,80,0,0
118911,-100,4,2,1,5,0,0
119000,-133.333333333333,4,2,1,80,0,0
119176,-133.333333333333,4,2,1,60,0,0
127470,-125,4,2,1,60,0,0
130294,-125,4,2,1,40,0,0
131000,-125,4,2,1,55,0,0
131706,-125,4,2,1,70,0,0
132411,-125,4,2,1,80,0,0
133117,-100,4,2,1,70,0,0
144412,-133.333333333333,4,2,1,70,0,0
144764,-100,4,2,1,70,0,0
150059,-133.333333333333,4,2,1,70,0,0
150412,-100,4,2,1,70,0,0
161353,-133.333333333333,4,2,1,70,0,0
161706,-100,4,2,1,70,0,0
166470,-200,4,2,1,70,0,0
167000,-100,4,2,1,70,0,0
177500,-100,4,2,1,5,0,0
177764,-100,4,2,1,70,0,0
178294,-90.9090909090909,4,2,1,80,0,1
188441,-90.9090909090909,4,2,1,5,0,1
188706,-90.9090909090909,4,2,1,80,0,1
188794,-90.9090909090909,4,2,1,5,0,1
189059,-90.9090909090909,4,2,1,80,0,1
195588,-66.6666666666667,4,2,1,80,0,1
200000,-90.9090909090909,4,2,1,80,0,1
202294,-90.9090909090909,4,2,1,80,0,0
203176,-90.9090909090909,4,2,1,50,0,0
203353,-200,4,2,1,50,0,0
203617,-200,4,2,1,5,0,0
203706,-200,4,2,1,50,0,0
207941,-133.333333333333,4,2,1,50,0,0
209353,-133.333333333333,4,2,1,65,0,0
209529,-111.111111111111,4,2,1,65,0,0
214823,-100,4,2,1,90,0,0
223117,-200,4,2,1,90,0,0
223382,-200,4,2,1,5,0,0
223470,-200,4,2,1,90,0,0
223823,-100,4,2,1,90,0,0
228059,-200,4,2,1,90,0,0
228235,-200,4,2,1,55,0,0
230441,-200,4,2,1,5,0,0
230529,-400,4,2,1,80,0,0
233353,-200,4,2,1,80,0,0
233529,-200,4,2,1,60,0,0
236176,-200,4,2,1,80,0,0
239353,-100,4,2,1,80,0,0
240676,-100,4,2,1,5,0,0
240941,-100,4,2,1,80,0,0
241029,-100,4,2,1,5,0,0
241294,-100,4,2,1,80,0,0
241823,-90.9090909090909,4,2,1,80,0,1
247823,-66.6666666666667,4,2,1,80,0,1
251882,-90.9090909090909,4,2,1,80,0,1
263617,-90.9090909090909,4,2,1,5,0,1
263882,-90.9090909090909,4,2,1,80,0,1
268911,-90.9090909090909,4,2,1,5,0,1
269176,-90.9090909090909,4,2,1,80,0,1
269264,-90.9090909090909,4,2,1,5,0,1
269529,-90.9090909090909,4,2,1,80,0,1
269706,-66.6666666666667,4,2,1,80,0,1
274823,-90.9090909090909,4,2,1,80,0,1
277117,-90.9090909090909,4,2,1,80,0,0
278529,-200,4,2,1,20,0,0
278882,-200,4,2,1,30,0,0
279235,-133.333333333333,4,2,1,40,0,0
279588,-133.333333333333,4,2,1,50,0,0
279941,-100,4,2,1,60,0,0
280294,-100,4,2,1,70,0,0
280823,-100,4,2,1,80,0,0
281000,-200,4,2,1,80,0,0
281264,-200,4,2,1,5,0,0
281353,-100,4,2,1,80,0,0
291853,-100,4,2,1,5,0,0
292117,-100,4,2,1,80,0,0
292206,-100,4,2,1,5,0,0
292470,-100,4,2,1,80,0,0
293264,-100,4,2,1,5,0,0
293529,-100,4,2,1,80,0,0
293617,-100,4,2,1,5,0,0
293882,-100,4,2,1,80,0,0
294676,-100,4,2,1,5,0,0
294941,-100,4,2,1,80,0,0
295029,-100,4,2,1,5,0,0
295294,-133.333333333333,4,2,1,80,0,0

[Colours]
Combo1 : 91,202,137
Combo2 : 250,136,150
Combo3 : 251,37,59
Combo4 : 168,251,239
Combo5 : 44,172,210
Combo6 : 253,242,117
Combo7 : 251,191,25
Combo8 : 143,222,121

[HitObjects]
141,206,412,6,1,B|119:226|112:256|121:284|121:284|74:259|54:204|74:156|74:156|96:107|149:83|198:102|198:102|249:119|276:173|261:220,1,527,2|0,0:0|0:0,0:0:0:0:
201,267,3235,2,0,B|252:324|336:295|313:249|378:211|440:255|440:255|455:341|375:353,1,391,2|0,0:0|0:0,0:0:0:0:
361,366,5353,2,0,P|332:250|388:152,1,223.125008511544,2|0,0:0|0:0,0:0:0:0:
382,138,6059,118,0,B|317:127|256:56|314:8|390:53|332:127|258:145,1,255,2|0,0:0|0:0,0:0:0:0:
266,218,7470,2,0,B|226:222|198:189|198:189|193:226|145:246,1,153,2|0,0:0|0:0,0:0:0:0:
121,258,8353,2,0,L|128:301,2,34,0|0|0,3:0|3:0|3:0,0:0:0:0:
197,344,8882,118,0,B|234:309|281:310|281:310|314:355|362:351,1,187,2|0,0:0|0:0,0:0:0:0:
387,361,9941,118,0,L|384:329,1,17,2|0,0:0|0:0,0:0:0:0:
437,292,10117,118,0,L|440:260,1,25.5,2|0,0:0|0:0,0:0:0:0:
379,216,10294,118,0,L|375:177,1,34,2|0,0:0|0:0,0:0:0:0:
445,127,10470,118,0,L|449:77,1,42.5,2|0,1:2|1:0,0:0:0:0:
350,67,10647,2,0,L|232:47,1,95.6250000000002,2|0,1:2|2:0,0:0:0:0:
225,51,11000,1,8,2:0:0:0:
151,221,11176,1,8,2:0:0:0:
151,221,11706,86,0,L|128:50,2,170,6|8|2,1:2|2:0|1:2,0:0:0:0:
114,318,12588,1,2,1:2:0:0:
240,279,12764,2,0,P|280:291|320:307,1,85,10|0,2:0|0:0,0:0:0:0:
411,365,13117,2,0,P|440:323|425:277,1,85,0|2,1:0|2:0,0:0:0:0:
354,177,13470,1,10,2:0:0:0:
336,285,13647,1,2,2:0:0:0:
444,171,13823,2,0,P|453:108|458:67,1,85,2|2,1:2|1:2,0:0:0:0:
258,196,14176,1,10,2:0:0:0:
246,206,14529,6,0,B|218:174|174:185|174:185|145:235|74:225,1,170,6|8,1:2|2:0,0:0:0:0:
94,65,15059,2,0,L|106:163,1,85,2|2,2:0|1:2,0:0:0:0:
138,312,15412,1,2,1:2:0:0:
23,253,15588,2,0,L|11:155,1,85,10|0,2:0|0:0,0:0:0:0:
0,30,15941,1,0,1:0:0:0:
104,149,16117,101,2,2:0:0:0:
231,34,16294,2,0,L|329:14,1,85,10|2,2:0|2:0,0:0:0:0:
273,198,16647,1,2,1:2:0:0:
195,122,16823,1,2,1:2:0:0:
358,152,17000,2,0,L|441:168,1,85,14|0,2:0|0:0,0:0:0:0:
294,366,17353,6,0,L|271:189,1,170,6|10,1:2|2:0,0:0:0:0:
327,72,17882,1,2,2:0:0:0:
392,235,18059,1,2,1:2:0:0:
432,79,18235,1,2,1:2:0:0:
272,197,18412,2,0,L|171:217,1,85,10|2,2:0|2:0,0:0:0:0:
32,278,18764,102,0,P|21:323|38:365,2,85,2|2|10,1:2|2:0|2:0,0:0:0:0:
175,129,19294,2,0,L|190:224,1,85,2|0,2:0|1:0,0:0:0:0:
34,151,19647,2,0,L|47:67,1,85,2|8,1:2|2:0,0:0:0:0:
218,24,20000,1,2,2:0:0:0:
188,212,20176,5,4,1:2:0:0:
129,127,20353,2,0,L|135:85,2,42.5,4|4|8,3:0|3:0|3:0,0:0:0:0:
163,316,20706,1,4,3:0:0:0:
163,316,20794,1,4,3:0:0:0:
163,316,20882,1,4,3:0:0:0:
270,182,21059,2,0,L|263:140,2,42.5,4|4|8,3:0|3:0|2:0,0:0:0:0:
351,332,21412,1,0,2:0:0:0:
351,332,21500,1,0,0:0:0:0:
351,332,21588,101,6,1:2:0:0:
372,212,21764,1,2,1:2:0:0:
262,280,21941,1,8,2:0:0:0:
452,330,22117,2,0,L|507:323,1,42.5,2|0,1:2|0:0,0:0:0:0:
270,182,22470,2,0,L|215:175,1,42.5,2|0,1:2|0:0,0:0:0:0:
449,28,22823,6,0,B|434:108|434:108|454:139|454:139|442:210,1,191.25,4|0,1:2|0:0,0:0:0:0:
441,210,24059,1,0,0:0:0:0:
441,210,24764,1,0,0:0:0:0:
319,69,25294,101,0,0:0:0:0:
239,124,25470,2,0,P|202:121|173:103,1,63.75,8|0,2:0|0:0,0:0:0:0:
150,38,25823,70,0,L|164:183,2,136,6|2|2,1:2|1:2|1:2,0:0:0:0:
70,60,26706,1,2,2:0:0:0:
39,135,26882,1,2,1:2:0:0:
68,210,27059,2,0,P|61:244|51:276,1,68,2|0,2:0|0:0,0:0:0:0:
159,353,27412,2,0,P|149:320|142:287,1,68,2|0,2:0|1:0,0:0:0:0:
216,225,27764,1,2,2:0:0:0:
216,225,27941,2,0,L|293:235,1,68,0|0,1:0|0:0,0:0:0:0:
301,324,28294,2,0,L|368:315,1,68,0|0,1:0|2:0,0:0:0:0:
400,218,28647,102,0,L|392:353,1,136,2|2,1:2|1:2,0:0:0:0:
487,236,29176,1,2,2:0:0:0:
487,236,29353,2,0,P|478:189|470:159,1,68,2|2,1:2|2:0,0:0:0:0:
375,66,29706,1,2,1:2:0:0:
375,66,29882,2,0,P|366:113|358:143,1,68,2|0,2:0|0:0,0:0:0:0:
298,214,30235,2,0,P|261:182|239:160,1,68,2|0,2:0|1:0,0:0:0:0:
208,73,30588,1,2,2:0:0:0:
208,73,30764,2,0,P|253:57|283:49,1,68,0|0,1:0|2:0,0:0:0:0:
153,159,31117,2,0,P|121:147|88:137,1,68,0|2,1:0|2:0,0:0:0:0:
207,246,31470,6,0,L|209:332,2,68,6|2|2,1:2|0:0|1:2,0:0:0:0:
310,303,32000,2,0,L|308:389,1,68,2|0,0:0|1:0,0:0:0:0:
401,246,32353,2,0,L|403:332,1,68,0|0,0:0|1:0,0:0:0:0:
312,185,32706,102,0,P|331:157|370:142,1,68,2|0,0:0|1:0,0:0:0:0:
477,163,33059,1,2,0:0:0:0:
477,163,33235,1,2,1:2:0:0:
441,65,33412,2,0,P|421:37|382:22,1,68,2|0,0:0|0:0,0:0:0:0:
274,89,33764,2,0,L|234:95,2,34,2|0|2,0:0|0:0|1:3,0:0:0:0:
362,143,34117,1,2,0:0:0:0:
222,273,34294,6,0,L|214:239,3,34,8|8|8|8,0:0|0:0|0:0|0:0,0:0:0:0:
142,192,34647,2,0,L|108:199,3,34,8|8|8|8,0:0|0:0|0:0|0:0,0:0:0:0:
61,272,35000,2,0,L|68:305,3,34,8|8|8|8,0:0|0:0|0:0|0:0,0:0:0:0:
141,353,35353,2,0,L|174:345,3,34,8|8|8|8,0:0|0:0|0:0|0:0,0:0:0:0:
303,277,35706,2,0,L|336:284,3,34,8|8|8|8,0:0|0:0|0:0|0:0,0:0:0:0:
464,324,36059,1,8,0:0:0:0:
460,298,36147,1,8,0:0:0:0:
457,273,36235,1,8,0:0:0:0:
454,248,36323,1,8,0:0:0:0:
451,222,36412,101,8,0:0:0:0:
319,362,36588,1,8,0:0:0:0:
319,362,37117,6,0,L|126:331,2,170,6|10|2,1:2|0:0|1:2,0:0:0:0:
464,324,38000,1,2,1:2:0:0:
350,194,38176,1,10,0:0:0:0:
283,272,38353,102,0,L|186:256,1,85,2|0,0:0|1:0,0:0:0:0:
123,151,38706,2,0,L|206:137,1,85,2|8,0:0|0:0,0:0:0:0:
332,177,39059,1,2,0:0:0:0:
355,49,39235,1,0,1:0:0:0:
355,49,39412,1,0,1:0:0:0:
474,138,39588,1,8,0:0:0:0:
486,156,39941,6,0,L|472:328,2,170,2|10|2,1:2|0:0|1:2,0:0:0:0:
450,38,40823,1,2,1:2:0:0:
350,153,41000,1,10,0:0:0:0:
262,73,41176,102,0,P|222:54|174:49,1,85,2|0,0:0|1:0,0:0:0:0:
105,163,41529,2,0,P|145:144|193:139,1,85,2|8,0:0|0:0,0:0:0:0:
252,248,41882,1,2,0:0:0:0:
143,313,42059,1,0,1:0:0:0:
143,313,42235,1,0,1:0:0:0:
288,375,42412,1,8,0:0:0:0:
308,357,42764,6,0,L|401:345,2,85,6|2|10,1:2|0:0|0:0,0:0:0:0:
180,384,43294,2,0,L|169:288,1,85,2|0,0:0|1:0,0:0:0:0:
143,174,43647,1,2,1:2:0:0:
42,250,43823,1,8,0:0:0:0:
170,299,44000,1,2,0:0:0:0:
132,154,44176,102,0,L|43:148,2,85,6|2|10,1:2|0:0|0:0,0:0:0:0:
234,217,44706,2,0,P|299:204|415:186,1,170,6|0,1:2|1:0,0:0:0:0:
484,315,45235,1,10,0:0:0:0:
407,268,45412,1,2,0:0:0:0:
473,118,45588,1,2,1:2:0:0:
474,98,45941,6,0,B|452:69|401:71|401:71|369:102|313:92,1,170,14|2,0:0|1:2,0:0:0:0:
213,47,46470,1,2,1:2:0:0:
342,17,46647,1,8,0:0:0:0:
259,187,46823,2,0,B|192:166|192:166|173:139|173:139|97:114,1,170,2|0,1:2|1:0,0:0:0:0:
1,215,47353,1,8,0:0:0:0:
12,229,47706,102,0,L|19:279,3,42.5,2|2|2|2,1:2|0:0|0:0|0:0,0:0:0:0:
73,348,48059,1,2,1:2:0:0:
97,326,48147,1,2,0:0:0:0:
125,312,48235,1,2,1:2:0:0:
156,307,48323,1,2,0:0:0:0:
188,311,48412,2,0,L|182:385,1,63.7500000000002,0|0,1:0|1:0,0:0:0:0:
323,241,48764,86,0,L|72:195,1,255,14|0,0:0|1:0,0:0:0:0:
11,118,49470,2,0,P|9:76|34:43,1,85,10|0,0:0|0:0,0:0:0:0:
146,1,49823,1,2,1:2:0:0:
144,109,50000,2,0,L|227:123,1,85,2|10,0:0|0:0,0:0:0:0:
322,171,50353,2,0,L|433:151,1,85,2|0,1:2|0:0,0:0:0:0:
309,62,50706,1,2,1:2:0:0:
200,213,50882,2,0,L|88:193,1,85,8|0,0:0|0:0,0:0:0:0:
331,282,51235,1,0,1:0:0:0:
331,282,51412,1,0,1:0:0:0:
246,366,51588,6,0,L|220:106,1,255,14|0,0:0|1:0,0:0:0:0:
324,6,52294,2,0,L|333:96,1,85,10|0,0:0|0:0,0:0:0:0:
347,185,52647,1,2,1:2:0:0:
347,185,52823,1,2,1:2:0:0:
452,103,53000,1,8,0:0:0:0:
443,203,53176,2,0,L|434:287,1,85,2|0,1:2|0:0,0:0:0:0:
346,368,53529,1,2,1:2:0:0:
279,247,53706,1,8,0:0:0:0:
177,317,53882,1,8,0:0:0:0:
177,317,53970,1,8,0:0:0:0:
177,317,54059,2,0,L|169:384,1,63.7500000000002,0|0,1:0|1:0,0:0:0:0:
70,191,54412,102,0,L|322:226,1,255,14|0,0:0|1:0,0:0:0:0:
454,278,55117,2,0,P|470:233|461:189,1,85,10|0,0:0|0:0,0:0:0:0:
456,60,55470,1,2,1:2:0:0:
366,64,55647,2,0,P|351:103|356:144,1,85,2|8,0:0|0:2,0:0:0:0:
289,18,56000,2,0,L|202:-1,1,85,2|0,1:2|0:0,0:0:0:0:
70,156,56353,1,2,1:2:0:0:
178,124,56529,2,0,L|265:105,1,85,8|2,0:0|0:0,0:0:0:0:
324,270,56882,5,12,0:0:0:0:
208,217,57059,2,0,L|124:235,1,85,0|0,1:0|1:0,0:0:0:0:
242,338,57412,101,12,0:0:0:0:
324,173,57588,2,0,L|407:191,1,85,0|0,1:0|1:0,0:0:0:0:
324,270,57941,5,12,0:0:0:0:
237,112,58117,2,0,L|153:130,1,85,0|0,1:0|1:0,0:0:0:0:
208,217,58470,101,12,0:0:0:0:
302,52,58647,2,0,L|385:70,1,85,0|0,1:0|1:0,0:0:0:0:
324,173,59000,5,8,0:0:0:0:
203,24,59176,1,0,1:0:0:0:
96,199,59353,101,8,0:0:0:0:
237,112,59529,1,0,1:0:0:0:
99,28,59706,1,0,1:0:0:0:
99,28,59794,1,0,1:0:0:0:
99,28,59882,2,0,L|106:79,1,42.5,0|0,1:0|1:0,0:0:0:0:
5,116,60059,6,0,L|257:80,1,255,14|0,0:0|1:0,0:0:0:0:
386,12,60764,2,0,P|406:48|402:90,1,85,10|2,0:0|0:0,0:0:0:0:
315,249,61117,1,2,1:2:0:0:
259,181,61294,2,0,P|295:160|337:163,1,85,2|8,0:0|0:0,0:0:0:0:
256,315,61647,2,0,L|163:289,1,85,2|0,1:2|0:0,0:0:0:0:
68,267,62000,1,2,1:2:0:0:
146,149,62176,2,0,L|227:171,1,85,10|0,0:0|0:0,0:0:0:0:
334,197,62529,1,0,1:0:0:0:
334,197,62706,1,0,1:0:0:0:
319,60,62882,102,0,L|299:314,1,255,14|0,0:0|1:0,0:0:0:0:
436,384,63588,2,0,L|442:299,1,85,10|0,0:0|0:0,0:0:0:0:
417,178,63941,1,2,1:2:0:0:
417,178,64117,1,2,1:2:0:0:
299,314,64294,1,8,0:0:0:0:
215,173,64470,2,0,L|298:188,1,85,2|0,1:2|0:0,0:0:0:0:
160,270,64823,1,2,1:2:0:0:
76,144,65000,1,8,0:0:0:0:
71,123,65088,1,8,0:0:0:0:
73,102,65176,1,8,0:0:0:0:
81,82,65264,1,8,0:0:0:0:
95,66,65353,2,0,L|178:81,1,63.7500000000002,0|0,1:0|1:0,0:0:0:0:
276,162,65706,6,0,L|16:195,1,255,14|0,0:0|1:0,0:0:0:0:
125,343,66412,2,0,P|129:301|115:261,1,85,10|0,0:0|0:0,0:0:0:0:
0,170,66764,1,2,1:2:0:0:
0,170,66941,1,2,1:2:0:0:
51,311,67117,1,8,0:0:0:0:
161,143,67294,2,0,L|147:49,1,85,2|0,1:2|0:0,0:0:0:0:
236,245,67647,1,2,1:2:0:0:
288,76,67823,1,8,0:0:0:0:
384,177,68000,1,2,1:2:0:0:
384,177,68088,1,0,1:0:0:0:
384,177,68176,102,0,L|371:261,1,85,6|0,1:2|1:0,0:0:0:0:
358,364,68529,1,2,1:2:0:0:
485,227,68706,2,0,L|472:142,1,85,2|0,1:2|1:0,0:0:0:0:
459,40,69059,1,2,1:2:0:0:
310,9,69235,1,12,0:0:0:0:
472,142,69412,1,0,1:0:0:0:
314,208,69588,1,0,1:0:0:0:
390,88,69764,5,8,0:0:0:0:
213,0,69941,1,8,0:0:0:0:
206,193,70117,2,0,L|204:243,2,42.5,0|0|0,1:0|1:0|1:0,0:0:0:0:
244,110,70470,2,0,L|140:85,1,106.25,14|0,0:0|0:0,0:0:0:0:
107,111,71000,70,0,L|283:68,1,170,6|10,1:2|0:0,0:0:0:0:
376,35,71529,1,2,0:0:0:0:
348,133,71706,1,0,1:0:0:0:
447,111,71882,1,2,1:2:0:0:
419,209,72059,2,0,L|417:305,1,85,8|2,0:0|0:0,0:0:0:0:
305,363,72412,6,0,P|263:334|253:285,1,85,0|0,1:0|0:0,0:0:0:0:
273,204,72764,1,10,0:0:0:0:
165,293,72941,2,0,P|101:303|-2:330,1,170,6|0,1:2|1:0,0:0:0:0:
149,205,73470,1,8,0:0:0:0:
148,183,73823,102,0,B|219:206|219:206|238:237|238:237|297:256,1,170,2|10,1:2|0:0,0:0:0:0:
393,228,74353,1,2,0:0:0:0:
317,159,74529,1,0,1:0:0:0:
412,123,74706,1,2,1:2:0:0:
334,56,74882,2,0,L|242:36,1,85,8|2,0:0|0:0,0:0:0:0:
76,149,75235,5,6,1:2:0:0:
192,110,75412,1,2,1:2:0:0:
114,21,75588,1,10,0:0:0:0:
206,202,75764,2,0,L|220:32,1,170,6|8,1:2|0:0,0:0:0:0:
345,123,76294,1,8,0:0:0:0:
305,244,76470,1,2,1:2:0:0:
305,244,76559,1,8,0:0:0:0:
305,244,76647,102,0,L|317:370,2,127.5,6|2|2,1:2|0:0|0:0,0:0:0:0:
152,185,77353,2,0,L|140:311,2,127.5,2|2|2,1:2|0:0|0:0,0:0:0:0:
126,39,78059,2,0,P|156:92|217:103,2,127.5,2|2|2,1:2|0:0|0:0,0:0:0:0:
328,39,78764,2,0,B|256:10|256:10|188:28,2,127.5,2|2|2,1:2|0:0|0:0,0:0:0:0:
478,232,79470,5,14,0:0:0:0:
478,232,79823,101,8,0:0:0:0:
447,105,80000,1,0,0:0:0:0:
354,205,80176,5,8,0:0:0:0:
393,36,80353,1,0,0:0:0:0:
267,236,80529,102,0,L|260:292,1,42.5,8|8,0:0|0:0,0:0:0:0:
237,55,80706,2,0,L|231:12,1,42.5,10|8,0:0|0:0,0:0:0:0:
147,196,80882,5,14,0:0:0:0:
306,134,81059,1,14,0:0:0:0:
306,134,81147,1,0,1:0:0:0:
306,134,81235,1,0,1:0:0:0:
102,85,81412,102,0,L|48:73,1,42.5,14|0,0:0|0:0,0:0:0:0:
267,236,81764,6,0,L|308:226,1,42.5,2|2,0:0|0:0,0:0:0:0:
432,286,81941,2,0,L|402:255,1,42.5,2|2,0:0|0:0,0:0:0:0:
393,118,82117,2,0,L|381:158,1,42.5,10|10,0:0|0:0,0:0:0:0:
267,236,82294,6,0,L|449:192,1,187,6|8,1:2|0:0,0:0:0:0:
338,314,82823,1,2,0:0:0:0:
197,158,83000,1,2,1:2:0:0:
197,158,83176,1,0,1:0:0:0:
145,326,83353,1,8,0:0:0:0:
267,236,83529,1,2,0:0:0:0:
85,127,83706,53,2,1:2:0:0:
178,232,83882,2,0,L|186:134,1,93.5,2|8,0:0|0:0,0:0:0:0:
326,63,84235,2,0,B|282:97|229:73|249:51|191:25|138:61,1,187,2|2,1:2|1:2,0:0:0:0:
51,215,84764,1,8,0:0:0:0:
185,138,84941,1,2,0:0:0:0:
315,253,85117,38,0,L|499:284,1,187,6|8,1:2|0:0,0:0:0:0:
413,175,85647,1,2,0:0:0:0:
266,334,85823,1,2,1:2:0:0:
266,334,86000,1,0,1:0:0:0:
255,141,86176,1,8,0:0:0:0:
315,253,86353,1,2,0:0:0:0:
139,140,86529,37,2,1:2:0:0:
344,108,86706,2,0,L|457:127,1,93.5,2|8,0:0|0:0,0:0:0:0:
221,225,87059,2,0,L|252:40,1,187,2|2,1:2|1:2,0:0:0:0:
315,253,87588,1,14,0:0:0:0:
305,272,87941,86,0,P|236:322|146:292,1,187,6|8,1:2|0:0,0:0:0:0:
94,143,88470,1,2,0:0:0:0:
221,225,88647,1,2,1:2:0:0:
221,225,88823,1,0,1:0:0:0:
64,299,89000,1,8,0:0:0:0:
196,131,89176,1,2,0:0:0:0:
37,79,89353,53,2,1:2:0:0:
104,223,89529,2,0,L|111:126,1,93.5,2|8,0:0|0:0,0:0:0:0:
212,10,89882,2,0,B|293:23|293:23|317:47|317:47|401:60,1,187,2|2,1:2|1:2,0:0:0:0:
475,112,90412,2,0,P|493:69|480:25,1,93.5,8|2,0:0|0:0,0:0:0:0:
246,203,90764,37,6,1:2:0:0:
246,203,91117,37,8,0:0:0:0:
352,67,91294,1,2,1:2:0:0:
352,67,91382,1,0,0:0:0:0:
352,67,91470,1,10,0:0:0:0:
356,251,91647,1,0,1:0:0:0:
244,76,91823,1,8,0:0:0:0:
428,169,92000,1,2,1:2:0:0:
244,285,92176,85,10,0:0:0:0:
344,113,92353,2,0,L|355:44,1,46.75,10|0,0:0|0:0,0:0:0:0:
194,196,92706,54,0,L|128:220,1,46.75,10|0,0:0|0:0,0:0:0:0:
341,285,93059,38,0,L|395:329,1,46.75,10|8,0:0|0:0,0:0:0:0:
479,375,93235,1,8,0:0:0:0:
480,351,93323,1,8,0:0:0:0:
482,328,93412,1,8,0:0:0:0:
484,305,93500,1,8,0:0:0:0:
486,281,93588,38,0,L|286:315,1,187,6|8,1:2|0:0,0:0:0:0:
194,370,94117,1,2,0:0:0:0:
180,212,94294,1,2,1:2:0:0:
180,212,94470,1,0,1:0:0:0:
301,312,94647,1,8,0:0:0:0:
95,266,94823,1,2,0:0:0:0:
269,151,95000,85,2,1:2:0:0:
158,108,95176,2,0,L|172:215,1,93.5,2|8,0:0|0:0,0:0:0:0:
223,43,95529,2,0,B|185:8|132:15|132:15|98:57|32:51,1,187,2|2,1:2|1:2,0:0:0:0:
170,200,96059,1,8,0:0:0:0:
352,122,96235,1,2,0:0:0:0:
259,238,96412,54,0,L|245:43,1,187,6|8,1:2|0:0,0:0:0:0:
347,7,96941,1,2,0:0:0:0:
452,176,97117,1,2,1:2:0:0:
452,176,97294,1,0,1:0:0:0:
275,87,97470,1,8,0:0:0:0:
473,55,97647,1,2,0:0:0:0:
356,253,97823,37,2,1:2:0:0:
370,113,98000,2,0,L|381:9,1,93.5,2|8,1:2|0:0,0:0:0:0:
452,176,98353,1,8,3:0:0:0:
267,202,98529,1,8,3:0:0:0:
267,202,98617,1,8,3:0:0:0:
267,202,98706,2,0,L|193:213,1,46.75,2|0,1:2|0:0,0:0:0:0:
156,264,98882,2,0,L|170:357,1,93.5,8|0,0:0|1:0,0:0:0:0:
67,218,99235,37,0,1:0:0:0:
67,218,99412,1,0,1:0:0:0:
122,113,99588,2,0,P|62:95|6:123,1,127.5,14|0,0:0|0:0,0:0:0:0:
182,18,99941,85,0,1:0:0:0:
182,18,100117,1,0,1:0:0:0:
237,123,100294,2,0,P|177:140|121:112,1,127.5,14|0,0:0|0:0,0:0:0:0:
297,217,100647,53,0,1:0:0:0:
297,217,100823,1,0,1:0:0:0:
352,112,101000,2,0,P|292:94|236:122,1,127.5,14|0,0:0|0:0,0:0:0:0:
412,17,101353,37,0,1:0:0:0:
412,17,101529,1,0,1:0:0:0:
467,122,101706,2,0,P|407:139|351:111,1,127.5,14|0,0:0|0:0,0:0:0:0:
506,248,102059,37,6,1:2:0:0:
506,248,102412,85,8,0:0:0:0:
467,122,102588,1,8,0:0:0:0:
372,211,102764,53,8,0:0:0:0:
415,62,102941,1,8,0:0:0:0:
293,257,103117,37,8,0:0:0:0:
220,53,103294,1,8,0:0:0:0:
166,274,103470,37,6,1:2:0:0:
294,137,103647,1,2,0:0:0:0:
131,110,103823,1,10,0:0:0:0:
293,257,104000,86,0,L|393:244,1,93.5,6|0,1:2|0:0,0:0:0:0:
214,359,104353,2,0,L|121:371,1,93.5,6|10,1:2|0:0,0:0:0:0:
230,181,104706,2,0,L|450:152,1,187,6|0,1:2|1:0,0:0:0:0:
491,44,105235,2,0,P|452:16|407:23,1,93.5,8|0,0:0|0:0,0:0:0:0:
415,156,105588,2,0,L|411:213,2,46.75,8|8|8,0:0|0:0|0:0,0:0:0:0:
378,25,105941,1,8,3:0:0:0:
291,93,106117,1,4,3:0:0:0:
162,27,106294,1,0,1:0:0:0:
162,27,107176,53,0,1:0:0:0:
99,103,107353,2,0,L|30:97,1,63.75,8|0,0:0|0:0,0:0:0:0:
11,27,107706,102,0,L|34:208,2,170,6|8|2,1:2|0:0|1:2,0:0:0:0:
162,27,108588,1,2,1:2:0:0:
225,110,108764,2,0,P|273:124|316:103,1,85,10|0,0:0|0:0,0:0:0:0:
431,30,109117,2,0,L|427:123,1,85,0|2,1:0|0:0,0:0:0:0:
463,262,109470,1,10,0:0:0:0:
362,178,109647,1,2,1:2:0:0:
292,303,109823,2,0,P|255:327|200:326,1,85,2|2,1:2|1:2,0:0:0:0:
94,246,110176,1,10,0:0:0:0:
82,233,110529,102,0,L|72:54,1,170,6|8,1:2|0:0,0:0:0:0:
246,138,111059,2,0,L|157:146,1,85,2|2,0:0|1:2,0:0:0:0:
258,30,111412,1,2,1:2:0:0:
362,178,111588,2,0,L|446:170,1,85,10|0,0:0|0:0,0:0:0:0:
367,78,111941,1,0,1:0:0:0:
223,244,112117,5,2,0:0:0:0:
389,345,112294,2,0,L|402:241,1,85,10|2,0:0|0:0,0:0:0:0:
244,329,112647,1,2,1:2:0:0:
362,178,112823,1,2,1:2:0:0:
199,159,113000,2,0,L|114:148,1,85,14|0,0:0|0:0,0:0:0:0:
313,267,113353,102,0,L|337:69,1,170,6|10,1:2|0:0,0:0:0:0:
426,12,113882,1,2,0:0:0:0:
437,138,114059,1,2,1:2:0:0:
299,20,114235,1,2,1:2:0:0:
218,159,114412,2,0,L|119:174,1,85,10|2,0:0|0:0,0:0:0:0:
68,242,114764,6,0,P|41:214|39:163,2,85,2|2|10,1:2|0:0|0:0,0:0:0:0:
116,55,115294,2,0,L|17:70,1,85,2|0,0:0|1:0,0:0:0:0:
218,159,115647,1,2,1:2:0:0:
218,159,115735,1,0,1:0:0:0:
218,159,115823,1,4,1:2:0:0:
339,66,116000,1,2,0:0:0:0:
339,66,116088,1,0,0:0:0:0:
339,66,116176,5,8,0:0:0:0:
377,256,116353,1,0,1:0:0:0:
377,256,117235,2,0,L|384:315,1,42.5,0|0,1:0|0:0,0:0:0:0:
454,215,117412,6,0,L|302:235,1,153,6|0,1:2|0:0,0:0:0:0:
244,331,117764,2,0,P|218:264|148:274,1,153,2|0,1:2|0:0,0:0:0:0:
132,376,118117,2,0,B|160:343|140:301|123:309|110:268|145:221,1,153,10|0,0:0|0:0,0:0:0:0:
207,133,118470,2,0,B|216:183|148:209|148:209|98:155|136:111,1,212.5,10|0,0:0|0:0,0:0:0:0:
221,54,119000,102,0,B|270:64|270:64|287:90|287:90|334:100,1,127.5,6|0,1:2|0:0,0:0:0:0:
332,99,120059,1,0,0:0:0:0:
332,99,120764,1,0,0:0:0:0:
332,99,121294,2,0,L|338:149,1,31.8750000000001
312,243,121470,2,0,P|316:183|374:172,1,127.5,0|6,1:0|1:2,0:0:0:0:
37,355,127470,6,0,P|71:346|104:333,1,68,6|0,1:2|0:0,0:0:0:0:
178,384,127823,2,0,P|196:353|211:321,1,68,0|0,1:0|0:0,0:0:0:0:
176,243,128176,2,0,B|137:221|100:238|111:250|81:268|32:247,1,136,0|0,1:0|1:0,0:0:0:0:
34,164,128706,1,0,0:0:0:0:
34,164,128882,102,0,P|39:122|58:101,1,68,0|0,1:0|0:0,0:0:0:0:
138,150,129235,2,0,P|171:123|199:122,1,68,0|0,1:0|0:0,0:0:0:0:
221,213,129588,2,0,P|263:218|284:236,1,68,0|0,1:0|0:0,0:0:0:0:
288,259,129853,1,0,0:0:0:0:
288,259,129941,2,0,L|283:309,1,34,2|0,1:3|0:0,0:0:0:0:
365,317,130117,2,0,L|370:367,1,34
456,282,130294,6,0,L|459:244,3,34,8|8|8|8,0:0|0:0|0:0|0:0,0:0:0:0:
399,183,130647,2,0,L|361:179,3,34,8|8|8|8,0:0|0:0|0:0|0:0,0:0:0:0:
463,125,131000,2,0,L|466:87,3,34,8|8|8|8,0:0|0:0|0:0|0:0,0:0:0:0:
403,32,131353,2,0,L|365:28,3,34,8|8|8|8,0:0|0:0|0:0|0:0,0:0:0:0:
251,101,131706,2,0,L|213:104,3,34,8|8|8|8,0:0|0:0|0:0|0:0,0:0:0:0:
89,55,132059,1,8,0:0:0:0:
91,80,132147,1,8,0:0:0:0:
93,105,132235,1,8,0:0:0:0:
95,131,132323,1,8,0:0:0:0:
98,156,132412,101,8,0:0:0:0:
256,16,132588,1,8,0:0:0:0:
256,16,133117,6,0,L|350:30,1,85,6|2,1:2|0:0,0:0:0:0:
448,139,133470,2,0,L|354:153,1,85,10|0,0:0|0:0,0:0:0:0:
282,206,133823,1,2,1:2:0:0:
282,206,134000,1,2,1:2:0:0:
380,293,134176,1,10,0:0:0:0:
256,337,134353,102,0,L|154:322,1,85,2|0,0:0|1:0,0:0:0:0:
189,233,134706,2,0,L|104:245,1,85,2|8,0:0|0:0,0:0:0:0:
0,242,135059,1,2,0:0:0:0:
72,97,135235,1,0,1:0:0:0:
72,97,135412,1,0,1:0:0:0:
215,155,135588,1,8,0:0:0:0:
245,169,135941,6,0,L|431:142,1,170,2|10,1:2|0:0,0:0:0:0:
512,216,136470,1,2,0:0:0:0:
465,46,136647,1,2,1:2:0:0:
465,46,136823,1,2,1:2:0:0:
399,229,137000,1,10,0:0:0:0:
305,91,137176,102,0,P|268:71|214:70,1,85,2|0,0:0|0:0,0:0:0:0:
180,234,137529,2,0,P|217:254|271:255,1,85,2|8,0:0|0:0,0:0:0:0:
422,112,137882,1,2,0:0:0:0:
296,4,138059,1,0,1:0:0:0:
300,8,138235,1,0,1:0:0:0:
245,169,138412,1,8,0:0:0:0:
331,100,138588,1,2,0:0:0:0:
331,100,138676,1,0,0:0:0:0:
331,100,138764,6,0,L|415:87,2,85,6|2|10,1:2|0:0|0:0,0:0:0:0:
180,234,139294,2,0,L|95:221,1,85,2|0,0:0|0:0,0:0:0:0:
356,281,139647,2,0,L|440:268,1,85,2|8,1:2|0:0,0:0:0:0:
340,139,140000,1,2,0:0:0:0:
258,288,140176,102,0,L|275:371,2,85,6|2|10,1:2|0:0|0:0,0:0:0:0:
247,69,140706,2,0,P|207:139|123:141,1,170,6|2,1:2|1:2,0:0:0:0:
53,70,141235,1,8,0:0:0:0:
167,73,141412,1,0,0:0:0:0:
58,221,141588,1,0,1:0:0:0:
76,228,141941,6,0,B|147:256|147:256|202:223|260:264,1,170,14|2,0:0|1:2,0:0:0:0:
296,370,142470,1,0,1:0:0:0:
198,319,142647,1,8,0:0:0:0:
248,160,142823,2,0,B|350:192|290:221|407:248,1,170,4|0,1:2|1:0,0:0:0:0:
506,150,143353,1,8,0:0:0:0:
501,132,143706,102,0,L|496:88,3,42.5,2|2|2|2,1:2|1:2|1:2|0:0,0:0:0:0:
422,41,144059,1,2,1:2:0:0:
407,68,144147,1,2,0:0:0:0:
382,89,144235,1,2,1:2:0:0:
352,98,144323,1,2,0:0:0:0:
320,96,144412,2,0,L|325:22,1,63.7500000000002,0|0,1:0|1:0,0:0:0:0:
419,197,144764,22,0,L|145:162,1,255,14|0,0:0|0:0,0:0:0:0:
95,213,145470,2,0,P|72:244|71:293,1,85,10|0,0:0|0:0,0:0:0:0:
178,243,145823,1,2,1:2:0:0:
19,108,146000,2,0,L|8:192,1,85,2|8,0:0|0:0,0:0:0:0:
208,138,146353,2,0,L|123:127,1,85,2|0,1:2|0:0,0:0:0:0:
338,224,146706,1,2,1:2:0:0:
355,96,146882,2,0,L|365:11,1,85,8|0,0:0|0:0,0:0:0:0:
208,138,147235,1,0,1:0:0:0:
208,138,147412,1,0,1:0:0:0:
247,272,147588,6,0,L|221:18,1,255,14|0,0:0|1:0,0:0:0:0:
60,36,148294,2,0,P|97:63|140:65,1,85,10|0,0:0|0:0,0:0:0:0:
319,22,148647,1,2,1:2:0:0:
319,22,148823,1,2,1:2:0:0:
208,138,149000,1,8,0:0:0:0:
387,112,149176,2,0,L|487:95,1,85,2|0,1:2|0:0,0:0:0:0:
421,261,149529,1,2,1:2:0:0:
312,173,149706,1,8,0:0:0:0:
253,300,149882,1,8,0:0:0:0:
253,300,149970,1,8,0:0:0:0:
253,300,150059,2,0,L|261:376,1,63.7500000000002,0|0,1:0|1:0,0:0:0:0:
379,248,150412,102,0,L|126:280,1,255,14|0,0:0|1:0,0:0:0:0:
32,328,151117,2,0,P|20:287|32:247,1,85,10|0,0:0|0:0,0:0:0:0:
163,134,151470,1,2,1:2:0:0:
22,66,151647,2,0,L|38:150,1,85,2|8,0:0|0:0,0:0:0:0:
141,31,152000,2,0,L|225:15,1,85,2|0,0:0|0:0,0:0:0:0:
414,67,152353,1,2,1:2:0:0:
340,132,152529,2,0,P|299:114|251:115,1,85,14|2,0:0|0:0,0:0:0:0:
187,225,152882,5,12,0:0:0:0:
310,355,153059,2,0,L|410:368,1,85,0|0,1:2|1:2,0:0:0:0:
289,195,153412,101,12,0:0:0:0:
228,310,153588,2,0,L|128:323,1,85,0|0,1:2|1:2,0:0:0:0:
224,133,153941,5,12,0:0:0:0:
337,274,154117,2,0,L|437:287,1,85,0|0,1:2|1:2,0:0:0:0:
289,71,154470,101,12,0:0:0:0:
187,225,154647,2,0,L|87:238,1,85,0|8,1:2|0:0,0:0:0:0:
82,244,154912,1,8,0:0:0:0:
82,244,155000,1,8,1:3:0:0:
128,93,155176,5,8,1:3:0:0:
128,93,155264,1,8,1:3:0:0:
128,93,155353,2,0,L|115:39,3,42.5,4|4|4|4,1:3|1:3|1:3|1:3,0:0:0:0:
204,138,155706,1,0,1:0:0:0:
204,138,155882,1,2,0:0:0:0:
329,100,156059,102,0,L|71:78,1,255,14|0,0:0|1:0,0:0:0:0:
82,244,156764,2,0,P|103:201|88:154,1,85,10|2,0:0|0:0,0:0:0:0:
13,313,157117,1,2,1:2:0:0:
153,359,157294,2,0,P|193:371|234:382,1,85,2|8,0:0|0:0,0:0:0:0:
215,205,157647,2,0,P|204:246|191:286,1,85,2|0,1:2|0:0,0:0:0:0:
314,351,158000,1,2,1:2:0:0:
372,274,158176,2,0,P|412:260|453:250,1,85,8|0,0:0|0:0,0:0:0:0:
319,180,158529,1,0,1:0:0:0:
319,180,158706,1,0,1:0:0:0:
360,84,158882,6,0,L|336:338,1,255,14|0,0:0|1:0,0:0:0:0:
465,384,159588,2,0,L|472:299,1,85,10|0,0:0|0:0,0:0:0:0:
489,164,159941,1,2,1:2:0:0:
489,164,160117,1,2,1:2:0:0:
372,274,160294,1,8,0:0:0:0:
296,158,160470,2,0,P|259:132|206:123,1,85,2|0,1:2|0:0,0:0:0:0:
88,150,160823,1,2,1:2:0:0:
134,260,161000,1,8,0:0:0:0:
155,263,161088,1,8,0:0:0:0:
176,266,161176,1,8,0:0:0:0:
197,269,161264,1,8,0:0:0:0:
218,271,161353,2,0,L|228:201,1,63.7500000000002,0|0,1:0|1:0,0:0:0:0:
320,372,161706,102,0,L|66:340,1,255,14|0,0:0|1:0,0:0:0:0:
102,179,162412,2,0,P|115:222|101:266,1,85,10|0,0:0|0:0,0:0:0:0:
9,358,162764,1,2,1:2:0:0:
9,358,162941,1,2,0:0:0:0:
29,226,163117,1,8,0:0:0:0:
183,280,163294,2,0,L|267:290,1,85,2|0,1:2|0:0,0:0:0:0:
353,189,163647,1,2,1:2:0:0:
421,333,163823,1,8,0:0:0:0:
480,230,164000,1,2,1:2:0:0:
480,230,164088,1,0,1:0:0:0:
480,230,164176,6,0,L|487:128,1,85,6|0,1:2|1:0,0:0:0:0:
495,28,164529,1,2,1:2:0:0:
342,69,164706,2,0,L|349:171,1,85,2|0,1:2|0:0,0:0:0:0:
325,305,165059,1,2,1:2:0:0:
219,135,165235,1,12,0:0:0:0:
361,173,165412,1,0,1:0:0:0:
182,268,165588,1,0,1:0:0:0:
199,48,165764,101,8,0:0:0:0:
279,225,165941,1,8,0:0:0:0:
90,191,166117,2,0,L|34:186,2,42.5,0|0|0,1:0|1:0|1:0,0:0:0:0:
194,162,166470,2,0,L|180:285,1,106.25,12|0,0:0|0:0,0:0:0:0:
134,325,167000,54,0,B|173:359|226:341|213:324|253:306|299:332,1,170,6|10,1:2|0:0,0:0:0:0:
397,370,167529,1,2,0:0:0:0:
486,303,167706,1,0,1:0:0:0:
387,253,167882,1,2,1:2:0:0:
477,188,168059,2,0,L|481:101,1,85,8|2,0:0|0:0,0:0:0:0:
368,68,168412,6,0,P|335:108|294:115,1,85,4|0,1:2|0:0,0:0:0:0:
168,13,168764,1,10,0:0:0:0:
277,26,168941,2,0,P|264:110|257:197,1,170,6|0,1:2|1:0,0:0:0:0:
308,331,169470,1,8,0:0:0:0:
295,350,169823,102,0,B|246:375|201:354|219:331|170:314|134:339,1,170,6|10,1:2|0:0,0:0:0:0:
30,373,170353,1,2,0:0:0:0:
56,265,170529,1,0,1:0:0:0:
136,338,170706,1,2,1:2:0:0:
159,230,170882,2,0,L|178:131,1,85,8|2,0:0|0:0,0:0:0:0:
204,15,171235,5,6,1:2:0:0:
96,78,171412,1,2,0:0:0:0:
259,229,171588,1,10,0:0:0:0:
343,127,171764,2,0,L|151:149,1,170,6|8,1:2|0:0,0:0:0:0:
149,147,172206,1,8,0:0:0:0:
149,147,172294,1,8,0:0:0:0:
168,264,172470,1,2,0:0:0:0:
257,342,172647,102,0,L|281:205,2,127.5,6|2|2,1:2|0:0|0:0,0:0:0:0:
429,303,173353,2,0,L|405:166,2,127.5,2|2|2,1:2|0:0|0:0,0:0:0:0:
324,159,174059,2,0,P|355:104|420:93,2,127.5,2|2|2,1:2|0:0|0:0,0:0:0:0:
236,231,174764,2,0,P|204:176|139:165,2,127.5,2|2|2,1:2|0:0|0:0,0:0:0:0:
121,361,175470,5,6,1:2:0:0:
121,361,175823,101,8,0:0:0:0:
160,242,176000,1,0,0:0:0:0:
245,323,176176,5,8,0:0:0:0:
205,161,176353,1,0,0:0:0:0:
330,341,176529,102,0,L|322:396,1,42.5,8|8,0:0|0:0,0:0:0:0:
391,158,176706,2,0,L|384:115,1,42.5,10|8,0:0|0:0,0:0:0:0:
476,286,176882,5,8,3:0:0:0:
311,245,177059,1,8,3:0:0:0:
311,245,177147,1,8,3:0:0:0:
311,245,177235,1,8,0:0:0:0:
408,100,177412,102,0,L|415:57,1,42.5,14|0,0:0|0:0,0:0:0:0:
205,161,177764,6,0,L|211:202,1,42.5,14|10,0:0|0:0,0:0:0:0:
226,314,177941,2,0,L|186:298,1,42.5,8|8,0:0|0:0,0:0:0:0:
82,255,178117,2,0,L|114:228,1,42.5,8|8,0:0|0:0,0:0:0:0:
205,161,178294,70,0,L|239:370,1,187,6|8,1:2|0:0,0:0:0:0:
305,237,178823,1,2,0:0:0:0:
121,146,179000,1,2,1:2:0:0:
121,146,179176,1,0,1:0:0:0:
262,30,179353,1,8,0:0:0:0:
205,161,179529,1,2,0:0:0:0:
392,259,179706,53,2,1:2:0:0:
324,110,179882,2,0,L|312:216,1,93.5,2|8,0:0|0:0,0:0:0:0:
235,345,180235,2,0,B|129:290|129:290|50:343,1,187,2|2,1:2|1:2,0:0:0:0:
205,200,180764,1,8,0:0:0:0:
92,125,180941,1,2,0:0:0:0:
236,37,181117,38,0,B|277:1|327:29|327:29|350:86|425:83,1,187,6|8,1:2|0:0,0:0:0:0:
489,24,181647,1,2,0:0:0:0:
333,154,181823,1,2,1:2:0:0:
333,154,182000,1,0,1:0:0:0:
504,233,182176,1,8,0:0:0:0:
424,90,182353,1,2,0:0:0:0:
383,294,182529,37,2,1:2:0:0:
232,214,182706,2,0,L|220:120,1,93.5,2|8,0:0|0:0,0:0:0:0:
90,52,183059,2,0,B|137:86|187:57|167:42|213:17|269:50,1,187,2|2,1:2|1:2,0:0:0:0:
420,142,183588,1,14,0:0:0:0:
415,168,183941,86,0,L|392:363,1,187,6|8,1:2|0:0,0:0:0:0:
232,379,184470,1,2,0:0:0:0:
302,215,184647,1,2,1:2:0:0:
302,215,184823,1,0,1:0:0:0:
160,263,185000,1,8,0:0:0:0:
316,323,185176,1,2,0:0:0:0:
211,168,185353,53,2,1:2:0:0:
93,323,185529,2,0,L|-2:338,1,93.5,2|8,0:0|0:0,0:0:0:0:
209,191,185882,2,0,L|404:221,1,187,2|2,1:2|1:2,0:0:0:0:
266,377,186412,2,0,L|281:277,1,93.5,8|2,0:0|0:0,0:0:0:0:
311,95,186764,37,6,1:2:0:0:
311,95,187117,37,8,0:0:0:0:
167,225,187294,1,2,1:2:0:0:
167,225,187382,1,0,0:0:0:0:
167,225,187470,1,10,0:0:0:0:
189,33,187647,1,0,1:0:0:0:
299,197,187823,1,8,0:0:0:0:
111,112,188000,1,2,1:2:0:0:
303,56,188176,85,10,0:0:0:0:
167,225,188353,2,0,L|101:232,1,46.75,10|0,0:0|0:0,0:0:0:0:
271,98,188706,54,0,L|298:37,1,46.75,14|0,0:0|0:0,0:0:0:0:
328,252,189059,38,0,L|367:305,1,46.75,14|8,0:0|0:0,0:0:0:0:
284,359,189235,1,8,3:0:0:0:
260,355,189323,1,8,3:0:0:0:
237,352,189412,1,4,3:0:0:0:
214,348,189500,1,4,3:0:0:0:
191,345,189588,38,0,B|71:318|71:318|15:359,1,187,6|8,1:2|0:0,0:0:0:0:
164,259,190117,1,2,0:0:0:0:
40,173,190294,1,2,1:2:0:0:
40,173,190470,1,0,1:0:0:0:
136,107,190647,1,8,0:0:0:0:
70,281,190823,1,2,0:0:0:0:
232,171,191000,85,2,1:2:0:0:
136,107,191176,2,0,L|135:210,1,93.5,2|8,0:0|0:0,0:0:0:0:
225,75,191529,2,0,P|153:12|68:40,1,187,2|2,1:2|1:2,0:0:0:0:
232,171,192059,2,0,L|330:153,1,93.5,8|2,0:0|0:0,0:0:0:0:
420,24,192412,54,0,B|409:100|409:100|425:125|425:125|410:217,1,187,6|8,1:2|0:0,0:0:0:0:
396,360,192941,1,2,0:0:0:0:
317,195,193117,1,2,1:2:0:0:
317,195,193294,1,0,1:0:0:0:
479,272,193470,1,8,0:0:0:0:
294,306,193647,1,2,0:0:0:0:
423,166,193823,37,2,1:2:0:0:
278,100,194000,2,0,L|179:122,1,93.5,2|8,0:0|0:0,0:0:0:0:
39,154,194353,1,2,1:2:0:0:
157,251,194529,1,0,0:0:0:0:
157,251,194617,1,0,0:0:0:0:
157,251,194706,2,0,L|211:239,1,46.75,2|0,1:2|0:0,0:0:0:0:
286,226,194882,2,0,L|276:331,1,93.5,8|10,0:0|0:0,0:0:0:0:
457,221,195235,37,0,1:0:0:0:
457,221,195412,1,0,1:0:0:0:
393,147,195588,2,0,B|454:124|454:124|514:145,1,127.5,12|0,0:0|0:0,0:0:0:0:
330,74,195941,85,0,1:0:0:0:
330,74,196117,1,0,1:0:0:0:
273,149,196294,2,0,B|331:169|331:169|392:147,1,127.5,12|0,0:0|0:0,0:0:0:0:
217,224,196647,53,0,1:0:0:0:
217,224,196823,1,0,1:0:0:0:
153,150,197000,2,0,B|214:127|214:127|274:148,1,127.5,12|0,0:0|0:0,0:0:0:0:
90,76,197353,37,0,1:0:0:0:
90,76,197529,1,0,1:0:0:0:
33,151,197706,2,0,B|91:171|91:171|152:149,1,127.5,12|0,0:0|0:0,0:0:0:0:
333,62,198059,37,4,1:2:0:0:
333,62,198412,85,8,0:0:0:0:
306,199,198588,1,8,0:0:0:0:
205,101,198764,53,8,0:0:0:0:
247,260,198941,1,8,0:0:0:0:
126,69,199117,37,8,0:0:0:0:
53,261,199294,1,8,0:0:0:0:
216,126,199470,37,6,1:2:0:0:
40,76,199647,1,2,0:0:0:0:
154,231,199823,1,10,0:0:0:0:
214,45,200000,86,0,L|324:31,1,93.5,6|0,1:2|0:0,0:0:0:0:
92,166,200353,2,0,L|-18:152,1,93.5,6|10,1:2|0:0,0:0:0:0:
247,260,200706,2,0,L|468:231,1,187,6|0,1:2|1:0,0:0:0:0:
483,137,201235,2,0,P|477:89|429:69,1,93.5,12|0,0:0|0:0,0:0:0:0:
354,166,201588,2,0,L|307:171,2,46.75,8|8|8,0:0|0:0|0:0,0:0:0:0:
456,228,201941,1,8,3:0:0:0:
394,294,202117,1,4,3:0:0:0:
512,384,202294,1,0,1:0:0:0:
512,384,203176,53,0,1:0:0:0:
408,316,203353,2,0,L|328:327,1,63.75,8|0,0:0|0:0,0:0:0:0:
323,329,203706,1,6,1:2:0:0:
75,355,207941,38,0,P|78:323|73:291,1,63.7500000000002,0|0,1:0|0:0,0:0:0:0:
173,238,208294,2,0,P|152:213|127:194,1,63.7500000000002,2|0,1:3|0:0,0:0:0:0:
95,196,208559,1,8,0:0:0:0:
95,196,208647,2,0,L|28:204,1,63.7500000000002,8|8,0:0|3:0,0:0:0:0:
135,108,209000,2,0,L|198:100,1,63.7500000000002,4|4,3:0|3:0,0:0:0:0:
382,6,209353,21,6,1:2:0:0:
340,92,209529,2,0,B|280:67|280:67|271:42|271:42|203:11,1,153,2|0,1:2|1:0,0:0:0:0:
105,91,210059,1,8,0:0:0:0:
116,106,210412,21,2,1:2:0:0:
246,195,210588,1,2,1:2:0:0:
260,179,210941,85,8,0:0:0:0:
148,243,211117,2,0,L|165:325,1,76.5000000000001,0|0,1:0|1:0,0:0:0:0:
270,356,211470,21,10,0:0:0:0:
328,247,211647,2,0,B|383:272|383:272|392:297|392:297|452:322,1,153,2|8,1:2|0:0,0:0:0:0:
480,331,212088,1,8,0:0:0:0:
480,331,212176,1,6,1:2:0:0:
464,162,212353,2,0,L|450:237,1,76.5000000000001,2|0,1:2|0:0,0:0:0:0:
373,131,212706,1,0,1:0:0:0:
373,131,212882,2,0,L|359:55,1,76.5000000000001,8|0,0:0|0:0,0:0:0:0:
256,205,213235,85,2,1:2:0:0:
164,172,213412,2,0,B|104:147|104:147|95:122|95:122|39:96,1,153,2|8,1:2|0:0,0:0:0:0:
33,201,213941,2,0,L|46:282,1,76.5000000000001,0|0,1:0|1:0,0:0:0:0:
52,384,214294,21,2,1:2:0:0:
228,286,214470,1,2,1:2:0:0:
252,273,214823,102,0,B|295:251|339:275|326:291|380:313|422:281,1,170,6|2,1:2|1:2,0:0:0:0:
389,129,215353,2,0,L|379:223,1,85,10|2,0:0|0:0,0:0:0:0:
474,186,215706,1,2,1:2:0:0:
474,186,215882,1,2,1:2:0:0:
299,171,216059,2,0,L|205:161,1,85,10|2,0:0|0:0,0:0:0:0:
45,208,216412,70,0,P|34:153|52:116,2,85,2|2|8,1:2|0:0|0:0,0:0:0:0:
119,72,216941,2,0,P|89:42|48:32,1,85,2|0,1:2|0:0,0:0:0:0:
128,164,217294,2,0,P|168:153|197:122,1,85,2|8,1:2|0:0,0:0:0:0:
250,13,217647,1,2,0:0:0:0:
250,13,217735,1,2,0:0:0:0:
250,13,217823,38,0,L|338:22,1,85,6|0,1:2|0:0,0:0:0:0:
486,95,218176,2,0,P|403:90|365:168,1,170,10|2,0:0|1:2,0:0:0:0:
402,293,218706,1,0,1:0:0:0:
443,159,218882,1,10,0:0:0:0:
290,218,219059,70,0,B|227:239|227:239|216:267|216:267|130:299,1,170,6|2,1:2|1:2,0:0:0:0:
71,360,219588,38,0,P|48:313|64:263,1,85,10|0,0:0|0:0,0:0:0:0:
141,182,219941,1,2,1:2:0:0:
141,182,220117,1,2,1:2:0:0:
291,305,220294,1,12,0:0:0:0:
310,316,220647,70,0,L|419:308,2,85,6|2|10,1:2|0:0|0:0,0:0:0:0:
157,348,221176,2,0,P|139:266|202:215,1,170,6|2,1:2|1:2,0:0:0:0:
356,221,221706,1,10,0:0:0:0:
213,292,221882,2,0,L|20:249,1,170,6|2,1:2|1:2,0:0:0:0:
234,193,222412,1,10,0:0:0:0:
322,359,222588,1,6,1:2:0:0:
452,221,222764,1,0,0:0:0:0:
347,128,222941,1,0,1:0:0:0:
347,128,223029,1,0,1:0:0:0:
347,128,223117,2,0,L|353:204,1,63.75,10|0,0:0|0:0,0:0:0:0:
356,221,223470,37,4,1:2:0:0:
447,98,223647,1,0,1:0:0:0:
447,98,223735,1,0,1:0:0:0:
447,98,223823,2,0,L|453:7,1,85,8|0,0:0|1:0,0:0:0:0:
238,165,224176,69,8,0:0:0:0:
362,48,224353,1,0,1:0:0:0:
236,21,224529,37,8,0:0:0:0:
352,191,224706,1,0,1:0:0:0:
169,245,224882,70,0,L|75:226,1,85,8|0,0:0|1:0,0:0:0:0:
307,347,225235,2,0,L|401:328,1,85,12|0,0:0|1:0,0:0:0:0:
417,322,225500,1,0,1:0:0:0:
417,322,225588,37,8,3:0:0:0:
451,227,225764,1,8,3:0:0:0:
330,157,225941,69,4,3:0:0:0:
354,243,226117,1,4,3:0:0:0:
390,62,226294,37,6,1:2:0:0:
237,124,226470,2,0,L|151:110,1,85,0|0,1:0|1:0,0:0:0:0:
291,47,226823,69,6,1:2:0:0:
142,130,227000,2,0,L|58:143,1,85,0|0,1:0|1:0,0:0:0:0:
0,60,227353,37,6,1:2:0:0:
86,252,227529,1,8,0:0:0:0:
86,252,227617,1,8,0:0:0:0:
86,252,227706,1,0,1:0:0:0:
240,164,227882,1,0,1:0:0:0:
127,73,228059,2,0,B|74:143|101:210|138:194|190:287|137:414|-83:377|-55:113|192:122|248:223,1,573.75,6|0,1:2|0:0,0:0:0:0:
263,239,230529,6,0,B|336:202|357:113|357:113|422:180|496:169,1,318.75,6|0,1:2|0:0,0:0:0:0:
386,269,233353,2,0,P|345:155|225:152,1,255,6|0,1:2|0:0,0:0:0:0:
142,228,234588,101,4,3:0:0:0:
142,228,234676,1,4,3:0:0:0:
142,228,234764,1,8,3:0:0:0:
218,301,234941,1,8,3:0:0:0:
220,314,235294,5,8,3:0:0:0:
335,148,235647,1,4,3:0:0:0:
378,235,235823,2,0,L|455:248,1,63.75,4|0,3:0|0:0,0:0:0:0:
461,228,236176,2,0,B|403:166|285:208|320:261|221:294|142:228,1,340,6|0,1:2|0:0,0:0:0:0:
89,172,237764,2,0,L|82:91,1,63.75
80,78,238117,2,0,P|107:49|189:57,1,127.5
238,120,238823,1,0,0:0:0:0:
238,120,239000,2,0,L|230:172,1,42.5,0|0,1:0|1:0,0:0:0:0:
182,346,239353,102,0,L|91:322,1,85,4|0,1:2|0:0,0:0:0:0:
75,318,239617,1,8,0:0:0:0:
75,318,239706,1,8,0:0:0:0:
36,233,239882,1,8,3:0:0:0:
94,159,240059,1,8,3:0:0:0:
182,187,240235,1,4,3:0:0:0:
75,318,240412,5,2,1:2:0:0:
261,364,240588,2,0,L|269:302,1,42.5,2|0,1:2|0:0,0:0:0:0:
420,218,240941,102,0,L|414:260,1,42.5,2|0,1:2|0:0,0:0:0:0:
280,198,241294,6,0,L|285:155,1,42.5,2|0,1:2|1:0,0:0:0:0:
326,300,241470,2,0,L|359:325,1,42.5,8|8,0:0|0:0,0:0:0:0:
214,288,241647,2,0,L|174:304,1,42.5,8|8,0:0|0:0,0:0:0:0:
280,198,241823,70,0,L|303:13,1,187,6|8,1:2|0:0,0:0:0:0:
390,151,242353,1,2,0:0:0:0:
184,54,242529,1,2,1:2:0:0:
184,54,242706,1,0,1:0:0:0:
208,252,242882,1,8,0:0:0:0:
313,70,243059,1,2,0:0:0:0:
133,151,243235,53,2,1:2:0:0:
320,218,243412,2,0,L|306:332,1,93.5,2|8,0:0|0:0,0:0:0:0:
96,372,243764,2,0,P|44:322|81:224,1,187,2|2,1:2|1:2,0:0:0:0:
222,158,244294,1,8,0:0:0:0:
121,294,244470,1,2,0:0:0:0:
306,347,244647,38,0,B|345:298|419:289|419:289|463:339,1,187,6|8,1:2|0:0,0:0:0:0:
327,233,245176,1,2,0:0:0:0:
485,121,245353,1,2,1:2:0:0:
485,121,245529,1,0,1:0:0:0:
341,43,245706,1,8,0:0:0:0:
416,194,245882,1,2,0:0:0:0:
265,125,246059,37,2,1:2:0:0:
454,12,246235,2,0,L|444:108,1,93.5,2|8,0:0|0:0,0:0:0:0:
268,221,246588,2,0,B|231:231|196:206|196:206|165:222|165:222|130:200|82:210,1,187,2|8,1:2|0:0,0:0:0:0:
65,233,247029,1,8,0:0:0:0:
65,233,247117,1,8,0:0:0:0:
146,122,247294,1,2,0:0:0:0:
244,313,247470,85,0,1:0:0:0:
244,313,247647,1,0,1:0:0:0:
119,356,247823,2,0,B|91:324|91:324|145:317|171:347,1,127.5,12|0,0:0|0:0,0:0:0:0:
268,228,248176,53,0,1:0:0:0:
268,228,248353,1,0,1:0:0:0:
393,271,248529,2,0,B|421:239|421:239|367:232|341:262,1,127.5,12|0,0:0|0:0,0:0:0:0:
233,149,248882,37,0,1:0:0:0:
233,149,249059,1,0,1:0:0:0:
108,192,249235,2,0,B|80:160|80:160|134:153|160:183,1,127.5,14|0,0:0|0:0,0:0:0:0:
257,64,249588,37,0,1:0:0:0:
257,64,249764,1,0,1:0:0:0:
382,107,249941,2,0,B|410:75|410:75|356:68|330:98,1,127.5,14|0,0:0|0:0,0:0:0:0:
247,266,250294,85,4,1:2:0:0:
247,266,250647,53,8,0:0:0:0:
275,161,250823,1,8,0:0:0:0:
362,255,251000,37,8,0:0:0:0:
331,96,251176,1,8,0:0:0:0:
434,294,251353,37,8,0:0:0:0:
506,76,251529,1,8,0:0:0:0:
311,181,251706,101,6,1:2:0:0:
434,294,251882,2,0,L|450:191,2,93.5,2|14|2,0:0|0:0|0:0,0:0:0:0:
316,364,252412,1,8,3:0:0:0:
316,364,252500,1,8,3:0:0:0:
316,364,252588,1,4,3:0:0:0:
216,271,252764,2,0,P|174:249|128:251,1,93.5,14|0,0:0|0:0,0:0:0:0:
28,351,253117,22,0,L|38:294,1,46.75,2|0,1:2|0:0,0:0:0:0:
26,208,253294,1,0,0:0:0:0:
26,208,253382,1,0,1:0:0:0:
26,208,253470,2,0,L|15:103,1,93.5,12|8,0:0|0:0,0:0:0:0:
12,83,253735,1,8,0:0:0:0:
12,83,253823,37,8,0:0:0:0:
116,128,254000,1,8,3:0:0:0:
192,80,254176,1,4,3:0:0:0:
203,39,254353,1,4,3:0:0:0:
309,179,254529,37,14,0:0:0:0:
159,228,254706,1,8,0:0:0:0:
159,228,254794,1,8,0:0:0:0:
159,228,254882,1,8,0:0:0:0:
305,74,255059,22,0,B|377:110|377:110|389:138|389:138|475:179,1,187,14|6,0:0|1:2,0:0:0:0:
489,183,255500,1,0,1:0:0:0:
489,183,255588,1,8,0:0:0:0:
440,57,255764,1,2,0:0:0:0:
309,179,255941,70,0,L|286:364,1,187,6|8,1:2|0:0,0:0:0:0:
210,278,256470,1,2,1:2:0:0:
402,175,256647,54,0,L|413:82,1,93.5,10|0,0:0|1:0,0:0:0:0:
225,25,257000,2,0,L|236:117,1,93.5,8|2,0:0|1:2,0:0:0:0:
210,278,257353,1,10,0:0:0:0:
124,132,257529,1,2,1:2:0:0:
302,194,257706,1,8,0:0:0:0:
104,254,257882,38,0,L|11:233,1,93.5,2|8,1:2|0:0,0:0:0:0:
217,136,258235,1,2,1:2:0:0:
217,136,258323,1,0,1:0:0:0:
217,136,258412,2,0,L|205:197,1,46.75,14|0,0:0|0:0,0:0:0:0:
170,350,258588,1,8,0:0:0:0:
189,337,258676,1,8,0:0:0:0:
212,331,258764,38,0,L|321:352,1,93.5,6|0,1:2|0:0,0:0:0:0:
402,188,259117,2,0,L|310:205,1,93.5,8|2,0:0|1:2,0:0:0:0:
152,242,259470,85,10,0:0:0:0:
290,106,259647,1,0,1:0:0:0:
160,80,259823,53,8,0:0:0:0:
310,205,260000,1,2,1:2:0:0:
390,56,260176,38,0,L|501:48,1,93.5,10|2,0:0|1:2,0:0:0:0:
290,106,260529,2,0,L|179:98,1,93.5,8|2,0:0|1:2,0:0:0:0:
128,172,260882,37,8,0:0:0:0:
167,17,261059,1,2,1:2:0:0:
32,205,261235,85,8,0:0:0:0:
3,29,261412,1,2,1:2:0:0:
222,183,261588,54,0,B|202:296|202:296|231:258|271:259,1,187,6|8,1:2|0:0,0:0:0:0:
459,254,262117,1,2,1:2:0:0:
284,343,262294,1,10,0:0:0:0:
284,343,262470,1,0,1:0:0:0:
410,171,262647,1,12,0:0:0:0:
398,329,262823,1,2,0:0:0:0:
294,140,263000,37,10,0:0:0:0:
459,254,263176,2,0,L|532:245,1,46.75,10|0,1:2|1:2,1:2:0:0:
461,89,263353,1,0,1:2:0:0:
461,89,263441,1,0,1:2:0:0:
461,89,263529,2,0,L|388:80,1,46.75,10|0,1:2|1:2,1:2:0:0:
219,232,263882,38,0,L|172:237,1,46.75,10|8,0:0|0:0,0:0:0:0:
66,300,264059,1,8,0:0:0:0:
64,276,264147,1,8,0:0:0:0:
62,253,264235,1,8,0:0:0:0:
60,230,264323,1,8,0:0:0:0:
58,207,264412,86,0,L|50:108,1,93.5,6|0,1:2|1:0,0:0:0:0:
47,89,264676,1,0,1:0:0:0:
47,89,264764,1,8,0:0:0:0:
170,159,264941,1,0,0:0:0:0:
297,102,265117,53,10,0:0:0:0:
135,15,265294,1,0,1:0:0:0:
170,159,265470,37,8,0:0:0:0:
265,3,265647,1,2,1:2:0:0:
265,3,265735,1,0,0:0:0:0:
265,3,265823,37,10,0:0:0:0:
341,186,266000,1,2,1:2:0:0:
206,77,266176,85,8,0:0:0:0:
417,62,266353,1,2,1:2:0:0:
317,256,266529,54,0,L|307:151,1,93.5,8|2,0:0|1:2,0:0:0:0:
469,252,266882,2,0,L|460:345,1,93.5,8|2,0:0|1:2,0:0:0:0:
288,377,267235,38,0,B|219:354|219:354|202:318|202:318|121:288,1,187,6|8,1:2|0:0,0:0:0:0:
15,317,267764,1,10,0:0:0:0:
15,317,267853,1,8,0:0:0:0:
15,317,267941,1,8,3:0:0:0:
72,239,268117,1,8,3:0:0:0:
32,162,268294,1,4,3:0:0:0:
77,81,268470,1,4,3:0:0:0:
218,238,268647,37,10,0:0:0:0:
228,69,268823,2,0,L|231:-2,1,46.75,10|0,0:0|0:0,0:0:0:0:
371,171,269176,86,0,L|369:217,1,46.75,10|0,0:0|0:0,0:0:0:0:
221,347,269529,1,2,1:2:0:0:
221,347,269617,1,0,1:0:0:0:
221,347,269706,54,0,P|184:289|278:270,1,191.25,4|0,1:2|0:0,0:0:0:0:
301,285,270059,37,0,1:0:0:0:
301,285,270235,1,0,1:0:0:0:
395,338,270412,2,0,B|426:336|446:312|446:312|433:351|391:352,1,127.5,14|0,0:0|0:0,0:0:0:0:
301,199,270764,37,0,1:0:0:0:
301,199,270941,1,0,1:0:0:0:
207,252,271117,2,0,B|176:250|155:226|155:226|169:265|211:266,1,127.5,14|0,0:0|0:0,0:0:0:0:
305,112,271470,85,0,1:0:0:0:
305,112,271647,1,0,1:0:0:0:
399,165,271823,2,0,B|430:163|450:139|450:139|437:178|395:179,1,127.5,14|0,0:0|0:0,0:0:0:0:
305,26,272176,53,0,1:0:0:0:
305,26,272353,1,0,1:0:0:0:
211,79,272529,2,0,B|180:77|159:53|159:53|173:92|215:93,1,127.5,14|0,0:0|0:0,0:0:0:0:
417,42,272882,37,6,1:2:0:0:
417,42,273235,37,8,0:0:0:0:
393,167,273412,1,8,0:0:0:0:
302,47,273588,85,8,0:0:0:0:
337,246,273764,1,8,0:0:0:0:
213,33,273941,53,8,0:0:0:0:
180,271,274117,1,8,0:0:0:0:
99,66,274294,37,6,1:2:0:0:
265,148,274470,1,2,0:0:0:0:
73,184,274647,1,10,0:0:0:0:
213,33,274823,38,0,P|270:27|315:48,1,93.5,6|0,1:2|0:0,0:0:0:0:
162,190,275176,2,0,P|105:196|60:175,1,93.5,2|10,1:2|0:0,0:0:0:0:
265,148,275529,2,0,L|244:357,1,187,6|0,1:2|1:0,0:0:0:0:
361,372,276059,2,0,P|415:357|441:313,1,93.5,8|0,0:0|0:0,0:0:0:0:
423,202,276412,2,0,L|433:149,2,46.75,8|8|8,0:0|0:0|0:0,0:0:0:0:
364,295,276764,1,8,3:0:0:0:
279,229,276941,1,4,3:0:0:0:
123,274,277117,1,0,1:0:0:0:
123,274,278529,54,0,L|73:268,3,42.5,2|2|2|2,0:0|0:0|0:0|0:0,0:0:0:0:
219,216,279235,2,0,L|212:280,3,63.7500000000002,2|2|2|2,0:0|0:0|0:0|0:0,0:0:0:0:
318,147,279941,2,0,L|233:136,3,85,2|2|2|2,0:0|0:0|0:0|0:0,0:0:0:0:
431,159,280647,1,2,0:0:0:0:
381,60,280823,1,0,1:0:0:0:
364,234,281000,2,0,L|356:297,1,63.75,12|0,0:0|0:0,0:0:0:0:
352,332,281353,22,0,L|174:306,2,170,6|8|2,1:2|0:0|1:2,0:0:0:0:
441,272,282235,1,2,1:2:0:0:
356,204,282412,2,0,P|318:185|276:187,1,85,10|0,0:0|0:0,0:0:0:0:
193,125,282764,2,0,P|155:143|113:141,1,85,0|2,1:0|0:0,0:0:0:0:
41,10,283117,1,10,0:0:0:0:
135,65,283294,1,2,0:0:0:0:
25,227,283470,2,0,L|13:135,1,85,2|2,1:2|1:2,0:0:0:0:
185,270,283823,1,10,0:0:0:0:
196,285,284176,54,0,P|123:300|12:335,1,170,6|8,1:2|0:0,0:0:0:0:
258,355,284706,2,0,P|288:313|280:264,1,85,2|2,0:0|1:2,0:0:0:0:
241,197,285059,1,2,1:2:0:0:
377,285,285235,2,0,P|368:234|328:205,1,85,10|0,0:0|0:0,0:0:0:0:
196,285,285588,1,0,1:0:0:0:
305,114,285764,37,2,0:0:0:0:
287,281,285941,2,0,L|275:388,1,85,10|2,0:0|0:0,0:0:0:0:
222,178,286294,1,2,1:2:0:0:
363,203,286470,1,2,1:2:0:0:
196,285,286647,2,0,L|89:273,1,85,14|2,0:0|0:0,0:0:0:0:
20,142,287000,38,0,P|63:73|144:77,1,170,6|8,1:2|0:0,0:0:0:0:
250,204,287529,1,2,0:0:0:0:
99,145,287706,1,2,1:2:0:0:
221,32,287882,1,2,1:2:0:0:
157,225,288059,2,0,L|149:327,1,85,10|2,0:0|0:0,0:0:0:0:
311,128,288412,86,0,L|209:120,2,85,2|2|10,1:2|0:0|0:0,0:0:0:0:
471,184,288941,2,0,P|486:144|465:92,1,85,2|0,0:0|1:0,0:0:0:0:
320,265,289294,2,0,P|305:305|326:357,1,85,2|8,1:2|0:0,0:0:0:0:
442,267,289647,53,2,0:0:0:0:
346,130,289823,1,4,1:2:0:0:
216,216,290000,2,0,L|220:267,2,42.5,4|4|8,3:0|3:0|3:0,0:0:0:0:
287,56,290353,1,4,3:0:0:0:
287,56,290441,1,4,3:0:0:0:
287,56,290529,1,8,3:0:0:0:
153,146,290706,2,0,L|102:150,2,42.5,4|4|4,3:0|3:0|3:0,0:0:0:0:
321,218,291059,1,4,3:0:0:0:
287,56,291235,37,6,1:2:0:0:
216,216,291412,1,2,0:0:0:0:
365,120,291588,1,8,0:0:0:0:
182,48,291764,2,0,L|131:52,1,42.5,2|0,1:2|0:0,0:0:0:0:
321,218,292117,2,0,L|363:214,1,42.5,2|0,1:2|0:0,0:0:0:0:
172,359,292470,38,0,P|81:355|52:281,1,170,6|2,1:2|1:2,0:0:0:0:
185,155,293000,1,8,0:0:0:0:
69,209,293176,2,0,L|14:200,1,42.5,2|0,1:2|0:0,0:0:0:0:
258,309,293529,2,0,L|313:300,1,42.5,2|0,1:2|0:0,0:0:0:0:
484,133,293882,86,0,B|450:116|419:133|419:133|396:121|396:121|361:138|315:120,1,170,6|2,1:2|1:2,0:0:0:0:
211,27,294412,1,8,0:0:0:0:
366,13,294588,2,0,L|359:65,1,42.5,2|0,1:2|0:0,0:0:0:0:
190,197,294941,2,0,L|184:154,1,42.5,2|0,1:2|0:0,0:0:0:0:
181,331,295294,54,0,L|384:303,1,191.25,6|0,1:2|0:0,0:0:0:0:
370,304,296529,1,0,0:0:0:0:
200,128,296882,5,6,1:2:0:0:
318,89,297059,1,2,1:2:0:0:
228,250,297235,1,10,0:0:0:0:
97,113,297412,1,2,1:2:0:0:
97,113,297764,1,10,0:0:0:0:
208,100,297941,1,10,0:0:0:0:
318,89,298117,1,10,0:0:0:0:
