osu file format v14

[General]
AudioFilename: audio.mp3
AudioLeadIn: 0
PreviewTime: 82182
Countdown: 0
SampleSet: Soft
StackLeniency: 0.6
Mode: 0
LetterboxInBreaks: 0
WidescreenStoryboard: 1

[Editor]
Bookmarks: 12758,26875,38169,49463,60758,72052,83346,94640,108758
DistanceSpacing: 1.5
BeatDivisor: 4
GridSize: 8
TimelineZoom: 2

[Metadata]
Title:Million Litmus (Cut Ver.)
TitleUnicode:ミリオンリトマス (Cut Ver.)
Artist:Kotobuki Minako
ArtistUnicode:寿美菜子
Creator:realy0_
Version:Million Rainbow
Source:
Tags:japanese pop jpop j-pop short version emotion zhuosh tycani Fuiba Fuyu yuki_momoiro722
BeatmapID:2856676
BeatmapSetID:1285540

[Difficulty]
HPDrainRate:5
CircleSize:3.6
OverallDifficulty:8
ApproachRate:8.8
SliderMultiplier:1.76
SliderTickRate:1

[Events]
//Background and Video events
0,0,"moog.jpg",0,0
//Break Periods
//Storyboard Layer 0 (Background)
//Storyboard Layer 1 (Fail)
//Storyboard Layer 2 (Pass)
//Storyboard Layer 3 (Foreground)
//Storyboard Layer 4 (Overlay)
//Storyboard Sound Samples

[TimingPoints]
388,352.941176470588,4,2,1,60,1,0
10976,-100,4,2,1,85,0,0
11682,-80,4,2,1,100,0,0
12034,-80,4,2,1,85,0,0
12388,-100,4,2,1,85,0,0
14505,-80,4,2,1,85,0,0
15211,-100,4,2,1,85,0,0
16976,-66.6666666666667,4,2,1,85,0,0
17240,-66.6666666666667,4,2,1,5,0,0
17329,-66.6666666666667,4,2,1,100,0,0
17505,-66.6666666666667,4,2,1,85,0,0
18035,-100,4,2,1,85,0,0
22181,-100,4,2,1,5,0,0
22446,-100,4,2,1,85,0,0
22534,-100,4,2,1,5,0,0
22799,-100,4,2,1,100,0,0
23329,-100,4,2,1,85,0,0
25799,-125,4,2,1,70,0,0
34623,-125,4,2,1,72,0,0
34976,-125,4,2,1,75,0,0
35329,-125,4,2,1,77,0,0
35682,-125,4,2,1,80,0,0
35858,-100,4,2,1,80,0,0
36035,-100,4,2,1,82,0,0
36388,-100,4,2,1,85,0,0
37093,-99.9999999999999,4,2,1,85,0,0
37710,-99.9999999999999,4,2,1,5,0,0
37799,-99.9999999999999,4,2,1,80,0,0
42388,-66.6666666666667,4,2,1,80,0,0
42652,-66.6666666666667,4,2,1,5,0,0
42740,-66.6666666666667,4,2,1,80,0,0
43270,-100,4,2,1,80,0,0
45917,-66.6666666666667,4,2,1,80,0,0
46181,-66.6666666666667,4,2,1,5,0,0
46270,-66.6666666666667,4,2,1,80,0,0
46799,-100,4,2,1,80,0,0
47329,-66.6666666666667,4,2,1,80,0,0
47593,-66.6666666666667,4,2,1,5,0,0
47682,-100,4,2,1,80,0,0
48740,-80,4,2,1,80,0,0
49446,-100,4,2,1,80,0,0
51564,-80,4,2,1,80,0,0
52270,-100,4,2,1,80,0,0
54035,-200,4,2,1,80,0,0
54388,-80,4,2,1,80,0,0
55093,-100,4,2,1,80,0,0
56858,-80,4,2,1,80,0,0
57122,-80,4,2,1,5,0,0
57211,-80,4,2,1,80,0,0
57652,-80,4,2,1,5,0,0
57740,-80,4,2,1,80,0,0
58181,-80,4,2,1,5,0,0
58270,-80,4,2,1,80,0,0
58710,-80,4,2,1,5,0,0
58799,-80,4,2,1,80,0,0
59682,-100,4,2,1,80,0,0
60035,-80,4,2,1,80,0,0
60740,-100,4,2,1,80,0,0
62858,-80,4,2,1,80,0,0
63564,-100,4,2,1,80,0,0
65682,-80,4,2,1,80,0,0
66388,-100,4,2,1,80,0,0
68152,-80,4,2,1,80,0,0
68416,-80,4,2,1,5,0,0
68505,-80,4,2,1,80,0,0
68682,-133.333333333333,4,2,1,80,0,0
68946,-133.333333333333,4,2,1,5,0,0
69035,-133.333333333333,4,2,1,80,0,0
69211,-80,4,2,1,80,0,0
70446,-133.333333333333,4,2,1,80,0,0
70887,-133.333333333333,4,2,1,5,0,0
70976,-100,4,2,1,80,0,0
71769,-100,4,2,1,5,0,0
71858,-100,4,2,1,80,0,0
79446,-80,4,2,1,80,0,0
81388,-99.9999999999999,4,2,1,80,0,0
81476,-99.9999999999999,4,2,1,5,0,0
81740,-83.3333333333333,4,2,1,80,0,0
81917,-99.9999999999999,4,2,1,80,0,0
82270,-80,4,2,1,100,0,1
87564,-66.6666666666667,4,2,1,100,0,1
87828,-66.6666666666667,4,2,1,5,0,1
87917,-80,4,2,1,100,0,1
92152,-80,4,2,1,100,0,0
92329,-111.111111111111,4,2,1,100,0,0
93564,-80,4,2,1,100,0,1
99564,-66.6666666666667,4,2,1,100,0,1
99828,-66.6666666666667,4,2,1,5,0,1
99917,-66.6666666666667,4,2,1,100,0,1
100534,-66.6666666666667,4,2,1,5,0,1
100623,-66.6666666666667,4,2,1,100,0,1
103976,-80,4,2,1,100,0,1
104064,-80,4,2,1,5,0,1
104329,-80,4,2,1,100,0,1
104417,-80,4,2,1,5,0,1
104682,-80,4,2,1,100,0,1
105475,-80,4,2,1,5,0,1
105564,-80,4,2,1,100,0,1
106270,-80,4,2,1,85,0,0
107682,-80,4,2,1,100,0,0
108034,-80,4,2,1,85,0,0
108388,-100,4,2,1,85,0,0
110505,-80,4,2,1,85,0,0
111211,-100,4,2,1,85,0,0
112976,-66.6666666666667,4,2,1,85,0,0
113240,-66.6666666666667,4,2,1,5,0,0
113329,-66.6666666666667,4,2,1,100,0,0
113505,-66.6666666666667,4,2,1,85,0,0
114035,-100,4,2,1,85,0,0
118181,-100,4,2,1,5,0,0
118446,-100,4,2,1,85,0,0
118534,-100,4,2,1,5,0,0
118799,-100,4,2,1,100,0,0
119329,-100,4,2,1,85,0,0
119682,-66.6666666666667,4,2,1,85,0,0
120035,-133.333333333333,4,2,1,85,0,0
120299,-133.333333333333,4,2,1,5,0,0
120388,-133.333333333333,4,2,1,85,0,0
121270,-133.333333333333,4,2,1,100,0,0

[Colours]
Combo1 : 143,201,239
Combo2 : 255,130,162
Combo3 : 243,230,148

[HitObjects]
256,192,8858,12,0,10623,3:0:0:0:
148,311,10976,5,12,3:2:0:0:
66,101,11152,1,12,3:2:0:0:
43,139,11505,1,0,3:2:0:0:
43,139,11593,1,0,3:2:0:0:
43,139,11682,6,0,B|129:117|183:66|183:66|146:64|113:37,1,220,6|8,3:2|2:0,0:0:0:0:
363,148,12211,1,2,3:2:0:0:
363,148,12388,2,0,P|348:213|343:253,1,88,2|0,3:2|3:2,0:0:0:0:
294,69,12740,1,10,2:0:0:0:
294,69,12917,2,0,P|334:28|331:-30,1,88,2|0,2:0|3:2,0:0:0:0:
150,124,13270,1,2,2:0:0:0:
150,124,13446,2,0,P|193:124|228:150,1,88,10|0,2:0|3:2,0:0:0:0:
486,146,13799,6,0,P|421:131|381:126,1,88,2|0,3:2|3:2,0:0:0:0:
173,272,14152,2,0,P|238:257|278:252,1,88,10|0,2:0|3:2,0:0:0:0:
492,364,14505,6,0,B|397:399|361:307|361:307|398:286|430:254,1,220,6|8,3:2|2:0,0:0:0:0:
502,108,15035,1,2,3:2:0:0:
502,108,15211,2,0,P|504:150|481:188,1,88,2|0,3:2|3:2,0:0:0:0:
277,158,15564,1,10,2:0:0:0:
277,158,15740,2,0,P|320:165|363:176,1,88,2|0,2:0|3:2,0:0:0:0:
86,300,16093,1,2,2:0:0:0:
86,300,16270,2,0,P|42:307|-1:318,1,88,10|0,2:0|3:2,0:0:0:0:
155,153,16623,6,0,P|154:109|128:74,1,88,2|0,3:2|3:2,0:0:0:0:
311,230,16976,2,0,B|429:263|378:162|534:209,1,198,12|0,2:0|0:0,0:0:0:0:
512,225,17329,5,4,3:2:0:0:
363,109,17505,1,2,2:0:0:0:
482,45,17682,1,10,2:0:0:0:
350,149,17858,1,2,3:2:0:0:
494,312,18035,2,0,P|504:269|512:225,1,88,2|2,3:2|3:2,0:0:0:0:
271,296,18388,2,0,P|305:270|348:270,1,88,10|2,2:0|2:0,0:0:0:0:
104,368,18740,5,2,3:2:0:0:
12,261,18917,1,0,3:2:0:0:
140,349,19093,1,10,2:0:0:0:
167,158,19270,2,0,P|134:54|59:-15,1,176,2|2,3:2|3:2,0:0:0:0:
56,126,19799,1,8,2:0:0:0:
268,57,19976,1,2,3:2:0:0:
260,77,20064,1,2,3:2:0:0:
253,97,20152,5,4,3:2:0:0:
299,240,20329,1,0,3:2:0:0:
307,219,20417,1,0,3:2:0:0:
316,199,20505,1,8,3:2:0:0:
385,93,20682,1,0,3:2:0:0:
365,103,20770,1,0,3:2:0:0:
344,111,20858,1,8,3:2:0:0:
182,210,21035,1,0,3:2:0:0:
201,199,21123,1,0,3:2:0:0:
220,188,21211,2,0,B|241:148|241:148|187:100,1,88,8|0,3:2|3:2,0:0:0:0:
354,232,21564,5,6,3:2:0:0:
496,99,21740,1,2,3:2:0:0:
433,275,21917,1,8,2:0:0:0:
172,160,22093,6,0,L|95:153,1,44,6|0,3:2|0:0,0:0:0:0:
420,311,22446,2,0,L|440:371,1,44,6|0,3:2|0:0,0:0:0:0:
184,186,22799,6,0,B|197:109|197:109|171:85|171:85|165:22,1,176,14|0,2:0|0:0,0:0:0:0:
199,3,23329,5,2,2:0:0:0:
199,3,24035,1,2,2:0:0:0:
199,3,24740,1,2,2:0:0:0:
184,186,25270,5,0,3:2:0:0:
124,31,25446,1,10,2:0:0:0:
138,279,25799,6,0,L|116:369,1,70.4,6|0,3:2|0:0,0:0:0:0:
273,271,26152,2,0,L|208:337,1,70.4,0|0,3:2|0:0,0:0:0:0:
330,351,26505,1,2,3:2:0:0:
391,289,26682,1,2,2:0:0:0:
423,375,26858,1,0,3:2:0:0:
490,294,27035,6,0,L|468:204,1,70.4,2|0,2:0|3:2,0:0:0:0:
379,300,27388,2,0,L|330:350,1,70.4,2|0,2:0|3:2,0:0:0:0:
273,260,27740,1,2,2:0:0:0:
148,323,27917,2,0,L|-6:330,1,140.8,2|0,3:2|3:2,0:0:0:0:
169,266,28623,6,0,L|185:334,1,70.4,2|0,3:2|0:0,0:0:0:0:
343,209,28976,1,2,3:2:0:0:
282,271,29152,1,2,2:0:0:0:
363,369,29329,2,0,L|379:300,1,70.4,2|0,3:2|2:0,0:0:0:0:
477,330,29682,1,2,3:2:0:0:
469,171,29858,6,0,L|452:239,1,70.4,2|0,2:0|3:2,0:0:0:0:
282,271,30211,2,0,L|330:220,1,70.4,2|0,2:0|3:2,0:0:0:0:
137,291,30564,1,2,2:0:0:0:
137,291,30652,1,0,0:0:0:0:
137,291,30740,2,0,L|-24:253,1,140.8,2|0,3:2|3:2,0:0:0:0:
219,346,31270,1,0,3:2:0:0:
127,163,31446,5,6,3:2:0:0:
202,215,31623,1,0,2:0:0:0:
94,180,31799,1,2,3:2:0:0:
285,115,31976,2,0,L|338:278,1,140.8,2|0,2:0|0:0,0:0:0:0:
441,256,32505,2,0,L|424:324,1,70.4,2|0,3:2|2:0,0:0:0:0:
225,322,32858,5,2,3:2:0:0:
300,270,33035,1,0,2:0:0:0:
192,305,33211,1,2,3:2:0:0:
56,161,33388,6,0,L|11:105,1,70.4,2|0,2:0|3:2,0:0:0:0:
226,156,33740,2,0,L|164:199,1,70.4,2|2,2:0|3:2,0:0:0:0:
392,83,34093,1,0,3:2:0:0:
401,259,34270,6,0,L|395:304,3,35.2,12|8|8|8,3:2|2:0|2:0|2:0,0:0:0:0:
325,332,34623,2,0,L|332:366,3,35.2,8|8|8|8,3:2|2:0|2:0|2:0,0:0:0:0:
245,370,34976,2,0,L|239:325,3,35.2,8|8|8|8,3:2|2:0|2:0|2:0,0:0:0:0:
162,289,35329,2,0,L|169:255,3,35.2,8|8|8|8,3:2|2:0|2:0|2:0,0:0:0:0:
265,183,35682,5,8,3:2:0:0:
265,183,35770,1,8,2:0:0:0:
265,183,35858,2,0,L|249:119,1,44,8|8,2:0|2:0,0:0:0:0:
172,19,36035,5,8,3:2:0:0:
172,19,36123,1,8,2:0:0:0:
172,19,36211,2,0,L|156:83,1,44,8|8,2:0|2:0,0:0:0:0:
59,124,36388,5,4,3:2:0:0:
335,70,36564,1,4,3:2:0:0:
358,89,37093,6,0,P|309:57|248:57,1,88.0000000000001,6|0,3:2|0:0,0:0:0:0:
380,212,37446,2,0,P|423:169|503:157,1,132,8|0,2:0|0:0,0:0:0:0:
512,173,37799,1,2,3:2:0:0:
358,89,37976,1,0,3:2:0:0:
476,250,38152,1,10,2:0:0:0:
246,251,38329,6,0,P|256:208|282:173,1,88.0000000000001,2|0,2:0|3:2,0:0:0:0:
402,304,38682,2,0,P|424:340|431:383,1,88.0000000000001,2|8,2:0|2:0,0:0:0:0:
291,231,39035,1,2,2:0:0:0:
291,231,39123,1,2,2:0:0:0:
291,231,39211,1,2,3:2:0:0:
190,301,39388,1,0,3:2:0:0:
50,184,39564,2,0,P|79:152|120:135,1,88.0000000000001,8|0,2:0|0:0,0:0:0:0:
269,0,39917,6,0,P|242:35|231:78,1,88.0000000000001,2|0,3:2|0:0,0:0:0:0:
392,205,40270,2,0,P|375:164|342:134,1,88.0000000000001,8|0,2:0|2:0,0:0:0:0:
148,162,40623,1,2,3:2:0:0:
343,134,40799,1,2,3:2:0:0:
231,76,40976,1,8,2:0:0:0:
488,26,41152,6,0,P|478:68|452:103,1,88.0000000000001,2|0,2:0|3:2,0:0:0:0:
249,48,41505,2,0,P|287:68|314:102,1,88.0000000000001,2|8,2:0|2:0,0:0:0:0:
181,207,41858,1,2,2:0:0:0:
181,207,41946,1,2,2:0:0:0:
181,207,42035,2,0,P|154:171|145:129,1,88.0000000000001,2|2,3:2|3:2,0:0:0:0:
107,314,42388,6,0,P|74:342|87:250,1,198,8|0,2:0|3:2,0:0:0:0:
136,305,42740,5,6,3:2:0:0:
285,205,42917,1,0,2:0:0:0:
166,329,43093,1,10,2:0:0:0:
391,300,43270,2,0,P|418:264|427:222,1,88,2|0,2:0|3:2,0:0:0:0:
286,307,43623,2,0,P|296:349|322:384,1,88,2|8,3:2|2:0,0:0:0:0:
329,224,43976,1,2,2:0:0:0:
132,295,44152,5,6,3:2:0:0:
20,195,44329,1,0,2:0:0:0:
112,319,44505,1,10,2:0:0:0:
312,202,44682,6,0,B|415:170|376:271|509:224,1,176,6|0,3:2|3:2,0:0:0:0:
344,371,45211,2,0,P|304:326|245:311,1,88,10|2,2:0|2:0,0:0:0:0:
102,353,45564,1,0,3:2:0:0:
102,353,45917,6,0,P|83:203|91:97,1,198,14|0,2:0|0:0,0:0:0:0:
102,50,46270,5,2,3:2:0:0:
0,180,46446,1,2,3:2:0:0:
83,11,46623,1,8,2:0:0:0:
357,113,46799,6,0,B|392:89|380:33|380:33|330:12|298:44,1,176,6|0,3:2|3:2,0:0:0:0:
171,205,47329,2,0,B|278:195|278:195|299:209|299:209|391:203,1,198,8|0,2:0|0:0,0:0:0:0:
442,252,47682,6,0,L|434:302,3,44,2|2|2|2,3:2|2:0|2:0|2:0,0:0:0:0:
472,292,48035,2,0,L|464:342,3,44,2|2|2|2,3:2|2:0|3:2|2:0,0:0:0:0:
510,336,48388,1,2,3:2:0:0:
510,336,48564,1,0,3:2:0:0:
288,362,48740,6,0,B|251:212|345:243|391:162|386:98|339:69,1,330,14|0,2:0|3:2,0:0:0:0:
395,178,49446,2,0,P|443:167|495:163,1,88,10|0,2:0|0:0,0:0:0:0:
375,302,49799,1,2,3:2:0:0:
268,238,49976,2,0,B|232:211|232:211|191:225,1,88,2|8,3:2|2:0,0:0:0:0:
26,331,50329,2,0,B|18:300|-2:283|-2:283|69:276|114:304,1,176,2|2,3:2|3:2,0:0:0:0:
334,321,50858,2,0,P|287:320|247:336,1,88,8|0,2:0|3:2,0:0:0:0:
172,384,51211,1,0,3:2:0:0:
172,384,51388,1,0,3:2:0:0:
41,171,51564,6,0,B|112:193|181:250|181:250|194:202|213:168|213:168|177:181|121:180,1,330,14|0,2:0|3:2,0:0:0:0:
289,105,52270,6,0,L|238:198,1,88,10|0,2:0|0:0,0:0:0:0:
383,218,52623,1,2,3:2:0:0:
401,76,52799,2,0,B|374:40|374:40|388:-1,1,88,2|8,3:2|2:0,0:0:0:0:
512,206,53152,2,0,B|480:164|480:164|358:184,1,176,2|2,3:2|3:2,0:0:0:0:
216,303,53682,2,0,L|325:281,1,88,8|0,2:0|3:2,0:0:0:0:
349,309,53946,1,0,3:2:0:0:
349,309,54035,2,0,L|336:362,1,44,0|0,3:2|3:2,0:0:0:0:
480,216,54388,6,0,B|479:173|441:148|405:161|405:161|366:116|360:52|429:22|429:22|456:64,1,330,14|0,2:0|3:2,0:0:0:0:
375,188,55093,2,0,P|332:191|303:160,1,88,10|0,2:0|0:0,0:0:0:0:
151,84,55446,1,2,3:2:0:0:
66,207,55623,2,0,P|108:196|152:192,1,88,2|8,3:2|2:0,0:0:0:0:
344,64,55976,6,0,B|248:14|268:120|146:51,1,176,2|2,3:2|3:2,0:0:0:0:
405,156,56505,2,0,P|442:135|450:93,1,88,8|2,2:0|3:2,0:0:0:0:
294,172,56858,6,0,P|312:234|322:346,1,165,14|0,2:0|0:0,0:0:0:0:
302,353,57211,1,2,3:2:0:0:
122,276,57388,2,0,B|88:253|100:200|100:200|147:180|177:210,1,165,14|0,2:0|0:0,0:0:0:0:
195,227,57740,1,2,3:2:0:0:
451,176,57917,2,0,B|379:166|379:166|359:182|359:182|287:171,1,165,14|0,2:0|0:0,0:0:0:0:
268,185,58270,1,0,3:2:0:0:
78,61,58446,2,0,L|107:240,1,165,12|0,2:0|0:0,0:0:0:0:
108,251,58799,1,2,3:2:0:0:
265,162,58976,5,14,2:0:0:0:
290,337,59152,1,0,3:2:0:0:
243,196,59329,1,12,2:0:0:0:
455,268,59505,1,0,3:2:0:0:
455,268,59593,1,0,3:2:0:0:
455,268,59682,2,0,L|497:280,3,44,0|0|0|0,3:2|3:2|3:2|3:2,0:0:0:0:
428,302,60035,6,0,B|370:315|307:294|311:227|311:227|374:247|370:315|313:360,1,330,14|0,2:0|3:2,0:0:0:0:
154,334,60740,2,0,P|183:303|225:306,1,88,10|0,2:0|0:0,0:0:0:0:
54,372,61093,1,2,3:2:0:0:
56,199,61270,2,0,L|5:292,1,88,2|8,3:2|2:0,0:0:0:0:
218,202,61623,2,0,B|167:186|167:186|144:64,1,176,2|2,3:2|3:2,0:0:0:0:
302,18,62152,2,0,P|305:60|274:89,1,88,8|0,2:0|3:2,0:0:0:0:
148,69,62505,1,0,3:2:0:0:
148,69,62682,1,0,3:2:0:0:
21,221,62858,6,0,B|31:268|91:292|160:290|142:141|316:194,1,330,14|0,2:0|3:2,0:0:0:0:
214,322,63564,2,0,P|166:311|134:285,1,88,10|0,2:0|0:0,0:0:0:0:
307,237,63917,1,2,3:2:0:0:
404,372,64093,2,0,B|431:336|431:336|417:295,1,88,2|8,3:2|2:0,0:0:0:0:
466,121,64446,2,0,B|497:113|514:93|514:93|521:164|493:209,1,176,2|2,3:2|3:2,0:0:0:0:
274,235,64976,2,0,L|316:247,1,44,8|8,2:0|2:0,0:0:0:0:
457,359,65152,2,0,L|438:305,1,44,8|8,2:0|2:0,0:0:0:0:
408,232,65329,1,0,3:2:0:0:
408,232,65505,1,0,3:2:0:0:
175,358,65682,6,0,B|123:391|72:350|72:350|83:304|121:289|121:289|125:218|74:249|71:166,1,330,14|0,2:0|3:2,0:0:0:0:
197,71,66388,2,0,L|173:169,1,88,10|0,2:0|0:0,0:0:0:0:
111,34,66740,1,2,3:2:0:0:
283,116,66917,2,0,P|325:119|354:88,1,88,2|8,3:2|2:0,0:0:0:0:
497,17,67270,6,0,B|397:58|426:-45|298:12,1,176,2|2,3:2|3:2,0:0:0:0:
444,116,67799,2,0,L|468:214,1,88,8|2,2:0|3:2,0:0:0:0:
380,242,68064,1,2,3:2:0:0:
380,242,68152,6,0,B|343:202|343:202|225:241,1,165,14|0,2:0|0:0,0:0:0:0:
212,247,68505,1,2,3:2:0:0:
391,339,68682,2,0,P|481:325|512:327,1,99.0000000000002,14|0,2:0|0:0,0:0:0:0:
511,340,69035,1,2,3:2:0:0:
223,363,69211,6,0,B|175:336|175:336|70:368|70:368|-12:316,1,220,14|0,2:0|3:2,0:0:0:0:
212,247,69740,1,12,2:0:0:0:
22,125,69917,1,12,2:0:0:0:
89,240,70093,1,0,3:2:0:0:
89,240,70182,1,0,3:2:0:0:
89,240,70270,1,0,3:2:0:0:
240,103,70446,6,0,P|339:87|422:82,1,165,12|0,2:0|0:0,0:0:0:0:
292,58,70976,6,0,P|248:40|200:1,1,88,6|0,3:2|0:0,0:0:0:0:
118,139,71329,1,10,2:0:0:0:
198,209,71505,2,0,P|259:184|323:174,1,132,2|0,2:0|0:0,0:0:0:0:
347,186,71858,1,2,3:2:0:0:
512,109,72035,2,0,P|483:76|441:78,1,88,8|2,2:0|2:0,0:0:0:0:
424,98,72299,1,2,0:0:0:0:
424,98,72388,6,0,P|414:55|408:11,1,88,0|0,3:2|2:0,0:0:0:0:
467,200,72740,1,10,2:0:0:0:
289,82,72917,6,0,B|285:153|285:153|307:178|307:178|279:261,1,176,6|0,3:2|3:2,0:0:0:0:
374,306,73446,2,0,B|410:279|410:279|451:293,1,88,8|0,2:0|0:0,0:0:0:0:
179,265,73799,6,0,L|66:278,1,88,2|0,3:2|0:0,0:0:0:0:
261,358,74152,1,8,2:0:0:0:
330,170,74329,2,0,P|337:127|309:95,1,88,2|0,2:0|3:2,0:0:0:0:
416,248,74682,2,0,P|458:251|482:286,1,88,2|8,3:2|2:0,0:0:0:0:
225,221,75035,1,2,2:0:0:0:
225,221,75123,1,2,0:0:0:0:
225,221,75211,6,0,L|112:208,1,88,4|0,3:2|3:2,0:0:0:0:
27,253,75564,1,10,2:0:0:0:
175,116,75740,2,0,B|260:111|260:111|280:125|280:125|346:123,1,176,4|10,3:2|2:0,0:0:0:0:
179,22,76270,1,10,2:0:0:0:
236,204,76446,1,0,3:2:0:0:
236,204,76535,1,8,2:0:0:0:
236,204,76623,6,0,P|220:276|217:320,1,88,4|0,3:2|2:0,0:0:0:0:
192,363,76888,1,2,2:0:0:0:
192,363,76976,2,0,P|176:291|173:247,1,88,10|2,2:0|2:0,0:0:0:0:
298,328,77329,1,0,3:2:0:0:
426,247,77505,1,0,3:2:0:0:
426,247,77593,1,2,2:0:0:0:
426,247,77682,2,0,B|469:260|469:260|502:232,1,88,10|2,2:0|2:0,0:0:0:0:
309,123,78035,6,0,P|265:116|222:105,1,88,0|0,3:2|2:0,0:0:0:0:
121,92,78299,1,2,2:0:0:0:
121,92,78388,2,0,P|77:98|34:109,1,88,10|2,2:0|3:2,0:0:0:0:
255,152,78740,1,0,3:2:0:0:
295,32,78917,1,0,3:2:0:0:
295,32,79005,1,2,2:0:0:0:
295,32,79093,1,10,2:0:0:0:
212,167,79270,1,2,2:0:0:0:
434,104,79446,6,0,L|477:-22,1,110,4|0,3:2|0:0,0:0:0:0:
385,280,79799,2,0,L|420:384,1,110,10|0,2:0|3:2,0:0:0:0:
125,259,80152,2,0,L|15:251,1,110,10|0,2:0|3:2,0:0:0:0:
251,329,80505,1,10,2:0:0:0:
255,332,80593,1,8,2:0:0:0:
259,336,80682,1,0,3:2:0:0:
377,151,80858,5,6,3:2:0:0:
151,223,81035,1,2,3:2:0:0:
151,223,81123,1,0,3:2:0:0:
151,223,81211,1,8,2:0:0:0:
345,253,81388,6,0,L|422:260,1,44,12|0,2:0|0:0,0:0:0:0:
65,104,81740,2,0,L|49:57,2,26.399999194336,14|2|2,2:0|2:0|2:0,0:0:0:0:
86,128,81917,2,0,L|57:240,1,88.0000000000001,2|8,2:0|2:0,0:0:0:0:
54,165,82182,1,8,2:0:0:0:
54,165,82270,6,0,B|106:135|155:182|155:182|222:191|252:136,1,220,6|8,3:2|2:0,0:0:0:0:
469,14,82799,1,2,2:0:0:0:
469,14,82976,2,0,P|415:101|407:139,1,110,2|0,3:2|3:2,0:0:0:0:
237,249,83329,2,0,P|235:194|248:140,1,110,8|2,2:0|2:0,0:0:0:0:
411,350,83682,5,2,3:2:0:0:
512,208,83858,2,0,P|444:198|421:261,1,110,2|8,3:2|2:0,0:0:0:0:
140,332,84211,2,0,B|265:364|207:251|340:286,1,220,2|2,3:2|3:2,0:0:0:0:
411,350,84740,1,8,2:0:0:0:
444,138,84917,1,2,3:2:0:0:
444,138,85005,1,2,3:2:0:0:
444,138,85093,6,0,P|483:55|392:61,1,220,6|8,3:2|2:0,0:0:0:0:
141,129,85623,1,2,2:0:0:0:
141,129,85799,2,0,P|107:88|124:38,1,110,2|0,3:2|3:2,0:0:0:0:
312,230,86152,2,0,P|259:234|236:281,1,110,8|2,2:0|2:0,0:0:0:0:
270,89,86505,5,2,3:2:0:0:
85,252,86682,2,0,P|101:303|104:358,1,110,2|8,3:2|2:0,0:0:0:0:
199,164,87035,2,0,P|107:106|0:115,1,220,2|2,3:2|3:2,0:0:0:0:
321,252,87564,2,0,B|387:248|387:248|419:270|419:270|549:266,1,198,12|0,2:0|0:0,0:0:0:0:
493,291,87917,6,0,P|477:186|449:51,1,220,6|8,3:2|2:0,0:0:0:0:
300,278,88446,1,2,2:0:0:0:
300,278,88623,2,0,P|334:324|365:377,1,110,2|0,3:2|3:2,0:0:0:0:
113,309,88976,2,0,P|58:302|3:298,1,110,8|2,2:0|2:0,0:0:0:0:
219,366,89329,5,2,3:2:0:0:
348,209,89505,2,0,P|398:196|436:232,1,110,2|8,3:2|2:0,0:0:0:0:
213,72,89858,2,0,P|204:179|261:271,1,220,2|2,3:2|3:2,0:0:0:0:
32,342,90388,2,0,P|42:287|50:233,1,110,8|2,2:0|3:2,0:0:0:0:
31,214,90652,1,2,3:2:0:0:
31,214,90740,6,0,B|83:193|83:193|172:254|172:254|227:229,1,220,4|8,3:2|2:0,0:0:0:0:
354,156,91270,1,2,3:2:0:0:
346,136,91358,1,2,3:2:0:0:
339,116,91446,1,10,2:0:0:0:
488,213,91623,1,0,3:2:0:0:
480,233,91711,1,0,3:2:0:0:
473,253,91799,1,8,2:0:0:0:
474,92,91976,1,2,3:2:0:0:
493,82,92064,1,2,3:2:0:0:
512,73,92152,5,14,2:0:0:0:
315,151,92329,2,0,B|210:135|210:135|175:147|165:185,2,158.4,6|14|14,3:2|2:0|2:0,0:0:0:0:
461,229,93211,1,8,2:0:0:0:
466,243,93299,1,8,2:0:0:0:
472,257,93388,1,8,2:0:0:0:
477,271,93476,1,8,2:0:0:0:
484,286,93564,6,0,B|375:273|375:273|354:295|322:292|322:292|257:281,1,220,6|8,3:2|2:0,0:0:0:0:
55,340,94093,1,2,2:0:0:0:
55,340,94270,2,0,P|89:299|72:249,1,110,2|0,3:2|3:2,0:0:0:0:
145,40,94623,2,0,P|198:44|221:92,1,110,8|2,2:0|2:0,0:0:0:0:
5,140,94976,5,2,3:2:0:0:
223,218,95152,2,0,P|275:206|335:206,1,110,2|8,3:2|2:0,0:0:0:0:
170,312,95505,2,0,P|78:317|118:234,1,220,2|2,3:2|3:2,0:0:0:0:
271,320,96035,1,8,2:0:0:0:
416,146,96211,1,2,3:2:0:0:
416,146,96299,1,2,3:2:0:0:
416,146,96388,6,0,B|441:178|481:166|481:166|513:88|467:26,1,220,6|8,3:2|2:0,0:0:0:0:
363,273,96917,1,2,2:0:0:0:
363,273,97093,2,0,P|356:329|352:381,1,110,2|0,3:2|3:2,0:0:0:0:
220,206,97446,2,0,P|199:152|182:103,1,110,8|2,2:0|2:0,0:0:0:0:
366,178,97799,5,2,3:2:0:0:
151,288,97976,2,0,P|99:291|67:250,1,110,2|8,3:2|2:0,0:0:0:0:
283,356,98329,2,0,B|309:306|376:315|376:315|425:362|477:332,1,220,2|2,3:2|3:2,0:0:0:0:
493,305,98770,1,10,2:0:0:0:
493,305,98858,2,0,B|505:250|505:250|425:223,1,110,10|2,2:0|3:2,0:0:0:0:
380,319,99211,1,0,3:2:0:0:
380,319,99388,1,0,3:2:0:0:
237,123,99564,6,0,P|253:227|267:354,1,198,14|0,2:0|0:0,0:0:0:0:
240,352,99917,1,2,3:2:0:0:
240,352,100093,1,0,3:2:0:0:
99,105,100270,6,0,P|48:197|-9:311,1,198,14|0,2:0|0:0,0:0:0:0:
17,318,100623,1,2,3:2:0:0:
17,318,100799,1,2,3:2:0:0:
268,234,100976,6,0,P|367:241|452:257,1,132,12|2,2:0|2:0,0:0:0:0:
441,275,101240,1,2,2:0:0:0:
441,275,101329,2,0,P|434:176|418:91,1,132,0|2,3:2|3:2,0:0:0:0:
196,47,101682,6,0,P|106:89|38:49,1,132,14|0,2:0|3:2,0:0:0:0:
54,59,101946,1,0,3:2:0:0:
54,59,102035,5,14,2:0:0:0:
355,1,102388,5,8,2:0:0:0:
203,164,102564,1,8,2:0:0:0:
452,122,102740,1,8,2:0:0:0:
411,300,102917,1,8,2:0:0:0:
351,201,103093,1,8,2:0:0:0:
504,287,103270,1,8,2:0:0:0:
219,344,103446,5,6,3:2:0:0:
504,287,103623,1,2,3:2:0:0:
504,287,103711,1,2,3:2:0:0:
504,287,103799,1,8,2:0:0:0:
313,102,103976,6,0,L|295:49,1,55,6|0,3:2|0:0,0:0:0:0:
438,245,104329,2,0,L|391:282,1,55,6|0,3:2|0:0,0:0:0:0:
30,177,104682,6,0,B|119:183|119:183|155:156|155:156|270:166,1,220,14|0,2:0|3:0,0:0:0:0:
457,16,105211,2,0,B|392:21|385:82|385:82|419:149,1,165,14|0,2:0|0:0,0:0:0:0:
470,270,105564,1,8,2:0:0:0:
470,270,105652,1,8,2:0:0:0:
470,270,105740,6,0,L|488:214,1,55,8|8,2:0|2:0,0:0:0:0:
365,233,105917,2,0,P|271:237|230:243,1,110,0|0,3:0|3:0,0:0:0:0:
33,297,106270,5,6,3:2:0:0:
16,321,107152,5,0,3:0:0:0:
98,111,107329,1,14,2:0:0:0:
182,332,107505,1,2,2:0:0:0:
182,332,107593,1,2,2:0:0:0:
182,332,107682,6,0,B|299:278|262:400|386:342,1,220,6|8,3:2|2:0,0:0:0:0:
486,217,108211,1,2,3:2:0:0:
486,217,108388,2,0,P|444:215|406:238,1,88,2|0,3:2|3:2,0:0:0:0:
293,109,108740,1,10,2:0:0:0:
293,109,108917,2,0,P|336:116|379:127,1,88,2|0,2:0|3:2,0:0:0:0:
312,302,109270,1,2,2:0:0:0:
312,302,109446,2,0,P|305:258|294:215,1,88,10|0,2:0|3:2,0:0:0:0:
173,21,109799,6,0,P|147:55|147:98,1,88,2|0,3:2|3:2,0:0:0:0:
80,300,110152,2,0,P|52:266|9:256,1,88,10|0,2:0|3:2,0:0:0:0:
295,216,110505,6,0,B|269:220|236:203|236:203|257:275|320:337,1,220,6|8,3:2|2:0,0:0:0:0:
293,110,111035,1,2,3:2:0:0:
293,110,111211,2,0,P|300:66|311:23,1,88,2|0,3:2|3:2,0:0:0:0:
138,111,111564,1,10,2:0:0:0:
138,111,111740,2,0,P|102:154|110:212,1,88,2|0,2:0|3:2,0:0:0:0:
426,93,112093,1,2,2:0:0:0:
426,93,112270,2,0,P|468:82|512:74,1,88,10|0,2:0|3:2,0:0:0:0:
312,240,112623,6,0,P|269:232|238:202,1,88,2|0,3:2|3:2,0:0:0:0:
476,80,112976,2,0,P|461:145|450:338,1,198,12|0,2:0|0:0,0:0:0:0:
463,300,113329,5,4,3:2:0:0:
309,162,113505,1,2,2:0:0:0:
355,382,113682,1,10,2:0:0:0:
456,179,113858,1,2,3:2:0:0:
220,304,114035,2,0,P|176:311|133:322,1,88,2|2,3:2|3:2,0:0:0:0:
308,203,114388,2,0,P|349:213|376:247,1,88,10|2,2:0|2:0,0:0:0:0:
114,208,114740,5,2,3:2:0:0:
222,122,114917,1,0,3:2:0:0:
79,183,115093,1,10,2:0:0:0:
308,203,115270,2,0,P|394:136|433:42,1,176,2|2,3:2|3:2,0:0:0:0:
455,235,115799,1,10,2:0:0:0:
312,58,115976,1,2,3:2:0:0:
304,78,116064,1,2,3:2:0:0:
297,98,116152,5,4,3:2:0:0:
177,154,116329,1,0,3:2:0:0:
191,170,116417,1,0,3:2:0:0:
205,187,116505,1,8,3:2:0:0:
190,28,116682,1,0,3:2:0:0:
169,32,116770,1,0,3:2:0:0:
148,36,116858,1,8,3:2:0:0:
297,98,117035,1,0,3:2:0:0:
304,78,117123,1,0,3:2:0:0:
312,58,117211,2,0,B|339:24|339:24|379:46,1,88,8|0,3:2|3:2,0:0:0:0:
199,138,117564,5,6,3:2:0:0:
35,31,117740,1,2,3:2:0:0:
127,193,117917,1,8,2:0:0:0:
380,46,118093,6,0,L|447:8,1,44,6|0,3:2|0:0,0:0:0:0:
207,224,118446,2,0,L|216:286,1,44,6|0,3:2|0:0,0:0:0:0:
503,134,118799,6,0,B|464:112|429:122|429:122|402:147|402:147|366:151|331:128,1,176,14|0,2:0|0:0,0:0:0:0:
268,85,119329,5,2,2:0:0:0:
268,85,119682,2,0,L|275:36,6,33.0000012588501,2|2|2|2|2|2|2,2:0|2:0|2:0|2:0|2:0|2:0|2:0,0:0:0:0:
222,83,120035,2,0,L|250:188,1,99.0000000000002,2|0,2:0|0:0,0:0:0:0:
257,212,120388,5,4,3:2:0:0:
105,183,120564,1,0,3:2:0:0:
255,299,120740,1,8,2:0:0:0:
60,322,120917,1,4,3:2:0:0:
359,49,121270,5,14,3:2:0:0:
284,322,121446,1,14,3:2:0:0:
325,40,121623,1,14,3:2:0:0:
