osu file format v14

[General]
AudioFilename: audio.mp3
AudioLeadIn: 0
PreviewTime: 16661
Countdown: 1
SampleSet: Normal
StackLeniency: 0.7
Mode: 1
LetterboxInBreaks: 0
WidescreenStoryboard: 1

[Editor]
Bookmarks: 16661,31430,46199,47122,61891,69275
DistanceSpacing: 1.2
BeatDivisor: 4
GridSize: 32
TimelineZoom: 0.4

[Metadata]
Title:3-days
TitleUnicode:3-days
Artist:Kotobayuki
ArtistUnicode:コトバユキ
Creator:Noffy
Version:Futsuu
Source:
Tags:archuk vocaloid hatsune miku three novelty japanese
BeatmapID:1735671
BeatmapSetID:828374

[Difficulty]
HPDrainRate:8
CircleSize:2
OverallDifficulty:3
ApproachRate:8
SliderMultiplier:1.4
SliderTickRate:1

[Events]
//Background and Video events
0,0,"BACKGROUND NAMED IN ENGLSIH.jpg",0,-100
//Break Periods
//Storyboard Layer 0 (Background)
//Storyboard Layer 1 (Fail)
//Storyboard Layer 2 (Pass)
//Storyboard Layer 3 (Foreground)
//Storyboard Layer 4 (Overlay)
//Storyboard Sound Samples

[TimingPoints]
70,461.538461538462,4,1,0,100,1,8
1917,461.538461538462,4,1,0,100,1,8
31686,-133.333333333333,4,1,0,100,0,0
38763,-113.636363636364,4,1,0,100,0,0
47147,461.538461538462,4,1,0,100,1,1
61916,-100,4,1,0,100,0,0

[HitObjects]
160,96,1917,5,0,0:0:0:0:
160,96,2840,1,0,0:0:0:0:
160,96,3763,1,0,0:0:0:0:
160,96,4224,1,8,0:0:0:0:
160,96,4686,1,8,0:0:0:0:
160,96,5609,1,0,0:0:0:0:
160,96,6532,1,0,0:0:0:0:
160,96,7455,1,8,0:0:0:0:
160,96,7917,1,0,0:0:0:0:
160,96,8378,1,0,0:0:0:0:
160,96,9301,1,0,0:0:0:0:
160,96,10224,1,0,0:0:0:0:
160,96,11147,1,0,0:0:0:0:
160,96,11609,1,8,0:0:0:0:
160,96,12070,1,8,0:0:0:0:
160,96,12993,1,0,0:0:0:0:
160,96,13917,1,0,0:0:0:0:
160,96,14840,1,8,0:0:0:0:
160,96,15301,1,0,0:0:0:0:
160,96,15763,1,0,0:0:0:0:
352,96,16686,5,12,0:0:0:0:
160,96,17147,1,0,0:0:0:0:
160,96,17609,1,8,0:0:0:0:
160,96,18070,1,0,0:0:0:0:
160,96,18993,1,0,0:0:0:0:
160,96,19455,1,0,0:0:0:0:
160,96,19686,1,8,0:0:0:0:
160,96,19917,1,8,0:0:0:0:
160,96,20840,1,0,0:0:0:0:
160,96,21301,1,8,0:0:0:0:
160,96,21763,1,0,0:0:0:0:
160,96,22224,1,0,0:0:0:0:
160,96,22686,1,0,0:0:0:0:
160,96,23147,1,0,0:0:0:0:
160,96,23378,1,8,0:0:0:0:
160,96,23609,1,8,0:0:0:0:
160,96,24532,1,0,0:0:0:0:
160,96,24993,1,8,0:0:0:0:
160,96,25455,1,0,0:0:0:0:
160,96,26378,1,0,0:0:0:0:
160,96,26840,1,0,0:0:0:0:
160,96,27070,1,8,0:0:0:0:
160,96,27301,1,8,0:0:0:0:
160,96,27763,1,0,0:0:0:0:
160,96,28455,1,0,0:0:0:0:
160,96,28686,1,0,0:0:0:0:
160,96,29609,1,0,0:0:0:0:
160,96,30070,1,8,0:0:0:0:
160,96,30993,1,8,0:0:0:0:
160,96,31455,5,0,0:0:0:0:
160,96,32840,1,8,0:0:0:0:
160,96,33301,1,0,0:0:0:0:
160,96,35147,1,8,0:0:0:0:
160,96,36532,1,8,0:0:0:0:
160,96,36993,1,8,0:0:0:0:
160,96,37455,1,8,0:0:0:0:
160,96,37917,1,8,0:0:0:0:
160,96,38840,5,0,0:0:0:0:
160,96,39070,1,0,0:0:0:0:
160,96,39301,1,0,0:0:0:0:
160,96,39532,1,8,0:0:0:0:
160,96,39993,1,0,0:0:0:0:
160,96,40455,1,8,0:0:0:0:
160,96,40917,1,0,0:0:0:0:
160,96,41147,1,0,0:0:0:0:
160,96,41378,1,8,0:0:0:0:
160,96,41840,1,0,0:0:0:0:
160,96,42301,1,8,0:0:0:0:
160,96,42763,1,0,0:0:0:0:
160,96,42993,1,0,0:0:0:0:
160,96,43224,1,8,0:0:0:0:
160,96,43686,1,0,0:0:0:0:
160,96,44147,1,8,0:0:0:0:
160,96,44609,1,0,0:0:0:0:
160,96,44840,1,0,0:0:0:0:
160,96,45301,1,0,0:0:0:0:
160,96,45763,1,8,0:0:0:0:
352,96,47147,5,12,0:0:0:0:
160,96,47608,1,0,0:0:0:0:
160,96,47839,1,8,0:0:0:0:
160,96,48070,1,8,0:0:0:0:
160,96,48531,1,0,0:0:0:0:
160,96,49223,1,0,0:0:0:0:
160,96,49454,1,0,0:0:0:0:
160,96,49685,1,8,0:0:0:0:
160,96,49916,1,0,0:0:0:0:
160,96,50377,1,8,0:0:0:0:
160,96,51070,1,0,0:0:0:0:
160,96,51300,1,0,0:0:0:0:
160,96,51531,1,8,0:0:0:0:
160,96,51762,1,8,0:0:0:0:
160,96,52223,1,0,0:0:0:0:
160,96,52916,1,0,0:0:0:0:
160,96,53147,1,0,0:0:0:0:
160,96,53377,1,8,0:0:0:0:
160,96,53608,1,0,0:0:0:0:
160,96,54070,1,8,0:0:0:0:
160,96,54762,1,0,0:0:0:0:
160,96,54993,1,0,0:0:0:0:
160,96,55223,1,8,0:0:0:0:
160,96,55685,1,8,0:0:0:0:
160,96,56147,1,8,0:0:0:0:
160,96,56608,1,0,0:0:0:0:
160,96,56839,1,0,0:0:0:0:
160,96,57070,1,8,0:0:0:0:
160,96,57531,1,8,0:0:0:0:
160,96,58454,1,0,0:0:0:0:
160,96,58685,1,0,0:0:0:0:
160,96,58916,1,8,0:0:0:0:
160,96,59377,1,8,0:0:0:0:
160,96,59839,1,8,0:0:0:0:
160,96,60300,1,0,0:0:0:0:
160,96,60531,1,0,0:0:0:0:
160,96,60993,1,0,0:0:0:0:
160,96,61454,1,8,0:0:0:0:
160,96,61916,5,0,0:0:0:0:
160,96,62377,1,0,0:0:0:0:
160,96,63300,1,8,0:0:0:0:
160,96,63762,1,0,0:0:0:0:
160,96,64223,1,0,0:0:0:0:
160,96,65147,1,8,0:0:0:0:
160,96,65608,1,0,0:0:0:0:
160,96,66070,1,0,0:0:0:0:
160,96,66993,1,8,0:0:0:0:
160,96,67454,1,0,0:0:0:0:
160,96,67916,1,0,0:0:0:0:
160,96,68839,1,8,0:0:0:0:
160,96,69300,1,0,0:0:0:0:
160,96,70223,1,8,0:0:0:0:
160,96,71147,1,0,0:0:0:0:
160,96,72070,1,8,0:0:0:0:
160,96,72531,1,8,0:0:0:0:
160,96,72993,1,0,0:0:0:0:
160,96,73454,1,0,0:0:0:0:
160,96,74377,1,8,0:0:0:0:
160,96,74839,1,0,0:0:0:0:
160,96,75300,1,0,0:0:0:0:
160,96,76223,1,8,0:0:0:0:
160,96,76685,1,12,0:0:0:0:
