osu file format v14

[General]
AudioFilename: audio.mp3
AudioLeadIn: 0
PreviewTime: -1
Countdown: 0
SampleSet: None
StackLeniency: 0.2
Mode: 3
LetterboxInBreaks: 0
SpecialStyle: 1
WidescreenStoryboard: 0

[Editor]
Bookmarks: 93605,135605,175060,197605,212878,224515,305969,340878,346696,369969
DistanceSpacing: 0.9
BeatDivisor: 4
GridSize: 4
TimelineZoom: 2.599999

[Metadata]
Title:I miss you
TitleUnicode:I miss you
Artist:Kotera Kanako
ArtistUnicode:コテカナ
Creator:pikechu
Version:For Claire
Source:英雄伝説 閃の軌跡 (Sen no Kiseki) OST
Tags:Falcom Sound Team J.D.K jdk
BeatmapID:1568217
BeatmapSetID:743660

[Difficulty]
HPDrainRate:8.5
CircleSize:4
OverallDifficulty:0
ApproachRate:5
SliderMultiplier:1.4
SliderTickRate:1

[Events]
//Background and Video events
0,0,"2 (3).jpg",0,0
//Break Periods
//Storyboard Layer 0 (Background)
//Storyboard Layer 1 (Fail)
//Storyboard Layer 2 (Pass)
//Storyboard Layer 3 (Foreground)
//Storyboard Sound Samples

[TimingPoints]
515,363.636363636364,4,3,0,53,1,0

[HitObjects]
64,192,515,128,0,696:0:0:0:0:
320,192,515,128,0,605:0:0:0:0:
448,192,605,128,0,696:0:0:0:0:
192,192,696,128,0,878:0:0:0:0:
320,192,696,128,0,787:0:0:0:0:
64,192,787,128,0,878:0:0:0:0:
320,192,878,128,0,1060:0:0:0:0:
448,192,878,128,0,969:0:0:0:0:
192,192,969,128,0,1060:0:0:0:0:
448,192,1060,128,0,1424:0:0:0:0:
64,192,1060,128,0,1151:0:0:0:0:
192,192,1151,128,0,1242:0:0:0:0:
320,192,1242,128,0,1333:0:0:0:0:
192,192,1333,128,0,1424:0:0:0:0:
64,192,1424,128,0,1605:0:0:0:0:
320,192,1424,128,0,1515:0:0:0:0:
448,192,1515,128,0,1605:0:0:0:0:
192,192,1605,128,0,1787:0:0:0:0:
320,192,1605,128,0,1696:0:0:0:0:
64,192,1696,128,0,1787:0:0:0:0:
320,192,1787,128,0,2151:0:0:0:0:
448,192,1787,128,0,1878:0:0:0:0:
192,192,1878,128,0,1969:0:0:0:0:
64,192,1969,128,0,2060:0:0:0:0:
192,192,2060,128,0,2151:0:0:0:0:
64,192,2151,128,0,2333:0:0:0:0:
448,192,2151,128,0,2242:0:0:0:0:
320,192,2242,128,0,2333:0:0:0:0:
192,192,2333,128,0,2515:0:0:0:0:
448,192,2333,128,0,2424:0:0:0:0:
64,192,2424,128,0,2515:0:0:0:0:
320,192,2515,128,0,2878:0:0:0:0:
448,192,2515,128,0,2605:0:0:0:0:
192,192,2605,128,0,2696:0:0:0:0:
64,192,2696,128,0,2787:0:0:0:0:
192,192,2787,128,0,2878:0:0:0:0:
448,192,2878,128,0,3060:0:0:0:0:
64,192,2878,128,0,2969:0:0:0:0:
192,192,2969,128,0,3060:0:0:0:0:
320,192,3060,128,0,3242:0:0:0:0:
64,192,3060,128,0,3151:0:0:0:0:
448,192,3151,128,0,3242:0:0:0:0:
192,192,3242,128,0,3424:0:0:0:0:
64,192,3242,128,0,3333:0:0:0:0:
320,192,3333,128,0,3424:0:0:0:0:
64,192,3424,128,0,3605:0:0:0:0:
448,192,3424,128,0,3515:0:0:0:0:
320,192,3515,128,0,3605:0:0:0:0:
192,192,3605,128,0,3787:0:0:0:0:
448,192,3605,128,0,3696:0:0:0:0:
64,192,3696,128,0,3787:0:0:0:0:
320,192,3787,128,0,3969:0:0:0:0:
448,192,3787,128,0,3878:0:0:0:0:
192,192,3878,128,0,3969:0:0:0:0:
448,192,3969,128,0,4333:0:0:0:0:
64,192,3969,128,0,4060:0:0:0:0:
320,192,4060,128,0,4151:0:0:0:0:
192,192,4151,128,0,4242:0:0:0:0:
320,192,4242,128,0,4333:0:0:0:0:
64,192,4333,128,0,4515:0:0:0:0:
192,192,4333,128,0,4424:0:0:0:0:
320,192,4424,128,0,4515:0:0:0:0:
192,192,4515,128,0,4696:0:0:0:0:
448,192,4515,128,0,4605:0:0:0:0:
64,192,4605,128,0,4696:0:0:0:0:
320,192,4696,128,0,5060:0:0:0:0:
448,192,4696,128,0,4787:0:0:0:0:
192,192,4787,128,0,4878:0:0:0:0:
64,192,4878,128,0,4969:0:0:0:0:
448,192,4969,128,0,5060:0:0:0:0:
64,192,5060,128,0,5242:0:0:0:0:
192,192,5060,128,0,5151:0:0:0:0:
320,192,5151,128,0,5242:0:0:0:0:
192,192,5242,128,0,5424:0:0:0:0:
448,192,5242,128,0,5333:0:0:0:0:
64,192,5333,128,0,5424:0:0:0:0:
448,192,5424,128,0,5515:0:0:0:0:
320,192,5424,128,0,5696:0:0:0:0:
192,192,5515,128,0,5605:0:0:0:0:
64,192,5605,128,0,5696:0:0:0:0:
448,192,5696,128,0,5787:0:0:0:0:
320,192,5787,128,0,5878:0:0:0:0:
192,192,5878,128,0,5969:0:0:0:0:
448,192,5878,128,0,6151:0:0:0:0:
64,192,5969,128,0,6060:0:0:0:0:
320,192,5969,128,0,6242:0:0:0:0:
192,192,6060,128,0,6333:0:0:0:0:
64,192,6151,128,0,6424:0:0:0:0:
320,192,6333,128,0,6878:0:0:0:0:
448,192,6333,128,0,6515:0:0:0:0:
192,192,6424,128,0,6515:0:0:0:0:
64,192,6515,128,0,6696:0:0:0:0:
192,192,6605,128,0,6696:0:0:0:0:
448,192,6696,128,0,6878:0:0:0:0:
64,192,6878,128,0,7424:0:0:0:0:
192,192,6878,128,0,7242:0:0:0:0:
320,192,6969,128,0,7060:0:0:0:0:
448,192,7060,128,0,7151:0:0:0:0:
320,192,7151,128,0,7242:0:0:0:0:
448,192,7242,128,0,7424:0:0:0:0:
192,192,7424,128,0,7969:0:0:0:0:
320,192,7424,128,0,7605:0:0:0:0:
64,192,7515,128,0,7605:0:0:0:0:
448,192,7605,128,0,7787:0:0:0:0:
320,192,7696,128,0,7787:0:0:0:0:
64,192,7787,128,0,7969:0:0:0:0:
320,192,7969,128,0,9605:0:0:0:0:
448,192,7969,128,0,8151:0:0:0:0:
64,192,8060,128,0,8151:0:0:0:0:
192,192,8151,128,0,8333:0:0:0:0:
448,192,8242,128,0,8333:0:0:0:0:
64,192,8333,128,0,8696:0:0:0:0:
192,192,8424,128,0,8515:0:0:0:0:
448,192,8515,128,0,8605:0:0:0:0:
192,192,8605,128,0,8696:0:0:0:0:
448,192,8696,128,0,8878:0:0:0:0:
64,192,8787,128,0,8878:0:0:0:0:
192,192,8878,128,0,9060:0:0:0:0:
448,192,8969,128,0,9060:0:0:0:0:
64,192,9060,128,0,9242:0:0:0:0:
192,192,9151,128,0,9242:0:0:0:0:
448,192,9242,128,0,9424:0:0:0:0:
64,192,9333,128,0,9424:0:0:0:0:
192,192,9424,128,0,9605:0:0:0:0:
448,192,9515,128,0,9605:0:0:0:0:
64,192,9605,128,0,9787:0:0:0:0:
192,192,9696,128,0,9787:0:0:0:0:
448,192,9787,128,0,9878:0:0:0:0:
320,192,9787,128,0,9878:0:0:0:0:
192,192,9878,128,0,9969:0:0:0:0:
64,192,9969,128,0,10060:0:0:0:0:
320,192,9969,128,0,10060:0:0:0:0:
192,192,10060,128,0,10151:0:0:0:0:
64,192,10151,128,0,10242:0:0:0:0:
320,192,10151,128,0,10333:0:0:0:0:
192,192,10242,128,0,10333:0:0:0:0:
448,192,10242,128,0,10333:0:0:0:0:
64,192,10333,128,0,10515:0:0:0:0:
320,192,10424,128,0,10515:0:0:0:0:
192,192,10515,128,0,10696:0:0:0:0:
448,192,10515,128,0,10605:0:0:0:0:
320,192,10605,128,0,10696:0:0:0:0:
448,192,10696,128,0,10787:0:0:0:0:
64,192,10696,128,0,10787:0:0:0:0:
320,192,10787,128,0,10878:0:0:0:0:
192,192,10878,128,0,10969:0:0:0:0:
448,192,10878,128,0,10969:0:0:0:0:
64,192,10969,128,0,11060:0:0:0:0:
320,192,11060,128,0,11151:0:0:0:0:
448,192,11060,128,0,11151:0:0:0:0:
192,192,11151,128,0,11242:0:0:0:0:
320,192,11242,128,0,11333:0:0:0:0:
64,192,11242,128,0,11605:0:0:0:0:
448,192,11333,128,0,12151:0:0:0:0:
192,192,11605,128,0,11787:0:0:0:0:
320,192,11787,128,0,11969:0:0:0:0:
64,192,11969,128,0,12151:0:0:0:0:
320,192,12151,128,0,12333:0:0:0:0:
192,192,12151,128,0,12242:0:0:0:0:
448,192,12242,128,0,12333:0:0:0:0:
192,192,12333,128,0,12424:0:0:0:0:
64,192,12424,128,0,12515:0:0:0:0:
192,192,12515,128,0,12696:0:0:0:0:
320,192,12515,128,0,12605:0:0:0:0:
448,192,12605,128,0,12696:0:0:0:0:
64,192,12696,128,0,12787:0:0:0:0:
192,192,12787,128,0,12878:0:0:0:0:
64,192,12878,128,0,13060:0:0:0:0:
320,192,12878,128,0,12969:0:0:0:0:
448,192,12969,128,0,13060:0:0:0:0:
320,192,13060,128,0,13151:0:0:0:0:
192,192,13060,1,0,0:0:0:0:
64,192,13151,128,0,13242:0:0:0:0:
192,192,13242,128,0,13424:0:0:0:0:
448,192,13242,128,0,13333:0:0:0:0:
320,192,13333,128,0,13424:0:0:0:0:
64,192,13424,128,0,13515:0:0:0:0:
448,192,13424,1,0,0:0:0:0:
448,192,13515,128,0,13605:0:0:0:0:
320,192,13605,128,0,13787:0:0:0:0:
192,192,13605,128,0,13696:0:0:0:0:
64,192,13696,128,0,13787:0:0:0:0:
448,192,13787,128,0,13878:0:0:0:0:
320,192,13878,128,0,13969:0:0:0:0:
192,192,13969,128,0,14151:0:0:0:0:
64,192,13969,128,0,14060:0:0:0:0:
448,192,14060,128,0,14151:0:0:0:0:
320,192,14151,128,0,14242:0:0:0:0:
192,192,14242,128,0,14333:0:0:0:0:
64,192,14333,128,0,14515:0:0:0:0:
320,192,14333,128,0,14424:0:0:0:0:
448,192,14424,128,0,14515:0:0:0:0:
192,192,14515,128,0,14605:0:0:0:0:
320,192,14605,128,0,14696:0:0:0:0:
192,192,14696,128,0,14878:0:0:0:0:
448,192,14696,128,0,14787:0:0:0:0:
64,192,14787,128,0,14878:0:0:0:0:
320,192,14878,128,0,14969:0:0:0:0:
448,192,14969,128,0,15060:0:0:0:0:
192,192,15060,128,0,15242:0:0:0:0:
64,192,15060,128,0,15151:0:0:0:0:
320,192,15060,1,0,0:0:0:0:
320,192,15151,128,0,15242:0:0:0:0:
448,192,15242,128,0,15333:0:0:0:0:
64,192,15333,128,0,15424:0:0:0:0:
320,192,15424,128,0,15605:0:0:0:0:
192,192,15424,128,0,15515:0:0:0:0:
448,192,15515,128,0,15605:0:0:0:0:
192,192,15605,128,0,15696:0:0:0:0:
64,192,15696,128,0,15787:0:0:0:0:
448,192,15787,128,0,15969:0:0:0:0:
320,192,15787,128,0,15878:0:0:0:0:
192,192,15878,128,0,15969:0:0:0:0:
64,192,15969,128,0,16060:0:0:0:0:
320,192,15969,1,0,0:0:0:0:
448,192,16060,128,0,16151:0:0:0:0:
320,192,16151,128,0,16333:0:0:0:0:
192,192,16151,128,0,16242:0:0:0:0:
64,192,16242,128,0,16333:0:0:0:0:
448,192,16333,128,0,16424:0:0:0:0:
192,192,16333,1,0,0:0:0:0:
320,192,16424,128,0,16515:0:0:0:0:
192,192,16515,128,0,16696:0:0:0:0:
64,192,16515,128,0,16605:0:0:0:0:
448,192,16605,128,0,16696:0:0:0:0:
320,192,16696,128,0,16787:0:0:0:0:
192,192,16787,128,0,16878:0:0:0:0:
320,192,16878,128,0,17060:0:0:0:0:
64,192,16878,128,0,16969:0:0:0:0:
448,192,16969,128,0,17060:0:0:0:0:
192,192,17060,128,0,17151:0:0:0:0:
64,192,17151,128,0,17242:0:0:0:0:
448,192,17242,128,0,17424:0:0:0:0:
320,192,17242,128,0,17333:0:0:0:0:
192,192,17333,128,0,17424:0:0:0:0:
64,192,17424,128,0,17515:0:0:0:0:
448,192,17515,128,0,17605:0:0:0:0:
320,192,17605,128,0,17787:0:0:0:0:
192,192,17605,128,0,17696:0:0:0:0:
64,192,17696,128,0,17787:0:0:0:0:
192,192,17787,128,0,17878:0:0:0:0:
320,192,17878,128,0,17969:0:0:0:0:
192,192,17969,128,0,18151:0:0:0:0:
448,192,17969,128,0,18060:0:0:0:0:
64,192,17969,1,0,0:0:0:0:
64,192,18060,128,0,18151:0:0:0:0:
320,192,18151,128,0,18242:0:0:0:0:
448,192,18242,128,0,18333:0:0:0:0:
320,192,18333,128,0,18515:0:0:0:0:
64,192,18333,128,0,18424:0:0:0:0:
192,192,18424,128,0,18515:0:0:0:0:
448,192,18515,128,0,18605:0:0:0:0:
320,192,18605,128,0,18696:0:0:0:0:
448,192,18696,128,0,18878:0:0:0:0:
192,192,18696,128,0,18787:0:0:0:0:
64,192,18787,128,0,18878:0:0:0:0:
320,192,18878,128,0,18969:0:0:0:0:
192,192,18878,1,0,0:0:0:0:
192,192,18969,128,0,19060:0:0:0:0:
320,192,19060,128,0,19242:0:0:0:0:
64,192,19060,128,0,19151:0:0:0:0:
448,192,19151,128,0,19242:0:0:0:0:
192,192,19242,128,0,19333:0:0:0:0:
64,192,19242,1,0,0:0:0:0:
64,192,19333,128,0,19424:0:0:0:0:
192,192,19424,128,0,19605:0:0:0:0:
448,192,19424,128,0,19515:0:0:0:0:
320,192,19515,128,0,19605:0:0:0:0:
64,192,19605,128,0,19696:0:0:0:0:
448,192,19696,128,0,19787:0:0:0:0:
320,192,19787,128,0,19969:0:0:0:0:
192,192,19787,128,0,19878:0:0:0:0:
64,192,19878,128,0,19969:0:0:0:0:
448,192,19969,128,0,20060:0:0:0:0:
320,192,20060,128,0,20151:0:0:0:0:
448,192,20151,128,0,20333:0:0:0:0:
192,192,20151,128,0,20242:0:0:0:0:
64,192,20242,128,0,20333:0:0:0:0:
320,192,20333,128,0,20424:0:0:0:0:
192,192,20424,128,0,20515:0:0:0:0:
320,192,20515,128,0,20696:0:0:0:0:
448,192,20515,128,0,20605:0:0:0:0:
64,192,20605,128,0,20696:0:0:0:0:
448,192,20696,128,0,20787:0:0:0:0:
192,192,20787,128,0,20878:0:0:0:0:
320,192,20878,128,0,21060:0:0:0:0:
64,192,20878,128,0,20969:0:0:0:0:
448,192,20878,1,0,0:0:0:0:
448,192,20969,128,0,21060:0:0:0:0:
192,192,21060,128,0,21151:0:0:0:0:
320,192,21151,128,0,21242:0:0:0:0:
192,192,21242,128,0,21424:0:0:0:0:
448,192,21242,128,0,21333:0:0:0:0:
64,192,21333,128,0,21424:0:0:0:0:
320,192,21424,128,0,21515:0:0:0:0:
448,192,21515,128,0,21605:0:0:0:0:
64,192,21605,128,0,21787:0:0:0:0:
192,192,21605,128,0,21696:0:0:0:0:
320,192,21696,128,0,21787:0:0:0:0:
448,192,21787,128,0,21878:0:0:0:0:
192,192,21787,1,0,0:0:0:0:
320,192,21878,128,0,21969:0:0:0:0:
192,192,21969,128,0,22151:0:0:0:0:
64,192,21969,128,0,22060:0:0:0:0:
448,192,22060,128,0,22151:0:0:0:0:
320,192,22151,128,0,22242:0:0:0:0:
64,192,22151,1,0,0:0:0:0:
192,192,22242,128,0,22333:0:0:0:0:
320,192,22333,128,0,22515:0:0:0:0:
64,192,22333,128,0,22424:0:0:0:0:
448,192,22424,128,0,22515:0:0:0:0:
192,192,22515,128,0,22605:0:0:0:0:
64,192,22605,128,0,22696:0:0:0:0:
192,192,22696,128,0,22878:0:0:0:0:
320,192,22696,128,0,22787:0:0:0:0:
448,192,22787,128,0,22878:0:0:0:0:
64,192,22878,128,0,22969:0:0:0:0:
320,192,22878,128,0,23151:0:0:0:0:
192,192,22969,128,0,23060:0:0:0:0:
64,192,23060,128,0,23333:0:0:0:0:
448,192,23060,128,0,23242:0:0:0:0:
192,192,23151,128,0,23242:0:0:0:0:
320,192,23242,128,0,23424:0:0:0:0:
448,192,23333,128,0,23605:0:0:0:0:
192,192,23333,128,0,23605:0:0:0:0:
64,192,23424,128,0,23515:0:0:0:0:
320,192,23515,128,0,23605:0:0:0:0:
64,192,23605,128,0,25060:0:0:0:0:
448,192,23787,128,0,23969:0:0:0:0:
320,192,23969,128,0,24151:0:0:0:0:
192,192,24151,128,0,24333:0:0:0:0:
448,192,24333,128,0,24515:0:0:0:0:
192,192,24515,128,0,24696:0:0:0:0:
320,192,24696,128,0,24878:0:0:0:0:
448,192,24878,128,0,25060:0:0:0:0:
320,192,25060,128,0,25242:0:0:0:0:
448,192,25242,128,0,25605:0:0:0:0:
192,192,25242,128,0,25424:0:0:0:0:
64,192,25424,128,0,25605:0:0:0:0:
320,192,25605,128,0,25969:0:0:0:0:
192,192,25605,128,0,25787:0:0:0:0:
64,192,25787,128,0,25969:0:0:0:0:
192,192,25969,128,0,26151:0:0:0:0:
448,192,25969,128,0,26151:0:0:0:0:
64,192,26151,128,0,26515:0:0:0:0:
320,192,26151,128,0,26333:0:0:0:0:
192,192,26333,128,0,26424:0:0:0:0:
448,192,26333,128,0,26424:0:0:0:0:
192,192,26515,128,0,27969:0:0:0:0:
448,192,26515,128,0,26605:0:0:0:0:
320,192,26605,128,0,26696:0:0:0:0:
64,192,26696,128,0,28878:0:0:0:0:
448,192,26696,128,0,26787:0:0:0:0:
320,192,26787,128,0,26878:0:0:0:0:
448,192,26878,128,0,27060:0:0:0:0:
320,192,27060,128,0,27242:0:0:0:0:
448,192,27242,128,0,27424:0:0:0:0:
320,192,27424,128,0,27605:0:0:0:0:
448,192,27605,128,0,27787:0:0:0:0:
320,192,27787,128,0,27969:0:0:0:0:
448,192,27969,128,0,28151:0:0:0:0:
320,192,28151,128,0,28333:0:0:0:0:
192,192,28333,128,0,28515:0:0:0:0:
448,192,28515,128,0,28696:0:0:0:0:
192,192,28696,128,0,28878:0:0:0:0:
320,192,28878,128,0,29060:0:0:0:0:
448,192,28878,128,0,29060:0:0:0:0:
192,192,29060,128,0,29242:0:0:0:0:
64,192,29060,128,0,29242:0:0:0:0:
320,192,29242,128,0,29424:0:0:0:0:
192,192,29424,128,0,29515:0:0:0:0:
64,192,29424,128,0,30696:0:0:0:0:
320,192,29515,128,0,29605:0:0:0:0:
448,192,29605,128,0,29696:0:0:0:0:
192,192,29605,128,0,29787:0:0:0:0:
448,192,29787,128,0,29969:0:0:0:0:
192,192,29969,128,0,30151:0:0:0:0:
320,192,30151,128,0,30333:0:0:0:0:
448,192,30333,128,0,30515:0:0:0:0:
192,192,30515,128,0,30696:0:0:0:0:
448,192,30696,128,0,30878:0:0:0:0:
320,192,30878,128,0,31060:0:0:0:0:
448,192,31060,128,0,31424:0:0:0:0:
192,192,31060,128,0,31242:0:0:0:0:
64,192,31242,128,0,31424:0:0:0:0:
192,192,31424,128,0,31787:0:0:0:0:
320,192,31424,128,0,31605:0:0:0:0:
448,192,31605,128,0,31787:0:0:0:0:
64,192,31787,128,0,31969:0:0:0:0:
320,192,31787,128,0,31969:0:0:0:0:
192,192,31969,128,0,32151:0:0:0:0:
448,192,31969,128,0,32151:0:0:0:0:
64,192,32151,128,0,32333:0:0:0:0:
320,192,32333,128,0,34151:0:0:0:0:
448,192,32333,128,0,32424:0:0:0:0:
192,192,32424,128,0,32515:0:0:0:0:
448,192,32515,128,0,32605:0:0:0:0:
64,192,32515,128,0,32696:0:0:0:0:
192,192,32605,128,0,32696:0:0:0:0:
448,192,32696,128,0,32878:0:0:0:0:
64,192,32878,128,0,33060:0:0:0:0:
192,192,33060,128,0,33242:0:0:0:0:
448,192,33242,128,0,33424:0:0:0:0:
64,192,33424,128,0,33605:0:0:0:0:
448,192,33605,128,0,33696:0:0:0:0:
192,192,33696,128,0,33787:0:0:0:0:
64,192,33787,128,0,33878:0:0:0:0:
448,192,33878,128,0,33969:0:0:0:0:
192,192,33969,128,0,34060:0:0:0:0:
64,192,34060,128,0,34151:0:0:0:0:
192,192,34151,128,0,34242:0:0:0:0:
448,192,34151,128,0,34333:0:0:0:0:
320,192,34333,128,0,34515:0:0:0:0:
64,192,34515,128,0,34696:0:0:0:0:
192,192,34696,128,0,34878:0:0:0:0:
448,192,34878,128,0,35060:0:0:0:0:
64,192,35060,128,0,35333:0:0:0:0:
320,192,35060,128,0,35151:0:0:0:0:
192,192,35151,128,0,35242:0:0:0:0:
448,192,35242,128,0,35424:0:0:0:0:
320,192,35242,128,0,35333:0:0:0:0:
192,192,35333,128,0,35424:0:0:0:0:
64,192,35424,128,0,36696:0:0:0:0:
320,192,35424,128,0,35605:0:0:0:0:
192,192,35515,128,0,35696:0:0:0:0:
448,192,35605,128,0,35787:0:0:0:0:
320,192,35696,128,0,35878:0:0:0:0:
192,192,35787,128,0,35969:0:0:0:0:
448,192,35878,128,0,36060:0:0:0:0:
320,192,35969,128,0,36151:0:0:0:0:
192,192,36060,128,0,36242:0:0:0:0:
448,192,36151,128,0,36333:0:0:0:0:
320,192,36242,128,0,36424:0:0:0:0:
192,192,36333,128,0,36515:0:0:0:0:
448,192,36424,128,0,36696:0:0:0:0:
320,192,36515,128,0,36696:0:0:0:0:
192,192,36605,128,0,36696:0:0:0:0:
64,192,36878,128,0,37242:0:0:0:0:
192,192,36878,128,0,37060:0:0:0:0:
320,192,37060,128,0,37242:0:0:0:0:
192,192,37242,128,0,37605:0:0:0:0:
448,192,37242,128,0,37424:0:0:0:0:
64,192,37424,128,0,37605:0:0:0:0:
320,192,37605,128,0,37969:0:0:0:0:
448,192,37605,128,0,37787:0:0:0:0:
192,192,37787,128,0,37969:0:0:0:0:
448,192,37969,128,0,38333:0:0:0:0:
64,192,37969,128,0,38151:0:0:0:0:
192,192,38151,128,0,38333:0:0:0:0:
64,192,38333,128,0,39060:0:0:0:0:
320,192,38333,128,0,38515:0:0:0:0:
448,192,38515,128,0,38696:0:0:0:0:
192,192,38696,128,0,38878:0:0:0:0:
320,192,38878,128,0,39060:0:0:0:0:
448,192,39060,128,0,39242:0:0:0:0:
192,192,39060,128,0,39242:0:0:0:0:
320,192,39242,128,0,39605:0:0:0:0:
64,192,39242,128,0,39424:0:0:0:0:
192,192,39424,128,0,39515:0:0:0:0:
448,192,39515,128,0,39605:0:0:0:0:
192,192,39605,128,0,40151:0:0:0:0:
64,192,39605,128,0,39787:0:0:0:0:
448,192,39696,128,0,39787:0:0:0:0:
320,192,39787,128,0,39878:0:0:0:0:
64,192,39878,128,0,39969:0:0:0:0:
448,192,39878,128,0,39969:0:0:0:0:
320,192,39969,128,0,40060:0:0:0:0:
64,192,40060,128,0,40151:0:0:0:0:
448,192,40060,128,0,40151:0:0:0:0:
320,192,40151,128,0,40242:0:0:0:0:
192,192,40242,128,0,40333:0:0:0:0:
64,192,40242,128,0,40333:0:0:0:0:
448,192,40242,128,0,40333:0:0:0:0:
320,192,40333,128,0,40424:0:0:0:0:
192,192,40424,128,0,40515:0:0:0:0:
64,192,40515,128,0,40878:0:0:0:0:
320,192,40515,128,0,40605:0:0:0:0:
448,192,40605,128,0,40696:0:0:0:0:
192,192,40696,128,0,40787:0:0:0:0:
320,192,40787,128,0,40878:0:0:0:0:
192,192,40878,128,0,41060:0:0:0:0:
448,192,40878,128,0,40969:0:0:0:0:
64,192,40969,128,0,41060:0:0:0:0:
320,192,41060,128,0,41605:0:0:0:0:
448,192,41060,128,0,41151:0:0:0:0:
192,192,41151,128,0,41242:0:0:0:0:
64,192,41242,128,0,41333:0:0:0:0:
448,192,41242,128,0,41333:0:0:0:0:
192,192,41333,128,0,41424:0:0:0:0:
64,192,41424,128,0,41515:0:0:0:0:
448,192,41424,128,0,41515:0:0:0:0:
192,192,41515,128,0,41605:0:0:0:0:
64,192,41605,128,0,41696:0:0:0:0:
448,192,41605,128,0,41787:0:0:0:0:
320,192,41787,128,0,41969:0:0:0:0:
448,192,41969,128,0,42151:0:0:0:0:
192,192,41969,128,0,42060:0:0:0:0:
320,192,42151,128,0,42333:0:0:0:0:
64,192,42151,128,0,42242:0:0:0:0:
448,192,42333,128,0,42515:0:0:0:0:
192,192,42333,128,0,42424:0:0:0:0:
64,192,42515,128,0,43060:0:0:0:0:
320,192,42515,128,0,42696:0:0:0:0:
192,192,42696,128,0,42787:0:0:0:0:
320,192,42787,128,0,42878:0:0:0:0:
448,192,42878,128,0,42969:0:0:0:0:
192,192,42878,128,0,42969:0:0:0:0:
320,192,42969,128,0,43060:0:0:0:0:
448,192,43060,128,0,43151:0:0:0:0:
192,192,43060,128,0,43242:0:0:0:0:
320,192,43242,128,0,43424:0:0:0:0:
192,192,43424,128,0,44151:0:0:0:0:
64,192,43424,128,0,43605:0:0:0:0:
320,192,43605,128,0,43787:0:0:0:0:
448,192,43787,128,0,43969:0:0:0:0:
64,192,43969,128,0,44151:0:0:0:0:
320,192,44151,128,0,45605:0:0:0:0:
448,192,44151,128,0,44333:0:0:0:0:
192,192,44333,128,0,44515:0:0:0:0:
64,192,44515,128,0,44696:0:0:0:0:
448,192,44696,128,0,44878:0:0:0:0:
192,192,44878,128,0,45060:0:0:0:0:
64,192,44878,128,0,44969:0:0:0:0:
448,192,45060,128,0,45151:0:0:0:0:
64,192,45060,128,0,45242:0:0:0:0:
192,192,45242,128,0,45333:0:0:0:0:
448,192,45242,128,0,45424:0:0:0:0:
64,192,45424,128,0,45515:0:0:0:0:
192,192,45424,128,0,45605:0:0:0:0:
448,192,45605,128,0,45666:0:0:0:0:
320,192,45666,128,0,45727:0:0:0:0:
64,192,45727,128,0,45787:0:0:0:0:
192,192,45787,128,0,45848:0:0:0:0:
448,192,45848,128,0,45908:0:0:0:0:
320,192,45908,128,0,45969:0:0:0:0:
192,192,45969,128,0,46030:0:0:0:0:
64,192,46030,128,0,46090:0:0:0:0:
320,192,46090,128,0,46151:0:0:0:0:
448,192,46151,128,0,46211:0:0:0:0:
64,192,46211,128,0,46272:0:0:0:0:
192,192,46272,128,0,46333:0:0:0:0:
320,192,46333,128,0,46393:0:0:0:0:
64,192,46333,128,0,46515:0:0:0:0:
448,192,46393,128,0,46454:0:0:0:0:
192,192,46515,128,0,46878:0:0:0:0:
448,192,46515,128,0,46605:0:0:0:0:
320,192,46515,128,0,46605:0:0:0:0:
64,192,46605,128,0,46696:0:0:0:0:
320,192,46696,128,0,46787:0:0:0:0:
448,192,46696,128,0,46787:0:0:0:0:
64,192,46787,128,0,46878:0:0:0:0:
320,192,46878,128,0,48333:0:0:0:0:
448,192,46878,128,0,46969:0:0:0:0:
192,192,46969,128,0,47060:0:0:0:0:
64,192,46969,128,0,47060:0:0:0:0:
448,192,47060,128,0,47151:0:0:0:0:
192,192,47151,128,0,47242:0:0:0:0:
64,192,47242,128,0,47333:0:0:0:0:
448,192,47333,128,0,47424:0:0:0:0:
64,192,47424,128,0,47515:0:0:0:0:
448,192,47515,128,0,47605:0:0:0:0:
192,192,47605,128,0,47696:0:0:0:0:
448,192,47696,128,0,47787:0:0:0:0:
64,192,47787,128,0,47878:0:0:0:0:
192,192,47878,128,0,47969:0:0:0:0:
448,192,47969,128,0,48060:0:0:0:0:
64,192,48060,128,0,48151:0:0:0:0:
448,192,48151,128,0,48242:0:0:0:0:
192,192,48242,128,0,48333:0:0:0:0:
64,192,48333,128,0,48424:0:0:0:0:
192,192,48424,128,0,48515:0:0:0:0:
64,192,48515,128,0,48878:0:0:0:0:
448,192,48515,128,0,48605:0:0:0:0:
320,192,48605,128,0,48696:0:0:0:0:
448,192,48696,128,0,48787:0:0:0:0:
192,192,48787,128,0,48878:0:0:0:0:
448,192,48878,128,0,49242:0:0:0:0:
320,192,48878,128,0,48969:0:0:0:0:
64,192,48969,128,0,49060:0:0:0:0:
320,192,49060,128,0,49151:0:0:0:0:
64,192,49242,128,0,49333:0:0:0:0:
320,192,49242,128,0,49424:0:0:0:0:
192,192,49333,128,0,49424:0:0:0:0:
448,192,49424,128,0,49787:0:0:0:0:
64,192,49424,128,0,49515:0:0:0:0:
192,192,49515,128,0,49605:0:0:0:0:
64,192,49605,128,0,49696:0:0:0:0:
320,192,49605,128,0,49696:0:0:0:0:
192,192,49696,128,0,49787:0:0:0:0:
320,192,49787,128,0,51242:0:0:0:0:
64,192,49787,128,0,49878:0:0:0:0:
448,192,49878,128,0,49969:0:0:0:0:
64,192,49969,128,0,50060:0:0:0:0:
192,192,50060,128,0,50151:0:0:0:0:
64,192,50151,128,0,50242:0:0:0:0:
192,192,50242,128,0,50333:0:0:0:0:
64,192,50333,128,0,50424:0:0:0:0:
192,192,50424,128,0,50515:0:0:0:0:
448,192,50515,128,0,50605:0:0:0:0:
64,192,50605,128,0,50696:0:0:0:0:
448,192,50696,128,0,50787:0:0:0:0:
64,192,50787,128,0,50878:0:0:0:0:
192,192,50878,128,0,50969:0:0:0:0:
64,192,50969,128,0,51060:0:0:0:0:
192,192,51060,128,0,51151:0:0:0:0:
64,192,51151,128,0,51242:0:0:0:0:
192,192,51242,128,0,51333:0:0:0:0:
320,192,51333,128,0,51424:0:0:0:0:
192,192,51424,128,0,51515:0:0:0:0:
448,192,51424,128,0,51515:0:0:0:0:
320,192,51515,128,0,51605:0:0:0:0:
192,192,51605,128,0,51696:0:0:0:0:
64,192,51605,128,0,51696:0:0:0:0:
320,192,51696,128,0,51787:0:0:0:0:
192,192,51787,128,0,51878:0:0:0:0:
448,192,51787,128,0,51878:0:0:0:0:
64,192,51878,128,0,51969:0:0:0:0:
320,192,51969,128,0,52151:0:0:0:0:
448,192,52060,128,0,52242:0:0:0:0:
64,192,52151,128,0,52333:0:0:0:0:
320,192,52242,128,0,52333:0:0:0:0:
192,192,52333,128,0,52696:0:0:0:0:
448,192,52333,128,0,52424:0:0:0:0:
320,192,52424,128,0,52605:0:0:0:0:
64,192,52515,128,0,52605:0:0:0:0:
448,192,52696,128,0,54151:0:0:0:0:
320,192,52696,128,0,52787:0:0:0:0:
64,192,52787,128,0,52878:0:0:0:0:
320,192,52878,128,0,52969:0:0:0:0:
192,192,52969,128,0,53060:0:0:0:0:
64,192,53060,128,0,53151:0:0:0:0:
192,192,53151,128,0,53242:0:0:0:0:
320,192,53242,128,0,53333:0:0:0:0:
192,192,53333,128,0,53424:0:0:0:0:
64,192,53424,128,0,53515:0:0:0:0:
192,192,53515,128,0,53605:0:0:0:0:
320,192,53605,128,0,53696:0:0:0:0:
192,192,53696,128,0,53787:0:0:0:0:
64,192,53787,128,0,53878:0:0:0:0:
192,192,53878,128,0,53969:0:0:0:0:
320,192,53969,128,0,54060:0:0:0:0:
192,192,54060,128,0,54151:0:0:0:0:
320,192,54151,128,0,54242:0:0:0:0:
448,192,54242,128,0,54333:0:0:0:0:
320,192,54333,128,0,54696:0:0:0:0:
64,192,54333,128,0,54424:0:0:0:0:
192,192,54424,128,0,54515:0:0:0:0:
64,192,54515,128,0,54605:0:0:0:0:
192,192,54605,128,0,54696:0:0:0:0:
64,192,54696,128,0,55060:0:0:0:0:
448,192,54696,128,0,54787:0:0:0:0:
320,192,54787,128,0,54878:0:0:0:0:
448,192,54878,128,0,54969:0:0:0:0:
320,192,54969,128,0,55060:0:0:0:0:
192,192,55060,128,0,55242:0:0:0:0:
448,192,55060,128,0,55151:0:0:0:0:
64,192,55151,128,0,55242:0:0:0:0:
320,192,55242,128,0,55424:0:0:0:0:
448,192,55242,128,0,55333:0:0:0:0:
192,192,55333,128,0,55424:0:0:0:0:
448,192,55424,128,0,55605:0:0:0:0:
64,192,55424,128,0,55515:0:0:0:0:
192,192,55515,128,0,55605:0:0:0:0:
320,192,55605,128,0,57424:0:0:0:0:
64,192,55605,128,0,55696:0:0:0:0:
192,192,55696,128,0,55787:0:0:0:0:
448,192,55787,128,0,55878:0:0:0:0:
192,192,55878,128,0,55969:0:0:0:0:
64,192,55969,128,0,56060:0:0:0:0:
448,192,56060,128,0,56151:0:0:0:0:
64,192,56151,128,0,56242:0:0:0:0:
192,192,56242,128,0,56333:0:0:0:0:
64,192,56333,128,0,56424:0:0:0:0:
192,192,56424,128,0,56515:0:0:0:0:
64,192,56515,128,0,56696:0:0:0:0:
448,192,56515,128,0,56605:0:0:0:0:
192,192,56605,128,0,56696:0:0:0:0:
448,192,56696,128,0,56787:0:0:0:0:
64,192,56787,128,0,56878:0:0:0:0:
448,192,56878,128,0,57060:0:0:0:0:
192,192,56878,128,0,56969:0:0:0:0:
64,192,56969,128,0,57060:0:0:0:0:
192,192,57060,128,0,57151:0:0:0:0:
64,192,57151,128,0,57242:0:0:0:0:
448,192,57151,128,0,57333:0:0:0:0:
192,192,57242,128,0,57424:0:0:0:0:
64,192,57333,128,0,57424:0:0:0:0:
448,192,57424,128,0,57787:0:0:0:0:
320,192,57515,128,0,57605:0:0:0:0:
192,192,57605,128,0,57696:0:0:0:0:
64,192,57696,128,0,57787:0:0:0:0:
320,192,57787,128,0,57969:0:0:0:0:
192,192,57787,128,0,57878:0:0:0:0:
448,192,57878,128,0,57969:0:0:0:0:
64,192,57969,128,0,58333:0:0:0:0:
192,192,57969,128,0,58151:0:0:0:0:
320,192,58060,128,0,58151:0:0:0:0:
448,192,58151,128,0,58333:0:0:0:0:
320,192,58333,1,0,0:0:0:0:
192,192,58333,1,0,0:0:0:0:
448,192,58424,1,0,0:0:0:0:
320,192,58424,1,0,0:0:0:0:
64,192,58515,1,0,0:0:0:0:
192,192,58515,1,0,0:0:0:0:
448,192,58605,1,0,0:0:0:0:
320,192,58605,1,0,0:0:0:0:
320,192,58696,128,0,59969:0:0:0:0:
448,192,58696,128,0,58878:0:0:0:0:
64,192,58696,1,0,0:0:0:0:
192,192,58696,1,0,0:0:0:0:
64,192,58787,128,0,58878:0:0:0:0:
192,192,58878,128,0,59060:0:0:0:0:
448,192,58969,128,0,59060:0:0:0:0:
64,192,59060,128,0,59242:0:0:0:0:
448,192,59151,128,0,59242:0:0:0:0:
192,192,59242,128,0,59424:0:0:0:0:
64,192,59333,128,0,59424:0:0:0:0:
448,192,59424,128,0,59605:0:0:0:0:
64,192,59515,128,0,59605:0:0:0:0:
192,192,59605,128,0,59787:0:0:0:0:
448,192,59696,128,0,59787:0:0:0:0:
64,192,59787,128,0,59969:0:0:0:0:
448,192,59878,128,0,59969:0:0:0:0:
192,192,59969,128,0,60151:0:0:0:0:
64,192,60151,128,0,60515:0:0:0:0:
448,192,60151,128,0,60333:0:0:0:0:
320,192,60151,128,0,60333:0:0:0:0:
192,192,60242,128,0,60333:0:0:0:0:
448,192,60424,128,0,60515:0:0:0:0:
320,192,60515,128,0,60878:0:0:0:0:
192,192,60515,128,0,60696:0:0:0:0:
64,192,60605,128,0,60696:0:0:0:0:
448,192,60696,128,0,60787:0:0:0:0:
192,192,60878,128,0,61242:0:0:0:0:
64,192,60878,128,0,61060:0:0:0:0:
448,192,60878,128,0,60969:0:0:0:0:
320,192,60969,128,0,61060:0:0:0:0:
448,192,61060,128,0,61151:0:0:0:0:
64,192,61151,128,0,61242:0:0:0:0:
448,192,61242,128,0,61605:0:0:0:0:
320,192,61242,128,0,61424:0:0:0:0:
64,192,61333,128,0,61424:0:0:0:0:
192,192,61424,128,0,61515:0:0:0:0:
320,192,61605,128,0,62333:0:0:0:0:
64,192,61605,128,0,61696:0:0:0:0:
192,192,61696,128,0,61787:0:0:0:0:
448,192,61787,128,0,61878:0:0:0:0:
64,192,61787,128,0,61878:0:0:0:0:
192,192,61878,128,0,61969:0:0:0:0:
448,192,61969,128,0,62060:0:0:0:0:
64,192,61969,128,0,62151:0:0:0:0:
192,192,62151,128,0,62333:0:0:0:0:
448,192,62151,128,0,62242:0:0:0:0:
64,192,62333,128,0,62515:0:0:0:0:
448,192,62333,128,0,62515:0:0:0:0:
192,192,62515,128,0,62878:0:0:0:0:
320,192,62515,128,0,63060:0:0:0:0:
448,192,62605,128,0,62696:0:0:0:0:
64,192,62696,128,0,62787:0:0:0:0:
448,192,62878,128,0,63424:0:0:0:0:
64,192,62878,128,0,62969:0:0:0:0:
192,192,62969,128,0,63060:0:0:0:0:
64,192,63060,128,0,63333:0:0:0:0:
320,192,63151,128,0,63242:0:0:0:0:
192,192,63242,128,0,63333:0:0:0:0:
320,192,63424,128,0,63605:0:0:0:0:
64,192,63424,128,0,63515:0:0:0:0:
448,192,63515,128,0,63605:0:0:0:0:
192,192,63605,128,0,63787:0:0:0:0:
64,192,63605,128,0,63696:0:0:0:0:
320,192,63696,128,0,63787:0:0:0:0:
448,192,63787,128,0,64151:0:0:0:0:
64,192,63787,128,0,63969:0:0:0:0:
320,192,63878,128,0,63969:0:0:0:0:
192,192,63969,128,0,64151:0:0:0:0:
320,192,64151,128,0,64333:0:0:0:0:
64,192,64151,128,0,64333:0:0:0:0:
192,192,64333,128,0,65060:0:0:0:0:
448,192,64333,128,0,64515:0:0:0:0:
320,192,64515,128,0,65787:0:0:0:0:
64,192,64515,128,0,65060:0:0:0:0:
448,192,64605,128,0,64696:0:0:0:0:
448,192,64787,128,0,64878:0:0:0:0:
448,192,65060,128,0,65424:0:0:0:0:
192,192,65151,128,0,65242:0:0:0:0:
64,192,65242,128,0,65424:0:0:0:0:
192,192,65424,128,0,65605:0:0:0:0:
64,192,65605,128,0,65787:0:0:0:0:
448,192,65605,128,0,65969:0:0:0:0:
192,192,65787,128,0,66515:0:0:0:0:
320,192,65878,128,0,65969:0:0:0:0:
64,192,65969,128,0,67424:0:0:0:0:
448,192,66060,128,0,66151:0:0:0:0:
320,192,66151,128,0,66333:0:0:0:0:
448,192,66333,128,0,66515:0:0:0:0:
320,192,66515,128,0,66696:0:0:0:0:
448,192,66696,128,0,67424:0:0:0:0:
192,192,66696,128,0,66878:0:0:0:0:
320,192,66878,128,0,67060:0:0:0:0:
192,192,67060,128,0,67242:0:0:0:0:
320,192,67242,128,0,67333:0:0:0:0:
320,192,67424,128,0,67969:0:0:0:0:
192,192,67424,128,0,67605:0:0:0:0:
64,192,67515,128,0,67605:0:0:0:0:
448,192,67605,128,0,67696:0:0:0:0:
64,192,67696,128,0,67787:0:0:0:0:
192,192,67787,128,0,67878:0:0:0:0:
448,192,67878,128,0,67969:0:0:0:0:
192,192,67969,128,0,68333:0:0:0:0:
64,192,67969,128,0,68151:0:0:0:0:
448,192,68060,128,0,68151:0:0:0:0:
320,192,68151,128,0,68242:0:0:0:0:
64,192,68242,128,0,68333:0:0:0:0:
320,192,68333,128,0,68515:0:0:0:0:
448,192,68333,128,0,68424:0:0:0:0:
192,192,68424,128,0,68515:0:0:0:0:
448,192,68515,128,0,68696:0:0:0:0:
64,192,68515,128,0,68605:0:0:0:0:
192,192,68605,128,0,68696:0:0:0:0:
64,192,68696,128,0,69060:0:0:0:0:
320,192,68696,128,0,68787:0:0:0:0:
448,192,68787,128,0,68878:0:0:0:0:
192,192,68878,128,0,68969:0:0:0:0:
320,192,68969,128,0,69060:0:0:0:0:
192,192,69060,128,0,69242:0:0:0:0:
448,192,69060,128,0,69151:0:0:0:0:
64,192,69151,128,0,69242:0:0:0:0:
320,192,69242,128,0,69424:0:0:0:0:
448,192,69242,128,0,69333:0:0:0:0:
192,192,69333,128,0,69424:0:0:0:0:
448,192,69424,128,0,69787:0:0:0:0:
64,192,69424,128,0,69515:0:0:0:0:
320,192,69515,128,0,69605:0:0:0:0:
192,192,69605,128,0,69696:0:0:0:0:
320,192,69696,128,0,69787:0:0:0:0:
64,192,69787,128,0,69969:0:0:0:0:
192,192,69787,128,0,69878:0:0:0:0:
320,192,69878,128,0,69969:0:0:0:0:
192,192,69969,128,0,70333:0:0:0:0:
448,192,69969,128,0,70060:0:0:0:0:
320,192,70060,128,0,70151:0:0:0:0:
64,192,70151,128,0,70242:0:0:0:0:
320,192,70242,128,0,70424:0:0:0:0:
448,192,70333,128,0,70515:0:0:0:0:
64,192,70333,128,0,70515:0:0:0:0:
192,192,70424,128,0,70515:0:0:0:0:
320,192,70515,128,0,70878:0:0:0:0:
64,192,70605,128,0,70696:0:0:0:0:
448,192,70605,128,0,70787:0:0:0:0:
192,192,70696,128,0,70878:0:0:0:0:
64,192,70878,128,0,71151:0:0:0:0:
448,192,70878,128,0,70969:0:0:0:0:
192,192,70969,128,0,71060:0:0:0:0:
320,192,71060,128,0,71242:0:0:0:0:
192,192,71151,128,0,71242:0:0:0:0:
448,192,71242,128,0,71424:0:0:0:0:
64,192,71242,128,0,71515:0:0:0:0:
320,192,71333,128,0,71424:0:0:0:0:
192,192,71424,128,0,71605:0:0:0:0:
320,192,71515,128,0,71605:0:0:0:0:
448,192,71605,128,0,71787:0:0:0:0:
64,192,71605,128,0,71878:0:0:0:0:
192,192,71696,128,0,71787:0:0:0:0:
320,192,71787,128,0,71969:0:0:0:0:
192,192,71878,128,0,71969:0:0:0:0:
448,192,71969,128,0,72151:0:0:0:0:
64,192,71969,128,0,72151:0:0:0:0:
192,192,72060,128,0,72151:0:0:0:0:
320,192,72151,128,0,72333:0:0:0:0:
64,192,72242,128,0,72333:0:0:0:0:
192,192,72333,128,0,72515:0:0:0:0:
448,192,72333,128,0,72515:0:0:0:0:
320,192,72424,128,0,72515:0:0:0:0:
64,192,72515,128,0,72696:0:0:0:0:
320,192,72605,128,0,72696:0:0:0:0:
192,192,72696,128,0,72878:0:0:0:0:
448,192,72696,128,0,72878:0:0:0:0:
64,192,72787,128,0,72878:0:0:0:0:
320,192,72878,128,0,73060:0:0:0:0:
192,192,72969,128,0,73060:0:0:0:0:
448,192,73060,128,0,73242:0:0:0:0:
64,192,73060,128,0,73242:0:0:0:0:
192,192,73151,128,0,73242:0:0:0:0:
320,192,73242,128,0,73424:0:0:0:0:
64,192,73333,128,0,73424:0:0:0:0:
448,192,73333,128,0,73515:0:0:0:0:
192,192,73424,128,0,73605:0:0:0:0:
64,192,73515,128,0,73605:0:0:0:0:
320,192,73605,128,0,73787:0:0:0:0:
448,192,73605,128,0,73696:0:0:0:0:
192,192,73696,128,0,73787:0:0:0:0:
64,192,73787,128,0,74060:0:0:0:0:
448,192,73787,128,0,73969:0:0:0:0:
192,192,73878,128,0,73969:0:0:0:0:
320,192,73969,128,0,74060:0:0:0:0:
192,192,74151,128,0,74424:0:0:0:0:
448,192,74151,128,0,74333:0:0:0:0:
64,192,74151,128,0,74242:0:0:0:0:
320,192,74242,128,0,74333:0:0:0:0:
64,192,74333,128,0,74515:0:0:0:0:
320,192,74424,128,0,74515:0:0:0:0:
448,192,74515,128,0,74787:0:0:0:0:
192,192,74515,128,0,74696:0:0:0:0:
64,192,74605,128,0,74696:0:0:0:0:
320,192,74696,128,0,74878:0:0:0:0:
64,192,74787,128,0,74878:0:0:0:0:
448,192,74878,128,0,75060:0:0:0:0:
192,192,74878,128,0,75060:0:0:0:0:
320,192,74969,128,0,75060:0:0:0:0:
64,192,75060,128,0,76151:0:0:0:0:
448,192,75151,128,0,75242:0:0:0:0:
320,192,75151,128,0,75333:0:0:0:0:
192,192,75242,128,0,75333:0:0:0:0:
448,192,75424,128,0,75605:0:0:0:0:
320,192,75424,128,0,75515:0:0:0:0:
192,192,75515,128,0,75605:0:0:0:0:
320,192,75605,128,0,75787:0:0:0:0:
448,192,75696,128,0,75787:0:0:0:0:
192,192,75787,128,0,75969:0:0:0:0:
448,192,75878,128,0,75969:0:0:0:0:
320,192,75969,128,0,76151:0:0:0:0:
448,192,76060,128,0,76151:0:0:0:0:
192,192,76151,128,0,76333:0:0:0:0:
320,192,76333,128,0,76605:0:0:0:0:
448,192,76333,128,0,76515:0:0:0:0:
64,192,76333,128,0,76424:0:0:0:0:
192,192,76515,128,0,76696:0:0:0:0:
64,192,76515,128,0,76605:0:0:0:0:
448,192,76696,128,0,76969:0:0:0:0:
64,192,76696,128,0,76878:0:0:0:0:
320,192,76696,128,0,76787:0:0:0:0:
320,192,76878,128,0,77060:0:0:0:0:
192,192,76878,128,0,76969:0:0:0:0:
448,192,77060,128,0,77333:0:0:0:0:
192,192,77060,128,0,77242:0:0:0:0:
64,192,77060,128,0,77151:0:0:0:0:
64,192,77242,128,0,77424:0:0:0:0:
320,192,77242,128,0,77333:0:0:0:0:
448,192,77424,128,0,77696:0:0:0:0:
320,192,77424,128,0,77605:0:0:0:0:
192,192,77424,128,0,77515:0:0:0:0:
192,192,77605,128,0,77787:0:0:0:0:
64,192,77605,128,0,77696:0:0:0:0:
64,192,77787,128,0,77969:0:0:0:0:
320,192,77787,128,0,77969:0:0:0:0:
448,192,77787,128,0,77878:0:0:0:0:
448,192,77969,128,0,78151:0:0:0:0:
192,192,77969,128,0,78060:0:0:0:0:
64,192,78151,128,0,78333:0:0:0:0:
320,192,78151,128,0,78242:0:0:0:0:
448,192,78333,128,0,78515:0:0:0:0:
192,192,78333,128,0,78515:0:0:0:0:
64,192,78515,128,0,78696:0:0:0:0:
320,192,78515,128,0,78605:0:0:0:0:
192,192,78696,128,0,78878:0:0:0:0:
448,192,78696,128,0,78878:0:0:0:0:
320,192,78878,128,0,79060:0:0:0:0:
64,192,78878,128,0,78969:0:0:0:0:
448,192,79060,128,0,79424:0:0:0:0:
192,192,79060,128,0,79242:0:0:0:0:
320,192,79242,128,0,79424:0:0:0:0:
64,192,79242,128,0,79333:0:0:0:0:
64,192,79424,128,0,79605:0:0:0:0:
192,192,79424,128,0,79515:0:0:0:0:
192,192,79605,128,0,79969:0:0:0:0:
448,192,79605,128,0,79787:0:0:0:0:
320,192,79605,128,0,79696:0:0:0:0:
320,192,79787,128,0,79969:0:0:0:0:
64,192,79787,128,0,79878:0:0:0:0:
448,192,79969,128,0,80333:0:0:0:0:
64,192,79969,128,0,80151:0:0:0:0:
192,192,80151,128,0,80333:0:0:0:0:
320,192,80151,128,0,80242:0:0:0:0:
64,192,80333,128,0,80696:0:0:0:0:
320,192,80333,128,0,80515:0:0:0:0:
192,192,80515,128,0,80696:0:0:0:0:
448,192,80515,128,0,80605:0:0:0:0:
448,192,80696,128,0,81060:0:0:0:0:
320,192,80696,128,0,80878:0:0:0:0:
192,192,80878,128,0,81060:0:0:0:0:
64,192,80878,128,0,80969:0:0:0:0:
320,192,81060,128,0,81333:0:0:0:0:
64,192,81060,128,0,81242:0:0:0:0:
192,192,81242,128,0,81424:0:0:0:0:
448,192,81333,128,0,81424:0:0:0:0:
320,192,81424,128,0,81515:0:0:0:0:
64,192,81424,128,0,81605:0:0:0:0:
192,192,81515,128,0,81787:0:0:0:0:
320,192,81605,128,0,81787:0:0:0:0:
448,192,81605,128,0,81696:0:0:0:0:
64,192,81787,128,0,81969:0:0:0:0:
448,192,81787,128,0,81878:0:0:0:0:
448,192,81969,128,0,82151:0:0:0:0:
192,192,81969,128,0,82151:0:0:0:0:
320,192,81969,128,0,82060:0:0:0:0:
320,192,82151,128,0,82515:0:0:0:0:
64,192,82151,128,0,82333:0:0:0:0:
192,192,82333,128,0,82515:0:0:0:0:
448,192,82333,128,0,82424:0:0:0:0:
64,192,82515,128,0,82878:0:0:0:0:
448,192,82515,128,0,82696:0:0:0:0:
192,192,82696,128,0,82878:0:0:0:0:
320,192,82696,128,0,82787:0:0:0:0:
320,192,82878,128,0,83151:0:0:0:0:
448,192,82878,128,0,83060:0:0:0:0:
192,192,83060,128,0,83242:0:0:0:0:
64,192,83060,128,0,83151:0:0:0:0:
64,192,83242,128,0,83605:0:0:0:0:
448,192,83242,128,0,83424:0:0:0:0:
320,192,83242,128,0,83333:0:0:0:0:
320,192,83424,128,0,83605:0:0:0:0:
192,192,83424,128,0,83515:0:0:0:0:
192,192,83605,128,0,83787:0:0:0:0:
448,192,83605,128,0,83787:0:0:0:0:
320,192,83787,128,0,83969:0:0:0:0:
64,192,83787,128,0,83878:0:0:0:0:
448,192,83969,128,0,84151:0:0:0:0:
192,192,83969,128,0,84060:0:0:0:0:
64,192,84151,128,0,84333:0:0:0:0:
320,192,84151,128,0,84333:0:0:0:0:
448,192,84333,128,0,84515:0:0:0:0:
192,192,84333,128,0,84424:0:0:0:0:
320,192,84515,128,0,84696:0:0:0:0:
64,192,84515,128,0,84696:0:0:0:0:
448,192,84696,128,0,84878:0:0:0:0:
192,192,84696,128,0,84787:0:0:0:0:
320,192,84878,128,0,85060:0:0:0:0:
64,192,84878,128,0,85060:0:0:0:0:
192,192,85060,128,0,85424:0:0:0:0:
448,192,85060,128,0,85242:0:0:0:0:
320,192,85242,128,0,85424:0:0:0:0:
64,192,85242,128,0,85333:0:0:0:0:
448,192,85424,128,0,85787:0:0:0:0:
64,192,85424,128,0,85605:0:0:0:0:
192,192,85605,128,0,85787:0:0:0:0:
320,192,85605,128,0,85696:0:0:0:0:
320,192,85787,128,0,86151:0:0:0:0:
64,192,85787,128,0,85969:0:0:0:0:
448,192,85969,128,0,86151:0:0:0:0:
192,192,85969,128,0,86060:0:0:0:0:
192,192,86151,128,0,86515:0:0:0:0:
64,192,86151,128,0,86333:0:0:0:0:
320,192,86333,128,0,86515:0:0:0:0:
448,192,86333,128,0,86424:0:0:0:0:
64,192,86515,128,0,86696:0:0:0:0:
448,192,86515,128,0,86696:0:0:0:0:
320,192,86696,128,0,87424:0:0:0:0:
192,192,86696,128,0,86878:0:0:0:0:
448,192,86878,128,0,86969:0:0:0:0:
192,192,86969,128,0,87060:0:0:0:0:
64,192,87060,128,0,87151:0:0:0:0:
448,192,87151,128,0,87242:0:0:0:0:
192,192,87242,128,0,87333:0:0:0:0:
64,192,87333,128,0,87424:0:0:0:0:
192,192,87424,128,0,87515:0:0:0:0:
320,192,87515,128,0,87605:0:0:0:0:
448,192,87605,128,0,87696:0:0:0:0:
320,192,87696,128,0,87787:0:0:0:0:
448,192,87787,128,0,88333:0:0:0:0:
192,192,87787,128,0,87969:0:0:0:0:
64,192,87787,128,0,87878:0:0:0:0:
64,192,87969,128,0,88151:0:0:0:0:
320,192,87969,128,0,88060:0:0:0:0:
192,192,88151,128,0,88333:0:0:0:0:
320,192,88151,128,0,88242:0:0:0:0:
320,192,88333,128,0,88696:0:0:0:0:
64,192,88333,128,0,88515:0:0:0:0:
448,192,88515,128,0,88696:0:0:0:0:
192,192,88515,128,0,88605:0:0:0:0:
192,192,88696,128,0,88878:0:0:0:0:
64,192,88696,128,0,88787:0:0:0:0:
64,192,88878,128,0,89060:0:0:0:0:
320,192,88878,128,0,89060:0:0:0:0:
448,192,88878,128,0,88969:0:0:0:0:
192,192,89060,128,0,89424:0:0:0:0:
448,192,89060,128,0,89242:0:0:0:0:
64,192,89242,128,0,89424:0:0:0:0:
320,192,89242,128,0,89333:0:0:0:0:
320,192,89424,128,0,89605:0:0:0:0:
448,192,89424,128,0,89515:0:0:0:0:
448,192,89605,128,0,89787:0:0:0:0:
192,192,89605,128,0,89787:0:0:0:0:
64,192,89605,128,0,89696:0:0:0:0:
320,192,89787,128,0,89969:0:0:0:0:
64,192,89787,128,0,89969:0:0:0:0:
192,192,89969,128,0,90151:0:0:0:0:
448,192,89969,128,0,90060:0:0:0:0:
64,192,90151,128,0,90333:0:0:0:0:
320,192,90151,128,0,90333:0:0:0:0:
448,192,90151,128,0,90242:0:0:0:0:
192,192,90333,128,0,90515:0:0:0:0:
448,192,90333,128,0,90515:0:0:0:0:
320,192,90515,128,0,90696:0:0:0:0:
64,192,90515,128,0,90696:0:0:0:0:
448,192,90696,128,0,93605:0:0:0:0:
192,192,90696,128,0,90787:0:0:0:0:
320,192,90787,128,0,90878:0:0:0:0:
64,192,90878,128,0,90969:0:0:0:0:
192,192,90969,128,0,91060:0:0:0:0:
320,192,91060,128,0,91151:0:0:0:0:
64,192,91151,128,0,91242:0:0:0:0:
192,192,91242,128,0,91333:0:0:0:0:
320,192,91333,128,0,91424:0:0:0:0:
192,192,91424,128,0,91515:0:0:0:0:
64,192,91515,128,0,91605:0:0:0:0:
320,192,91605,128,0,91696:0:0:0:0:
192,192,91696,128,0,91787:0:0:0:0:
64,192,91787,128,0,91878:0:0:0:0:
192,192,91878,128,0,91969:0:0:0:0:
320,192,91969,128,0,92060:0:0:0:0:
64,192,92060,128,0,92151:0:0:0:0:
192,192,92151,128,0,92242:0:0:0:0:
320,192,92242,128,0,92333:0:0:0:0:
192,192,92333,128,0,92424:0:0:0:0:
64,192,92424,128,0,92515:0:0:0:0:
320,192,92515,128,0,92605:0:0:0:0:
192,192,92605,128,0,92696:0:0:0:0:
64,192,92696,128,0,92787:0:0:0:0:
192,192,92787,128,0,92878:0:0:0:0:
64,192,92878,128,0,92969:0:0:0:0:
320,192,92878,128,0,92969:0:0:0:0:
192,192,92969,128,0,93060:0:0:0:0:
64,192,93060,128,0,93151:0:0:0:0:
320,192,93060,128,0,93151:0:0:0:0:
192,192,93151,128,0,93242:0:0:0:0:
64,192,93242,128,0,93333:0:0:0:0:
320,192,93242,128,0,93333:0:0:0:0:
192,192,93333,128,0,93424:0:0:0:0:
64,192,93424,128,0,93515:0:0:0:0:
320,192,93424,128,0,93515:0:0:0:0:
192,192,93515,128,0,93605:0:0:0:0:
64,192,93605,128,0,93787:0:0:0:0:
320,192,93605,128,0,93787:0:0:0:0:
448,192,93696,128,0,93787:0:0:0:0:
192,192,93787,128,0,93969:0:0:0:0:
320,192,93878,128,0,93969:0:0:0:0:
448,192,93969,128,0,94151:0:0:0:0:
64,192,93969,128,0,94151:0:0:0:0:
192,192,94060,128,0,94151:0:0:0:0:
320,192,94151,128,0,94333:0:0:0:0:
192,192,94242,128,0,94333:0:0:0:0:
64,192,94333,128,0,94515:0:0:0:0:
448,192,94333,128,0,94515:0:0:0:0:
320,192,94424,128,0,94515:0:0:0:0:
192,192,94515,128,0,94696:0:0:0:0:
64,192,94605,128,0,94696:0:0:0:0:
320,192,94696,128,0,94878:0:0:0:0:
448,192,94696,128,0,94878:0:0:0:0:
192,192,94787,128,0,94878:0:0:0:0:
64,192,94878,128,0,95060:0:0:0:0:
448,192,94969,128,0,95060:0:0:0:0:
192,192,95060,128,0,95242:0:0:0:0:
320,192,95060,128,0,95242:0:0:0:0:
64,192,95151,128,0,95242:0:0:0:0:
448,192,95242,128,0,95424:0:0:0:0:
192,192,95333,128,0,95424:0:0:0:0:
320,192,95424,128,0,95605:0:0:0:0:
64,192,95424,128,0,95605:0:0:0:0:
448,192,95515,128,0,95605:0:0:0:0:
192,192,95605,128,0,95787:0:0:0:0:
320,192,95696,128,0,95787:0:0:0:0:
64,192,95787,128,0,95969:0:0:0:0:
448,192,95787,128,0,95969:0:0:0:0:
192,192,95878,128,0,95969:0:0:0:0:
320,192,95969,128,0,96151:0:0:0:0:
64,192,96060,128,0,96151:0:0:0:0:
192,192,96151,128,0,96333:0:0:0:0:
448,192,96151,128,0,96333:0:0:0:0:
320,192,96242,128,0,96333:0:0:0:0:
64,192,96333,128,0,96515:0:0:0:0:
192,192,96424,128,0,96515:0:0:0:0:
320,192,96515,128,0,96696:0:0:0:0:
448,192,96515,128,0,96696:0:0:0:0:
64,192,96605,128,0,96696:0:0:0:0:
192,192,96696,128,0,96878:0:0:0:0:
320,192,96787,128,0,96878:0:0:0:0:
448,192,96878,128,0,97060:0:0:0:0:
64,192,96878,128,0,97060:0:0:0:0:
192,192,96969,128,0,97060:0:0:0:0:
320,192,97060,128,0,97242:0:0:0:0:
192,192,97151,128,0,97242:0:0:0:0:
64,192,97242,128,0,97424:0:0:0:0:
448,192,97242,128,0,97424:0:0:0:0:
320,192,97333,128,0,97424:0:0:0:0:
192,192,97424,128,0,97605:0:0:0:0:
64,192,97515,128,0,97605:0:0:0:0:
320,192,97605,128,0,97787:0:0:0:0:
448,192,97605,128,0,97787:0:0:0:0:
192,192,97696,128,0,97787:0:0:0:0:
64,192,97787,128,0,97969:0:0:0:0:
448,192,97878,128,0,97969:0:0:0:0:
192,192,97969,128,0,98151:0:0:0:0:
320,192,97969,128,0,98151:0:0:0:0:
64,192,98060,128,0,98151:0:0:0:0:
448,192,98151,128,0,98333:0:0:0:0:
192,192,98242,128,0,98333:0:0:0:0:
320,192,98333,128,0,98515:0:0:0:0:
64,192,98333,128,0,98515:0:0:0:0:
448,192,98424,128,0,98515:0:0:0:0:
192,192,98515,128,0,98696:0:0:0:0:
320,192,98605,128,0,98696:0:0:0:0:
64,192,98696,128,0,98878:0:0:0:0:
448,192,98696,128,0,98878:0:0:0:0:
192,192,98787,128,0,98878:0:0:0:0:
320,192,98878,128,0,99060:0:0:0:0:
64,192,98969,128,0,99060:0:0:0:0:
192,192,99060,128,0,99242:0:0:0:0:
448,192,99060,128,0,99242:0:0:0:0:
320,192,99151,128,0,99242:0:0:0:0:
64,192,99242,128,0,99424:0:0:0:0:
192,192,99333,128,0,99424:0:0:0:0:
448,192,99424,128,0,99605:0:0:0:0:
320,192,99424,128,0,99605:0:0:0:0:
64,192,99515,128,0,99605:0:0:0:0:
192,192,99605,128,0,99787:0:0:0:0:
320,192,99696,128,0,99787:0:0:0:0:
448,192,99787,128,0,99969:0:0:0:0:
64,192,99787,128,0,99969:0:0:0:0:
192,192,99878,128,0,99969:0:0:0:0:
320,192,99969,128,0,100151:0:0:0:0:
192,192,100060,128,0,100151:0:0:0:0:
64,192,100151,128,0,100333:0:0:0:0:
448,192,100151,128,0,100333:0:0:0:0:
320,192,100242,128,0,100333:0:0:0:0:
192,192,100333,128,0,100515:0:0:0:0:
64,192,100424,128,0,100515:0:0:0:0:
320,192,100515,128,0,100696:0:0:0:0:
448,192,100515,128,0,100696:0:0:0:0:
192,192,100605,128,0,100696:0:0:0:0:
64,192,100696,128,0,100878:0:0:0:0:
448,192,100787,128,0,100878:0:0:0:0:
192,192,100878,128,0,101060:0:0:0:0:
320,192,100878,128,0,101060:0:0:0:0:
64,192,100969,128,0,101060:0:0:0:0:
448,192,101060,128,0,101242:0:0:0:0:
192,192,101151,128,0,101242:0:0:0:0:
320,192,101242,128,0,101424:0:0:0:0:
64,192,101242,128,0,101424:0:0:0:0:
448,192,101333,128,0,101424:0:0:0:0:
192,192,101424,128,0,101605:0:0:0:0:
320,192,101515,128,0,101605:0:0:0:0:
64,192,101605,128,0,101787:0:0:0:0:
448,192,101605,128,0,101787:0:0:0:0:
192,192,101696,128,0,101787:0:0:0:0:
320,192,101787,128,0,101969:0:0:0:0:
64,192,101878,128,0,101969:0:0:0:0:
192,192,101969,128,0,102151:0:0:0:0:
448,192,101969,128,0,102151:0:0:0:0:
320,192,102060,128,0,102151:0:0:0:0:
64,192,102151,128,0,102333:0:0:0:0:
192,192,102242,128,0,102333:0:0:0:0:
448,192,102333,128,0,102515:0:0:0:0:
320,192,102333,128,0,102515:0:0:0:0:
64,192,102424,128,0,102515:0:0:0:0:
192,192,102515,128,0,102696:0:0:0:0:
320,192,102605,128,0,102696:0:0:0:0:
448,192,102696,128,0,102878:0:0:0:0:
64,192,102696,128,0,102878:0:0:0:0:
192,192,102787,128,0,102878:0:0:0:0:
320,192,102878,128,0,103060:0:0:0:0:
192,192,102969,128,0,103060:0:0:0:0:
64,192,103060,128,0,103242:0:0:0:0:
448,192,103060,128,0,103242:0:0:0:0:
320,192,103151,128,0,103242:0:0:0:0:
192,192,103242,128,0,103424:0:0:0:0:
64,192,103333,128,0,103424:0:0:0:0:
448,192,103424,128,0,103605:0:0:0:0:
320,192,103424,128,0,103605:0:0:0:0:
64,192,103605,128,0,103969:0:0:0:0:
192,192,103605,128,0,103696:0:0:0:0:
448,192,103969,128,0,104151:0:0:0:0:
192,192,103969,128,0,104151:0:0:0:0:
320,192,104151,128,0,104333:0:0:0:0:
64,192,104151,128,0,104333:0:0:0:0:
192,192,104515,128,0,104605:0:0:0:0:
64,192,104515,128,0,104696:0:0:0:0:
320,192,104605,128,0,104696:0:0:0:0:
192,192,104696,128,0,104787:0:0:0:0:
448,192,104696,128,0,105060:0:0:0:0:
320,192,104787,128,0,104878:0:0:0:0:
192,192,104878,128,0,104969:0:0:0:0:
320,192,104969,128,0,105060:0:0:0:0:
192,192,105060,128,0,105151:0:0:0:0:
64,192,105060,128,0,106333:0:0:0:0:
320,192,105151,128,0,105242:0:0:0:0:
448,192,105242,128,0,105424:0:0:0:0:
192,192,105242,128,0,105333:0:0:0:0:
320,192,105424,128,0,105605:0:0:0:0:
192,192,105424,128,0,105515:0:0:0:0:
448,192,105515,128,0,105605:0:0:0:0:
192,192,105605,128,0,105787:0:0:0:0:
320,192,105696,128,0,105787:0:0:0:0:
448,192,105787,128,0,105969:0:0:0:0:
192,192,105878,128,0,105969:0:0:0:0:
320,192,105969,128,0,106151:0:0:0:0:
448,192,106060,128,0,106151:0:0:0:0:
192,192,106151,128,0,106333:0:0:0:0:
320,192,106242,128,0,106333:0:0:0:0:
448,192,106333,128,0,106515:0:0:0:0:
192,192,106424,128,0,106515:0:0:0:0:
64,192,106515,128,0,106696:0:0:0:0:
320,192,106515,128,0,106605:0:0:0:0:
192,192,106605,128,0,106696:0:0:0:0:
448,192,106696,128,0,107060:0:0:0:0:
320,192,106696,128,0,106878:0:0:0:0:
64,192,106787,128,0,106878:0:0:0:0:
192,192,106878,128,0,107060:0:0:0:0:
320,192,107060,128,0,107424:0:0:0:0:
64,192,107060,128,0,107242:0:0:0:0:
448,192,107151,128,0,107242:0:0:0:0:
192,192,107242,128,0,107424:0:0:0:0:
64,192,107424,128,0,107605:0:0:0:0:
448,192,107424,128,0,107605:0:0:0:0:
192,192,107605,128,0,107878:0:0:0:0:
320,192,107605,128,0,107787:0:0:0:0:
448,192,107696,128,0,107787:0:0:0:0:
64,192,107787,128,0,107969:0:0:0:0:
320,192,107969,128,0,109605:0:0:0:0:
448,192,107969,128,0,108151:0:0:0:0:
192,192,107969,128,0,108060:0:0:0:0:
64,192,108060,128,0,108151:0:0:0:0:
192,192,108151,128,0,108333:0:0:0:0:
448,192,108242,128,0,108333:0:0:0:0:
64,192,108333,128,0,108515:0:0:0:0:
448,192,108515,128,0,108878:0:0:0:0:
192,192,108515,128,0,108696:0:0:0:0:
64,192,108605,128,0,108696:0:0:0:0:
64,192,108878,128,0,109242:0:0:0:0:
192,192,108878,128,0,109060:0:0:0:0:
448,192,109060,128,0,109242:0:0:0:0:
192,192,109242,128,0,109605:0:0:0:0:
448,192,109333,128,0,109424:0:0:0:0:
64,192,109424,128,0,109605:0:0:0:0:
448,192,109605,128,0,110151:0:0:0:0:
64,192,109696,128,0,109787:0:0:0:0:
320,192,109787,128,0,109969:0:0:0:0:
192,192,109787,128,0,109878:0:0:0:0:
64,192,109969,128,0,110151:0:0:0:0:
192,192,109969,128,0,110060:0:0:0:0:
320,192,110151,128,0,110696:0:0:0:0:
192,192,110151,128,0,110333:0:0:0:0:
64,192,110333,128,0,110515:0:0:0:0:
448,192,110333,128,0,110515:0:0:0:0:
192,192,110515,128,0,110787:0:0:0:0:
448,192,110696,128,0,110878:0:0:0:0:
64,192,110696,128,0,110878:0:0:0:0:
320,192,110878,128,0,112151:0:0:0:0:
192,192,110878,128,0,111787:0:0:0:0:
64,192,110969,128,0,111060:0:0:0:0:
448,192,111060,128,0,111242:0:0:0:0:
64,192,111242,128,0,111424:0:0:0:0:
448,192,111424,128,0,111605:0:0:0:0:
64,192,111515,128,0,111605:0:0:0:0:
64,192,111787,128,0,111878:0:0:0:0:
448,192,111787,128,0,111969:0:0:0:0:
192,192,111878,128,0,111969:0:0:0:0:
64,192,111969,128,0,112060:0:0:0:0:
192,192,112060,128,0,112151:0:0:0:0:
64,192,112151,128,0,112242:0:0:0:0:
448,192,112151,128,0,112333:0:0:0:0:
192,192,112242,128,0,112333:0:0:0:0:
320,192,112333,128,0,112424:0:0:0:0:
64,192,112333,128,0,112515:0:0:0:0:
448,192,112424,128,0,112515:0:0:0:0:
320,192,112515,128,0,112878:0:0:0:0:
192,192,112515,128,0,112696:0:0:0:0:
64,192,112605,128,0,112696:0:0:0:0:
448,192,112696,128,0,112878:0:0:0:0:
192,192,112878,128,0,113242:0:0:0:0:
64,192,112878,128,0,113060:0:0:0:0:
448,192,112969,128,0,113060:0:0:0:0:
320,192,113060,128,0,113242:0:0:0:0:
64,192,113242,128,0,113424:0:0:0:0:
448,192,113242,128,0,113424:0:0:0:0:
192,192,113424,128,0,113605:0:0:0:0:
320,192,113424,128,0,113605:0:0:0:0:
448,192,113605,128,0,113787:0:0:0:0:
64,192,113605,128,0,113787:0:0:0:0:
320,192,113787,128,0,115605:0:0:0:0:
192,192,113787,128,0,113969:0:0:0:0:
64,192,113969,128,0,114696:0:0:0:0:
448,192,113969,128,0,114151:0:0:0:0:
192,192,114151,128,0,114333:0:0:0:0:
448,192,114333,128,0,114515:0:0:0:0:
192,192,114424,128,0,114515:0:0:0:0:
192,192,114696,128,0,115242:0:0:0:0:
448,192,114696,128,0,114878:0:0:0:0:
64,192,114878,128,0,115060:0:0:0:0:
448,192,114969,128,0,115060:0:0:0:0:
448,192,115242,128,0,116151:0:0:0:0:
64,192,115242,128,0,115424:0:0:0:0:
192,192,115424,128,0,115605:0:0:0:0:
64,192,115605,128,0,115787:0:0:0:0:
192,192,115696,128,0,115787:0:0:0:0:
320,192,115787,128,0,115969:0:0:0:0:
64,192,115878,128,0,115969:0:0:0:0:
192,192,115969,128,0,116151:0:0:0:0:
64,192,116151,128,0,116515:0:0:0:0:
320,192,116151,128,0,116515:0:0:0:0:
448,192,116242,128,0,116333:0:0:0:0:
192,192,116333,128,0,116424:0:0:0:0:
192,192,116515,128,0,116878:0:0:0:0:
448,192,116515,128,0,116878:0:0:0:0:
320,192,116605,128,0,116696:0:0:0:0:
64,192,116696,128,0,116787:0:0:0:0:
320,192,116878,128,0,117969:0:0:0:0:
64,192,116878,128,0,118333:0:0:0:0:
192,192,116969,128,0,117060:0:0:0:0:
448,192,117060,128,0,117242:0:0:0:0:
192,192,117242,128,0,117424:0:0:0:0:
448,192,117424,128,0,117605:0:0:0:0:
192,192,117605,128,0,117787:0:0:0:0:
448,192,117787,128,0,117969:0:0:0:0:
192,192,117969,128,0,118151:0:0:0:0:
448,192,118060,128,0,118151:0:0:0:0:
320,192,118151,128,0,118333:0:0:0:0:
448,192,118333,128,0,118696:0:0:0:0:
192,192,118333,128,0,118696:0:0:0:0:
320,192,118424,128,0,118515:0:0:0:0:
64,192,118515,128,0,118605:0:0:0:0:
320,192,118696,128,0,119060:0:0:0:0:
64,192,118696,128,0,119060:0:0:0:0:
448,192,118787,128,0,118878:0:0:0:0:
192,192,118878,128,0,118969:0:0:0:0:
192,192,119060,128,0,119424:0:0:0:0:
448,192,119060,128,0,119424:0:0:0:0:
320,192,119151,128,0,119242:0:0:0:0:
64,192,119242,128,0,119333:0:0:0:0:
64,192,119424,128,0,119696:0:0:0:0:
320,192,119424,128,0,119787:0:0:0:0:
192,192,119515,128,0,119605:0:0:0:0:
448,192,119605,128,0,119787:0:0:0:0:
64,192,119787,128,0,120424:0:0:0:0:
192,192,119787,128,0,120515:0:0:0:0:
448,192,119878,128,0,119969:0:0:0:0:
320,192,119969,128,0,120151:0:0:0:0:
448,192,120151,128,0,120333:0:0:0:0:
320,192,120333,128,0,120515:0:0:0:0:
448,192,120515,128,0,120696:0:0:0:0:
64,192,120515,128,0,120696:0:0:0:0:
320,192,120696,128,0,121060:0:0:0:0:
192,192,120696,128,0,121060:0:0:0:0:
64,192,120787,128,0,120878:0:0:0:0:
448,192,120878,128,0,120969:0:0:0:0:
448,192,121060,128,0,121605:0:0:0:0:
64,192,121060,128,0,121969:0:0:0:0:
320,192,121151,128,0,121242:0:0:0:0:
192,192,121242,128,0,121424:0:0:0:0:
320,192,121424,128,0,121605:0:0:0:0:
192,192,121605,128,0,121787:0:0:0:0:
448,192,121696,128,0,121787:0:0:0:0:
320,192,121787,128,0,121969:0:0:0:0:
192,192,121969,128,0,122333:0:0:0:0:
448,192,121969,128,0,122151:0:0:0:0:
64,192,122060,128,0,122151:0:0:0:0:
320,192,122151,128,0,122333:0:0:0:0:
448,192,122333,128,0,122515:0:0:0:0:
64,192,122333,128,0,122515:0:0:0:0:
320,192,122515,128,0,123060:0:0:0:0:
192,192,122515,128,0,123424:0:0:0:0:
448,192,122605,128,0,122696:0:0:0:0:
64,192,122696,128,0,122878:0:0:0:0:
448,192,122878,128,0,123060:0:0:0:0:
64,192,123060,128,0,123242:0:0:0:0:
320,192,123151,128,0,123242:0:0:0:0:
448,192,123242,128,0,123424:0:0:0:0:
64,192,123424,128,0,123605:0:0:0:0:
320,192,123424,128,0,123605:0:0:0:0:
448,192,123605,128,0,123787:0:0:0:0:
192,192,123605,128,0,123787:0:0:0:0:
320,192,123787,128,0,123969:0:0:0:0:
64,192,123787,128,0,123969:0:0:0:0:
192,192,123969,128,0,124515:0:0:0:0:
448,192,123969,128,0,124878:0:0:0:0:
64,192,124060,128,0,124151:0:0:0:0:
320,192,124151,128,0,124333:0:0:0:0:
64,192,124333,128,0,124515:0:0:0:0:
320,192,124515,128,0,124696:0:0:0:0:
64,192,124605,128,0,124696:0:0:0:0:
192,192,124696,128,0,124878:0:0:0:0:
64,192,124878,128,0,125605:0:0:0:0:
320,192,124878,128,0,125605:0:0:0:0:
192,192,124969,128,0,125060:0:0:0:0:
448,192,125060,128,0,125242:0:0:0:0:
192,192,125242,128,0,125424:0:0:0:0:
448,192,125333,128,0,125424:0:0:0:0:
448,192,125605,128,0,127424:0:0:0:0:
192,192,125605,128,0,126696:0:0:0:0:
320,192,125696,128,0,125787:0:0:0:0:
64,192,125787,128,0,125969:0:0:0:0:
320,192,125969,128,0,126151:0:0:0:0:
64,192,126151,128,0,126333:0:0:0:0:
320,192,126333,128,0,126515:0:0:0:0:
64,192,126515,128,0,126696:0:0:0:0:
320,192,126696,128,0,126878:0:0:0:0:
64,192,126878,128,0,127060:0:0:0:0:
192,192,126878,128,0,126969:0:0:0:0:
320,192,126969,128,0,127060:0:0:0:0:
192,192,127060,128,0,127151:0:0:0:0:
320,192,127151,128,0,127242:0:0:0:0:
192,192,127242,128,0,127333:0:0:0:0:
64,192,127333,128,0,127424:0:0:0:0:
320,192,127424,128,0,127515:0:0:0:0:
192,192,127515,128,0,127605:0:0:0:0:
448,192,127605,128,0,127696:0:0:0:0:
192,192,127696,128,0,127787:0:0:0:0:
64,192,127787,128,0,127969:0:0:0:0:
448,192,127787,1,0,0:0:0:0:
320,192,127878,1,0,0:0:0:0:
192,192,127969,128,0,128242:0:0:0:0:
448,192,127969,1,0,0:0:0:0:
320,192,128060,1,0,0:0:0:0:
64,192,128151,1,0,0:0:0:0:
320,192,128242,1,0,0:0:0:0:
448,192,128333,128,0,129787:0:0:0:0:
64,192,128333,1,0,0:0:0:0:
320,192,128424,1,0,0:0:0:0:
192,192,128515,128,0,128696:0:0:0:0:
64,192,128515,128,0,128605:0:0:0:0:
320,192,128605,128,0,128696:0:0:0:0:
64,192,128696,128,0,128878:0:0:0:0:
192,192,128787,128,0,128878:0:0:0:0:
320,192,128878,128,0,129060:0:0:0:0:
64,192,128969,128,0,129060:0:0:0:0:
192,192,129060,128,0,129242:0:0:0:0:
320,192,129151,128,0,129242:0:0:0:0:
64,192,129242,128,0,129424:0:0:0:0:
320,192,129333,128,0,129424:0:0:0:0:
192,192,129424,128,0,129605:0:0:0:0:
64,192,129515,128,0,129605:0:0:0:0:
320,192,129605,128,0,129787:0:0:0:0:
192,192,129696,128,0,129787:0:0:0:0:
64,192,129787,128,0,129969:0:0:0:0:
448,192,129878,128,0,129969:0:0:0:0:
320,192,129969,128,0,130333:0:0:0:0:
192,192,129969,128,0,130151:0:0:0:0:
64,192,130060,128,0,130151:0:0:0:0:
448,192,130151,128,0,130333:0:0:0:0:
192,192,130333,128,0,130696:0:0:0:0:
64,192,130333,128,0,130515:0:0:0:0:
448,192,130424,128,0,130515:0:0:0:0:
320,192,130515,128,0,130696:0:0:0:0:
448,192,130696,128,0,130878:0:0:0:0:
64,192,130696,128,0,130878:0:0:0:0:
320,192,130878,128,0,131151:0:0:0:0:
192,192,130878,128,0,131060:0:0:0:0:
64,192,130969,128,0,131060:0:0:0:0:
448,192,131060,128,0,131242:0:0:0:0:
192,192,131242,128,0,132878:0:0:0:0:
64,192,131242,128,0,131424:0:0:0:0:
320,192,131242,128,0,131333:0:0:0:0:
320,192,131424,128,0,131605:0:0:0:0:
448,192,131424,128,0,131515:0:0:0:0:
64,192,131515,128,0,131605:0:0:0:0:
448,192,131605,128,0,131787:0:0:0:0:
64,192,131787,128,0,132151:0:0:0:0:
320,192,131787,128,0,131969:0:0:0:0:
448,192,131969,128,0,132151:0:0:0:0:
320,192,132151,128,0,132515:0:0:0:0:
448,192,132242,128,0,132333:0:0:0:0:
64,192,132333,128,0,132515:0:0:0:0:
448,192,132515,128,0,132878:0:0:0:0:
320,192,132605,128,0,132696:0:0:0:0:
64,192,132696,128,0,132878:0:0:0:0:
320,192,132878,128,0,133424:0:0:0:0:
448,192,132969,128,0,133060:0:0:0:0:
192,192,133060,128,0,133242:0:0:0:0:
64,192,133060,128,0,133151:0:0:0:0:
448,192,133151,128,0,133242:0:0:0:0:
64,192,133242,128,0,133424:0:0:0:0:
192,192,133424,128,0,133969:0:0:0:0:
448,192,133424,128,0,133605:0:0:0:0:
320,192,133515,128,0,133605:0:0:0:0:
64,192,133605,128,0,133787:0:0:0:0:
320,192,133787,128,0,133969:0:0:0:0:
448,192,133787,128,0,133969:0:0:0:0:
64,192,133969,128,0,134151:0:0:0:0:
448,192,134151,128,0,135605:0:0:0:0:
192,192,134151,128,0,135060:0:0:0:0:
320,192,134151,128,0,134333:0:0:0:0:
64,192,134333,128,0,134515:0:0:0:0:
320,192,134515,128,0,134696:0:0:0:0:
64,192,134696,128,0,134878:0:0:0:0:
320,192,134787,128,0,134878:0:0:0:0:
64,192,134969,128,0,135060:0:0:0:0:
320,192,135060,128,0,135151:0:0:0:0:
192,192,135151,128,0,135242:0:0:0:0:
64,192,135242,128,0,135333:0:0:0:0:
320,192,135333,128,0,135424:0:0:0:0:
192,192,135424,128,0,135515:0:0:0:0:
64,192,135515,128,0,135605:0:0:0:0:
192,192,135605,128,0,135696:0:0:0:0:
320,192,135696,128,0,135787:0:0:0:0:
448,192,135787,128,0,135878:0:0:0:0:
64,192,135787,128,0,136060:0:0:0:0:
192,192,135787,128,0,135969:0:0:0:0:
320,192,135969,128,0,136151:0:0:0:0:
64,192,136151,128,0,136515:0:0:0:0:
448,192,136151,128,0,136333:0:0:0:0:
320,192,136333,128,0,136515:0:0:0:0:
448,192,136515,128,0,136696:0:0:0:0:
192,192,136515,128,0,136696:0:0:0:0:
320,192,136696,128,0,136787:0:0:0:0:
64,192,136696,128,0,136878:0:0:0:0:
320,192,136878,128,0,137060:0:0:0:0:
448,192,136878,128,0,137060:0:0:0:0:
192,192,137060,128,0,138878:0:0:0:0:
64,192,137060,128,0,137242:0:0:0:0:
320,192,137242,128,0,137424:0:0:0:0:
448,192,137424,128,0,137605:0:0:0:0:
64,192,137605,1,0,0:0:0:0:
320,192,137605,128,0,137787:0:0:0:0:
64,192,137787,128,0,137969:0:0:0:0:
448,192,137969,1,0,0:0:0:0:
320,192,137969,128,0,138151:0:0:0:0:
64,192,138151,1,0,0:0:0:0:
448,192,138151,128,0,138333:0:0:0:0:
320,192,138333,1,0,0:0:0:0:
64,192,138333,128,0,138515:0:0:0:0:
448,192,138515,1,0,0:0:0:0:
320,192,138515,128,0,138696:0:0:0:0:
448,192,138696,128,0,138878:0:0:0:0:
64,192,138878,1,0,0:0:0:0:
320,192,138878,128,0,139060:0:0:0:0:
192,192,139060,1,0,0:0:0:0:
64,192,139060,128,0,139242:0:0:0:0:
320,192,139242,1,0,0:0:0:0:
192,192,139242,128,0,139424:0:0:0:0:
64,192,139424,128,0,139787:0:0:0:0:
448,192,139424,1,0,0:0:0:0:
320,192,139424,128,0,139605:0:0:0:0:
192,192,139605,1,0,0:0:0:0:
448,192,139605,128,0,139787:0:0:0:0:
192,192,139787,128,0,140151:0:0:0:0:
320,192,139787,1,0,0:0:0:0:
320,192,140151,128,0,141424:0:0:0:0:
448,192,140151,128,0,141242:0:0:0:0:
64,192,140151,128,0,140333:0:0:0:0:
192,192,140333,128,0,140515:0:0:0:0:
64,192,140515,128,0,140696:0:0:0:0:
192,192,140696,128,0,140878:0:0:0:0:
64,192,140878,128,0,141060:0:0:0:0:
192,192,141060,128,0,141242:0:0:0:0:
64,192,141242,128,0,141424:0:0:0:0:
192,192,141424,128,0,141605:0:0:0:0:
448,192,141605,128,0,141969:0:0:0:0:
320,192,141605,128,0,141787:0:0:0:0:
192,192,141787,128,0,141969:0:0:0:0:
320,192,141969,128,0,142333:0:0:0:0:
64,192,141969,128,0,142151:0:0:0:0:
448,192,142151,128,0,142333:0:0:0:0:
192,192,142333,128,0,142696:0:0:0:0:
64,192,142333,128,0,142515:0:0:0:0:
320,192,142515,128,0,142696:0:0:0:0:
64,192,142696,128,0,143060:0:0:0:0:
448,192,142696,128,0,143787:0:0:0:0:
192,192,142878,128,0,143060:0:0:0:0:
320,192,142878,1,0,0:0:0:0:
320,192,143060,128,0,143787:0:0:0:0:
192,192,143242,128,0,143424:0:0:0:0:
64,192,143424,128,0,143605:0:0:0:0:
192,192,143605,128,0,143787:0:0:0:0:
64,192,143787,128,0,143969:0:0:0:0:
192,192,143969,128,0,144333:0:0:0:0:
320,192,143969,1,0,0:0:0:0:
448,192,143969,128,0,144151:0:0:0:0:
320,192,144151,128,0,144333:0:0:0:0:
64,192,144151,1,0,0:0:0:0:
448,192,144333,128,0,144787:0:0:0:0:
64,192,144333,128,0,144515:0:0:0:0:
192,192,144515,1,0,0:0:0:0:
320,192,144515,128,0,144696:0:0:0:0:
192,192,144696,128,0,144878:0:0:0:0:
64,192,144878,128,0,145060:0:0:0:0:
192,192,145060,128,0,145242:0:0:0:0:
64,192,145242,128,0,145605:0:0:0:0:
448,192,145242,1,0,0:0:0:0:
320,192,145333,1,0,0:0:0:0:
192,192,145424,1,0,0:0:0:0:
320,192,145515,1,0,0:0:0:0:
448,192,145605,128,0,145787:0:0:0:0:
192,192,145605,1,0,0:0:0:0:
64,192,145696,1,0,0:0:0:0:
320,192,145787,128,0,146333:0:0:0:0:
192,192,145787,1,0,0:0:0:0:
64,192,145878,1,0,0:0:0:0:
448,192,145969,128,0,146151:0:0:0:0:
192,192,146151,128,0,146333:0:0:0:0:
64,192,146333,128,0,146515:0:0:0:0:
192,192,146515,128,0,146696:0:0:0:0:
64,192,146696,128,0,146878:0:0:0:0:
448,192,146696,1,0,0:0:0:0:
320,192,146696,128,0,146878:0:0:0:0:
448,192,146878,128,0,147060:0:0:0:0:
192,192,146878,128,0,146969:0:0:0:0:
64,192,147060,128,0,147242:0:0:0:0:
320,192,147060,128,0,147151:0:0:0:0:
448,192,147242,128,0,147787:0:0:0:0:
192,192,147242,128,0,147424:0:0:0:0:
320,192,147424,128,0,147605:0:0:0:0:
192,192,147605,128,0,147787:0:0:0:0:
64,192,147787,128,0,147969:0:0:0:0:
448,192,147969,128,0,148151:0:0:0:0:
64,192,148151,128,0,148878:0:0:0:0:
192,192,148151,1,0,0:0:0:0:
320,192,148151,128,0,148333:0:0:0:0:
192,192,148333,128,0,148515:0:0:0:0:
320,192,148515,128,0,148696:0:0:0:0:
448,192,148696,128,0,148878:0:0:0:0:
320,192,148878,128,0,149424:0:0:0:0:
192,192,148878,128,0,149424:0:0:0:0:
64,192,149060,128,0,149242:0:0:0:0:
448,192,149424,128,0,149787:0:0:0:0:
64,192,149424,128,0,150151:0:0:0:0:
320,192,149605,128,0,149787:0:0:0:0:
192,192,149787,128,0,149969:0:0:0:0:
320,192,149969,128,0,150151:0:0:0:0:
448,192,150151,128,0,150333:0:0:0:0:
192,192,150151,128,0,150333:0:0:0:0:
320,192,150333,128,0,150515:0:0:0:0:
64,192,150515,128,0,150696:0:0:0:0:
448,192,150515,128,0,150696:0:0:0:0:
192,192,150696,128,0,150878:0:0:0:0:
320,192,150696,128,0,150878:0:0:0:0:
448,192,150878,128,0,151060:0:0:0:0:
64,192,150878,128,0,151060:0:0:0:0:
192,192,151060,128,0,151151:0:0:0:0:
320,192,151151,128,0,151242:0:0:0:0:
64,192,151242,128,0,151424:0:0:0:0:
448,192,151242,128,0,151333:0:0:0:0:
320,192,151333,128,0,151424:0:0:0:0:
192,192,151424,128,0,151787:0:0:0:0:
448,192,151424,128,0,151515:0:0:0:0:
320,192,151515,128,0,151605:0:0:0:0:
448,192,151605,128,0,151696:0:0:0:0:
320,192,151696,128,0,151787:0:0:0:0:
448,192,151787,128,0,151969:0:0:0:0:
64,192,151787,128,0,151969:0:0:0:0:
320,192,151969,128,0,152242:0:0:0:0:
192,192,151969,128,0,152151:0:0:0:0:
448,192,152151,128,0,152333:0:0:0:0:
64,192,152151,128,0,152242:0:0:0:0:
320,192,152333,128,0,152605:0:0:0:0:
192,192,152333,128,0,152515:0:0:0:0:
64,192,152333,128,0,152424:0:0:0:0:
64,192,152515,128,0,152696:0:0:0:0:
448,192,152515,128,0,152605:0:0:0:0:
320,192,152696,128,0,153060:0:0:0:0:
192,192,152696,128,0,152878:0:0:0:0:
448,192,152696,128,0,152787:0:0:0:0:
448,192,152878,128,0,153060:0:0:0:0:
64,192,152878,128,0,152969:0:0:0:0:
192,192,153060,128,0,153242:0:0:0:0:
64,192,153060,128,0,153242:0:0:0:0:
320,192,153242,128,0,153424:0:0:0:0:
448,192,153242,128,0,153333:0:0:0:0:
64,192,153424,128,0,153605:0:0:0:0:
448,192,153424,128,0,153605:0:0:0:0:
192,192,153424,128,0,153515:0:0:0:0:
192,192,153605,128,0,153787:0:0:0:0:
320,192,153605,128,0,153696:0:0:0:0:
320,192,153787,128,0,153969:0:0:0:0:
448,192,153787,128,0,153878:0:0:0:0:
64,192,153787,128,0,153878:0:0:0:0:
448,192,153969,128,0,154151:0:0:0:0:
192,192,153969,128,0,154060:0:0:0:0:
320,192,154151,128,0,154333:0:0:0:0:
64,192,154151,128,0,154333:0:0:0:0:
448,192,154333,128,0,154515:0:0:0:0:
192,192,154333,128,0,154424:0:0:0:0:
64,192,154515,128,0,154696:0:0:0:0:
320,192,154515,128,0,154605:0:0:0:0:
448,192,154696,128,0,154878:0:0:0:0:
192,192,154696,128,0,154787:0:0:0:0:
320,192,154878,128,0,155060:0:0:0:0:
64,192,154878,128,0,155060:0:0:0:0:
192,192,155060,128,0,155242:0:0:0:0:
448,192,155060,128,0,155151:0:0:0:0:
64,192,155242,128,0,155605:0:0:0:0:
448,192,155242,128,0,155424:0:0:0:0:
320,192,155242,128,0,155333:0:0:0:0:
320,192,155424,128,0,155605:0:0:0:0:
192,192,155424,128,0,155515:0:0:0:0:
192,192,155605,128,0,155969:0:0:0:0:
448,192,155605,128,0,155787:0:0:0:0:
320,192,155787,1,0,0:0:0:0:
64,192,155787,128,0,155969:0:0:0:0:
448,192,155969,128,0,156242:0:0:0:0:
320,192,155969,128,0,156151:0:0:0:0:
64,192,156151,1,0,0:0:0:0:
192,192,156151,128,0,156333:0:0:0:0:
448,192,156333,128,0,156424:0:0:0:0:
64,192,156333,128,0,156515:0:0:0:0:
320,192,156333,128,0,156424:0:0:0:0:
448,192,156515,128,0,157242:0:0:0:0:
320,192,156515,128,0,156696:0:0:0:0:
192,192,156515,128,0,156605:0:0:0:0:
192,192,156696,128,0,156878:0:0:0:0:
64,192,156696,128,0,156787:0:0:0:0:
64,192,156878,128,0,157060:0:0:0:0:
320,192,156878,128,0,156969:0:0:0:0:
320,192,157060,128,0,157242:0:0:0:0:
192,192,157060,128,0,157151:0:0:0:0:
192,192,157242,128,0,157424:0:0:0:0:
64,192,157242,128,0,157333:0:0:0:0:
64,192,157424,128,0,157605:0:0:0:0:
448,192,157424,128,0,157515:0:0:0:0:
448,192,157605,128,0,157787:0:0:0:0:
192,192,157605,128,0,157787:0:0:0:0:
320,192,157605,128,0,157696:0:0:0:0:
320,192,157787,128,0,158060:0:0:0:0:
64,192,157787,128,0,157969:0:0:0:0:
192,192,157969,128,0,158151:0:0:0:0:
448,192,157969,128,0,158060:0:0:0:0:
64,192,158151,128,0,158515:0:0:0:0:
448,192,158151,128,0,158333:0:0:0:0:
320,192,158151,128,0,158242:0:0:0:0:
320,192,158333,128,0,158515:0:0:0:0:
192,192,158333,128,0,158424:0:0:0:0:
192,192,158515,128,0,158878:0:0:0:0:
448,192,158515,128,0,158696:0:0:0:0:
320,192,158696,128,0,158878:0:0:0:0:
64,192,158696,128,0,158787:0:0:0:0:
448,192,158878,128,0,159242:0:0:0:0:
64,192,158878,128,0,159060:0:0:0:0:
192,192,159060,128,0,159242:0:0:0:0:
320,192,159060,128,0,159151:0:0:0:0:
64,192,159242,128,0,159424:0:0:0:0:
320,192,159242,128,0,159424:0:0:0:0:
448,192,159424,128,0,159605:0:0:0:0:
192,192,159424,128,0,159515:0:0:0:0:
64,192,159605,128,0,159787:0:0:0:0:
320,192,159605,128,0,159696:0:0:0:0:
192,192,159787,128,0,159969:0:0:0:0:
448,192,159787,128,0,159878:0:0:0:0:
320,192,159969,128,0,160151:0:0:0:0:
64,192,159969,128,0,160151:0:0:0:0:
192,192,160151,128,0,160333:0:0:0:0:
448,192,160151,128,0,160333:0:0:0:0:
64,192,160333,128,0,160515:0:0:0:0:
320,192,160333,128,0,160515:0:0:0:0:
448,192,160515,128,0,160787:0:0:0:0:
192,192,160515,128,0,160696:0:0:0:0:
64,192,160696,128,0,160878:0:0:0:0:
320,192,160696,128,0,160787:0:0:0:0:
448,192,160878,128,0,161060:0:0:0:0:
192,192,160878,128,0,161060:0:0:0:0:
320,192,160878,128,0,160969:0:0:0:0:
320,192,161060,128,0,161333:0:0:0:0:
64,192,161060,128,0,161242:0:0:0:0:
192,192,161242,128,0,161424:0:0:0:0:
448,192,161242,128,0,161333:0:0:0:0:
320,192,161424,128,0,161787:0:0:0:0:
448,192,161424,128,0,161605:0:0:0:0:
64,192,161424,128,0,161515:0:0:0:0:
64,192,161605,128,0,161787:0:0:0:0:
192,192,161605,128,0,161696:0:0:0:0:
192,192,161787,128,0,162151:0:0:0:0:
448,192,161787,128,0,161969:0:0:0:0:
320,192,161969,128,0,162151:0:0:0:0:
64,192,161969,128,0,162060:0:0:0:0:
448,192,162151,128,0,162515:0:0:0:0:
64,192,162151,128,0,162333:0:0:0:0:
320,192,162333,128,0,162515:0:0:0:0:
192,192,162333,128,0,162424:0:0:0:0:
192,192,162515,128,0,163060:0:0:0:0:
64,192,162515,128,0,162696:0:0:0:0:
320,192,162696,128,0,162878:0:0:0:0:
448,192,162696,128,0,162787:0:0:0:0:
448,192,162878,128,0,162969:0:0:0:0:
64,192,162878,128,0,162969:0:0:0:0:
320,192,162969,128,0,163060:0:0:0:0:
64,192,163060,128,0,163242:0:0:0:0:
448,192,163060,128,0,163151:0:0:0:0:
320,192,163151,128,0,163242:0:0:0:0:
192,192,163242,128,0,163333:0:0:0:0:
448,192,163242,128,0,163333:0:0:0:0:
64,192,163333,128,0,163424:0:0:0:0:
448,192,163424,128,0,163605:0:0:0:0:
192,192,163424,128,0,163515:0:0:0:0:
320,192,163424,128,0,163515:0:0:0:0:
320,192,163605,128,0,163878:0:0:0:0:
64,192,163605,128,0,163787:0:0:0:0:
192,192,163605,128,0,163696:0:0:0:0:
448,192,163787,128,0,163969:0:0:0:0:
192,192,163787,128,0,163878:0:0:0:0:
320,192,163969,128,0,164242:0:0:0:0:
192,192,163969,128,0,164151:0:0:0:0:
64,192,163969,128,0,164060:0:0:0:0:
64,192,164151,128,0,164333:0:0:0:0:
448,192,164151,128,0,164242:0:0:0:0:
320,192,164333,128,0,164515:0:0:0:0:
192,192,164333,128,0,164515:0:0:0:0:
448,192,164333,128,0,164424:0:0:0:0:
448,192,164515,128,0,164696:0:0:0:0:
64,192,164515,128,0,164605:0:0:0:0:
64,192,164696,128,0,165060:0:0:0:0:
192,192,164696,128,0,164878:0:0:0:0:
320,192,164696,128,0,164787:0:0:0:0:
320,192,164878,128,0,165060:0:0:0:0:
448,192,164878,128,0,164969:0:0:0:0:
448,192,165060,128,0,165242:0:0:0:0:
192,192,165060,128,0,165242:0:0:0:0:
320,192,165242,128,0,165424:0:0:0:0:
64,192,165242,128,0,165424:0:0:0:0:
192,192,165424,128,0,165605:0:0:0:0:
448,192,165424,128,0,165605:0:0:0:0:
320,192,165605,128,0,165787:0:0:0:0:
64,192,165605,128,0,165696:0:0:0:0:
192,192,165787,128,0,165969:0:0:0:0:
448,192,165787,128,0,165969:0:0:0:0:
320,192,165969,128,0,166151:0:0:0:0:
64,192,165969,128,0,166151:0:0:0:0:
448,192,166151,128,0,166333:0:0:0:0:
192,192,166151,128,0,166242:0:0:0:0:
64,192,166333,128,0,166515:0:0:0:0:
320,192,166333,128,0,166515:0:0:0:0:
192,192,166515,128,0,166787:0:0:0:0:
448,192,166515,128,0,166696:0:0:0:0:
320,192,166696,128,0,166878:0:0:0:0:
64,192,166696,128,0,166787:0:0:0:0:
192,192,166878,128,0,167151:0:0:0:0:
64,192,166878,128,0,167060:0:0:0:0:
448,192,166878,128,0,166969:0:0:0:0:
320,192,167060,128,0,167242:0:0:0:0:
448,192,167060,128,0,167151:0:0:0:0:
192,192,167242,128,0,167424:0:0:0:0:
448,192,167242,128,0,167424:0:0:0:0:
64,192,167242,128,0,167333:0:0:0:0:
320,192,167424,128,0,167605:0:0:0:0:
64,192,167424,128,0,167515:0:0:0:0:
448,192,167605,128,0,167878:0:0:0:0:
192,192,167605,128,0,168333:0:0:0:0:
64,192,167605,128,0,167696:0:0:0:0:
320,192,167787,128,0,167878:0:0:0:0:
448,192,167969,128,0,168060:0:0:0:0:
64,192,167969,128,0,168060:0:0:0:0:
448,192,168151,128,0,168878:0:0:0:0:
320,192,168151,128,0,168242:0:0:0:0:
320,192,168333,128,0,168605:0:0:0:0:
192,192,168515,128,0,168605:0:0:0:0:
64,192,168605,128,0,168696:0:0:0:0:
320,192,168696,128,0,168787:0:0:0:0:
64,192,168787,128,0,168878:0:0:0:0:
192,192,168878,128,0,168969:0:0:0:0:
64,192,168969,128,0,169060:0:0:0:0:
320,192,169060,128,0,169151:0:0:0:0:
448,192,169151,128,0,169242:0:0:0:0:
64,192,169242,128,0,169696:0:0:0:0:
320,192,169242,128,0,169787:0:0:0:0:
192,192,169242,128,0,169424:0:0:0:0:
448,192,169424,128,0,169605:0:0:0:0:
192,192,169605,128,0,169787:0:0:0:0:
64,192,169787,128,0,170151:0:0:0:0:
448,192,169787,128,0,170515:0:0:0:0:
320,192,169969,128,0,170151:0:0:0:0:
192,192,169969,128,0,170060:0:0:0:0:
192,192,170151,128,0,170333:0:0:0:0:
320,192,170333,128,0,170515:0:0:0:0:
64,192,170333,128,0,170424:0:0:0:0:
64,192,170515,128,0,170878:0:0:0:0:
192,192,170515,128,0,171242:0:0:0:0:
448,192,170696,128,0,170878:0:0:0:0:
320,192,170696,128,0,170787:0:0:0:0:
320,192,170878,128,0,171060:0:0:0:0:
64,192,171060,128,0,171242:0:0:0:0:
448,192,171060,128,0,171151:0:0:0:0:
320,192,171242,128,0,171424:0:0:0:0:
448,192,171242,128,0,172151:0:0:0:0:
64,192,171424,128,0,171605:0:0:0:0:
192,192,171424,128,0,171515:0:0:0:0:
192,192,171605,128,0,171787:0:0:0:0:
320,192,171605,128,0,171696:0:0:0:0:
320,192,171787,128,0,171969:0:0:0:0:
64,192,171787,128,0,171969:0:0:0:0:
192,192,171969,128,0,172151:0:0:0:0:
64,192,172151,128,0,174969:0:0:0:0:
320,192,172151,128,0,172515:0:0:0:0:
448,192,172333,128,0,172515:0:0:0:0:
192,192,172515,128,0,172696:0:0:0:0:
320,192,172696,128,0,172878:0:0:0:0:
448,192,172878,128,0,173060:0:0:0:0:
320,192,173060,128,0,173242:0:0:0:0:
192,192,173242,128,0,173424:0:0:0:0:
448,192,173424,128,0,173484:0:0:0:0:
320,192,173484,128,0,173545:0:0:0:0:
192,192,173545,128,0,173605:0:0:0:0:
448,192,173605,128,0,173696:0:0:0:0:
320,192,173696,128,0,173787:0:0:0:0:
448,192,173787,128,0,173878:0:0:0:0:
192,192,173878,128,0,173969:0:0:0:0:
320,192,173969,128,0,174060:0:0:0:0:
192,192,174060,128,0,174151:0:0:0:0:
448,192,174151,128,0,174211:0:0:0:0:
320,192,174211,128,0,174272:0:0:0:0:
192,192,174272,128,0,174333:0:0:0:0:
320,192,174333,128,0,174393:0:0:0:0:
448,192,174393,128,0,174454:0:0:0:0:
320,192,174454,128,0,174515:0:0:0:0:
192,192,174515,128,0,174575:0:0:0:0:
320,192,174575,128,0,174636:0:0:0:0:
448,192,174636,128,0,174696:0:0:0:0:
192,192,174696,128,0,174757:0:0:0:0:
320,192,174757,128,0,174818:0:0:0:0:
448,192,174818,128,0,174878:0:0:0:0:
192,192,174878,128,0,174939:0:0:0:0:
320,192,174939,128,0,174999:0:0:0:0:
448,192,174999,128,0,175060:0:0:0:0:
64,192,175060,128,0,175105:0:0:0:0:
192,192,175105,128,0,175151:0:0:0:0:
320,192,175151,128,0,175196:0:0:0:0:
448,192,175196,128,0,175242:0:0:0:0:
64,192,175242,128,0,175287:0:0:0:0:
192,192,175287,128,0,175333:0:0:0:0:
320,192,175333,128,0,175378:0:0:0:0:
448,192,175378,128,0,175424:0:0:0:0:
64,192,175424,128,0,175469:0:0:0:0:
192,192,175469,128,0,175515:0:0:0:0:
320,192,175515,128,0,175560:0:0:0:0:
448,192,175560,128,0,175605:0:0:0:0:
192,192,175605,128,0,175651:0:0:0:0:
64,192,175651,128,0,175696:0:0:0:0:
448,192,175696,128,0,175742:0:0:0:0:
320,192,175742,128,0,175787:0:0:0:0:
192,192,175787,128,0,175833:0:0:0:0:
64,192,175833,128,0,175878:0:0:0:0:
448,192,175878,128,0,175924:0:0:0:0:
320,192,175924,128,0,175969:0:0:0:0:
192,192,175969,128,0,176015:0:0:0:0:
64,192,176015,128,0,176060:0:0:0:0:
448,192,176060,128,0,176105:0:0:0:0:
320,192,176105,128,0,176151:0:0:0:0:
64,192,176151,128,0,176196:0:0:0:0:
192,192,176196,128,0,176242:0:0:0:0:
320,192,176242,128,0,176287:0:0:0:0:
448,192,176287,128,0,176333:0:0:0:0:
64,192,176333,128,0,176378:0:0:0:0:
192,192,176378,128,0,176424:0:0:0:0:
320,192,176424,128,0,176469:0:0:0:0:
448,192,176469,128,0,176515:0:0:0:0:
64,192,176515,128,0,176560:0:0:0:0:
192,192,176560,128,0,176605:0:0:0:0:
320,192,176605,128,0,176651:0:0:0:0:
448,192,176651,128,0,176696:0:0:0:0:
192,192,176696,128,0,176742:0:0:0:0:
64,192,176742,128,0,176787:0:0:0:0:
448,192,176787,128,0,176833:0:0:0:0:
320,192,176833,128,0,176878:0:0:0:0:
192,192,176878,128,0,176924:0:0:0:0:
64,192,176924,128,0,176969:0:0:0:0:
448,192,176969,128,0,177015:0:0:0:0:
320,192,177015,128,0,177060:0:0:0:0:
192,192,177060,128,0,177105:0:0:0:0:
64,192,177105,128,0,177151:0:0:0:0:
448,192,177151,128,0,177196:0:0:0:0:
320,192,177196,128,0,177242:0:0:0:0:
64,192,177242,128,0,177302:0:0:0:0:
192,192,177302,128,0,177363:0:0:0:0:
320,192,177363,128,0,177424:0:0:0:0:
448,192,177424,128,0,177484:0:0:0:0:
320,192,177484,128,0,177545:0:0:0:0:
192,192,177545,128,0,177605:0:0:0:0:
64,192,177605,128,0,177666:0:0:0:0:
448,192,177605,128,0,177666:0:0:0:0:
320,192,177666,128,0,177727:0:0:0:0:
192,192,177727,128,0,177787:0:0:0:0:
64,192,177787,128,0,177848:0:0:0:0:
448,192,177787,128,0,177848:0:0:0:0:
320,192,177848,128,0,177908:0:0:0:0:
192,192,177908,128,0,177969:0:0:0:0:
64,192,177969,128,0,178030:0:0:0:0:
448,192,177969,128,0,178030:0:0:0:0:
320,192,178030,128,0,178090:0:0:0:0:
192,192,178090,128,0,178151:0:0:0:0:
64,192,178151,128,0,178211:0:0:0:0:
448,192,178151,128,0,178211:0:0:0:0:
320,192,178211,128,0,178272:0:0:0:0:
192,192,178272,128,0,178333:0:0:0:0:
64,192,178333,128,0,178393:0:0:0:0:
448,192,178333,128,0,178515:0:0:0:0:
320,192,178424,128,0,178605:0:0:0:0:
192,192,178515,128,0,178696:0:0:0:0:
64,192,178605,128,0,178787:0:0:0:0:
448,192,178605,128,0,178696:0:0:0:0:
320,192,178696,128,0,178787:0:0:0:0:
192,192,178787,128,0,178878:0:0:0:0:
64,192,178878,128,0,178969:0:0:0:0:
448,192,178878,128,0,178969:0:0:0:0:
320,192,178969,128,0,179060:0:0:0:0:
64,192,179060,128,0,179105:0:0:0:0:
192,192,179105,128,0,179151:0:0:0:0:
448,192,179151,128,0,179196:0:0:0:0:
320,192,179196,128,0,179242:0:0:0:0:
64,192,179242,128,0,179287:0:0:0:0:
192,192,179287,128,0,179333:0:0:0:0:
448,192,179333,128,0,179378:0:0:0:0:
320,192,179378,128,0,179424:0:0:0:0:
64,192,179424,128,0,179469:0:0:0:0:
192,192,179469,128,0,179515:0:0:0:0:
448,192,179515,128,0,179560:0:0:0:0:
320,192,179560,128,0,179605:0:0:0:0:
64,192,179605,128,0,179651:0:0:0:0:
192,192,179651,128,0,179696:0:0:0:0:
448,192,179696,128,0,179742:0:0:0:0:
320,192,179742,128,0,179787:0:0:0:0:
64,192,179787,128,0,179833:0:0:0:0:
192,192,179833,128,0,179878:0:0:0:0:
448,192,179878,128,0,179924:0:0:0:0:
320,192,179924,128,0,179969:0:0:0:0:
64,192,179969,128,0,180015:0:0:0:0:
192,192,180015,128,0,180060:0:0:0:0:
448,192,180060,128,0,180105:0:0:0:0:
320,192,180105,128,0,180151:0:0:0:0:
64,192,180151,128,0,180196:0:0:0:0:
192,192,180196,128,0,180242:0:0:0:0:
320,192,180242,128,0,180287:0:0:0:0:
448,192,180287,128,0,180333:0:0:0:0:
320,192,180333,128,0,180393:0:0:0:0:
192,192,180393,128,0,180454:0:0:0:0:
448,192,180454,128,0,180515:0:0:0:0:
64,192,180454,128,0,180515:0:0:0:0:
320,192,180515,128,0,180575:0:0:0:0:
192,192,180575,128,0,180636:0:0:0:0:
64,192,180636,128,0,180696:0:0:0:0:
448,192,180636,128,0,180696:0:0:0:0:
320,192,180696,128,0,180757:0:0:0:0:
192,192,180757,128,0,180818:0:0:0:0:
64,192,180818,128,0,180878:0:0:0:0:
320,192,180878,128,0,181060:0:0:0:0:
192,192,180878,128,0,180969:0:0:0:0:
64,192,180969,128,0,181151:0:0:0:0:
448,192,180969,128,0,181151:0:0:0:0:
192,192,181060,128,0,181242:0:0:0:0:
320,192,181151,128,0,181333:0:0:0:0:
448,192,181242,128,0,181424:0:0:0:0:
64,192,181242,128,0,181424:0:0:0:0:
192,192,181333,128,0,181515:0:0:0:0:
320,192,181424,128,0,181515:0:0:0:0:
64,192,181515,128,0,181696:0:0:0:0:
448,192,181515,128,0,181605:0:0:0:0:
192,192,181605,128,0,181787:0:0:0:0:
320,192,181605,128,0,182060:0:0:0:0:
448,192,181696,128,0,181787:0:0:0:0:
64,192,181787,128,0,181878:0:0:0:0:
192,192,181878,128,0,181969:0:0:0:0:
448,192,181878,128,0,182151:0:0:0:0:
64,192,181969,128,0,182151:0:0:0:0:
192,192,182060,128,0,182242:0:0:0:0:
320,192,182151,128,0,182333:0:0:0:0:
448,192,182242,128,0,182424:0:0:0:0:
64,192,182242,128,0,182424:0:0:0:0:
192,192,182333,128,0,182515:0:0:0:0:
320,192,182424,128,0,182605:0:0:0:0:
448,192,182515,128,0,182605:0:0:0:0:
64,192,182515,128,0,182696:0:0:0:0:
192,192,182605,128,0,182696:0:0:0:0:
448,192,182696,128,0,182742:0:0:0:0:
320,192,182742,128,0,182787:0:0:0:0:
192,192,182787,128,0,182833:0:0:0:0:
64,192,182833,128,0,182878:0:0:0:0:
448,192,182878,128,0,182969:0:0:0:0:
320,192,182969,128,0,183060:0:0:0:0:
192,192,183060,128,0,183151:0:0:0:0:
64,192,183242,128,0,183515:0:0:0:0:
192,192,183242,128,0,183333:0:0:0:0:
320,192,183333,128,0,183424:0:0:0:0:
448,192,183424,128,0,183515:0:0:0:0:
192,192,183515,128,0,183605:0:0:0:0:
320,192,183605,128,0,184151:0:0:0:0:
64,192,183605,128,0,183696:0:0:0:0:
192,192,183696,128,0,183787:0:0:0:0:
64,192,183787,128,0,183878:0:0:0:0:
448,192,183787,1,0,0:0:0:0:
448,192,183969,128,0,184060:0:0:0:0:
192,192,184060,128,0,184151:0:0:0:0:
64,192,184151,128,0,184211:0:0:0:0:
448,192,184151,128,0,184242:0:0:0:0:
192,192,184211,128,0,184333:0:0:0:0:
448,192,184333,128,0,184454:0:0:0:0:
64,192,184333,128,0,184424:0:0:0:0:
320,192,184333,1,0,0:0:0:0:
192,192,184424,128,0,184515:0:0:0:0:
320,192,184454,128,0,184515:0:0:0:0:
64,192,184515,128,0,184575:0:0:0:0:
448,192,184515,128,0,184605:0:0:0:0:
192,192,184575,128,0,184696:0:0:0:0:
320,192,184696,128,0,184878:0:0:0:0:
64,192,184696,128,0,184787:0:0:0:0:
448,192,184696,1,0,0:0:0:0:
448,192,184787,128,0,184833:0:0:0:0:
192,192,184833,128,0,184924:0:0:0:0:
448,192,184924,128,0,185060:0:0:0:0:
320,192,185060,128,0,185181:0:0:0:0:
64,192,185060,1,0,0:0:0:0:
448,192,185151,1,0,0:0:0:0:
192,192,185181,128,0,185302:0:0:0:0:
320,192,185302,128,0,185424:0:0:0:0:
64,192,185424,128,0,185605:0:0:0:0:
192,192,185424,1,0,0:0:0:0:
192,192,185545,128,0,185727:0:0:0:0:
320,192,185666,128,0,185848:0:0:0:0:
64,192,185727,128,0,185908:0:0:0:0:
448,192,185787,128,0,185969:0:0:0:0:
192,192,185848,128,0,186030:0:0:0:0:
320,192,185969,128,0,186151:0:0:0:0:
448,192,186090,128,0,186272:0:0:0:0:
192,192,186151,128,0,186333:0:0:0:0:
64,192,186151,1,0,0:0:0:0:
320,192,186333,128,0,186515:0:0:0:0:
64,192,186333,1,0,0:0:0:0:
448,192,186515,128,0,186696:0:0:0:0:
192,192,186515,1,0,0:0:0:0:
64,192,186696,128,0,187060:0:0:0:0:
320,192,186696,1,0,0:0:0:0:
192,192,186696,128,0,186878:0:0:0:0:
192,192,187060,128,0,187969:0:0:0:0:
448,192,187060,128,0,187242:0:0:0:0:
320,192,187242,128,0,187424:0:0:0:0:
64,192,187424,128,0,187605:0:0:0:0:
448,192,187605,128,0,187787:0:0:0:0:
320,192,187787,128,0,187969:0:0:0:0:
64,192,187969,128,0,188060:0:0:0:0:
448,192,187969,128,0,188151:0:0:0:0:
192,192,188060,128,0,188151:0:0:0:0:
64,192,188151,128,0,188333:0:0:0:0:
320,192,188151,128,0,188333:0:0:0:0:
192,192,188333,128,0,189060:0:0:0:0:
448,192,188333,128,0,188515:0:0:0:0:
320,192,188515,128,0,188696:0:0:0:0:
448,192,188696,128,0,188878:0:0:0:0:
64,192,188878,128,0,189060:0:0:0:0:
448,192,189060,128,0,189105:0:0:0:0:
320,192,189105,128,0,189151:0:0:0:0:
192,192,189151,128,0,189196:0:0:0:0:
64,192,189196,128,0,189242:0:0:0:0:
320,192,189242,128,0,189424:0:0:0:0:
448,192,189242,128,0,189424:0:0:0:0:
192,192,189424,128,0,189787:0:0:0:0:
64,192,189424,128,0,189605:0:0:0:0:
448,192,189605,128,0,189787:0:0:0:0:
64,192,189787,128,0,190151:0:0:0:0:
320,192,189787,128,0,189969:0:0:0:0:
448,192,189969,128,0,190151:0:0:0:0:
192,192,190151,128,0,190424:0:0:0:0:
320,192,190151,128,0,190333:0:0:0:0:
64,192,190333,128,0,190515:0:0:0:0:
192,192,190515,128,0,190696:0:0:0:0:
448,192,190515,128,0,190787:0:0:0:0:
64,192,190696,128,0,190878:0:0:0:0:
320,192,190696,128,0,190969:0:0:0:0:
448,192,190878,128,0,191060:0:0:0:0:
192,192,190878,128,0,191151:0:0:0:0:
320,192,191060,128,0,191242:0:0:0:0:
64,192,191060,128,0,191333:0:0:0:0:
192,192,191242,128,0,191424:0:0:0:0:
448,192,191242,128,0,191515:0:0:0:0:
320,192,191424,128,0,191969:0:0:0:0:
64,192,191424,128,0,191696:0:0:0:0:
192,192,191605,128,0,191787:0:0:0:0:
64,192,191787,128,0,191969:0:0:0:0:
448,192,191969,128,0,192151:0:0:0:0:
192,192,191969,128,0,192151:0:0:0:0:
64,192,192151,128,0,192242:0:0:0:0:
320,192,192151,128,0,192333:0:0:0:0:
192,192,192242,128,0,192333:0:0:0:0:
448,192,192333,128,0,192515:0:0:0:0:
64,192,192333,128,0,192515:0:0:0:0:
192,192,192515,128,0,192696:0:0:0:0:
64,192,192696,128,0,192787:0:0:0:0:
448,192,192696,128,0,192878:0:0:0:0:
192,192,192787,128,0,192878:0:0:0:0:
320,192,192878,128,0,192969:0:0:0:0:
64,192,192878,128,0,193060:0:0:0:0:
448,192,192969,128,0,193060:0:0:0:0:
192,192,193060,128,0,193151:0:0:0:0:
320,192,193060,128,0,193242:0:0:0:0:
64,192,193151,128,0,193242:0:0:0:0:
448,192,193242,128,0,193333:0:0:0:0:
192,192,193242,128,0,193424:0:0:0:0:
320,192,193333,128,0,193424:0:0:0:0:
64,192,193424,128,0,193515:0:0:0:0:
448,192,193424,128,0,193605:0:0:0:0:
192,192,193515,128,0,193605:0:0:0:0:
320,192,193605,128,0,193696:0:0:0:0:
64,192,193605,128,0,193787:0:0:0:0:
448,192,193696,128,0,193787:0:0:0:0:
192,192,193787,128,0,193878:0:0:0:0:
320,192,193787,128,0,193969:0:0:0:0:
448,192,193878,128,0,193969:0:0:0:0:
64,192,193969,128,0,194060:0:0:0:0:
192,192,193969,128,0,194151:0:0:0:0:
320,192,194060,128,0,194151:0:0:0:0:
448,192,194151,128,0,194242:0:0:0:0:
64,192,194151,128,0,194333:0:0:0:0:
320,192,194242,128,0,194333:0:0:0:0:
192,192,194333,128,0,194424:0:0:0:0:
448,192,194333,128,0,194515:0:0:0:0:
64,192,194424,128,0,194515:0:0:0:0:
320,192,194515,128,0,194605:0:0:0:0:
192,192,194515,128,0,194696:0:0:0:0:
448,192,194605,128,0,194696:0:0:0:0:
320,192,194696,128,0,194787:0:0:0:0:
64,192,194696,128,0,194878:0:0:0:0:
192,192,194787,128,0,194878:0:0:0:0:
320,192,194878,128,0,194969:0:0:0:0:
448,192,194878,128,0,195060:0:0:0:0:
192,192,194969,128,0,195060:0:0:0:0:
64,192,195060,128,0,195151:0:0:0:0:
320,192,195060,128,0,195242:0:0:0:0:
192,192,195151,128,0,195242:0:0:0:0:
64,192,195242,128,0,195424:0:0:0:0:
448,192,195242,128,0,195515:0:0:0:0:
192,192,195424,128,0,195605:0:0:0:0:
320,192,195424,128,0,195696:0:0:0:0:
448,192,195605,128,0,195787:0:0:0:0:
64,192,195605,128,0,195787:0:0:0:0:
320,192,195787,128,0,195969:0:0:0:0:
192,192,195787,128,0,196060:0:0:0:0:
448,192,195969,128,0,196151:0:0:0:0:
64,192,195969,128,0,196242:0:0:0:0:
192,192,196151,128,0,196333:0:0:0:0:
320,192,196151,128,0,196424:0:0:0:0:
64,192,196333,128,0,196515:0:0:0:0:
448,192,196333,128,0,196605:0:0:0:0:
320,192,196515,128,0,196696:0:0:0:0:
192,192,196515,128,0,196787:0:0:0:0:
448,192,196696,128,0,196878:0:0:0:0:
64,192,196696,128,0,196969:0:0:0:0:
192,192,196878,128,0,197060:0:0:0:0:
320,192,196878,128,0,197151:0:0:0:0:
64,192,197060,128,0,197242:0:0:0:0:
448,192,197060,128,0,197333:0:0:0:0:
320,192,197242,128,0,197515:0:0:0:0:
192,192,197242,128,0,197424:0:0:0:0:
448,192,197424,128,0,197727:0:0:0:0:
64,192,197424,128,0,197605:0:0:0:0:
192,192,197605,128,0,197666:0:0:0:0:
320,192,197666,128,0,197727:0:0:0:0:
64,192,197727,128,0,197848:0:0:0:0:
192,192,197727,128,0,197787:0:0:0:0:
320,192,197787,128,0,197848:0:0:0:0:
192,192,197848,128,0,198030:0:0:0:0:
448,192,197848,128,0,197908:0:0:0:0:
320,192,197969,128,0,198030:0:0:0:0:
64,192,198030,128,0,198090:0:0:0:0:
448,192,198030,128,0,198090:0:0:0:0:
192,192,198090,128,0,198333:0:0:0:0:
320,192,198090,128,0,198151:0:0:0:0:
64,192,198333,128,0,199424:0:0:0:0:
448,192,198333,128,0,198515:0:0:0:0:
320,192,198515,128,0,198696:0:0:0:0:
192,192,198696,128,0,198878:0:0:0:0:
448,192,198878,128,0,199060:0:0:0:0:
320,192,199060,128,0,199242:0:0:0:0:
192,192,199242,128,0,199424:0:0:0:0:
448,192,199424,128,0,199605:0:0:0:0:
320,192,199424,128,0,199515:0:0:0:0:
320,192,199605,128,0,199787:0:0:0:0:
192,192,199605,128,0,199696:0:0:0:0:
64,192,199787,128,0,199848:0:0:0:0:
192,192,199848,128,0,199969:0:0:0:0:
448,192,199969,128,0,200030:0:0:0:0:
320,192,200030,128,0,200151:0:0:0:0:
64,192,200151,128,0,200211:0:0:0:0:
192,192,200211,128,0,200333:0:0:0:0:
448,192,200333,128,0,200515:0:0:0:0:
320,192,200333,128,0,200424:0:0:0:0:
64,192,200515,128,0,200696:0:0:0:0:
192,192,200515,128,0,200605:0:0:0:0:
192,192,200696,128,0,200878:0:0:0:0:
320,192,200696,128,0,200787:0:0:0:0:
448,192,200878,128,0,201242:0:0:0:0:
64,192,200878,128,0,201060:0:0:0:0:
192,192,201060,128,0,201242:0:0:0:0:
320,192,201242,128,0,201605:0:0:0:0:
64,192,201242,128,0,201424:0:0:0:0:
448,192,201424,128,0,201605:0:0:0:0:
192,192,201605,128,0,201787:0:0:0:0:
64,192,201605,128,0,201787:0:0:0:0:
320,192,201787,128,0,202151:0:0:0:0:
448,192,201787,128,0,201969:0:0:0:0:
192,192,201969,128,0,202151:0:0:0:0:
448,192,202151,128,0,202333:0:0:0:0:
64,192,202151,128,0,202333:0:0:0:0:
320,192,202333,128,0,202515:0:0:0:0:
192,192,202333,128,0,202424:0:0:0:0:
192,192,202515,128,0,202696:0:0:0:0:
64,192,202515,128,0,202696:0:0:0:0:
448,192,202696,128,0,202878:0:0:0:0:
320,192,202696,1,0,0:0:0:0:
320,192,202878,128,0,202939:0:0:0:0:
64,192,202878,128,0,203060:0:0:0:0:
192,192,202939,128,0,203060:0:0:0:0:
320,192,203060,128,0,203242:0:0:0:0:
448,192,203060,128,0,203242:0:0:0:0:
64,192,203242,128,0,203424:0:0:0:0:
192,192,203242,128,0,203333:0:0:0:0:
192,192,203424,128,0,203484:0:0:0:0:
448,192,203424,128,0,203605:0:0:0:0:
320,192,203484,128,0,203545:0:0:0:0:
64,192,203605,128,0,203666:0:0:0:0:
192,192,203666,128,0,203727:0:0:0:0:
448,192,203787,128,0,203848:0:0:0:0:
320,192,203848,128,0,203908:0:0:0:0:
192,192,203908,128,0,203969:0:0:0:0:
64,192,203969,128,0,204030:0:0:0:0:
448,192,203969,128,0,204030:0:0:0:0:
320,192,204030,128,0,204090:0:0:0:0:
192,192,204090,128,0,204151:0:0:0:0:
64,192,204151,128,0,204211:0:0:0:0:
448,192,204151,128,0,204333:0:0:0:0:
320,192,204151,128,0,204242:0:0:0:0:
320,192,204333,128,0,204515:0:0:0:0:
192,192,204333,128,0,204515:0:0:0:0:
64,192,204515,128,0,204696:0:0:0:0:
448,192,204515,128,0,204696:0:0:0:0:
192,192,204696,128,0,205060:0:0:0:0:
320,192,204696,128,0,204878:0:0:0:0:
64,192,204878,128,0,205060:0:0:0:0:
448,192,205060,128,0,205242:0:0:0:0:
320,192,205060,128,0,205151:0:0:0:0:
320,192,205242,128,0,205424:0:0:0:0:
64,192,205242,128,0,205424:0:0:0:0:
192,192,205424,128,0,205787:0:0:0:0:
448,192,205424,128,0,205605:0:0:0:0:
64,192,205605,128,0,205787:0:0:0:0:
320,192,205787,128,0,205969:0:0:0:0:
448,192,205787,128,0,205878:0:0:0:0:
192,192,205969,128,0,206151:0:0:0:0:
64,192,205969,128,0,206060:0:0:0:0:
64,192,206151,128,0,206515:0:0:0:0:
320,192,206151,128,0,206333:0:0:0:0:
448,192,206333,128,0,206515:0:0:0:0:
320,192,206515,128,0,206696:0:0:0:0:
192,192,206515,128,0,206696:0:0:0:0:
448,192,206696,128,0,207060:0:0:0:0:
64,192,206696,128,0,206878:0:0:0:0:
192,192,206878,128,0,207060:0:0:0:0:
320,192,207060,128,0,207878:0:0:0:0:
64,192,207060,128,0,207242:0:0:0:0:
192,192,207242,128,0,207424:0:0:0:0:
448,192,207424,128,0,207605:0:0:0:0:
64,192,207605,128,0,207787:0:0:0:0:
192,192,207787,128,0,207969:0:0:0:0:
64,192,207969,128,0,208333:0:0:0:0:
448,192,207969,128,0,208151:0:0:0:0:
320,192,208151,128,0,208333:0:0:0:0:
192,192,208333,128,0,208515:0:0:0:0:
448,192,208333,128,0,208515:0:0:0:0:
320,192,208515,128,0,208696:0:0:0:0:
64,192,208515,128,0,208696:0:0:0:0:
448,192,208696,128,0,208878:0:0:0:0:
192,192,208696,128,0,208878:0:0:0:0:
320,192,208878,128,0,208939:0:0:0:0:
64,192,208939,128,0,209060:0:0:0:0:
192,192,209060,128,0,209121:0:0:0:0:
448,192,209121,128,0,209242:0:0:0:0:
320,192,209242,128,0,209302:0:0:0:0:
192,192,209302,128,0,209363:0:0:0:0:
64,192,209363,128,0,209424:0:0:0:0:
192,192,209424,128,0,209484:0:0:0:0:
320,192,209484,128,0,209545:0:0:0:0:
448,192,209545,128,0,209605:0:0:0:0:
64,192,209605,128,0,209787:0:0:0:0:
192,192,209605,128,0,209696:0:0:0:0:
192,192,209787,128,0,209969:0:0:0:0:
320,192,209787,128,0,209878:0:0:0:0:
448,192,209969,128,0,210151:0:0:0:0:
64,192,209969,128,0,210151:0:0:0:0:
320,192,210151,128,0,210211:0:0:0:0:
192,192,210211,128,0,210272:0:0:0:0:
64,192,210272,128,0,210333:0:0:0:0:
448,192,210333,128,0,210515:0:0:0:0:
320,192,210333,128,0,210424:0:0:0:0:
320,192,210515,128,0,210696:0:0:0:0:
192,192,210515,128,0,210605:0:0:0:0:
192,192,210696,128,0,210878:0:0:0:0:
64,192,210696,128,0,210787:0:0:0:0:
64,192,210878,128,0,211060:0:0:0:0:
448,192,210878,128,0,210969:0:0:0:0:
320,192,211060,128,0,211242:0:0:0:0:
192,192,211060,128,0,211151:0:0:0:0:
448,192,211242,128,0,211424:0:0:0:0:
64,192,211242,128,0,211333:0:0:0:0:
192,192,211424,128,0,211545:0:0:0:0:
320,192,211424,128,0,211605:0:0:0:0:
192,192,211605,128,0,211727:0:0:0:0:
64,192,211605,128,0,211787:0:0:0:0:
192,192,211787,128,0,211908:0:0:0:0:
448,192,211787,128,0,211969:0:0:0:0:
320,192,211969,128,0,212454:0:0:0:0:
64,192,211969,128,0,212151:0:0:0:0:
192,192,212151,128,0,212242:0:0:0:0:
64,192,212242,128,0,212333:0:0:0:0:
192,192,212333,128,0,212424:0:0:0:0:
64,192,212424,128,0,212515:0:0:0:0:
320,192,212515,128,0,212878:0:0:0:0:
192,192,212515,128,0,212605:0:0:0:0:
64,192,212605,128,0,212696:0:0:0:0:
192,192,212696,128,0,212787:0:0:0:0:
64,192,212787,128,0,212878:0:0:0:0:
448,192,212878,128,0,215787:0:0:0:0:
192,192,212878,128,0,213060:0:0:0:0:
320,192,213424,128,0,214151:0:0:0:0:
64,192,214151,128,0,214333:0:0:0:0:
320,192,214333,128,0,214515:0:0:0:0:
192,192,214515,128,0,214605:0:0:0:0:
320,192,214878,128,0,215605:0:0:0:0:
192,192,215605,128,0,215787:0:0:0:0:
64,192,215787,128,0,215969:0:0:0:0:
320,192,215787,128,0,215878:0:0:0:0:
320,192,216333,128,0,217060:0:0:0:0:
448,192,216878,128,0,217242:0:0:0:0:
64,192,217060,128,0,217242:0:0:0:0:
320,192,217242,128,0,217787:0:0:0:0:
192,192,217242,128,0,217424:0:0:0:0:
448,192,217424,128,0,217515:0:0:0:0:
192,192,217787,128,0,218515:0:0:0:0:
448,192,217787,128,0,218515:0:0:0:0:
64,192,218515,1,0,0:0:0:0:
320,192,218515,128,0,218696:0:0:0:0:
64,192,218696,128,0,220151:0:0:0:0:
192,192,218696,128,0,218787:0:0:0:0:
448,192,218696,128,0,218878:0:0:0:0:
320,192,218878,128,0,219060:0:0:0:0:
448,192,219060,128,0,219242:0:0:0:0:
192,192,219242,128,0,219969:0:0:0:0:
320,192,219242,128,0,219424:0:0:0:0:
448,192,219424,128,0,219605:0:0:0:0:
320,192,219605,128,0,219787:0:0:0:0:
448,192,219787,128,0,219969:0:0:0:0:
320,192,219969,128,0,220151:0:0:0:0:
192,192,220151,128,0,220696:0:0:0:0:
448,192,220151,128,0,220333:0:0:0:0:
64,192,220333,128,0,220515:0:0:0:0:
320,192,220333,128,0,220515:0:0:0:0:
320,192,220696,128,0,221605:0:0:0:0:
448,192,220696,128,0,220787:0:0:0:0:
64,192,220696,128,0,220878:0:0:0:0:
192,192,220787,128,0,220878:0:0:0:0:
448,192,220878,128,0,221060:0:0:0:0:
192,192,221060,128,0,221242:0:0:0:0:
64,192,221242,128,0,221424:0:0:0:0:
448,192,221424,128,0,221605:0:0:0:0:
192,192,221605,128,0,221696:0:0:0:0:
64,192,221605,128,0,221787:0:0:0:0:
320,192,221787,128,0,221969:0:0:0:0:
448,192,221969,128,0,222151:0:0:0:0:
64,192,222151,128,0,222696:0:0:0:0:
192,192,222151,128,0,222333:0:0:0:0:
320,192,222333,128,0,222515:0:0:0:0:
448,192,222515,128,0,222696:0:0:0:0:
64,192,222878,128,0,223151:0:0:0:0:
192,192,222878,128,0,223151:0:0:0:0:
320,192,222878,128,0,223151:0:0:0:0:
448,192,222878,128,0,223151:0:0:0:0:
64,192,223242,128,0,223515:0:0:0:0:
192,192,223242,128,0,223515:0:0:0:0:
320,192,223242,128,0,223515:0:0:0:0:
448,192,223242,128,0,223515:0:0:0:0:
64,192,223605,128,0,223696:0:0:0:0:
192,192,223605,128,0,223696:0:0:0:0:
320,192,223605,128,0,223696:0:0:0:0:
448,192,223605,128,0,223696:0:0:0:0:
64,192,223787,1,0,0:0:0:0:
448,192,223787,1,0,0:0:0:0:
192,192,223878,1,0,0:0:0:0:
320,192,223878,1,0,0:0:0:0:
64,192,223969,1,0,0:0:0:0:
448,192,223969,1,0,0:0:0:0:
192,192,224060,1,0,0:0:0:0:
320,192,224060,1,0,0:0:0:0:
64,192,224151,1,0,0:0:0:0:
448,192,224151,1,0,0:0:0:0:
192,192,224242,1,0,0:0:0:0:
320,192,224242,1,0,0:0:0:0:
64,192,224333,1,0,0:0:0:0:
448,192,224333,1,0,0:0:0:0:
192,192,224424,1,0,0:0:0:0:
320,192,224424,1,0,0:0:0:0:
64,192,224515,128,0,225605:0:0:0:0:
448,192,224515,128,0,224696:0:0:0:0:
320,192,224515,128,0,224605:0:0:0:0:
192,192,224605,128,0,224696:0:0:0:0:
320,192,224696,128,0,224878:0:0:0:0:
448,192,224787,128,0,224878:0:0:0:0:
192,192,224878,128,0,225060:0:0:0:0:
320,192,224969,128,0,225060:0:0:0:0:
448,192,225060,128,0,225242:0:0:0:0:
320,192,225242,128,0,225424:0:0:0:0:
192,192,225242,128,0,225515:0:0:0:0:
448,192,225424,128,0,225605:0:0:0:0:
320,192,225605,128,0,225787:0:0:0:0:
192,192,225605,128,0,225696:0:0:0:0:
448,192,225696,128,0,225787:0:0:0:0:
64,192,225787,128,0,225969:0:0:0:0:
192,192,225787,128,0,226060:0:0:0:0:
448,192,225969,128,0,226242:0:0:0:0:
320,192,225969,128,0,226151:0:0:0:0:
64,192,226060,128,0,226151:0:0:0:0:
192,192,226151,128,0,226333:0:0:0:0:
320,192,226333,128,0,226605:0:0:0:0:
64,192,226333,128,0,226515:0:0:0:0:
448,192,226333,128,0,226424:0:0:0:0:
192,192,226424,128,0,226515:0:0:0:0:
448,192,226515,128,0,226696:0:0:0:0:
64,192,226605,128,0,226696:0:0:0:0:
192,192,226696,128,0,226787:0:0:0:0:
320,192,226696,128,0,226878:0:0:0:0:
64,192,226878,128,0,227151:0:0:0:0:
448,192,226878,128,0,227060:0:0:0:0:
192,192,226878,128,0,226969:0:0:0:0:
320,192,226969,128,0,227060:0:0:0:0:
192,192,227060,128,0,227242:0:0:0:0:
448,192,227242,128,0,228878:0:0:0:0:
320,192,227242,128,0,227424:0:0:0:0:
64,192,227242,128,0,227333:0:0:0:0:
192,192,227333,128,0,227424:0:0:0:0:
64,192,227424,128,0,227605:0:0:0:0:
192,192,227515,128,0,227605:0:0:0:0:
320,192,227605,128,0,227787:0:0:0:0:
64,192,227787,128,0,228151:0:0:0:0:
192,192,227787,128,0,227969:0:0:0:0:
320,192,227969,128,0,228151:0:0:0:0:
192,192,228151,128,0,228515:0:0:0:0:
320,192,228242,128,0,228333:0:0:0:0:
64,192,228333,128,0,228515:0:0:0:0:
320,192,228515,128,0,228878:0:0:0:0:
64,192,228605,128,0,228696:0:0:0:0:
192,192,228696,128,0,228878:0:0:0:0:
64,192,228878,128,0,229424:0:0:0:0:
192,192,228969,128,0,229060:0:0:0:0:
448,192,229060,128,0,229242:0:0:0:0:
320,192,229060,128,0,229151:0:0:0:0:
192,192,229151,128,0,229242:0:0:0:0:
320,192,229242,128,0,229424:0:0:0:0:
192,192,229424,128,0,229969:0:0:0:0:
448,192,229424,128,0,229605:0:0:0:0:
64,192,229605,128,0,229787:0:0:0:0:
320,192,229605,128,0,229787:0:0:0:0:
448,192,229787,128,0,230060:0:0:0:0:
64,192,229878,128,0,229969:0:0:0:0:
320,192,229969,128,0,230333:0:0:0:0:
64,192,230151,128,0,231424:0:0:0:0:
192,192,230151,128,0,230333:0:0:0:0:
448,192,230151,128,0,230242:0:0:0:0:
448,192,230333,128,0,231060:0:0:0:0:
320,192,230424,128,0,230515:0:0:0:0:
192,192,230515,128,0,230696:0:0:0:0:
320,192,230696,128,0,230878:0:0:0:0:
192,192,230878,128,0,231060:0:0:0:0:
320,192,231060,128,0,231151:0:0:0:0:
192,192,231151,128,0,231242:0:0:0:0:
320,192,231242,128,0,231333:0:0:0:0:
448,192,231333,128,0,231424:0:0:0:0:
320,192,231424,128,0,231515:0:0:0:0:
192,192,231515,128,0,231605:0:0:0:0:
320,192,231605,128,0,231696:0:0:0:0:
448,192,231696,128,0,231787:0:0:0:0:
64,192,231787,128,0,232060:0:0:0:0:
192,192,231787,128,0,231969:0:0:0:0:
320,192,231787,128,0,231878:0:0:0:0:
448,192,231878,128,0,231969:0:0:0:0:
320,192,231969,128,0,232151:0:0:0:0:
192,192,232151,128,0,232515:0:0:0:0:
448,192,232151,128,0,232333:0:0:0:0:
64,192,232151,128,0,232242:0:0:0:0:
320,192,232333,128,0,232515:0:0:0:0:
64,192,232333,128,0,232424:0:0:0:0:
448,192,232515,128,0,232696:0:0:0:0:
64,192,232515,128,0,232696:0:0:0:0:
320,192,232696,128,0,232787:0:0:0:0:
192,192,232696,128,0,232878:0:0:0:0:
64,192,232787,128,0,232878:0:0:0:0:
320,192,232878,128,0,233060:0:0:0:0:
448,192,232878,128,0,233060:0:0:0:0:
64,192,233060,128,0,234787:0:0:0:0:
192,192,233060,128,0,233242:0:0:0:0:
448,192,233242,128,0,233605:0:0:0:0:
320,192,233242,128,0,233424:0:0:0:0:
192,192,233424,128,0,233605:0:0:0:0:
320,192,233605,128,0,233969:0:0:0:0:
448,192,233696,128,0,233787:0:0:0:0:
192,192,233787,128,0,233969:0:0:0:0:
448,192,233969,128,0,234333:0:0:0:0:
320,192,234060,128,0,234151:0:0:0:0:
192,192,234151,128,0,234333:0:0:0:0:
320,192,234333,128,0,234696:0:0:0:0:
192,192,234424,128,0,234515:0:0:0:0:
448,192,234515,128,0,234696:0:0:0:0:
192,192,234696,128,0,235242:0:0:0:0:
320,192,234787,128,0,234878:0:0:0:0:
448,192,234878,128,0,235060:0:0:0:0:
64,192,234878,128,0,234969:0:0:0:0:
320,192,234969,128,0,235060:0:0:0:0:
64,192,235060,128,0,235242:0:0:0:0:
320,192,235242,128,0,235787:0:0:0:0:
448,192,235242,128,0,235424:0:0:0:0:
64,192,235333,128,0,235424:0:0:0:0:
192,192,235424,128,0,235605:0:0:0:0:
448,192,235515,128,0,235605:0:0:0:0:
64,192,235605,128,0,235787:0:0:0:0:
448,192,235787,128,0,236151:0:0:0:0:
192,192,235787,128,0,235969:0:0:0:0:
64,192,235878,128,0,235969:0:0:0:0:
320,192,235969,128,0,236151:0:0:0:0:
64,192,236151,128,0,237605:0:0:0:0:
192,192,236151,128,0,236333:0:0:0:0:
448,192,236242,128,0,236333:0:0:0:0:
320,192,236333,128,0,236515:0:0:0:0:
192,192,236424,128,0,236515:0:0:0:0:
448,192,236515,128,0,236696:0:0:0:0:
320,192,236605,128,0,236696:0:0:0:0:
192,192,236696,128,0,236878:0:0:0:0:
448,192,236787,128,0,236878:0:0:0:0:
320,192,236878,128,0,237060:0:0:0:0:
192,192,236969,128,0,237060:0:0:0:0:
448,192,237060,128,0,237242:0:0:0:0:
320,192,237151,128,0,237242:0:0:0:0:
192,192,237242,128,0,237424:0:0:0:0:
320,192,237333,128,0,237424:0:0:0:0:
448,192,237424,128,0,237605:0:0:0:0:
320,192,237605,128,0,237969:0:0:0:0:
192,192,237605,128,0,237787:0:0:0:0:
64,192,237696,128,0,237787:0:0:0:0:
448,192,237787,128,0,237969:0:0:0:0:
64,192,237969,128,0,238151:0:0:0:0:
192,192,237969,128,0,238333:0:0:0:0:
320,192,238060,128,0,238151:0:0:0:0:
448,192,238151,128,0,238333:0:0:0:0:
320,192,238333,128,0,238515:0:0:0:0:
64,192,238333,128,0,238696:0:0:0:0:
192,192,238424,128,0,238515:0:0:0:0:
448,192,238515,128,0,238696:0:0:0:0:
320,192,238605,128,0,238696:0:0:0:0:
192,192,238696,128,0,239060:0:0:0:0:
64,192,238787,128,0,238878:0:0:0:0:
320,192,238878,128,0,239060:0:0:0:0:
448,192,238878,128,0,238969:0:0:0:0:
448,192,239060,128,0,239787:0:0:0:0:
64,192,239060,128,0,239605:0:0:0:0:
192,192,239151,128,0,239242:0:0:0:0:
320,192,239242,128,0,239424:0:0:0:0:
192,192,239424,128,0,239605:0:0:0:0:
320,192,239515,128,0,239605:0:0:0:0:
64,192,239696,128,0,239787:0:0:0:0:
192,192,239787,128,0,239969:0:0:0:0:
320,192,239787,128,0,239969:0:0:0:0:
448,192,239969,128,0,240151:0:0:0:0:
64,192,239969,128,0,240242:0:0:0:0:
192,192,240060,128,0,240151:0:0:0:0:
320,192,240151,128,0,240333:0:0:0:0:
64,192,240333,128,0,241242:0:0:0:0:
192,192,240333,128,0,240696:0:0:0:0:
448,192,240333,128,0,240515:0:0:0:0:
320,192,240515,128,0,240696:0:0:0:0:
448,192,240696,128,0,240878:0:0:0:0:
192,192,240787,128,0,240878:0:0:0:0:
320,192,240878,128,0,241060:0:0:0:0:
448,192,240969,128,0,241060:0:0:0:0:
192,192,241060,128,0,241242:0:0:0:0:
320,192,241242,128,0,241333:0:0:0:0:
448,192,241242,128,0,241515:0:0:0:0:
192,192,241333,128,0,241424:0:0:0:0:
64,192,241424,128,0,241515:0:0:0:0:
192,192,241515,128,0,241605:0:0:0:0:
320,192,241605,128,0,241696:0:0:0:0:
448,192,241605,128,0,241696:0:0:0:0:
192,192,241696,128,0,241787:0:0:0:0:
64,192,241787,128,0,241878:0:0:0:0:
448,192,241787,128,0,242333:0:0:0:0:
192,192,241878,128,0,241969:0:0:0:0:
320,192,241969,128,0,242696:0:0:0:0:
64,192,241969,128,0,242151:0:0:0:0:
192,192,242151,128,0,242333:0:0:0:0:
64,192,242333,128,0,242515:0:0:0:0:
192,192,242424,128,0,242515:0:0:0:0:
448,192,242515,128,0,242696:0:0:0:0:
64,192,242696,128,0,242878:0:0:0:0:
192,192,242696,128,0,242878:0:0:0:0:
320,192,242878,128,0,242969:0:0:0:0:
448,192,242878,128,0,243060:0:0:0:0:
64,192,242969,128,0,243060:0:0:0:0:
320,192,243060,128,0,243242:0:0:0:0:
192,192,243060,128,0,243151:0:0:0:0:
192,192,243242,128,0,244878:0:0:0:0:
64,192,243242,128,0,243969:0:0:0:0:
448,192,243242,128,0,243424:0:0:0:0:
320,192,243424,128,0,243605:0:0:0:0:
448,192,243605,128,0,243787:0:0:0:0:
320,192,243787,128,0,243969:0:0:0:0:
448,192,243969,128,0,244151:0:0:0:0:
320,192,244151,128,0,244878:0:0:0:0:
64,192,244151,128,0,244333:0:0:0:0:
448,192,244333,128,0,244515:0:0:0:0:
64,192,244515,128,0,244696:0:0:0:0:
448,192,244605,128,0,244696:0:0:0:0:
448,192,244878,128,0,247787:0:0:0:0:
64,192,244878,128,0,246151:0:0:0:0:
192,192,244969,128,0,245060:0:0:0:0:
320,192,245060,128,0,245242:0:0:0:0:
192,192,245242,128,0,245424:0:0:0:0:
320,192,245424,128,0,245605:0:0:0:0:
192,192,245605,128,0,245787:0:0:0:0:
320,192,245787,128,0,245969:0:0:0:0:
192,192,245969,128,0,246151:0:0:0:0:
320,192,246151,128,0,246333:0:0:0:0:
192,192,246333,128,0,246424:0:0:0:0:
64,192,246424,128,0,246515:0:0:0:0:
320,192,246515,128,0,246605:0:0:0:0:
192,192,246605,128,0,246696:0:0:0:0:
64,192,246696,128,0,246787:0:0:0:0:
320,192,246787,128,0,246878:0:0:0:0:
192,192,246878,128,0,246969:0:0:0:0:
64,192,246969,128,0,247060:0:0:0:0:
320,192,247060,128,0,247242:0:0:0:0:
192,192,247060,1,0,0:0:0:0:
64,192,247151,1,0,0:0:0:0:
64,192,247242,128,0,247515:0:0:0:0:
192,192,247242,1,0,0:0:0:0:
320,192,247333,1,0,0:0:0:0:
192,192,247424,1,0,0:0:0:0:
320,192,247515,1,0,0:0:0:0:
320,192,247605,128,0,248878:0:0:0:0:
192,192,247605,1,0,0:0:0:0:
64,192,247696,1,0,0:0:0:0:
64,192,247787,128,0,248151:0:0:0:0:
192,192,247787,128,0,247969:0:0:0:0:
448,192,247878,128,0,247969:0:0:0:0:
192,192,248151,128,0,249060:0:0:0:0:
448,192,248151,128,0,248333:0:0:0:0:
64,192,248242,128,0,248333:0:0:0:0:
448,192,248424,128,0,248515:0:0:0:0:
64,192,248515,128,0,248696:0:0:0:0:
448,192,248696,128,0,248878:0:0:0:0:
64,192,248878,128,0,249060:0:0:0:0:
448,192,248969,128,0,249060:0:0:0:0:
320,192,249060,128,0,249242:0:0:0:0:
192,192,249151,128,0,249242:0:0:0:0:
448,192,249242,128,0,249515:0:0:0:0:
64,192,249242,128,0,249424:0:0:0:0:
320,192,249333,128,0,249424:0:0:0:0:
192,192,249424,128,0,249605:0:0:0:0:
64,192,249605,128,0,249878:0:0:0:0:
320,192,249605,128,0,249787:0:0:0:0:
448,192,249605,128,0,249696:0:0:0:0:
192,192,249696,128,0,249787:0:0:0:0:
448,192,249787,128,0,249969:0:0:0:0:
320,192,249878,128,0,249969:0:0:0:0:
192,192,249969,128,0,250060:0:0:0:0:
64,192,249969,128,0,250151:0:0:0:0:
448,192,250060,128,0,250151:0:0:0:0:
320,192,250151,128,0,250424:0:0:0:0:
192,192,250151,128,0,250333:0:0:0:0:
64,192,250242,128,0,250333:0:0:0:0:
448,192,250333,128,0,250515:0:0:0:0:
64,192,250515,128,0,251969:0:0:0:0:
192,192,250515,128,0,250696:0:0:0:0:
320,192,250515,128,0,250605:0:0:0:0:
448,192,250696,128,0,250757:0:0:0:0:
320,192,250757,128,0,250818:0:0:0:0:
192,192,250818,128,0,250878:0:0:0:0:
448,192,250878,128,0,250969:0:0:0:0:
192,192,250969,128,0,251060:0:0:0:0:
448,192,251060,128,0,251424:0:0:0:0:
320,192,251060,128,0,251242:0:0:0:0:
192,192,251242,128,0,251424:0:0:0:0:
320,192,251424,128,0,251787:0:0:0:0:
192,192,251515,128,0,251605:0:0:0:0:
448,192,251605,128,0,251787:0:0:0:0:
192,192,251787,128,0,252151:0:0:0:0:
320,192,251878,128,0,251969:0:0:0:0:
448,192,251969,128,0,252151:0:0:0:0:
64,192,252151,128,0,252696:0:0:0:0:
320,192,252151,128,0,252333:0:0:0:0:
448,192,252242,128,0,252333:0:0:0:0:
192,192,252333,128,0,252515:0:0:0:0:
320,192,252424,128,0,252515:0:0:0:0:
448,192,252515,128,0,252696:0:0:0:0:
192,192,252696,128,0,253242:0:0:0:0:
320,192,252696,128,0,252878:0:0:0:0:
64,192,252787,128,0,252878:0:0:0:0:
448,192,252878,128,0,253060:0:0:0:0:
320,192,252969,128,0,253060:0:0:0:0:
64,192,253060,128,0,253333:0:0:0:0:
448,192,253151,128,0,253242:0:0:0:0:
320,192,253242,128,0,253424:0:0:0:0:
448,192,253424,128,0,254333:0:0:0:0:
64,192,253424,128,0,254696:0:0:0:0:
192,192,253424,128,0,253605:0:0:0:0:
320,192,253605,128,0,253787:0:0:0:0:
192,192,253787,128,0,253969:0:0:0:0:
320,192,253969,128,0,254151:0:0:0:0:
192,192,254151,128,0,254333:0:0:0:0:
320,192,254333,128,0,254424:0:0:0:0:
192,192,254424,128,0,254515:0:0:0:0:
448,192,254515,128,0,254605:0:0:0:0:
192,192,254605,128,0,254696:0:0:0:0:
320,192,254696,128,0,254787:0:0:0:0:
448,192,254787,128,0,254878:0:0:0:0:
320,192,254878,128,0,254969:0:0:0:0:
192,192,254969,128,0,255060:0:0:0:0:
64,192,255060,128,0,255333:0:0:0:0:
320,192,255060,128,0,255333:0:0:0:0:
448,192,255060,128,0,255151:0:0:0:0:
192,192,255151,128,0,255242:0:0:0:0:
448,192,255242,128,0,255333:0:0:0:0:
192,192,255333,128,0,255424:0:0:0:0:
448,192,255424,128,0,255696:0:0:0:0:
320,192,255424,128,0,255696:0:0:0:0:
64,192,255424,128,0,255515:0:0:0:0:
192,192,255515,128,0,255605:0:0:0:0:
64,192,255605,128,0,255696:0:0:0:0:
192,192,255696,128,0,255787:0:0:0:0:
320,192,255787,128,0,255878:0:0:0:0:
64,192,255787,128,0,255878:0:0:0:0:
192,192,255878,128,0,255969:0:0:0:0:
448,192,255969,128,0,256333:0:0:0:0:
320,192,255969,128,0,256060:0:0:0:0:
64,192,256060,128,0,256151:0:0:0:0:
192,192,256151,128,0,256242:0:0:0:0:
320,192,256242,128,0,256333:0:0:0:0:
64,192,256333,128,0,258151:0:0:0:0:
192,192,256333,128,0,256424:0:0:0:0:
320,192,256424,128,0,256515:0:0:0:0:
448,192,256515,128,0,256605:0:0:0:0:
192,192,256605,128,0,256696:0:0:0:0:
320,192,256696,128,0,256878:0:0:0:0:
448,192,256696,128,0,256787:0:0:0:0:
192,192,256878,128,0,257060:0:0:0:0:
448,192,256878,128,0,257060:0:0:0:0:
320,192,257060,128,0,257242:0:0:0:0:
448,192,257242,128,0,257424:0:0:0:0:
192,192,257242,128,0,257424:0:0:0:0:
320,192,257424,128,0,257605:0:0:0:0:
192,192,257605,128,0,257787:0:0:0:0:
448,192,257605,128,0,257787:0:0:0:0:
320,192,257787,128,0,257969:0:0:0:0:
448,192,257969,128,0,258151:0:0:0:0:
192,192,257969,128,0,258151:0:0:0:0:
320,192,258151,128,0,258333:0:0:0:0:
64,192,258242,128,0,258333:0:0:0:0:
192,192,258333,128,0,258515:0:0:0:0:
448,192,258333,128,0,258515:0:0:0:0:
64,192,258515,128,0,258696:0:0:0:0:
320,192,258515,128,0,258696:0:0:0:0:
448,192,258696,128,0,258969:0:0:0:0:
192,192,258696,128,0,259060:0:0:0:0:
64,192,258787,128,0,258878:0:0:0:0:
320,192,258878,128,0,258969:0:0:0:0:
320,192,259060,128,0,259333:0:0:0:0:
64,192,259060,128,0,259424:0:0:0:0:
448,192,259060,128,0,259151:0:0:0:0:
192,192,259242,128,0,259333:0:0:0:0:
192,192,259424,128,0,260787:0:0:0:0:
448,192,259424,128,0,259787:0:0:0:0:
320,192,259424,1,0,0:0:0:0:
64,192,259515,128,0,259605:0:0:0:0:
320,192,259605,128,0,259696:0:0:0:0:
320,192,259787,128,0,260151:0:0:0:0:
64,192,259787,128,0,259969:0:0:0:0:
448,192,259969,128,0,260151:0:0:0:0:
64,192,260151,128,0,260515:0:0:0:0:
320,192,260333,128,0,260515:0:0:0:0:
448,192,260333,128,0,260424:0:0:0:0:
448,192,260515,128,0,260696:0:0:0:0:
320,192,260696,128,0,260878:0:0:0:0:
64,192,260696,128,0,260878:0:0:0:0:
192,192,260878,128,0,261151:0:0:0:0:
448,192,260878,128,0,261060:0:0:0:0:
64,192,260969,128,0,261060:0:0:0:0:
320,192,261060,128,0,261242:0:0:0:0:
192,192,261242,128,0,261515:0:0:0:0:
448,192,261242,128,0,261605:0:0:0:0:
64,192,261242,128,0,261424:0:0:0:0:
320,192,261424,128,0,261605:0:0:0:0:
64,192,261605,128,0,261878:0:0:0:0:
192,192,261605,128,0,261969:0:0:0:0:
448,192,261696,128,0,261787:0:0:0:0:
320,192,261787,128,0,261878:0:0:0:0:
448,192,261969,128,0,262242:0:0:0:0:
320,192,261969,128,0,262333:0:0:0:0:
64,192,261969,128,0,262151:0:0:0:0:
192,192,262060,128,0,262151:0:0:0:0:
64,192,262333,128,0,262969:0:0:0:0:
192,192,262333,128,0,263060:0:0:0:0:
448,192,262333,128,0,262424:0:0:0:0:
320,192,262424,128,0,262515:0:0:0:0:
448,192,262515,128,0,262605:0:0:0:0:
320,192,262605,128,0,262696:0:0:0:0:
448,192,262696,128,0,262787:0:0:0:0:
320,192,262787,128,0,262878:0:0:0:0:
448,192,262878,128,0,262969:0:0:0:0:
320,192,262969,128,0,263060:0:0:0:0:
448,192,263060,128,0,263151:0:0:0:0:
64,192,263060,128,0,263242:0:0:0:0:
320,192,263242,128,0,263605:0:0:0:0:
192,192,263242,128,0,263424:0:0:0:0:
448,192,263242,128,0,263333:0:0:0:0:
64,192,263424,128,0,263605:0:0:0:0:
448,192,263424,128,0,263515:0:0:0:0:
192,192,263605,128,0,264060:0:0:0:0:
448,192,263605,128,0,264515:0:0:0:0:
320,192,263696,128,0,263787:0:0:0:0:
64,192,263787,128,0,263878:0:0:0:0:
320,192,263878,128,0,263969:0:0:0:0:
64,192,263969,128,0,264060:0:0:0:0:
320,192,264151,128,0,264333:0:0:0:0:
192,192,264151,128,0,264242:0:0:0:0:
64,192,264242,128,0,264333:0:0:0:0:
192,192,264333,128,0,264515:0:0:0:0:
64,192,264515,128,0,264787:0:0:0:0:
320,192,264515,128,0,264605:0:0:0:0:
192,192,264605,128,0,264696:0:0:0:0:
448,192,264696,128,0,264787:0:0:0:0:
320,192,264787,128,0,264878:0:0:0:0:
448,192,264878,128,0,265060:0:0:0:0:
192,192,264878,128,0,264969:0:0:0:0:
64,192,264969,128,0,265060:0:0:0:0:
320,192,265060,128,0,265605:0:0:0:0:
192,192,265060,128,0,265151:0:0:0:0:
64,192,265151,128,0,265242:0:0:0:0:
448,192,265242,128,0,265605:0:0:0:0:
192,192,265242,128,0,265424:0:0:0:0:
64,192,265424,128,0,265605:0:0:0:0:
192,192,265605,128,0,265787:0:0:0:0:
320,192,265696,128,0,265787:0:0:0:0:
448,192,265787,128,0,265969:0:0:0:0:
64,192,265787,128,0,265878:0:0:0:0:
192,192,265878,128,0,265969:0:0:0:0:
64,192,265969,128,0,266151:0:0:0:0:
320,192,265969,128,0,266151:0:0:0:0:
192,192,266151,128,0,266333:0:0:0:0:
448,192,266151,128,0,266333:0:0:0:0:
320,192,266333,128,0,266515:0:0:0:0:
64,192,266333,128,0,266515:0:0:0:0:
448,192,266515,128,0,267060:0:0:0:0:
192,192,266515,128,0,266696:0:0:0:0:
320,192,266696,128,0,267060:0:0:0:0:
64,192,266696,128,0,266878:0:0:0:0:
192,192,266878,128,0,267060:0:0:0:0:
64,192,267060,128,0,267242:0:0:0:0:
320,192,267151,128,0,267242:0:0:0:0:
192,192,267242,128,0,267424:0:0:0:0:
448,192,267242,128,0,267333:0:0:0:0:
448,192,267424,128,0,268060:0:0:0:0:
320,192,267424,128,0,268151:0:0:0:0:
64,192,267424,128,0,267605:0:0:0:0:
192,192,267605,128,0,267787:0:0:0:0:
64,192,267787,128,0,267969:0:0:0:0:
192,192,267969,128,0,268060:0:0:0:0:
192,192,268151,128,0,268605:0:0:0:0:
448,192,268151,128,0,268696:0:0:0:0:
64,192,268151,1,0,0:0:0:0:
320,192,268242,128,0,268333:0:0:0:0:
64,192,268333,128,0,268424:0:0:0:0:
320,192,268424,128,0,268515:0:0:0:0:
64,192,268515,128,0,268605:0:0:0:0:
320,192,268696,128,0,269060:0:0:0:0:
192,192,268696,128,0,269060:0:0:0:0:
64,192,268696,1,0,0:0:0:0:
448,192,268787,128,0,268878:0:0:0:0:
64,192,268878,128,0,268969:0:0:0:0:
64,192,269060,128,0,269242:0:0:0:0:
448,192,269060,128,0,269242:0:0:0:0:
320,192,269242,128,0,269333:0:0:0:0:
192,192,269242,128,0,269424:0:0:0:0:
320,192,269424,128,0,269696:0:0:0:0:
64,192,269424,128,0,269787:0:0:0:0:
448,192,269424,1,0,0:0:0:0:
192,192,269515,128,0,269605:0:0:0:0:
448,192,269605,128,0,269696:0:0:0:0:
448,192,269787,128,0,269969:0:0:0:0:
192,192,269787,128,0,269969:0:0:0:0:
320,192,269787,128,0,269878:0:0:0:0:
320,192,269969,128,0,270060:0:0:0:0:
64,192,269969,128,0,270151:0:0:0:0:
192,192,270151,128,0,270424:0:0:0:0:
448,192,270151,128,0,270515:0:0:0:0:
320,192,270151,1,0,0:0:0:0:
320,192,270242,128,0,270333:0:0:0:0:
64,192,270333,128,0,270424:0:0:0:0:
64,192,270515,128,0,270605:0:0:0:0:
320,192,270515,128,0,270696:0:0:0:0:
192,192,270515,128,0,270605:0:0:0:0:
448,192,270696,128,0,271060:0:0:0:0:
192,192,270696,128,0,271060:0:0:0:0:
64,192,270696,128,0,270787:0:0:0:0:
320,192,270787,128,0,270878:0:0:0:0:
64,192,270878,128,0,270969:0:0:0:0:
64,192,271060,128,0,271242:0:0:0:0:
320,192,271060,128,0,271242:0:0:0:0:
192,192,271242,128,0,271424:0:0:0:0:
448,192,271242,128,0,271424:0:0:0:0:
64,192,271333,128,0,271424:0:0:0:0:
320,192,271424,128,0,271605:0:0:0:0:
64,192,271515,128,0,271605:0:0:0:0:
448,192,271605,128,0,271787:0:0:0:0:
192,192,271605,128,0,271787:0:0:0:0:
320,192,271696,128,0,271787:0:0:0:0:
64,192,271787,128,0,271969:0:0:0:0:
448,192,271878,128,0,271969:0:0:0:0:
320,192,271969,128,0,272151:0:0:0:0:
192,192,271969,128,0,272151:0:0:0:0:
64,192,272060,128,0,272151:0:0:0:0:
448,192,272151,128,0,272333:0:0:0:0:
320,192,272242,128,0,272333:0:0:0:0:
192,192,272333,128,0,272515:0:0:0:0:
64,192,272333,128,0,272515:0:0:0:0:
448,192,272424,128,0,272515:0:0:0:0:
320,192,272515,128,0,272696:0:0:0:0:
64,192,272605,128,0,272696:0:0:0:0:
448,192,272696,128,0,272878:0:0:0:0:
192,192,272696,128,0,272878:0:0:0:0:
320,192,272878,128,0,273060:0:0:0:0:
64,192,272878,128,0,273060:0:0:0:0:
192,192,273060,128,0,273242:0:0:0:0:
448,192,273060,128,0,273242:0:0:0:0:
64,192,273242,128,0,273424:0:0:0:0:
320,192,273242,128,0,273424:0:0:0:0:
192,192,273424,128,0,273605:0:0:0:0:
448,192,273424,128,0,273605:0:0:0:0:
320,192,273605,128,0,273787:0:0:0:0:
64,192,273605,128,0,273787:0:0:0:0:
448,192,273787,128,0,273969:0:0:0:0:
192,192,273787,128,0,273969:0:0:0:0:
64,192,273969,128,0,274151:0:0:0:0:
320,192,273969,128,0,274878:0:0:0:0:
192,192,274151,128,0,274424:0:0:0:0:
448,192,274151,128,0,274333:0:0:0:0:
64,192,274333,128,0,274515:0:0:0:0:
192,192,274515,128,0,274787:0:0:0:0:
448,192,274515,128,0,274696:0:0:0:0:
64,192,274696,128,0,274878:0:0:0:0:
192,192,274878,128,0,275151:0:0:0:0:
448,192,274878,128,0,275060:0:0:0:0:
320,192,274969,128,0,275060:0:0:0:0:
64,192,275060,128,0,275242:0:0:0:0:
320,192,275242,128,0,275515:0:0:0:0:
192,192,275242,128,0,275424:0:0:0:0:
448,192,275242,128,0,275424:0:0:0:0:
64,192,275424,128,0,276515:0:0:0:0:
448,192,275605,128,0,275696:0:0:0:0:
192,192,275605,128,0,275787:0:0:0:0:
320,192,275605,128,0,275696:0:0:0:0:
320,192,275787,128,0,276424:0:0:0:0:
448,192,275787,128,0,275969:0:0:0:0:
192,192,275969,128,0,276151:0:0:0:0:
448,192,276151,128,0,276333:0:0:0:0:
192,192,276333,128,0,276515:0:0:0:0:
448,192,276515,128,0,276696:0:0:0:0:
320,192,276515,128,0,276605:0:0:0:0:
64,192,276605,128,0,276696:0:0:0:0:
320,192,276696,128,0,276878:0:0:0:0:
192,192,276696,128,0,276878:0:0:0:0:
64,192,276878,128,0,277060:0:0:0:0:
448,192,276878,128,0,277060:0:0:0:0:
192,192,277060,128,0,277242:0:0:0:0:
320,192,277060,128,0,277242:0:0:0:0:
448,192,277151,128,0,277242:0:0:0:0:
64,192,277242,128,0,277424:0:0:0:0:
320,192,277333,128,0,277424:0:0:0:0:
448,192,277424,128,0,277605:0:0:0:0:
192,192,277424,128,0,277605:0:0:0:0:
320,192,277515,128,0,277605:0:0:0:0:
64,192,277605,128,0,277787:0:0:0:0:
192,192,277696,128,0,277787:0:0:0:0:
320,192,277787,128,0,277969:0:0:0:0:
448,192,277787,128,0,277969:0:0:0:0:
192,192,277878,128,0,277969:0:0:0:0:
64,192,277969,128,0,278151:0:0:0:0:
320,192,278060,128,0,278151:0:0:0:0:
192,192,278151,128,0,278333:0:0:0:0:
448,192,278151,128,0,278333:0:0:0:0:
64,192,278242,128,0,278333:0:0:0:0:
320,192,278333,128,0,278515:0:0:0:0:
448,192,278424,128,0,278515:0:0:0:0:
64,192,278515,128,0,278787:0:0:0:0:
192,192,278515,128,0,278696:0:0:0:0:
448,192,278605,128,0,278696:0:0:0:0:
320,192,278696,128,0,278878:0:0:0:0:
192,192,278878,128,0,279060:0:0:0:0:
448,192,278878,128,0,279060:0:0:0:0:
64,192,278878,128,0,278969:0:0:0:0:
320,192,279060,128,0,279242:0:0:0:0:
64,192,279060,128,0,279424:0:0:0:0:
448,192,279242,128,0,279424:0:0:0:0:
192,192,279242,128,0,279424:0:0:0:0:
320,192,279424,128,0,279605:0:0:0:0:
64,192,279515,128,0,279605:0:0:0:0:
192,192,279605,128,0,279696:0:0:0:0:
448,192,279605,128,0,279787:0:0:0:0:
64,192,279787,128,0,280151:0:0:0:0:
320,192,279787,128,0,279969:0:0:0:0:
192,192,279787,128,0,279878:0:0:0:0:
448,192,279878,128,0,279969:0:0:0:0:
192,192,279969,128,0,280151:0:0:0:0:
320,192,280151,128,0,280333:0:0:0:0:
448,192,280151,128,0,280333:0:0:0:0:
192,192,280333,128,0,280515:0:0:0:0:
64,192,280333,128,0,280515:0:0:0:0:
320,192,280424,128,0,280515:0:0:0:0:
448,192,280515,128,0,280696:0:0:0:0:
64,192,280605,128,0,280696:0:0:0:0:
192,192,280696,128,0,280878:0:0:0:0:
320,192,280696,128,0,280878:0:0:0:0:
64,192,280787,128,0,280878:0:0:0:0:
448,192,280878,128,0,281060:0:0:0:0:
192,192,280969,128,0,281060:0:0:0:0:
64,192,281060,128,0,281424:0:0:0:0:
320,192,281060,128,0,281151:0:0:0:0:
448,192,281151,128,0,281242:0:0:0:0:
192,192,281242,128,0,281424:0:0:0:0:
320,192,281242,128,0,281333:0:0:0:0:
448,192,281424,128,0,281787:0:0:0:0:
320,192,281424,128,0,281605:0:0:0:0:
64,192,281515,128,0,281605:0:0:0:0:
192,192,281605,128,0,281787:0:0:0:0:
64,192,281787,128,0,282333:0:0:0:0:
320,192,281787,128,0,282242:0:0:0:0:
448,192,281878,128,0,281969:0:0:0:0:
192,192,281969,128,0,282060:0:0:0:0:
448,192,282060,128,0,282151:0:0:0:0:
192,192,282151,128,0,282242:0:0:0:0:
192,192,282333,128,0,282515:0:0:0:0:
448,192,282333,128,0,282696:0:0:0:0:
320,192,282333,1,0,0:0:0:0:
64,192,282424,1,0,0:0:0:0:
320,192,282515,1,0,0:0:0:0:
192,192,282605,1,0,0:0:0:0:
64,192,282696,128,0,282878:0:0:0:0:
320,192,282696,128,0,282878:0:0:0:0:
192,192,282696,128,0,282787:0:0:0:0:
192,192,282878,128,0,283151:0:0:0:0:
448,192,282878,128,0,283060:0:0:0:0:
64,192,282969,128,0,283060:0:0:0:0:
320,192,283060,128,0,283242:0:0:0:0:
64,192,283151,128,0,283242:0:0:0:0:
448,192,283242,128,0,283424:0:0:0:0:
192,192,283242,128,0,283424:0:0:0:0:
320,192,283333,128,0,283424:0:0:0:0:
64,192,283424,128,0,283605:0:0:0:0:
192,192,283515,128,0,283605:0:0:0:0:
320,192,283605,128,0,283787:0:0:0:0:
448,192,283605,128,0,283787:0:0:0:0:
64,192,283696,128,0,283787:0:0:0:0:
192,192,283787,128,0,283969:0:0:0:0:
64,192,283969,128,0,284333:0:0:0:0:
448,192,283969,128,0,284060:0:0:0:0:
320,192,284060,128,0,284151:0:0:0:0:
192,192,284151,128,0,284242:0:0:0:0:
448,192,284333,128,0,284515:0:0:0:0:
192,192,284333,128,0,284515:0:0:0:0:
320,192,284333,128,0,284424:0:0:0:0:
320,192,284515,128,0,284696:0:0:0:0:
64,192,284515,128,0,284696:0:0:0:0:
192,192,284696,128,0,284878:0:0:0:0:
448,192,284696,128,0,284878:0:0:0:0:
64,192,284878,128,0,285060:0:0:0:0:
320,192,284878,128,0,285060:0:0:0:0:
448,192,285060,128,0,285242:0:0:0:0:
192,192,285060,128,0,285242:0:0:0:0:
320,192,285242,128,0,285424:0:0:0:0:
64,192,285242,128,0,285424:0:0:0:0:
192,192,285333,128,0,285424:0:0:0:0:
448,192,285424,128,0,285605:0:0:0:0:
320,192,285605,128,0,285787:0:0:0:0:
192,192,285605,128,0,286060:0:0:0:0:
64,192,285605,128,0,285787:0:0:0:0:
448,192,285787,128,0,286060:0:0:0:0:
64,192,285878,128,0,285969:0:0:0:0:
320,192,285969,128,0,286151:0:0:0:0:
192,192,286151,128,0,286424:0:0:0:0:
64,192,286151,128,0,286333:0:0:0:0:
448,192,286151,128,0,286242:0:0:0:0:
320,192,286242,128,0,286333:0:0:0:0:
448,192,286333,128,0,286515:0:0:0:0:
64,192,286424,128,0,286515:0:0:0:0:
320,192,286515,128,0,286787:0:0:0:0:
192,192,286515,128,0,286696:0:0:0:0:
64,192,286605,128,0,286696:0:0:0:0:
448,192,286696,128,0,286878:0:0:0:0:
64,192,286878,128,0,287151:0:0:0:0:
192,192,286878,128,0,287242:0:0:0:0:
320,192,286878,128,0,287060:0:0:0:0:
448,192,287060,128,0,287242:0:0:0:0:
320,192,287242,128,0,287424:0:0:0:0:
64,192,287242,128,0,287424:0:0:0:0:
448,192,287424,128,0,288060:0:0:0:0:
192,192,287424,128,0,287605:0:0:0:0:
320,192,287605,128,0,288151:0:0:0:0:
64,192,287605,128,0,287696:0:0:0:0:
192,192,287787,128,0,287878:0:0:0:0:
64,192,287878,128,0,287969:0:0:0:0:
192,192,287969,128,0,288060:0:0:0:0:
64,192,288060,128,0,288151:0:0:0:0:
448,192,288151,128,0,288242:0:0:0:0:
320,192,288242,128,0,288333:0:0:0:0:
192,192,288333,128,0,288424:0:0:0:0:
64,192,288424,128,0,288515:0:0:0:0:
448,192,288515,128,0,288878:0:0:0:0:
320,192,288515,128,0,288696:0:0:0:0:
192,192,288515,128,0,288605:0:0:0:0:
64,192,288605,128,0,288696:0:0:0:0:
192,192,288696,128,0,288878:0:0:0:0:
320,192,288787,128,0,288878:0:0:0:0:
64,192,288878,128,0,289060:0:0:0:0:
192,192,288969,128,0,289060:0:0:0:0:
320,192,289060,128,0,289424:0:0:0:0:
448,192,289060,128,0,289242:0:0:0:0:
192,192,289151,128,0,289242:0:0:0:0:
64,192,289242,128,0,289424:0:0:0:0:
192,192,289424,128,0,289605:0:0:0:0:
448,192,289424,128,0,289605:0:0:0:0:
64,192,289605,128,0,289787:0:0:0:0:
320,192,289605,128,0,289787:0:0:0:0:
192,192,289787,128,0,290151:0:0:0:0:
448,192,289787,128,0,289969:0:0:0:0:
64,192,289969,128,0,290151:0:0:0:0:
320,192,289969,128,0,290060:0:0:0:0:
448,192,290151,128,0,290242:0:0:0:0:
320,192,290151,128,0,290333:0:0:0:0:
64,192,290242,128,0,290333:0:0:0:0:
448,192,290333,128,0,290515:0:0:0:0:
192,192,290333,128,0,290515:0:0:0:0:
320,192,290515,128,0,290696:0:0:0:0:
64,192,290515,128,0,290696:0:0:0:0:
448,192,290605,128,0,290696:0:0:0:0:
192,192,290696,128,0,290878:0:0:0:0:
448,192,290787,128,0,290878:0:0:0:0:
64,192,290878,128,0,291060:0:0:0:0:
320,192,290878,128,0,291060:0:0:0:0:
192,192,291060,128,0,291242:0:0:0:0:
448,192,291060,128,0,291242:0:0:0:0:
320,192,291242,128,0,291424:0:0:0:0:
64,192,291242,128,0,291424:0:0:0:0:
448,192,291424,128,0,293969:0:0:0:0:
192,192,291424,128,0,291605:0:0:0:0:
64,192,291515,128,0,291605:0:0:0:0:
320,192,291605,128,0,291787:0:0:0:0:
192,192,291696,128,0,291787:0:0:0:0:
64,192,291787,128,0,291969:0:0:0:0:
320,192,291878,128,0,291969:0:0:0:0:
192,192,291969,128,0,292151:0:0:0:0:
64,192,292060,128,0,292151:0:0:0:0:
320,192,292151,128,0,292333:0:0:0:0:
192,192,292242,128,0,292333:0:0:0:0:
64,192,292333,128,0,292515:0:0:0:0:
320,192,292424,128,0,292515:0:0:0:0:
192,192,292515,128,0,292696:0:0:0:0:
64,192,292605,128,0,292696:0:0:0:0:
320,192,292696,128,0,292878:0:0:0:0:
64,192,292878,128,0,293060:0:0:0:0:
192,192,292878,128,0,292969:0:0:0:0:
192,192,293060,128,0,293242:0:0:0:0:
320,192,293060,128,0,293151:0:0:0:0:
64,192,293242,128,0,293333:0:0:0:0:
320,192,293242,128,0,293424:0:0:0:0:
64,192,293424,128,0,293787:0:0:0:0:
192,192,293787,128,0,294333:0:0:0:0:
448,192,294333,128,0,295515:0:0:0:0:
320,192,294515,128,0,296424:0:0:0:0:
192,192,294878,128,0,296060:0:0:0:0:
64,192,295242,128,0,295878:0:0:0:0:
448,192,295605,128,0,296242:0:0:0:0:
64,192,295969,128,0,296787:0:0:0:0:
192,192,296151,128,0,296605:0:0:0:0:
448,192,296333,128,0,296969:0:0:0:0:
320,192,296515,128,0,297151:0:0:0:0:
192,192,296696,128,0,297333:0:0:0:0:
64,192,296878,128,0,297151:0:0:0:0:
448,192,297060,128,0,298424:0:0:0:0:
320,192,297242,128,0,298787:0:0:0:0:
64,192,297242,128,0,297696:0:0:0:0:
192,192,297424,128,0,298060:0:0:0:0:
64,192,297787,128,0,299333:0:0:0:0:
192,192,298151,128,0,298969:0:0:0:0:
448,192,298515,128,0,300060:0:0:0:0:
320,192,298878,128,0,300242:0:0:0:0:
192,192,299060,128,0,300060:0:0:0:0:
64,192,299424,128,0,300605:0:0:0:0:
448,192,300151,128,0,301696:0:0:0:0:
192,192,300151,128,0,300969:0:0:0:0:
320,192,300333,128,0,301333:0:0:0:0:
64,192,300696,128,0,301515:0:0:0:0:
192,192,301060,128,0,302060:0:0:0:0:
320,192,301424,128,0,301878:0:0:0:0:
64,192,301605,128,0,302787:0:0:0:0:
448,192,301787,128,0,302242:0:0:0:0:
320,192,301969,128,0,302424:0:0:0:0:
192,192,302151,128,0,302605:0:0:0:0:
448,192,302333,128,0,303151:0:0:0:0:
320,192,302515,128,0,302969:0:0:0:0:
192,192,302696,128,0,302969:0:0:0:0:
64,192,302878,128,0,303333:0:0:0:0:
320,192,303060,128,0,304242:0:0:0:0:
192,192,303060,128,0,303878:0:0:0:0:
448,192,303242,128,0,303515:0:0:0:0:
64,192,303424,128,0,304242:0:0:0:0:
448,192,303605,128,0,304605:0:0:0:0:
192,192,303969,128,0,304242:0:0:0:0:
64,192,304333,128,0,304605:0:0:0:0:
192,192,304333,128,0,304969:0:0:0:0:
320,192,304333,128,0,304605:0:0:0:0:
320,192,304696,128,0,305515:0:0:0:0:
448,192,304696,128,0,304969:0:0:0:0:
64,192,304696,128,0,304969:0:0:0:0:
64,192,305060,128,0,305515:0:0:0:0:
192,192,305060,128,0,305515:0:0:0:0:
448,192,305060,128,0,305515:0:0:0:0:
64,192,305605,1,0,0:0:0:0:
320,192,305605,1,0,0:0:0:0:
448,192,305605,128,0,305787:0:0:0:0:
192,192,305696,1,0,0:0:0:0:
64,192,305787,1,0,0:0:0:0:
320,192,305787,1,0,0:0:0:0:
192,192,305878,1,0,0:0:0:0:
448,192,305878,1,0,0:0:0:0:
64,192,305969,128,0,306151:0:0:0:0:
320,192,305969,128,0,306151:0:0:0:0:
448,192,305969,128,0,306060:0:0:0:0:
192,192,306151,128,0,306424:0:0:0:0:
448,192,306151,128,0,306333:0:0:0:0:
320,192,306333,128,0,306515:0:0:0:0:
64,192,306333,128,0,306424:0:0:0:0:
192,192,306515,128,0,306787:0:0:0:0:
64,192,306515,128,0,306696:0:0:0:0:
448,192,306515,128,0,306605:0:0:0:0:
320,192,306696,128,0,306878:0:0:0:0:
448,192,306696,128,0,306787:0:0:0:0:
192,192,306878,128,0,307151:0:0:0:0:
448,192,306878,128,0,307060:0:0:0:0:
64,192,306878,128,0,306969:0:0:0:0:
320,192,307060,128,0,307242:0:0:0:0:
64,192,307060,128,0,307151:0:0:0:0:
448,192,307242,128,0,307605:0:0:0:0:
64,192,307242,128,0,307424:0:0:0:0:
192,192,307242,128,0,307333:0:0:0:0:
192,192,307424,128,0,307605:0:0:0:0:
320,192,307424,128,0,307515:0:0:0:0:
320,192,307605,128,0,307787:0:0:0:0:
64,192,307605,128,0,307787:0:0:0:0:
192,192,307787,128,0,307878:0:0:0:0:
448,192,307787,128,0,307969:0:0:0:0:
64,192,307969,128,0,308060:0:0:0:0:
320,192,307969,128,0,308151:0:0:0:0:
192,192,307969,128,0,308060:0:0:0:0:
448,192,308151,128,0,308333:0:0:0:0:
64,192,308151,128,0,308333:0:0:0:0:
192,192,308151,128,0,308242:0:0:0:0:
320,192,308333,128,0,308424:0:0:0:0:
192,192,308333,128,0,308515:0:0:0:0:
64,192,308515,128,0,308696:0:0:0:0:
448,192,308515,128,0,308696:0:0:0:0:
320,192,308515,128,0,308605:0:0:0:0:
192,192,308696,128,0,308787:0:0:0:0:
320,192,308696,128,0,308878:0:0:0:0:
448,192,308878,128,0,309060:0:0:0:0:
64,192,308878,128,0,309060:0:0:0:0:
192,192,308878,128,0,308969:0:0:0:0:
320,192,309060,128,0,309333:0:0:0:0:
192,192,309060,128,0,309242:0:0:0:0:
448,192,309242,128,0,309424:0:0:0:0:
64,192,309242,128,0,309333:0:0:0:0:
64,192,309424,128,0,309696:0:0:0:0:
192,192,309424,128,0,309605:0:0:0:0:
320,192,309424,128,0,309515:0:0:0:0:
320,192,309605,128,0,309787:0:0:0:0:
448,192,309605,128,0,309696:0:0:0:0:
192,192,309787,128,0,310060:0:0:0:0:
448,192,309787,128,0,309969:0:0:0:0:
64,192,309787,128,0,309878:0:0:0:0:
320,192,309969,128,0,310151:0:0:0:0:
64,192,309969,128,0,310060:0:0:0:0:
448,192,310151,128,0,310515:0:0:0:0:
192,192,310151,128,0,310333:0:0:0:0:
64,192,310151,128,0,310242:0:0:0:0:
64,192,310333,128,0,310515:0:0:0:0:
320,192,310333,128,0,310424:0:0:0:0:
320,192,310515,128,0,310696:0:0:0:0:
192,192,310515,128,0,310696:0:0:0:0:
64,192,310696,128,0,311242:0:0:0:0:
448,192,310696,128,0,310878:0:0:0:0:
320,192,310878,128,0,311060:0:0:0:0:
192,192,310878,128,0,310969:0:0:0:0:
448,192,311060,128,0,311151:0:0:0:0:
192,192,311060,128,0,311151:0:0:0:0:
320,192,311151,128,0,311242:0:0:0:0:
192,192,311242,128,0,311333:0:0:0:0:
448,192,311242,128,0,311333:0:0:0:0:
64,192,311333,128,0,311424:0:0:0:0:
192,192,311424,128,0,311515:0:0:0:0:
448,192,311424,128,0,311515:0:0:0:0:
320,192,311515,128,0,311605:0:0:0:0:
448,192,311605,128,0,311696:0:0:0:0:
192,192,311605,128,0,311696:0:0:0:0:
320,192,311696,128,0,311787:0:0:0:0:
448,192,311787,128,0,312151:0:0:0:0:
64,192,311787,128,0,311969:0:0:0:0:
192,192,311787,128,0,311878:0:0:0:0:
192,192,311969,128,0,312151:0:0:0:0:
320,192,311969,128,0,312060:0:0:0:0:
64,192,312151,128,0,312333:0:0:0:0:
320,192,312151,128,0,312242:0:0:0:0:
320,192,312333,128,0,312696:0:0:0:0:
448,192,312333,128,0,312515:0:0:0:0:
192,192,312333,128,0,312424:0:0:0:0:
64,192,312515,128,0,312696:0:0:0:0:
192,192,312515,128,0,312605:0:0:0:0:
192,192,312696,128,0,312878:0:0:0:0:
448,192,312696,128,0,312878:0:0:0:0:
64,192,312878,128,0,312969:0:0:0:0:
320,192,312878,128,0,313060:0:0:0:0:
192,192,313060,128,0,313424:0:0:0:0:
448,192,313060,128,0,313242:0:0:0:0:
64,192,313060,128,0,313151:0:0:0:0:
64,192,313242,128,0,313424:0:0:0:0:
320,192,313242,128,0,313333:0:0:0:0:
320,192,313424,128,0,313515:0:0:0:0:
448,192,313424,128,0,313605:0:0:0:0:
192,192,313605,128,0,313787:0:0:0:0:
64,192,313605,128,0,313787:0:0:0:0:
320,192,313605,128,0,313696:0:0:0:0:
320,192,313787,128,0,313969:0:0:0:0:
448,192,313787,128,0,313969:0:0:0:0:
192,192,313969,128,0,314151:0:0:0:0:
64,192,313969,128,0,314060:0:0:0:0:
448,192,314151,128,0,314333:0:0:0:0:
64,192,314151,128,0,314333:0:0:0:0:
320,192,314151,128,0,314242:0:0:0:0:
320,192,314333,128,0,314424:0:0:0:0:
192,192,314333,128,0,314515:0:0:0:0:
320,192,314515,128,0,314787:0:0:0:0:
64,192,314515,128,0,314696:0:0:0:0:
448,192,314515,128,0,314605:0:0:0:0:
448,192,314696,128,0,314878:0:0:0:0:
192,192,314696,128,0,314787:0:0:0:0:
64,192,314878,128,0,316696:0:0:0:0:
192,192,315060,128,0,315151:0:0:0:0:
448,192,315242,128,0,315333:0:0:0:0:
448,192,315424,128,0,315515:0:0:0:0:
192,192,315424,128,0,315515:0:0:0:0:
192,192,315787,128,0,315878:0:0:0:0:
192,192,316151,128,0,316242:0:0:0:0:
448,192,316333,128,0,316696:0:0:0:0:
320,192,316515,128,0,316878:0:0:0:0:
192,192,316696,128,0,317060:0:0:0:0:
64,192,316878,128,0,317242:0:0:0:0:
448,192,316878,128,0,317060:0:0:0:0:
320,192,317060,128,0,317242:0:0:0:0:
192,192,317242,128,0,317424:0:0:0:0:
64,192,317424,128,0,317605:0:0:0:0:
448,192,317605,128,0,317787:0:0:0:0:
192,192,317605,128,0,317696:0:0:0:0:
320,192,317787,128,0,318060:0:0:0:0:
64,192,317787,128,0,317878:0:0:0:0:
192,192,317969,128,0,318060:0:0:0:0:
320,192,318151,128,0,318333:0:0:0:0:
64,192,318151,128,0,318242:0:0:0:0:
192,192,318333,128,0,318424:0:0:0:0:
320,192,318515,128,0,318787:0:0:0:0:
64,192,318515,128,0,318605:0:0:0:0:
192,192,318696,128,0,318787:0:0:0:0:
64,192,318878,128,0,319060:0:0:0:0:
448,192,318878,128,0,318969:0:0:0:0:
192,192,318878,128,0,318969:0:0:0:0:
320,192,318969,128,0,319060:0:0:0:0:
192,192,319060,128,0,319151:0:0:0:0:
448,192,319060,128,0,319151:0:0:0:0:
448,192,319242,128,0,319424:0:0:0:0:
64,192,319242,128,0,319333:0:0:0:0:
320,192,319424,128,0,319605:0:0:0:0:
192,192,319424,128,0,319515:0:0:0:0:
192,192,319605,128,0,319787:0:0:0:0:
64,192,319605,128,0,319696:0:0:0:0:
448,192,319787,128,0,319969:0:0:0:0:
64,192,319787,128,0,320515:0:0:0:0:
320,192,319787,128,0,319878:0:0:0:0:
320,192,319969,128,0,320151:0:0:0:0:
192,192,319969,128,0,320060:0:0:0:0:
192,192,320151,128,0,320333:0:0:0:0:
448,192,320151,128,0,320242:0:0:0:0:
320,192,320333,128,0,320515:0:0:0:0:
448,192,320333,128,0,320424:0:0:0:0:
448,192,320515,128,0,320696:0:0:0:0:
192,192,320515,128,0,321424:0:0:0:0:
320,192,320696,128,0,320969:0:0:0:0:
64,192,320696,128,0,320787:0:0:0:0:
448,192,320878,128,0,320969:0:0:0:0:
448,192,321060,128,0,321333:0:0:0:0:
64,192,321060,128,0,321151:0:0:0:0:
320,192,321242,128,0,321333:0:0:0:0:
320,192,321424,128,0,321696:0:0:0:0:
64,192,321424,128,0,321605:0:0:0:0:
448,192,321424,128,0,321515:0:0:0:0:
448,192,321605,128,0,321787:0:0:0:0:
192,192,321605,128,0,321696:0:0:0:0:
192,192,321787,128,0,322151:0:0:0:0:
320,192,321787,128,0,321969:0:0:0:0:
64,192,321787,128,0,321878:0:0:0:0:
448,192,321969,128,0,323424:0:0:0:0:
64,192,321969,128,0,322060:0:0:0:0:
64,192,322151,128,0,322333:0:0:0:0:
320,192,322151,128,0,322242:0:0:0:0:
192,192,322333,128,0,322878:0:0:0:0:
320,192,322333,128,0,322424:0:0:0:0:
320,192,322515,128,0,322696:0:0:0:0:
64,192,322515,128,0,322605:0:0:0:0:
64,192,322696,128,0,322878:0:0:0:0:
320,192,322878,128,0,323060:0:0:0:0:
64,192,323060,128,0,323242:0:0:0:0:
192,192,323060,128,0,323151:0:0:0:0:
320,192,323242,128,0,323424:0:0:0:0:
192,192,323242,128,0,323333:0:0:0:0:
192,192,323424,128,0,323605:0:0:0:0:
64,192,323424,128,0,325605:0:0:0:0:
320,192,323605,128,0,323787:0:0:0:0:
448,192,323605,128,0,323696:0:0:0:0:
192,192,323787,128,0,323878:0:0:0:0:
320,192,323969,128,0,324151:0:0:0:0:
448,192,323969,128,0,324060:0:0:0:0:
192,192,324151,128,0,324242:0:0:0:0:
320,192,324333,128,0,324515:0:0:0:0:
448,192,324333,128,0,324424:0:0:0:0:
192,192,324515,128,0,324605:0:0:0:0:
320,192,324696,128,0,324878:0:0:0:0:
448,192,324696,128,0,324787:0:0:0:0:
192,192,324878,128,0,324969:0:0:0:0:
448,192,325060,128,0,325242:0:0:0:0:
320,192,325060,128,0,325151:0:0:0:0:
320,192,325242,128,0,325333:0:0:0:0:
192,192,325242,128,0,325333:0:0:0:0:
320,192,325424,128,0,325605:0:0:0:0:
448,192,325424,128,0,325515:0:0:0:0:
448,192,325605,128,0,325696:0:0:0:0:
192,192,325605,128,0,326333:0:0:0:0:
320,192,325787,128,0,325969:0:0:0:0:
64,192,325787,128,0,325878:0:0:0:0:
448,192,325969,128,0,326060:0:0:0:0:
64,192,325969,128,0,326060:0:0:0:0:
320,192,326151,128,0,326242:0:0:0:0:
64,192,326151,128,0,326242:0:0:0:0:
448,192,326333,128,0,326696:0:0:0:0:
64,192,326333,128,0,326605:0:0:0:0:
320,192,326333,128,0,326424:0:0:0:0:
192,192,326515,128,0,326605:0:0:0:0:
320,192,326605,128,0,326696:0:0:0:0:
64,192,326696,128,0,326787:0:0:0:0:
192,192,326696,128,0,327424:0:0:0:0:
320,192,326878,128,0,327060:0:0:0:0:
448,192,326878,128,0,326969:0:0:0:0:
64,192,327060,128,0,327151:0:0:0:0:
64,192,327242,128,0,327515:0:0:0:0:
448,192,327242,128,0,327333:0:0:0:0:
320,192,327424,128,0,327515:0:0:0:0:
192,192,327605,128,0,327787:0:0:0:0:
320,192,327605,128,0,327969:0:0:0:0:
448,192,327605,128,0,327696:0:0:0:0:
64,192,327787,128,0,327878:0:0:0:0:
448,192,327969,128,0,328151:0:0:0:0:
192,192,327969,128,0,328151:0:0:0:0:
64,192,327969,128,0,328060:0:0:0:0:
320,192,328151,128,0,328333:0:0:0:0:
64,192,328151,128,0,328242:0:0:0:0:
448,192,328333,128,0,328787:0:0:0:0:
64,192,328333,128,0,329060:0:0:0:0:
192,192,328515,128,0,328969:0:0:0:0:
320,192,328696,128,0,328878:0:0:0:0:
448,192,328878,128,0,328969:0:0:0:0:
320,192,328969,128,0,329060:0:0:0:0:
192,192,329060,128,0,329151:0:0:0:0:
64,192,329151,128,0,329242:0:0:0:0:
448,192,329242,128,0,329424:0:0:0:0:
192,192,329242,128,0,330515:0:0:0:0:
320,192,329242,128,0,329333:0:0:0:0:
320,192,329424,128,0,329605:0:0:0:0:
64,192,329424,128,0,329515:0:0:0:0:
448,192,329605,128,0,329696:0:0:0:0:
64,192,329787,128,0,330060:0:0:0:0:
320,192,329787,128,0,329878:0:0:0:0:
448,192,329969,128,0,330060:0:0:0:0:
64,192,330151,128,0,330333:0:0:0:0:
320,192,330151,128,0,330242:0:0:0:0:
448,192,330333,128,0,330424:0:0:0:0:
448,192,330515,128,0,330878:0:0:0:0:
320,192,330515,128,0,330605:0:0:0:0:
64,192,330515,128,0,330605:0:0:0:0:
192,192,330605,128,0,330696:0:0:0:0:
64,192,330696,128,0,330787:0:0:0:0:
320,192,330696,128,0,330787:0:0:0:0:
320,192,330878,128,0,331060:0:0:0:0:
64,192,330878,128,0,330969:0:0:0:0:
192,192,331060,128,0,331242:0:0:0:0:
448,192,331060,128,0,331151:0:0:0:0:
64,192,331242,128,0,331333:0:0:0:0:
320,192,331242,128,0,331333:0:0:0:0:
64,192,331424,128,0,331515:0:0:0:0:
448,192,331424,128,0,331515:0:0:0:0:
192,192,331605,128,0,331696:0:0:0:0:
448,192,331605,128,0,331696:0:0:0:0:
320,192,331605,128,0,331696:0:0:0:0:
320,192,331787,128,0,331969:0:0:0:0:
64,192,331787,128,0,331878:0:0:0:0:
448,192,331969,128,0,332060:0:0:0:0:
192,192,331969,128,0,332060:0:0:0:0:
448,192,332151,128,0,333424:0:0:0:0:
192,192,332151,128,0,332333:0:0:0:0:
320,192,332151,128,0,332242:0:0:0:0:
64,192,332333,128,0,332605:0:0:0:0:
320,192,332333,128,0,332424:0:0:0:0:
192,192,332515,128,0,332605:0:0:0:0:
192,192,332696,128,0,332969:0:0:0:0:
320,192,332696,128,0,332787:0:0:0:0:
64,192,332878,128,0,332969:0:0:0:0:
320,192,333060,128,0,333333:0:0:0:0:
192,192,333060,128,0,333151:0:0:0:0:
64,192,333242,128,0,333333:0:0:0:0:
64,192,333424,128,0,333787:0:0:0:0:
320,192,333424,128,0,333787:0:0:0:0:
192,192,333424,128,0,333515:0:0:0:0:
448,192,333605,128,0,333696:0:0:0:0:
192,192,333787,128,0,333878:0:0:0:0:
448,192,333787,128,0,333969:0:0:0:0:
192,192,333969,128,0,334605:0:0:0:0:
320,192,333969,128,0,334151:0:0:0:0:
64,192,333969,128,0,334060:0:0:0:0:
64,192,334151,128,0,335060:0:0:0:0:
448,192,334151,128,0,334242:0:0:0:0:
448,192,334333,128,0,334424:0:0:0:0:
320,192,334424,128,0,334515:0:0:0:0:
448,192,334515,128,0,334605:0:0:0:0:
320,192,334605,128,0,334696:0:0:0:0:
448,192,334696,128,0,334787:0:0:0:0:
320,192,334787,128,0,334878:0:0:0:0:
192,192,334878,128,0,334969:0:0:0:0:
320,192,334969,128,0,335060:0:0:0:0:
448,192,335060,128,0,335424:0:0:0:0:
192,192,335060,128,0,335242:0:0:0:0:
64,192,335242,128,0,335424:0:0:0:0:
320,192,335242,128,0,335333:0:0:0:0:
320,192,335424,128,0,335605:0:0:0:0:
192,192,335424,128,0,335515:0:0:0:0:
448,192,335605,128,0,335878:0:0:0:0:
192,192,335605,128,0,335787:0:0:0:0:
64,192,335605,128,0,335696:0:0:0:0:
64,192,335787,128,0,335969:0:0:0:0:
320,192,335787,128,0,335878:0:0:0:0:
320,192,335969,128,0,336151:0:0:0:0:
448,192,335969,128,0,336151:0:0:0:0:
192,192,335969,128,0,336060:0:0:0:0:
192,192,336151,128,0,336242:0:0:0:0:
64,192,336151,128,0,336333:0:0:0:0:
320,192,336333,128,0,336696:0:0:0:0:
448,192,336333,128,0,336515:0:0:0:0:
192,192,336333,128,0,336424:0:0:0:0:
64,192,336515,128,0,336696:0:0:0:0:
192,192,336515,128,0,336605:0:0:0:0:
192,192,336696,128,0,336878:0:0:0:0:
448,192,336696,128,0,336878:0:0:0:0:
320,192,336878,128,0,337060:0:0:0:0:
64,192,336878,128,0,337060:0:0:0:0:
448,192,337060,128,0,337151:0:0:0:0:
192,192,337060,128,0,337242:0:0:0:0:
320,192,337242,128,0,337424:0:0:0:0:
64,192,337242,128,0,337333:0:0:0:0:
64,192,337424,128,0,337605:0:0:0:0:
448,192,337424,128,0,337605:0:0:0:0:
192,192,337424,128,0,337515:0:0:0:0:
192,192,337605,128,0,337696:0:0:0:0:
320,192,337605,128,0,337787:0:0:0:0:
448,192,337787,128,0,338333:0:0:0:0:
192,192,337787,128,0,337969:0:0:0:0:
64,192,337787,128,0,337878:0:0:0:0:
64,192,337969,128,0,340878:0:0:0:0:
320,192,337969,128,0,338060:0:0:0:0:
320,192,338333,128,0,340787:0:0:0:0:
192,192,338333,128,0,338515:0:0:0:0:
448,192,338515,128,0,338696:0:0:0:0:
192,192,338696,128,0,338878:0:0:0:0:
448,192,338878,128,0,339060:0:0:0:0:
192,192,339060,128,0,339242:0:0:0:0:
448,192,339242,128,0,339424:0:0:0:0:
192,192,339424,128,0,339605:0:0:0:0:
448,192,339605,128,0,339787:0:0:0:0:
192,192,339787,128,0,339969:0:0:0:0:
448,192,339969,128,0,340151:0:0:0:0:
192,192,340151,1,0,0:0:0:0:
448,192,340242,1,0,0:0:0:0:
192,192,340333,1,0,0:0:0:0:
448,192,340424,1,0,0:0:0:0:
192,192,340515,1,0,0:0:0:0:
448,192,340605,1,0,0:0:0:0:
192,192,340696,1,0,0:0:0:0:
448,192,340787,1,0,0:0:0:0:
448,192,340878,128,0,343787:0:0:0:0:
320,192,340878,128,0,340969:0:0:0:0:
64,192,341424,128,0,341515:0:0:0:0:
192,192,341605,128,0,341696:0:0:0:0:
320,192,342151,128,0,342242:0:0:0:0:
64,192,342515,128,0,342605:0:0:0:0:
192,192,342696,128,0,342787:0:0:0:0:
320,192,342696,128,0,343242:0:0:0:0:
64,192,342878,128,0,342969:0:0:0:0:
192,192,343060,128,0,343151:0:0:0:0:
64,192,343242,128,0,343515:0:0:0:0:
192,192,343242,128,0,343333:0:0:0:0:
320,192,343424,128,0,343515:0:0:0:0:
192,192,343515,128,0,343605:0:0:0:0:
320,192,343605,128,0,344878:0:0:0:0:
64,192,343787,128,0,344333:0:0:0:0:
192,192,343787,128,0,344878:0:0:0:0:
448,192,344333,128,0,344424:0:0:0:0:
64,192,344424,128,0,345787:0:0:0:0:
448,192,344515,128,0,344605:0:0:0:0:
192,192,344969,128,0,345696:0:0:0:0:
320,192,345060,128,0,346696:0:0:0:0:
448,192,345060,128,0,345151:0:0:0:0:
448,192,345424,128,0,345515:0:0:0:0:
448,192,345696,128,0,345787:0:0:0:0:
192,192,345787,128,0,345878:0:0:0:0:
64,192,345878,128,0,345969:0:0:0:0:
448,192,345969,128,0,346060:0:0:0:0:
192,192,346060,128,0,346151:0:0:0:0:
64,192,346151,128,0,346242:0:0:0:0:
448,192,346242,128,0,346333:0:0:0:0:
192,192,346333,128,0,346424:0:0:0:0:
64,192,346424,128,0,346515:0:0:0:0:
192,192,346515,128,0,346605:0:0:0:0:
64,192,346605,128,0,346696:0:0:0:0:
448,192,346696,128,0,346787:0:0:0:0:
192,192,346696,1,0,0:0:0:0:
320,192,346787,128,0,346878:0:0:0:0:
64,192,346878,128,0,346969:0:0:0:0:
192,192,346969,128,0,347060:0:0:0:0:
448,192,347060,128,0,347151:0:0:0:0:
320,192,347060,1,0,0:0:0:0:
320,192,347151,128,0,347242:0:0:0:0:
64,192,347242,128,0,347333:0:0:0:0:
192,192,347333,128,0,347424:0:0:0:0:
320,192,347424,128,0,347515:0:0:0:0:
64,192,347424,1,0,0:0:0:0:
448,192,347515,128,0,347605:0:0:0:0:
192,192,347605,128,0,347696:0:0:0:0:
64,192,347696,128,0,347787:0:0:0:0:
320,192,347787,128,0,347878:0:0:0:0:
448,192,347787,1,0,0:0:0:0:
448,192,347878,128,0,347969:0:0:0:0:
192,192,347969,128,0,348060:0:0:0:0:
64,192,348060,128,0,348151:0:0:0:0:
448,192,348151,128,0,348242:0:0:0:0:
192,192,348151,1,0,0:0:0:0:
320,192,348242,128,0,348333:0:0:0:0:
192,192,348333,128,0,348424:0:0:0:0:
64,192,348424,128,0,348515:0:0:0:0:
448,192,348515,128,0,348605:0:0:0:0:
320,192,348515,1,0,0:0:0:0:
320,192,348605,128,0,348696:0:0:0:0:
192,192,348696,128,0,348787:0:0:0:0:
64,192,348787,128,0,348878:0:0:0:0:
320,192,348878,128,0,348969:0:0:0:0:
192,192,348878,1,0,0:0:0:0:
448,192,348969,128,0,349060:0:0:0:0:
64,192,349060,128,0,349151:0:0:0:0:
192,192,349151,128,0,349242:0:0:0:0:
320,192,349242,128,0,349333:0:0:0:0:
448,192,349242,1,0,0:0:0:0:
448,192,349333,128,0,349424:0:0:0:0:
64,192,349424,128,0,349515:0:0:0:0:
192,192,349515,128,0,349605:0:0:0:0:
320,192,349605,128,0,349696:0:0:0:0:
448,192,349605,1,0,0:0:0:0:
448,192,349696,128,0,349787:0:0:0:0:
64,192,349787,128,0,349878:0:0:0:0:
192,192,349878,128,0,349969:0:0:0:0:
448,192,349969,128,0,350060:0:0:0:0:
320,192,349969,1,0,0:0:0:0:
320,192,350060,128,0,350151:0:0:0:0:
192,192,350151,128,0,350242:0:0:0:0:
64,192,350242,128,0,350333:0:0:0:0:
448,192,350333,128,0,350378:0:0:0:0:
192,192,350333,1,0,0:0:0:0:
320,192,350378,128,0,350424:0:0:0:0:
192,192,350424,128,0,350469:0:0:0:0:
64,192,350469,128,0,350515:0:0:0:0:
448,192,350515,128,0,350560:0:0:0:0:
320,192,350560,128,0,350605:0:0:0:0:
192,192,350605,128,0,350651:0:0:0:0:
64,192,350651,128,0,350696:0:0:0:0:
320,192,350696,128,0,350742:0:0:0:0:
448,192,350742,128,0,350787:0:0:0:0:
64,192,350787,128,0,350833:0:0:0:0:
192,192,350833,128,0,350878:0:0:0:0:
320,192,350878,128,0,350924:0:0:0:0:
448,192,350924,128,0,350969:0:0:0:0:
64,192,350969,128,0,351015:0:0:0:0:
192,192,351015,128,0,351060:0:0:0:0:
320,192,351060,128,0,351105:0:0:0:0:
448,192,351105,128,0,351151:0:0:0:0:
64,192,351151,128,0,351196:0:0:0:0:
192,192,351196,128,0,351242:0:0:0:0:
320,192,351242,128,0,351287:0:0:0:0:
448,192,351287,128,0,351333:0:0:0:0:
320,192,351333,128,0,351378:0:0:0:0:
192,192,351378,128,0,351424:0:0:0:0:
64,192,351424,128,0,351469:0:0:0:0:
448,192,351424,128,0,351515:0:0:0:0:
320,192,351515,128,0,351696:0:0:0:0:
192,192,351605,128,0,351787:0:0:0:0:
448,192,351605,128,0,351696:0:0:0:0:
64,192,351696,128,0,351878:0:0:0:0:
320,192,351787,128,0,351878:0:0:0:0:
448,192,351787,128,0,352060:0:0:0:0:
192,192,351878,128,0,352060:0:0:0:0:
64,192,351969,128,0,352151:0:0:0:0:
320,192,351969,128,0,352151:0:0:0:0:
448,192,352151,128,0,352333:0:0:0:0:
192,192,352151,128,0,352242:0:0:0:0:
320,192,352333,128,0,352424:0:0:0:0:
64,192,352333,128,0,352575:0:0:0:0:
192,192,352393,128,0,352636:0:0:0:0:
320,192,352515,128,0,352696:0:0:0:0:
448,192,352575,128,0,352757:0:0:0:0:
64,192,352636,128,0,352757:0:0:0:0:
192,192,352696,128,0,352818:0:0:0:0:
320,192,352757,128,0,352878:0:0:0:0:
448,192,352818,128,0,352939:0:0:0:0:
64,192,352818,128,0,352939:0:0:0:0:
192,192,352878,128,0,352999:0:0:0:0:
320,192,352939,128,0,353060:0:0:0:0:
64,192,352999,128,0,353060:0:0:0:0:
448,192,352999,128,0,353181:0:0:0:0:
192,192,353060,128,0,353302:0:0:0:0:
320,192,353121,128,0,353242:0:0:0:0:
64,192,353121,128,0,353363:0:0:0:0:
448,192,353242,128,0,353363:0:0:0:0:
320,192,353302,128,0,353424:0:0:0:0:
192,192,353363,128,0,353484:0:0:0:0:
64,192,353424,128,0,353545:0:0:0:0:
448,192,353424,128,0,353545:0:0:0:0:
320,192,353484,128,0,353605:0:0:0:0:
192,192,353545,128,0,353666:0:0:0:0:
64,192,353605,128,0,353727:0:0:0:0:
448,192,353605,128,0,353727:0:0:0:0:
320,192,353666,128,0,353787:0:0:0:0:
192,192,353727,128,0,353848:0:0:0:0:
64,192,353787,128,0,353908:0:0:0:0:
448,192,353787,128,0,353908:0:0:0:0:
320,192,353848,128,0,353969:0:0:0:0:
192,192,353908,128,0,354090:0:0:0:0:
64,192,353969,128,0,354030:0:0:0:0:
448,192,353969,128,0,354211:0:0:0:0:
320,192,354030,128,0,354151:0:0:0:0:
64,192,354090,128,0,354211:0:0:0:0:
192,192,354151,128,0,354272:0:0:0:0:
320,192,354211,128,0,354333:0:0:0:0:
448,192,354272,128,0,354393:0:0:0:0:
64,192,354272,128,0,354393:0:0:0:0:
192,192,354333,128,0,354454:0:0:0:0:
320,192,354393,128,0,354515:0:0:0:0:
448,192,354454,128,0,354575:0:0:0:0:
64,192,354454,128,0,354575:0:0:0:0:
192,192,354515,128,0,354636:0:0:0:0:
320,192,354575,128,0,354696:0:0:0:0:
448,192,354636,128,0,354757:0:0:0:0:
64,192,354636,128,0,354757:0:0:0:0:
192,192,354696,128,0,354818:0:0:0:0:
320,192,354757,128,0,354878:0:0:0:0:
448,192,354818,128,0,354939:0:0:0:0:
64,192,354818,128,0,354999:0:0:0:0:
192,192,354878,128,0,355060:0:0:0:0:
320,192,354939,128,0,355121:0:0:0:0:
448,192,354999,128,0,355181:0:0:0:0:
64,192,355060,128,0,355242:0:0:0:0:
192,192,355121,128,0,355302:0:0:0:0:
320,192,355181,128,0,355363:0:0:0:0:
448,192,355242,128,0,355424:0:0:0:0:
64,192,355302,128,0,355666:0:0:0:0:
192,192,355363,128,0,355605:0:0:0:0:
320,192,355424,128,0,355545:0:0:0:0:
448,192,355484,128,0,355605:0:0:0:0:
320,192,355605,128,0,355727:0:0:0:0:
192,192,355666,128,0,355787:0:0:0:0:
448,192,355666,128,0,355787:0:0:0:0:
64,192,355727,128,0,355848:0:0:0:0:
320,192,355787,128,0,355908:0:0:0:0:
192,192,355848,128,0,355969:0:0:0:0:
448,192,355848,128,0,355969:0:0:0:0:
64,192,355908,128,0,356030:0:0:0:0:
320,192,355969,128,0,356090:0:0:0:0:
192,192,356030,128,0,356211:0:0:0:0:
448,192,356030,128,0,356333:0:0:0:0:
64,192,356090,128,0,356151:0:0:0:0:
320,192,356151,128,0,356272:0:0:0:0:
64,192,356211,128,0,356333:0:0:0:0:
192,192,356272,128,0,356393:0:0:0:0:
320,192,356333,128,0,356454:0:0:0:0:
448,192,356393,128,0,356515:0:0:0:0:
64,192,356393,128,0,356575:0:0:0:0:
192,192,356454,128,0,356636:0:0:0:0:
320,192,356515,128,0,356696:0:0:0:0:
448,192,356575,128,0,356757:0:0:0:0:
64,192,356636,128,0,356757:0:0:0:0:
192,192,356696,128,0,356818:0:0:0:0:
320,192,356757,128,0,356878:0:0:0:0:
448,192,356818,128,0,356939:0:0:0:0:
64,192,356818,128,0,357121:0:0:0:0:
192,192,356878,128,0,357060:0:0:0:0:
320,192,356939,128,0,356999:0:0:0:0:
448,192,356999,128,0,357121:0:0:0:0:
320,192,357060,128,0,357181:0:0:0:0:
192,192,357121,128,0,357242:0:0:0:0:
64,192,357181,128,0,357302:0:0:0:0:
448,192,357181,128,0,357302:0:0:0:0:
320,192,357242,128,0,357363:0:0:0:0:
192,192,357302,128,0,357424:0:0:0:0:
64,192,357363,128,0,357484:0:0:0:0:
448,192,357363,128,0,357484:0:0:0:0:
320,192,357424,128,0,357545:0:0:0:0:
192,192,357484,128,0,357605:0:0:0:0:
64,192,357545,128,0,357666:0:0:0:0:
448,192,357545,128,0,357848:0:0:0:0:
320,192,357605,128,0,357787:0:0:0:0:
192,192,357666,128,0,357727:0:0:0:0:
64,192,357727,128,0,357848:0:0:0:0:
192,192,357787,128,0,357969:0:0:0:0:
320,192,357848,128,0,357908:0:0:0:0:
448,192,357908,128,0,358030:0:0:0:0:
64,192,357908,128,0,358030:0:0:0:0:
320,192,357969,128,0,358151:0:0:0:0:
192,192,358030,128,0,358090:0:0:0:0:
448,192,358090,128,0,358211:0:0:0:0:
64,192,358090,128,0,358211:0:0:0:0:
192,192,358151,128,0,358272:0:0:0:0:
320,192,358211,128,0,358333:0:0:0:0:
448,192,358272,128,0,358393:0:0:0:0:
64,192,358272,128,0,358393:0:0:0:0:
192,192,358333,128,0,358454:0:0:0:0:
320,192,358393,128,0,358515:0:0:0:0:
448,192,358454,128,0,358575:0:0:0:0:
64,192,358454,128,0,358575:0:0:0:0:
192,192,358515,128,0,358636:0:0:0:0:
320,192,358575,128,0,358696:0:0:0:0:
448,192,358636,128,0,358757:0:0:0:0:
64,192,358636,128,0,358757:0:0:0:0:
192,192,358696,128,0,358818:0:0:0:0:
320,192,358757,128,0,358878:0:0:0:0:
448,192,358818,128,0,358939:0:0:0:0:
64,192,358818,128,0,358939:0:0:0:0:
192,192,358878,128,0,358999:0:0:0:0:
320,192,358939,128,0,359060:0:0:0:0:
448,192,358999,128,0,359121:0:0:0:0:
64,192,358999,128,0,359121:0:0:0:0:
192,192,359060,128,0,359181:0:0:0:0:
320,192,359121,128,0,359242:0:0:0:0:
448,192,359181,128,0,359302:0:0:0:0:
64,192,359181,128,0,359302:0:0:0:0:
192,192,359242,128,0,359363:0:0:0:0:
320,192,359302,128,0,359424:0:0:0:0:
448,192,359363,128,0,359484:0:0:0:0:
64,192,359363,128,0,359484:0:0:0:0:
192,192,359424,128,0,359545:0:0:0:0:
320,192,359484,128,0,359605:0:0:0:0:
448,192,359545,128,0,359666:0:0:0:0:
64,192,359545,128,0,359666:0:0:0:0:
192,192,359605,128,0,359727:0:0:0:0:
320,192,359666,128,0,359787:0:0:0:0:
448,192,359727,128,0,359848:0:0:0:0:
64,192,359727,128,0,359848:0:0:0:0:
192,192,359787,128,0,359908:0:0:0:0:
320,192,359848,128,0,359969:0:0:0:0:
448,192,359908,128,0,360030:0:0:0:0:
64,192,359908,128,0,360030:0:0:0:0:
192,192,359969,128,0,360090:0:0:0:0:
320,192,360030,128,0,360151:0:0:0:0:
448,192,360090,128,0,360211:0:0:0:0:
64,192,360090,128,0,360211:0:0:0:0:
192,192,360151,128,0,360272:0:0:0:0:
320,192,360211,128,0,360333:0:0:0:0:
448,192,360272,128,0,360393:0:0:0:0:
64,192,360272,128,0,360393:0:0:0:0:
192,192,360333,128,0,360454:0:0:0:0:
320,192,360393,128,0,360515:0:0:0:0:
448,192,360454,128,0,360575:0:0:0:0:
64,192,360454,128,0,360575:0:0:0:0:
192,192,360515,128,0,360636:0:0:0:0:
320,192,360575,128,0,360696:0:0:0:0:
448,192,360636,128,0,360757:0:0:0:0:
64,192,360636,128,0,360757:0:0:0:0:
192,192,360696,128,0,360818:0:0:0:0:
320,192,360757,128,0,360878:0:0:0:0:
448,192,360818,128,0,360878:0:0:0:0:
448,192,361060,128,0,361181:0:0:0:0:
320,192,361121,128,0,361242:0:0:0:0:
192,192,361181,128,0,361302:0:0:0:0:
64,192,361242,128,0,361363:0:0:0:0:
448,192,361242,128,0,361363:0:0:0:0:
320,192,361302,128,0,361424:0:0:0:0:
192,192,361363,128,0,361545:0:0:0:0:
448,192,361424,128,0,361666:0:0:0:0:
64,192,361424,128,0,361484:0:0:0:0:
320,192,361484,128,0,361605:0:0:0:0:
64,192,361545,128,0,361666:0:0:0:0:
192,192,361605,128,0,361727:0:0:0:0:
320,192,361666,128,0,361848:0:0:0:0:
448,192,361727,128,0,361787:0:0:0:0:
64,192,361727,128,0,361969:0:0:0:0:
192,192,361787,128,0,361908:0:0:0:0:
448,192,361848,128,0,361969:0:0:0:0:
320,192,361908,128,0,362030:0:0:0:0:
192,192,361969,128,0,362090:0:0:0:0:
64,192,362030,128,0,362151:0:0:0:0:
448,192,362030,128,0,362151:0:0:0:0:
320,192,362090,128,0,362211:0:0:0:0:
192,192,362151,128,0,362272:0:0:0:0:
64,192,362211,128,0,362333:0:0:0:0:
448,192,362211,128,0,362333:0:0:0:0:
320,192,362272,128,0,362393:0:0:0:0:
192,192,362333,128,0,362454:0:0:0:0:
64,192,362393,128,0,362515:0:0:0:0:
448,192,362393,128,0,362515:0:0:0:0:
320,192,362454,128,0,362575:0:0:0:0:
192,192,362515,128,0,362636:0:0:0:0:
64,192,362575,128,0,362696:0:0:0:0:
448,192,362575,128,0,362696:0:0:0:0:
320,192,362636,128,0,362757:0:0:0:0:
192,192,362696,128,0,362818:0:0:0:0:
64,192,362757,128,0,362878:0:0:0:0:
448,192,362757,128,0,362878:0:0:0:0:
320,192,362818,128,0,362939:0:0:0:0:
192,192,362878,128,0,362999:0:0:0:0:
64,192,362939,128,0,363060:0:0:0:0:
448,192,362939,128,0,363060:0:0:0:0:
320,192,362999,128,0,363121:0:0:0:0:
192,192,363060,128,0,363181:0:0:0:0:
64,192,363121,128,0,363242:0:0:0:0:
448,192,363121,128,0,363242:0:0:0:0:
320,192,363181,128,0,363302:0:0:0:0:
192,192,363242,128,0,363363:0:0:0:0:
64,192,363302,128,0,363424:0:0:0:0:
448,192,363302,128,0,363424:0:0:0:0:
320,192,363363,128,0,363484:0:0:0:0:
192,192,363424,128,0,363545:0:0:0:0:
64,192,363484,128,0,363605:0:0:0:0:
448,192,363484,128,0,363666:0:0:0:0:
320,192,363545,128,0,363727:0:0:0:0:
192,192,363605,128,0,363787:0:0:0:0:
64,192,363666,128,0,363848:0:0:0:0:
448,192,363787,128,0,363969:0:0:0:0:
320,192,363969,128,0,364151:0:0:0:0:
64,192,364151,128,0,364333:0:0:0:0:
448,192,364151,1,0,0:0:0:0:
192,192,364333,128,0,364515:0:0:0:0:
320,192,364515,128,0,364696:0:0:0:0:
64,192,364515,1,0,0:0:0:0:
448,192,364696,128,0,365060:0:0:0:0:
192,192,364878,1,0,0:0:0:0:
64,192,365060,128,0,365242:0:0:0:0:
192,192,365242,128,0,365424:0:0:0:0:
320,192,365242,1,0,0:0:0:0:
320,192,365424,128,0,365787:0:0:0:0:
448,192,365605,1,0,0:0:0:0:
64,192,365605,128,0,366151:0:0:0:0:
448,192,365787,128,0,365969:0:0:0:0:
192,192,365969,128,0,366151:0:0:0:0:
320,192,365969,1,0,0:0:0:0:
320,192,366151,128,0,366515:0:0:0:0:
64,192,366242,128,0,366515:0:0:0:0:
192,192,366333,1,0,0:0:0:0:
192,192,366515,128,0,366696:0:0:0:0:
448,192,366515,128,0,366787:0:0:0:0:
320,192,366696,128,0,366878:0:0:0:0:
64,192,366696,1,0,0:0:0:0:
192,192,366878,128,0,367060:0:0:0:0:
448,192,366878,128,0,366969:0:0:0:0:
64,192,367060,128,0,367242:0:0:0:0:
320,192,367060,1,0,0:0:0:0:
448,192,367060,128,0,367151:0:0:0:0:
320,192,367242,128,0,367424:0:0:0:0:
448,192,367242,128,0,367333:0:0:0:0:
192,192,367424,128,0,367605:0:0:0:0:
64,192,367424,1,0,0:0:0:0:
448,192,367424,128,0,367515:0:0:0:0:
64,192,367605,128,0,367969:0:0:0:0:
448,192,367605,128,0,367696:0:0:0:0:
320,192,367787,1,0,0:0:0:0:
448,192,367787,128,0,367878:0:0:0:0:
320,192,367969,128,0,368151:0:0:0:0:
448,192,367969,128,0,368060:0:0:0:0:
192,192,368151,128,0,368333:0:0:0:0:
64,192,368151,1,0,0:0:0:0:
448,192,368151,128,0,368515:0:0:0:0:
320,192,368333,128,0,368696:0:0:0:0:
64,192,368515,1,0,0:0:0:0:
192,192,368696,128,0,368878:0:0:0:0:
64,192,368878,1,0,0:0:0:0:
320,192,368878,128,0,368969:0:0:0:0:
64,192,369060,128,0,369333:0:0:0:0:
192,192,369060,128,0,369333:0:0:0:0:
320,192,369060,128,0,369333:0:0:0:0:
448,192,369060,1,0,0:0:0:0:
192,192,369424,128,0,369515:0:0:0:0:
320,192,369424,128,0,369515:0:0:0:0:
448,192,369424,128,0,369515:0:0:0:0:
64,192,369424,1,0,0:0:0:0:
64,192,369605,128,0,369696:0:0:0:0:
192,192,369605,128,0,369696:0:0:0:0:
448,192,369605,128,0,369696:0:0:0:0:
320,192,369605,1,0,0:0:0:0:
320,192,369787,128,0,369878:0:0:0:0:
64,192,369787,128,0,369878:0:0:0:0:
448,192,369787,128,0,369878:0:0:0:0:
192,192,369787,1,0,0:0:0:0:
