osu file format v14

[General]
AudioFilename: audio.ogg
AudioLeadIn: 0
PreviewTime: 106888
Countdown: 0
SampleSet: Normal
StackLeniency: 0.7
Mode: 1
LetterboxInBreaks: 0
WidescreenStoryboard: 0

[Editor]
Bookmarks: 1061,40785,54026,67267,80509,106992,120233,133474,186440,199681,211061
DistanceSpacing: 1.4
BeatDivisor: 4
GridSize: 32
TimelineZoom: 1.4

[Metadata]
Title:Medlennym belym
TitleUnicode:Медленным белым
Artist:Kosmos na potolke
ArtistUnicode:Космос на потолке
Creator:Ryxliee
Version:Memories
Source:
Tags:russian русский дрим поп инди рок shoegaze alternative midwest psychedelic dream pop indie rock Маленькая Луна Malen'kaya Luna Tachibana_
BeatmapID:3517782
BeatmapSetID:1721339

[Difficulty]
HPDrainRate:6
CircleSize:2
OverallDifficulty:4.5
ApproachRate:9
SliderMultiplier:1.4
SliderTickRate:1

[Events]
//Background and Video events
0,0,"96843781_p0.jpg",0,50
//Break Periods
//Storyboard Layer 0 (Background)
//Storyboard Layer 1 (Fail)
//Storyboard Layer 2 (Pass)
//Storyboard Layer 3 (Foreground)
//Storyboard Layer 4 (Overlay)
//Storyboard Sound Samples

[TimingPoints]
1061,413.793103448276,4,1,0,40,1,0
1061,-100,4,1,0,40,0,0
14302,-100,4,1,0,60,0,0
54026,-100,4,1,0,70,0,1
67267,-100,4,1,0,40,0,0
80509,-100,4,1,0,60,0,0
106992,-100,4,1,0,70,0,1
133474,-100,4,1,0,60,0,0
199681,-100,4,1,0,50,0,0
211061,-100,4,1,0,40,0,0
211578,-100,4,1,0,35,0,0
212095,-100,4,1,0,30,0,0
212612,-100,4,1,0,25,0,0
213129,-100,4,1,0,20,0,0
213647,-100,4,1,0,15,0,0
214164,-100,4,1,0,10,0,0

[HitObjects]
256,192,1061,5,8,0:0:0:0:
256,192,1681,1,8,0:0:0:0:
256,192,1888,1,0,0:0:0:0:
256,192,2095,1,0,0:0:0:0:
256,192,2302,1,8,0:0:0:0:
256,192,2509,1,0,0:0:0:0:
256,192,2923,1,0,0:0:0:0:
256,192,3129,1,8,0:0:0:0:
256,192,3336,1,0,0:0:0:0:
256,192,3750,1,8,0:0:0:0:
256,192,3957,1,0,0:0:0:0:
256,192,4371,1,8,0:0:0:0:
256,192,4785,1,0,0:0:0:0:
256,192,4992,1,8,0:0:0:0:
256,192,5405,1,8,0:0:0:0:
256,192,5612,1,0,0:0:0:0:
256,192,5819,1,8,0:0:0:0:
256,192,6233,1,8,0:0:0:0:
256,192,6647,1,0,0:0:0:0:
256,192,7061,1,8,0:0:0:0:
256,192,7267,1,0,0:0:0:0:
256,192,7681,1,0,0:0:0:0:
256,192,8302,1,0,0:0:0:0:
256,192,8509,1,8,0:0:0:0:
256,192,8716,1,0,0:0:0:0:
256,192,8923,1,0,0:0:0:0:
256,192,9129,1,8,0:0:0:0:
256,192,9543,1,0,0:0:0:0:
256,192,9750,1,0,0:0:0:0:
256,192,9957,1,8,0:0:0:0:
256,192,10371,1,0,0:0:0:0:
256,192,10578,1,8,0:0:0:0:
256,192,10992,1,8,0:0:0:0:
256,192,11405,1,0,0:0:0:0:
256,192,11612,1,8,0:0:0:0:
256,192,12026,1,0,0:0:0:0:
256,192,12440,1,8,0:0:0:0:
256,192,13061,1,0,0:0:0:0:
256,192,13267,1,8,0:0:0:0:
256,192,13681,1,8,0:0:0:0:
256,192,13888,1,0,0:0:0:0:
256,192,14095,1,0,0:0:0:0:
256,192,14302,1,12,0:0:0:0:
256,192,14923,1,0,0:0:0:0:
256,192,15129,1,8,0:0:0:0:
256,192,15336,1,0,0:0:0:0:
256,192,15543,1,0,0:0:0:0:
256,192,15750,1,8,0:0:0:0:
256,192,16164,1,0,0:0:0:0:
256,192,16371,1,8,0:0:0:0:
256,192,16578,1,0,0:0:0:0:
256,192,16992,1,0,0:0:0:0:
256,192,17198,1,8,0:0:0:0:
256,192,17405,1,0,0:0:0:0:
256,192,17509,1,0,0:0:0:0:
256,192,17612,1,0,0:0:0:0:
256,192,17819,1,0,0:0:0:0:
256,192,18026,1,8,0:0:0:0:
256,192,18233,1,0,0:0:0:0:
256,192,18647,1,0,0:0:0:0:
256,192,18854,1,0,0:0:0:0:
256,192,19061,1,8,0:0:0:0:
256,192,19267,1,8,0:0:0:0:
256,192,19371,1,8,0:0:0:0:
256,192,19474,1,8,0:0:0:0:
256,192,19681,1,0,0:0:0:0:
256,192,19888,1,8,0:0:0:0:
256,192,20302,1,0,0:0:0:0:
256,192,20509,1,8,0:0:0:0:
256,192,20716,1,8,0:0:0:0:
256,192,20923,1,0,0:0:0:0:
256,192,21543,1,8,0:0:0:0:
256,192,21750,1,0,0:0:0:0:
256,192,21957,1,8,0:0:0:0:
256,192,22164,1,8,0:0:0:0:
256,192,22371,1,0,0:0:0:0:
256,192,22785,1,8,0:0:0:0:
256,192,22992,1,0,0:0:0:0:
256,192,23198,1,8,0:0:0:0:
256,192,23612,1,8,0:0:0:0:
256,192,23819,1,0,0:0:0:0:
256,192,24026,1,8,0:0:0:0:
256,192,24129,1,8,0:0:0:0:
256,192,24233,1,8,0:0:0:0:
256,192,24440,1,8,0:0:0:0:
256,192,24647,1,0,0:0:0:0:
256,192,24854,1,8,0:0:0:0:
256,192,25267,1,8,0:0:0:0:
256,192,25474,1,0,0:0:0:0:
256,192,25681,1,8,0:0:0:0:
256,192,26095,1,0,0:0:0:0:
256,192,26302,1,8,0:0:0:0:
256,192,26509,1,0,0:0:0:0:
256,192,26923,1,0,0:0:0:0:
256,192,27129,1,8,0:0:0:0:
256,192,27336,1,0,0:0:0:0:
256,192,27543,1,12,0:0:0:0:
256,192,28164,1,0,0:0:0:0:
256,192,28371,1,8,0:0:0:0:
256,192,28578,1,0,0:0:0:0:
256,192,28785,1,0,0:0:0:0:
256,192,28992,1,8,0:0:0:0:
256,192,29405,1,0,0:0:0:0:
256,192,29612,1,8,0:0:0:0:
256,192,29819,1,0,0:0:0:0:
256,192,30233,1,0,0:0:0:0:
256,192,30440,1,8,0:0:0:0:
256,192,30647,1,0,0:0:0:0:
256,192,30750,1,0,0:0:0:0:
256,192,30854,1,0,0:0:0:0:
256,192,31061,1,0,0:0:0:0:
256,192,31267,1,8,0:0:0:0:
256,192,31474,1,0,0:0:0:0:
256,192,31888,1,0,0:0:0:0:
256,192,32095,1,0,0:0:0:0:
256,192,32302,1,8,0:0:0:0:
256,192,32716,1,0,0:0:0:0:
256,192,32923,1,8,0:0:0:0:
256,192,33129,1,0,0:0:0:0:
256,192,33543,1,0,0:0:0:0:
256,192,33750,1,8,0:0:0:0:
256,192,33957,1,8,0:0:0:0:
256,192,34164,1,4,0:0:0:0:
256,192,34785,1,8,0:0:0:0:
256,192,34992,1,0,0:0:0:0:
256,192,35198,1,8,0:0:0:0:
256,192,35405,1,8,0:0:0:0:
256,192,35612,1,0,0:0:0:0:
256,192,36026,1,8,0:0:0:0:
256,192,36233,1,0,0:0:0:0:
256,192,36440,1,8,0:0:0:0:
256,192,36854,1,0,0:0:0:0:
256,192,37061,1,8,0:0:0:0:
256,192,37267,1,8,0:0:0:0:
256,192,37371,1,8,0:0:0:0:
256,192,37474,1,8,0:0:0:0:
256,192,37681,1,0,0:0:0:0:
256,192,37888,1,0,0:0:0:0:
256,192,38095,1,8,0:0:0:0:
256,192,38509,1,8,0:0:0:0:
256,192,38716,1,8,0:0:0:0:
256,192,38923,1,0,0:0:0:0:
256,192,39336,1,0,0:0:0:0:
256,192,39543,1,8,0:0:0:0:
256,192,39750,1,0,0:0:0:0:
256,192,39957,1,8,0:0:0:0:
256,192,40164,1,0,0:0:0:0:
256,192,40371,1,8,0:0:0:0:
256,192,40578,1,0,0:0:0:0:
256,192,40785,1,12,0:0:0:0:
256,192,41405,1,8,0:0:0:0:
256,192,41612,1,0,0:0:0:0:
256,192,41819,1,8,0:0:0:0:
256,192,42026,1,8,0:0:0:0:
256,192,42233,1,0,0:0:0:0:
256,192,42647,1,8,0:0:0:0:
256,192,42854,1,8,0:0:0:0:
256,192,43061,1,0,0:0:0:0:
256,192,43474,1,0,0:0:0:0:
256,192,43681,1,8,0:0:0:0:
256,192,43888,1,8,0:0:0:0:
256,192,44095,1,0,0:0:0:0:
256,192,44509,1,8,0:0:0:0:
256,192,44716,1,0,0:0:0:0:
256,192,44923,1,8,0:0:0:0:
256,192,45129,1,8,0:0:0:0:
256,192,45336,1,0,0:0:0:0:
256,192,45543,1,8,0:0:0:0:
256,192,45957,1,0,0:0:0:0:
256,192,46164,1,0,0:0:0:0:
256,192,46371,1,8,0:0:0:0:
256,192,46785,1,0,0:0:0:0:
256,192,46992,1,8,0:0:0:0:
256,192,47198,1,8,0:0:0:0:
256,192,47405,1,0,0:0:0:0:
256,192,48026,1,0,0:0:0:0:
256,192,48233,1,8,0:0:0:0:
256,192,48440,1,8,0:0:0:0:
256,192,48647,1,0,0:0:0:0:
256,192,48854,1,8,0:0:0:0:
256,192,49267,1,8,0:0:0:0:
256,192,49474,1,0,0:0:0:0:
256,192,49681,1,8,0:0:0:0:
256,192,50095,1,0,0:0:0:0:
256,192,50302,1,8,0:0:0:0:
256,192,50509,1,0,0:0:0:0:
256,192,50716,1,8,0:0:0:0:
256,192,51129,1,0,0:0:0:0:
256,192,51336,1,8,0:0:0:0:
256,192,51543,1,0,0:0:0:0:
256,192,51750,1,8,0:0:0:0:
256,192,51957,1,0,0:0:0:0:
256,192,52164,1,8,0:0:0:0:
256,192,52785,1,8,0:0:0:0:
256,192,52992,1,0,0:0:0:0:
256,192,53405,1,8,0:0:0:0:
256,192,53612,1,0,0:0:0:0:
256,192,53716,1,0,0:0:0:0:
256,192,53819,1,0,0:0:0:0:
256,192,54026,1,12,0:0:0:0:
256,192,54233,1,0,0:0:0:0:
256,192,54647,1,0,0:0:0:0:
256,192,54750,1,0,0:0:0:0:
256,192,54854,1,0,0:0:0:0:
256,192,55061,1,0,0:0:0:0:
256,192,55267,1,8,0:0:0:0:
256,192,55681,1,0,0:0:0:0:
256,192,55888,1,8,0:0:0:0:
256,192,56302,1,8,0:0:0:0:
256,192,56405,1,8,0:0:0:0:
256,192,56509,1,8,0:0:0:0:
256,192,56716,1,0,0:0:0:0:
256,192,56923,1,8,0:0:0:0:
256,192,57336,1,8,0:0:0:0:
256,192,57543,1,0,0:0:0:0:
256,192,57750,1,8,0:0:0:0:
256,192,57957,1,0,0:0:0:0:
256,192,58061,1,0,0:0:0:0:
256,192,58164,1,0,0:0:0:0:
256,192,58371,1,8,0:0:0:0:
256,192,58474,1,8,0:0:0:0:
256,192,58578,1,8,0:0:0:0:
256,192,58785,1,8,0:0:0:0:
256,192,58992,1,0,0:0:0:0:
256,192,59198,1,0,0:0:0:0:
256,192,59405,1,8,0:0:0:0:
256,192,59612,1,0,0:0:0:0:
256,192,60233,1,0,0:0:0:0:
256,192,60336,1,0,0:0:0:0:
256,192,60440,1,0,0:0:0:0:
256,192,60647,1,8,0:0:0:0:
256,192,60854,1,0,0:0:0:0:
256,192,61267,1,8,0:0:0:0:
256,192,61371,1,8,0:0:0:0:
256,192,61474,1,8,0:0:0:0:
256,192,61681,1,0,0:0:0:0:
256,192,61888,1,8,0:0:0:0:
256,192,62302,1,0,0:0:0:0:
256,192,62509,1,8,0:0:0:0:
256,192,62923,1,0,0:0:0:0:
256,192,63026,1,0,0:0:0:0:
256,192,63129,1,0,0:0:0:0:
256,192,63336,1,0,0:0:0:0:
256,192,63543,1,8,0:0:0:0:
256,192,63957,1,8,0:0:0:0:
256,192,64164,1,0,0:0:0:0:
256,192,64371,1,8,0:0:0:0:
256,192,64578,1,8,0:0:0:0:
256,192,64785,1,0,0:0:0:0:
256,192,64992,1,8,0:0:0:0:
256,192,65095,1,8,0:0:0:0:
256,192,65198,1,8,0:0:0:0:
256,192,65405,1,0,0:0:0:0:
256,192,66026,1,8,0:0:0:0:
256,192,66233,1,8,0:0:0:0:
256,192,66440,1,0,0:0:0:0:
256,192,66647,1,0,0:0:0:0:
256,192,66854,1,8,0:0:0:0:
256,192,67267,1,4,0:0:0:0:
256,192,67681,1,0,0:0:0:0:
256,192,67888,1,8,0:0:0:0:
256,192,68509,1,8,0:0:0:0:
256,192,68716,1,0,0:0:0:0:
256,192,69336,1,0,0:0:0:0:
256,192,69543,1,8,0:0:0:0:
256,192,69957,1,8,0:0:0:0:
256,192,70164,1,0,0:0:0:0:
256,192,70578,1,8,0:0:0:0:
256,192,70992,1,0,0:0:0:0:
256,192,71198,1,8,0:0:0:0:
256,192,71819,1,8,0:0:0:0:
256,192,72026,1,0,0:0:0:0:
256,192,72647,1,0,0:0:0:0:
256,192,72854,1,8,0:0:0:0:
256,192,73267,1,8,0:0:0:0:
256,192,73474,1,0,0:0:0:0:
256,192,73888,1,0,0:0:0:0:
256,192,74302,1,0,0:0:0:0:
256,192,74509,1,8,0:0:0:0:
256,192,75129,1,8,0:0:0:0:
256,192,75336,1,0,0:0:0:0:
256,192,75957,1,0,0:0:0:0:
256,192,76164,1,8,0:0:0:0:
256,192,76578,1,8,0:0:0:0:
256,192,76785,1,0,0:0:0:0:
256,192,77198,1,8,0:0:0:0:
256,192,77612,1,0,0:0:0:0:
256,192,77819,1,8,0:0:0:0:
256,192,78233,1,8,0:0:0:0:
256,192,78440,1,0,0:0:0:0:
256,192,78647,1,8,0:0:0:0:
256,192,79061,1,0,0:0:0:0:
256,192,79267,1,0,0:0:0:0:
256,192,79474,1,8,0:0:0:0:
256,192,79888,1,8,0:0:0:0:
256,192,80095,1,0,0:0:0:0:
256,192,80302,1,0,0:0:0:0:
256,192,80509,1,12,0:0:0:0:
256,192,81129,1,0,0:0:0:0:
256,192,81336,1,8,0:0:0:0:
256,192,81543,1,0,0:0:0:0:
256,192,81957,1,0,0:0:0:0:
256,192,82164,1,8,0:0:0:0:
256,192,82578,1,8,0:0:0:0:
256,192,82785,1,0,0:0:0:0:
256,192,82888,1,0,0:0:0:0:
256,192,82992,1,0,0:0:0:0:
256,192,83198,1,0,0:0:0:0:
256,192,83405,1,8,0:0:0:0:
256,192,83819,1,0,0:0:0:0:
256,192,84233,1,8,0:0:0:0:
256,192,84440,1,0,0:0:0:0:
256,192,84647,1,8,0:0:0:0:
256,192,85061,1,8,0:0:0:0:
256,192,85267,1,8,0:0:0:0:
256,192,85371,1,8,0:0:0:0:
256,192,85474,1,8,0:0:0:0:
256,192,85681,1,0,0:0:0:0:
256,192,86095,1,0,0:0:0:0:
256,192,86302,1,0,0:0:0:0:
256,192,86405,1,0,0:0:0:0:
256,192,86509,1,0,0:0:0:0:
256,192,86716,1,8,0:0:0:0:
256,192,86923,1,0,0:0:0:0:
256,192,87129,1,8,0:0:0:0:
256,192,87750,1,0,0:0:0:0:
256,192,87957,1,8,0:0:0:0:
256,192,88164,1,8,0:0:0:0:
256,192,88371,1,0,0:0:0:0:
256,192,88785,1,0,0:0:0:0:
256,192,88992,1,8,0:0:0:0:
256,192,89198,1,0,0:0:0:0:
256,192,89405,1,8,0:0:0:0:
256,192,89509,1,8,0:0:0:0:
256,192,89612,1,8,0:0:0:0:
256,192,89819,1,0,0:0:0:0:
256,192,90026,1,8,0:0:0:0:
256,192,90440,1,0,0:0:0:0:
256,192,90854,1,8,0:0:0:0:
256,192,91061,1,0,0:0:0:0:
256,192,91474,1,0,0:0:0:0:
256,192,91681,1,8,0:0:0:0:
256,192,91888,1,0,0:0:0:0:
256,192,92302,1,8,0:0:0:0:
256,192,92509,1,0,0:0:0:0:
256,192,92716,1,8,0:0:0:0:
256,192,93129,1,0,0:0:0:0:
256,192,93336,1,8,0:0:0:0:
256,192,93543,1,0,0:0:0:0:
256,192,93750,1,12,0:0:0:0:
256,192,94371,1,0,0:0:0:0:
256,192,94578,1,8,0:0:0:0:
256,192,94785,1,8,0:0:0:0:
256,192,95198,1,0,0:0:0:0:
256,192,95405,1,8,0:0:0:0:
256,192,95612,1,0,0:0:0:0:
256,192,95819,1,0,0:0:0:0:
256,192,96026,1,8,0:0:0:0:
256,192,96440,1,0,0:0:0:0:
256,192,96647,1,8,0:0:0:0:
256,192,97061,1,0,0:0:0:0:
256,192,97474,1,8,0:0:0:0:
256,192,97681,1,8,0:0:0:0:
256,192,97888,1,0,0:0:0:0:
256,192,98095,1,8,0:0:0:0:
256,192,98198,1,8,0:0:0:0:
256,192,98302,1,8,0:0:0:0:
256,192,98509,1,0,0:0:0:0:
256,192,98716,1,8,0:0:0:0:
256,192,98923,1,0,0:0:0:0:
256,192,99336,1,8,0:0:0:0:
256,192,99543,1,8,0:0:0:0:
256,192,99750,1,0,0:0:0:0:
256,192,99957,1,8,0:0:0:0:
256,192,100164,1,0,0:0:0:0:
256,192,100371,1,8,0:0:0:0:
256,192,100578,1,0,0:0:0:0:
256,192,101198,1,0,0:0:0:0:
256,192,101405,1,8,0:0:0:0:
256,192,101819,1,8,0:0:0:0:
256,192,102026,1,0,0:0:0:0:
256,192,102233,1,8,0:0:0:0:
256,192,102336,1,8,0:0:0:0:
256,192,102440,1,8,0:0:0:0:
256,192,102647,1,0,0:0:0:0:
256,192,102854,1,0,0:0:0:0:
256,192,103061,1,8,0:0:0:0:
256,192,103474,1,0,0:0:0:0:
256,192,103681,1,0,0:0:0:0:
256,192,103785,1,0,0:0:0:0:
256,192,103888,1,0,0:0:0:0:
256,192,104095,1,8,0:0:0:0:
256,192,104302,1,0,0:0:0:0:
256,192,104716,1,0,0:0:0:0:
256,192,104923,1,8,0:0:0:0:
256,192,105129,1,0,0:0:0:0:
256,192,105750,1,8,0:0:0:0:
256,192,105957,1,4,0:0:0:0:
256,192,106371,1,0,0:0:0:0:
256,192,106578,1,8,0:0:0:0:
256,192,106785,1,0,0:0:0:0:
256,192,106992,1,12,0:0:0:0:
256,192,107198,1,0,0:0:0:0:
256,192,107612,1,8,0:0:0:0:
256,192,107716,1,8,0:0:0:0:
256,192,107819,1,8,0:0:0:0:
256,192,108026,1,8,0:0:0:0:
256,192,108233,1,0,0:0:0:0:
256,192,108647,1,0,0:0:0:0:
256,192,108854,1,8,0:0:0:0:
256,192,109267,1,8,0:0:0:0:
256,192,109371,1,8,0:0:0:0:
256,192,109474,1,8,0:0:0:0:
256,192,109681,1,8,0:0:0:0:
256,192,109888,1,0,0:0:0:0:
256,192,110302,1,8,0:0:0:0:
256,192,110612,1,0,0:0:0:0:
256,192,110716,1,8,0:0:0:0:
256,192,110923,1,0,0:0:0:0:
256,192,111026,1,0,0:0:0:0:
256,192,111129,1,0,0:0:0:0:
256,192,111336,1,0,0:0:0:0:
256,192,111543,1,8,0:0:0:0:
256,192,111647,1,8,0:0:0:0:
256,192,111750,1,8,0:0:0:0:
256,192,111957,1,8,0:0:0:0:
256,192,112164,1,8,0:0:0:0:
256,192,112371,1,0,0:0:0:0:
256,192,112578,1,8,0:0:0:0:
256,192,113198,1,8,0:0:0:0:
256,192,113302,1,8,0:0:0:0:
256,192,113405,1,8,0:0:0:0:
256,192,113612,1,8,0:0:0:0:
256,192,113819,1,0,0:0:0:0:
256,192,114233,1,8,0:0:0:0:
256,192,114336,1,8,0:0:0:0:
256,192,114440,1,8,0:0:0:0:
256,192,114647,1,0,0:0:0:0:
256,192,114854,1,8,0:0:0:0:
256,192,115267,1,8,0:0:0:0:
256,192,115474,1,0,0:0:0:0:
256,192,115888,1,0,0:0:0:0:
256,192,115992,1,0,0:0:0:0:
256,192,116095,1,0,0:0:0:0:
256,192,116302,1,0,0:0:0:0:
256,192,116509,1,8,0:0:0:0:
256,192,116923,1,8,0:0:0:0:
256,192,117129,1,8,0:0:0:0:
256,192,117336,1,0,0:0:0:0:
256,192,117543,1,0,0:0:0:0:
256,192,117750,1,8,0:0:0:0:
256,192,117957,1,8,0:0:0:0:
256,192,118061,1,8,0:0:0:0:
256,192,118164,1,8,0:0:0:0:
256,192,118371,1,0,0:0:0:0:
256,192,118992,1,8,0:0:0:0:
256,192,119198,1,0,0:0:0:0:
256,192,119302,1,0,0:0:0:0:
256,192,119405,1,0,0:0:0:0:
256,192,119612,1,8,0:0:0:0:
256,192,119819,1,8,0:0:0:0:
256,192,120233,1,12,0:0:0:0:
256,192,120440,1,0,0:0:0:0:
256,192,120854,1,0,0:0:0:0:
256,192,120957,1,0,0:0:0:0:
256,192,121061,1,0,0:0:0:0:
256,192,121267,1,0,0:0:0:0:
256,192,121474,1,8,0:0:0:0:
256,192,121888,1,0,0:0:0:0:
256,192,122095,1,8,0:0:0:0:
256,192,122509,1,8,0:0:0:0:
256,192,122612,1,8,0:0:0:0:
256,192,122716,1,8,0:0:0:0:
256,192,122923,1,0,0:0:0:0:
256,192,123129,1,8,0:0:0:0:
256,192,123543,1,8,0:0:0:0:
256,192,123854,1,0,0:0:0:0:
256,192,123957,1,8,0:0:0:0:
256,192,124164,1,0,0:0:0:0:
256,192,124267,1,0,0:0:0:0:
256,192,124371,1,0,0:0:0:0:
256,192,124578,1,0,0:0:0:0:
256,192,124785,1,8,0:0:0:0:
256,192,124888,1,8,0:0:0:0:
256,192,124992,1,8,0:0:0:0:
256,192,125198,1,0,0:0:0:0:
256,192,125405,1,0,0:0:0:0:
256,192,125612,1,8,0:0:0:0:
256,192,125819,1,0,0:0:0:0:
256,192,126440,1,0,0:0:0:0:
256,192,126543,1,0,0:0:0:0:
256,192,126647,1,0,0:0:0:0:
256,192,126854,1,12,0:0:0:0:
256,192,127061,1,0,0:0:0:0:
256,192,127474,1,8,0:0:0:0:
256,192,127578,1,8,0:0:0:0:
256,192,127681,1,8,0:0:0:0:
256,192,127888,1,0,0:0:0:0:
256,192,128095,1,8,0:0:0:0:
256,192,128509,1,0,0:0:0:0:
256,192,128716,1,8,0:0:0:0:
256,192,129129,1,0,0:0:0:0:
256,192,129233,1,0,0:0:0:0:
256,192,129336,1,0,0:0:0:0:
256,192,129543,1,0,0:0:0:0:
256,192,129750,1,8,0:0:0:0:
256,192,130164,1,8,0:0:0:0:
256,192,130371,1,0,0:0:0:0:
256,192,130578,1,8,0:0:0:0:
256,192,130785,1,8,0:0:0:0:
256,192,130992,1,0,0:0:0:0:
256,192,131198,1,8,0:0:0:0:
256,192,131302,1,8,0:0:0:0:
256,192,131405,1,8,0:0:0:0:
256,192,131612,1,0,0:0:0:0:
256,192,132233,1,8,0:0:0:0:
256,192,132440,1,0,0:0:0:0:
256,192,132647,1,8,0:0:0:0:
256,192,132854,1,8,0:0:0:0:
256,192,133061,1,0,0:0:0:0:
256,192,133267,1,0,0:0:0:0:
256,192,133474,1,12,0:0:0:0:
256,192,134095,1,8,0:0:0:0:
256,192,134302,1,0,0:0:0:0:
256,192,134509,1,0,0:0:0:0:
256,192,134716,1,8,0:0:0:0:
256,192,134923,1,0,0:0:0:0:
256,192,135336,1,0,0:0:0:0:
256,192,135543,1,8,0:0:0:0:
256,192,135750,1,0,0:0:0:0:
256,192,136164,1,0,0:0:0:0:
256,192,136371,1,8,0:0:0:0:
256,192,136578,1,8,0:0:0:0:
256,192,136785,1,0,0:0:0:0:
256,192,137198,1,8,0:0:0:0:
256,192,137405,1,8,0:0:0:0:
256,192,137612,1,0,0:0:0:0:
256,192,137819,1,0,0:0:0:0:
256,192,138026,1,8,0:0:0:0:
256,192,138233,1,0,0:0:0:0:
256,192,138647,1,0,0:0:0:0:
256,192,138854,1,0,0:0:0:0:
256,192,139061,1,8,0:0:0:0:
256,192,139474,1,0,0:0:0:0:
256,192,139681,1,8,0:0:0:0:
256,192,139888,1,0,0:0:0:0:
256,192,140095,1,8,0:0:0:0:
256,192,140716,1,0,0:0:0:0:
256,192,140923,1,8,0:0:0:0:
256,192,141129,1,8,0:0:0:0:
256,192,141336,1,0,0:0:0:0:
256,192,141543,1,8,0:0:0:0:
256,192,141957,1,0,0:0:0:0:
256,192,142164,1,8,0:0:0:0:
256,192,142371,1,0,0:0:0:0:
256,192,142785,1,0,0:0:0:0:
256,192,142992,1,8,0:0:0:0:
256,192,143198,1,8,0:0:0:0:
256,192,143405,1,0,0:0:0:0:
256,192,143819,1,8,0:0:0:0:
256,192,144026,1,0,0:0:0:0:
256,192,144233,1,8,0:0:0:0:
256,192,144440,1,8,0:0:0:0:
256,192,144647,1,0,0:0:0:0:
256,192,144854,1,8,0:0:0:0:
256,192,145474,1,8,0:0:0:0:
256,192,145681,1,8,0:0:0:0:
256,192,145888,1,0,0:0:0:0:
256,192,146095,1,0,0:0:0:0:
256,192,146302,1,8,0:0:0:0:
256,192,146509,1,4,0:0:0:0:
256,192,146716,1,12,0:0:0:0:
256,192,147129,1,0,0:0:0:0:
256,192,147336,1,8,0:0:0:0:
256,192,147543,1,0,0:0:0:0:
256,192,147750,1,0,0:0:0:0:
256,192,147957,1,8,0:0:0:0:
256,192,148164,1,8,0:0:0:0:
256,192,148578,1,0,0:0:0:0:
256,192,148785,1,8,0:0:0:0:
256,192,148992,1,0,0:0:0:0:
256,192,149405,1,0,0:0:0:0:
256,192,149612,1,8,0:0:0:0:
256,192,149819,1,8,0:0:0:0:
256,192,150026,1,0,0:0:0:0:
256,192,150440,1,8,0:0:0:0:
256,192,150647,1,8,0:0:0:0:
256,192,150854,1,0,0:0:0:0:
256,192,151061,1,0,0:0:0:0:
256,192,151267,1,8,0:0:0:0:
256,192,151474,1,0,0:0:0:0:
256,192,151888,1,0,0:0:0:0:
256,192,152302,1,8,0:0:0:0:
256,192,152716,1,8,0:0:0:0:
256,192,152923,1,0,0:0:0:0:
256,192,153129,1,0,0:0:0:0:
256,192,153336,1,8,0:0:0:0:
256,192,153750,1,0,0:0:0:0:
256,192,153957,1,8,0:0:0:0:
256,192,154164,1,0,0:0:0:0:
256,192,154371,1,0,0:0:0:0:
256,192,154578,1,8,0:0:0:0:
256,192,154785,1,8,0:0:0:0:
256,192,155198,1,8,0:0:0:0:
256,192,155405,1,8,0:0:0:0:
256,192,155612,1,0,0:0:0:0:
256,192,156026,1,8,0:0:0:0:
256,192,156233,1,0,0:0:0:0:
256,192,156440,1,8,0:0:0:0:
256,192,156647,1,0,0:0:0:0:
256,192,157061,1,0,0:0:0:0:
256,192,157267,1,8,0:0:0:0:
256,192,157474,1,0,0:0:0:0:
256,192,157681,1,0,0:0:0:0:
256,192,157888,1,8,0:0:0:0:
256,192,158095,1,0,0:0:0:0:
256,192,158509,1,0,0:0:0:0:
256,192,158923,1,8,0:0:0:0:
256,192,159336,1,0,0:0:0:0:
256,192,159543,1,8,0:0:0:0:
256,192,159750,1,0,0:0:0:0:
256,192,159957,1,12,0:0:0:0:
256,192,160371,1,0,0:0:0:0:
256,192,160578,1,8,0:0:0:0:
256,192,160785,1,0,0:0:0:0:
256,192,160992,1,0,0:0:0:0:
256,192,161198,1,8,0:0:0:0:
256,192,161405,1,8,0:0:0:0:
256,192,161819,1,0,0:0:0:0:
256,192,162026,1,8,0:0:0:0:
256,192,162233,1,0,0:0:0:0:
256,192,162647,1,0,0:0:0:0:
256,192,162854,1,8,0:0:0:0:
256,192,163061,1,0,0:0:0:0:
256,192,163267,1,8,0:0:0:0:
256,192,163681,1,8,0:0:0:0:
256,192,163888,1,0,0:0:0:0:
256,192,164095,1,8,0:0:0:0:
256,192,164302,1,8,0:0:0:0:
256,192,164509,1,0,0:0:0:0:
256,192,164716,1,8,0:0:0:0:
256,192,165129,1,0,0:0:0:0:
256,192,165543,1,8,0:0:0:0:
256,192,165957,1,0,0:0:0:0:
256,192,166164,1,8,0:0:0:0:
256,192,166371,1,8,0:0:0:0:
256,192,166578,1,0,0:0:0:0:
256,192,166992,1,8,0:0:0:0:
256,192,167198,1,0,0:0:0:0:
256,192,167405,1,0,0:0:0:0:
256,192,167612,1,0,0:0:0:0:
256,192,167819,1,8,0:0:0:0:
256,192,168026,1,0,0:0:0:0:
256,192,168440,1,0,0:0:0:0:
256,192,168647,1,0,0:0:0:0:
256,192,168854,1,8,0:0:0:0:
256,192,169267,1,8,0:0:0:0:
256,192,169474,1,0,0:0:0:0:
256,192,169681,1,8,0:0:0:0:
256,192,169888,1,8,0:0:0:0:
256,192,170302,1,0,0:0:0:0:
256,192,170509,1,8,0:0:0:0:
256,192,170716,1,8,0:0:0:0:
256,192,170923,1,0,0:0:0:0:
256,192,171129,1,8,0:0:0:0:
256,192,171336,1,8,0:0:0:0:
256,192,171750,1,0,0:0:0:0:
256,192,172164,1,12,0:0:0:0:
256,192,172578,1,0,0:0:0:0:
256,192,172785,1,8,0:0:0:0:
256,192,172992,1,0,0:0:0:0:
256,192,173198,1,12,0:0:0:0:
256,192,173612,1,0,0:0:0:0:
256,192,173819,1,8,0:0:0:0:
256,192,174026,1,0,0:0:0:0:
256,192,174233,1,0,0:0:0:0:
256,192,174440,1,8,0:0:0:0:
256,192,174647,1,8,0:0:0:0:
256,192,175061,1,0,0:0:0:0:
256,192,175267,1,8,0:0:0:0:
256,192,175474,1,0,0:0:0:0:
256,192,175888,1,8,0:0:0:0:
256,192,176095,1,8,0:0:0:0:
256,192,176302,1,0,0:0:0:0:
256,192,176509,1,8,0:0:0:0:
256,192,176923,1,0,0:0:0:0:
256,192,177129,1,8,0:0:0:0:
256,192,177336,1,0,0:0:0:0:
256,192,177543,1,0,0:0:0:0:
256,192,177750,1,8,0:0:0:0:
256,192,177957,1,8,0:0:0:0:
256,192,178371,1,8,0:0:0:0:
256,192,178785,1,0,0:0:0:0:
256,192,179198,1,8,0:0:0:0:
256,192,179405,1,0,0:0:0:0:
256,192,179612,1,8,0:0:0:0:
256,192,179819,1,0,0:0:0:0:
256,192,180233,1,8,0:0:0:0:
256,192,180440,1,0,0:0:0:0:
256,192,180647,1,0,0:0:0:0:
256,192,180854,1,8,0:0:0:0:
256,192,181061,1,0,0:0:0:0:
256,192,181267,1,8,0:0:0:0:
256,192,181681,1,8,0:0:0:0:
256,192,181888,1,0,0:0:0:0:
256,192,182095,1,8,0:0:0:0:
256,192,182509,1,8,0:0:0:0:
256,192,182716,1,0,0:0:0:0:
256,192,182923,1,8,0:0:0:0:
256,192,183129,1,0,0:0:0:0:
256,192,183543,1,0,0:0:0:0:
256,192,183750,1,8,0:0:0:0:
256,192,183957,1,0,0:0:0:0:
256,192,184164,1,8,0:0:0:0:
256,192,184371,1,8,0:0:0:0:
256,192,184578,1,0,0:0:0:0:
256,192,184992,1,8,0:0:0:0:
256,192,185198,1,0,0:0:0:0:
256,192,185405,1,8,0:0:0:0:
256,192,185819,1,8,0:0:0:0:
256,192,186026,1,0,0:0:0:0:
256,192,186233,1,0,0:0:0:0:
256,192,186440,1,12,0:0:0:0:
256,192,187061,1,0,0:0:0:0:
256,192,187267,1,8,0:0:0:0:
256,192,187474,1,0,0:0:0:0:
256,192,187888,1,0,0:0:0:0:
256,192,188095,1,8,0:0:0:0:
256,192,188509,1,8,0:0:0:0:
256,192,188716,1,0,0:0:0:0:
256,192,188819,1,0,0:0:0:0:
256,192,188923,1,0,0:0:0:0:
256,192,189129,1,0,0:0:0:0:
256,192,189336,1,8,0:0:0:0:
256,192,189750,1,0,0:0:0:0:
256,192,190164,1,8,0:0:0:0:
256,192,190371,1,0,0:0:0:0:
256,192,190578,1,8,0:0:0:0:
256,192,190992,1,8,0:0:0:0:
256,192,191198,1,8,0:0:0:0:
256,192,191405,1,0,0:0:0:0:
256,192,191509,1,0,0:0:0:0:
256,192,191612,1,0,0:0:0:0:
256,192,192026,1,0,0:0:0:0:
256,192,192233,1,8,0:0:0:0:
256,192,192336,1,8,0:0:0:0:
256,192,192440,1,8,0:0:0:0:
256,192,192647,1,8,0:0:0:0:
256,192,192854,1,0,0:0:0:0:
256,192,193061,1,12,0:0:0:0:
256,192,193681,1,0,0:0:0:0:
256,192,193888,1,8,0:0:0:0:
256,192,194095,1,8,0:0:0:0:
256,192,194302,1,0,0:0:0:0:
256,192,194716,1,0,0:0:0:0:
256,192,194923,1,8,0:0:0:0:
256,192,195129,1,0,0:0:0:0:
256,192,195336,1,8,0:0:0:0:
256,192,195440,1,8,0:0:0:0:
256,192,195543,1,8,0:0:0:0:
256,192,195750,1,0,0:0:0:0:
256,192,195957,1,8,0:0:0:0:
256,192,196371,1,0,0:0:0:0:
256,192,196785,1,8,0:0:0:0:
256,192,196992,1,0,0:0:0:0:
256,192,197405,1,0,0:0:0:0:
256,192,197612,1,8,0:0:0:0:
256,192,197819,1,0,0:0:0:0:
256,192,198233,1,8,0:0:0:0:
256,192,198440,1,0,0:0:0:0:
256,192,198647,1,8,0:0:0:0:
256,192,199061,1,0,0:0:0:0:
256,192,199267,1,8,0:0:0:0:
256,192,199474,1,0,0:0:0:0:
256,192,199681,1,12,0:0:0:0:
256,192,200302,1,8,0:0:0:0:
256,192,200509,1,0,0:0:0:0:
256,192,200716,1,0,0:0:0:0:
256,192,200923,1,8,0:0:0:0:
256,192,201129,1,0,0:0:0:0:
256,192,201543,1,0,0:0:0:0:
256,192,201750,1,8,0:0:0:0:
256,192,201957,1,0,0:0:0:0:
256,192,202371,1,8,0:0:0:0:
256,192,202578,1,0,0:0:0:0:
256,192,202992,1,8,0:0:0:0:
256,192,203405,1,0,0:0:0:0:
256,192,203612,1,8,0:0:0:0:
256,192,204026,1,8,0:0:0:0:
256,192,204233,1,0,0:0:0:0:
256,192,204440,1,8,0:0:0:0:
256,192,204854,1,8,0:0:0:0:
256,192,205267,1,0,0:0:0:0:
256,192,205681,1,8,0:0:0:0:
256,192,205888,1,0,0:0:0:0:
256,192,206095,1,0,0:0:0:0:
256,192,206302,1,8,0:0:0:0:
256,192,206923,1,0,0:0:0:0:
256,192,207129,1,8,0:0:0:0:
256,192,207336,1,0,0:0:0:0:
256,192,207543,1,0,0:0:0:0:
256,192,207750,1,8,0:0:0:0:
256,192,208164,1,0,0:0:0:0:
256,192,208371,1,0,0:0:0:0:
256,192,208578,1,8,0:0:0:0:
256,192,208992,1,0,0:0:0:0:
256,192,209198,1,8,0:0:0:0:
256,192,209612,1,8,0:0:0:0:
256,192,210026,1,0,0:0:0:0:
256,192,210233,1,8,0:0:0:0:
256,192,210647,1,0,0:0:0:0:
256,192,210854,1,8,0:0:0:0:
256,192,211061,1,0,0:0:0:0:
256,192,211267,12,0,214164,0:0:0:0:
