osu file format v14

[General]
AudioFilename: audio.mp3
AudioLeadIn: 0
PreviewTime: 46107
Countdown: 0
SampleSet: Soft
StackLeniency: 0.6
Mode: 0
LetterboxInBreaks: 0
WidescreenStoryboard: 0

[Editor]
Bookmarks: 54846,62405,68547
DistanceSpacing: 0.5
BeatDivisor: 4
GridSize: 32
TimelineZoom: 1.8

[Metadata]
Title:To my darling...
TitleUnicode:To my darling...
Artist:Koshimizu Sachiko (CV: Taketatsu Ayana)
ArtistUnicode:輿水幸子(CV:竹達彩奈)
Creator:Shunao
Version:SquareTude's Insane
Source:アイドルマスターシンデレラガールズ
Tags:shogunmoon -_frontier_- shockolatte habiholic affirmation SquareTude THE iDOLM@STER Cinderella Girls master 020
BeatmapID:1674427
BeatmapSetID:797169

[Difficulty]
HPDrainRate:5.5
CircleSize:4
OverallDifficulty:8.5
ApproachRate:8
SliderMultiplier:1.8
SliderTickRate:1

[Events]
//Background and Video events
0,0,"86515j.jpg",0,0
//Break Periods
//Storyboard Layer 0 (Background)
//Storyboard Layer 1 (Fail)
//Storyboard Layer 2 (Pass)
//Storyboard Layer 3 (Foreground)
//Storyboard Sound Samples

[TimingPoints]
44,472.44094488189,4,2,4,60,1,0
1933,-80,4,2,4,60,0,0
9492,-133.333333333333,4,2,4,60,0,0
12326,-117.647058823529,4,2,4,60,0,0
12799,-100,4,2,4,60,0,0
13272,-100,4,2,4,60,0,0
28390,-133.333333333333,4,2,4,40,0,0
39729,-133.333333333333,4,2,4,50,0,0
43980,-100,4,2,4,60,0,0
47288,-80,4,2,4,60,0,1
60988,-80,4,2,4,60,0,0
62406,-80,4,2,4,60,0,1
71854,-100,4,2,4,60,0,1
73744,-100,4,2,4,60,0,0
79413,-133.333333333333,4,2,1,60,0,0
81303,-200,4,2,1,40,0,0
88862,-200,4,2,7,40,0,0
92641,-100,4,2,4,45,0,0
93587,-100,4,2,4,50,0,0
94059,-100,4,2,4,55,0,0
94532,-100,4,2,4,60,0,0
96421,-80,4,2,4,60,0,1
107760,-133.333333333333,4,2,4,60,0,0
111540,-80,4,2,4,60,0,1
115319,-133.333333333333,4,2,7,40,0,0
120988,-100,4,2,7,5,0,0

[Colours]
Combo1 : 203,180,224
Combo2 : 120,0,240
Combo3 : 255,128,255
Combo4 : 253,216,2

[HitObjects]
103,295,1461,5,8,0:0:0:0:
114,296,1579,1,8,0:0:0:0:
125,298,1697,1,8,0:0:0:0:
136,299,1815,1,8,0:0:0:0:
148,302,1933,6,0,L|269:288,1,112.5,12|2,0:0|0:0,0:0:0:0:
463,354,2406,2,0,L|342:340,1,112.5,8|2,0:0|0:0,0:0:0:0:
511,160,2878,1,8,0:0:0:0:
294,228,3114,1,2,0:0:0:0:
377,0,3350,1,8,0:0:0:0:
420,226,3587,1,2,0:0:0:0:
212,121,3823,6,0,P|190:52|224:1,1,112.5,8|2,0:0|0:0,0:0:0:0:
294,228,4295,2,0,L|270:366,1,112.5,8|2,0:0|0:0,0:0:0:0:
52,205,4768,1,8,0:0:0:0:
271,64,5004,1,2,0:0:0:0:
214,277,5240,1,8,0:0:0:0:
34,102,5477,1,2,0:0:0:0:
168,352,5713,6,0,P|228:362|285:324,1,112.5,12|2,0:0|0:0,0:0:0:0:
472,98,6185,2,0,P|412:88|355:126,1,112.5,8|2,0:0|0:0,0:0:0:0:
214,277,6658,1,8,0:0:0:0:
421,175,6894,1,2,0:0:0:0:
216,18,7130,1,8,0:0:0:0:
316,211,7366,1,2,0:0:0:0:
400,21,7603,6,0,L|522:30,1,112.5,8|2,0:0|0:0,0:0:0:0:
407,210,8075,2,0,P|342:128|234:179,1,225,8|8,0:0|0:0,0:0:0:0:
126,327,8784,1,2,0:0:0:0:
316,213,9020,1,8,0:0:0:0:
205,383,9256,1,2,0:0:0:0:
167,195,9492,6,0,B|149:153|175:114|175:114|158:89|158:89|187:42|166:-3,1,202.500007724762,12|10,0:0|0:0,0:0:0:0:
36,17,10437,2,0,B|1:40|1:40|104:34,1,135.000005149842,2|2,0:0|0:0,0:0:0:0:
40,124,11146,2,0,L|165:116,1,101.250003862381,4|8,0:0|0:0,0:0:0:0:
174,114,11618,1,8,0:0:0:0:
341,41,11855,6,0,L|307:35,3,33.7500012874604,8|8|8|8,0:0|0:0|0:0|0:0,0:0:0:0:
426,101,12327,2,0,L|464:94,3,38.2500007295609,8|8|8|8,0:0|0:0|0:0|0:0,0:0:0:0:
346,162,12799,1,8,0:0:0:0:
360,179,12918,1,8,0:0:0:0:
378,192,13036,1,8,0:0:0:0:
398,201,13154,1,8,0:0:0:0:
422,205,13272,6,0,L|535:202,1,90,6|0,0:0|0:0,0:0:0:0:
317,278,13744,2,0,P|271:260|211:264,1,90,2|0,0:0|0:0,0:0:0:0:
73,312,14217,1,2,0:0:0:0:
139,236,14453,1,0,0:0:0:0:
33,117,14689,1,2,0:0:0:0:
50,226,14925,1,0,0:0:0:0:
120,83,15162,6,0,L|230:73,1,90,2|0,0:0|0:0,0:0:0:0:
366,24,15634,1,2,0:0:0:0:
305,104,15870,1,0,0:0:0:0:
480,82,16106,1,2,0:0:0:0:
419,162,16342,1,0,0:0:0:0:
238,156,16579,1,2,0:0:0:0:
299,236,16815,1,0,0:0:0:0:
266,84,17051,6,0,P|227:77|178:102,1,90,2|0,0:0|0:0,0:0:0:0:
88,226,17524,2,0,L|-18:210,1,90,2|0,0:0|0:0,0:0:0:0:
151,165,17996,1,2,0:0:0:0:
176,263,18232,1,0,0:0:0:0:
266,84,18469,5,2,0:0:0:0:
266,84,18587,1,2,0:0:0:0:
266,84,18705,1,2,0:0:0:0:
331,300,18941,5,6,0:0:0:0:
235,199,19177,1,0,0:0:0:0:
467,179,19414,1,8,0:0:0:0:
233,289,19650,2,0,L|49:282,1,180,6|8,0:0|0:0,0:0:0:0:
170,246,20358,2,0,P|179:225|180:203,1,45,2|2,0:0|0:0,0:0:0:0:
117,324,20595,2,0,P|118:346|127:366,1,45,2|2,0:0|0:0,0:0:0:0:
247,162,20831,6,0,P|214:131|137:152,1,90,2|0,0:0|0:0,0:0:0:0:
20,178,21303,1,2,0:0:0:0:
90,112,21540,1,0,0:0:0:0:
53,282,21776,1,2,0:0:0:0:
100,192,22012,1,0,0:0:0:0:
191,346,22248,1,2,0:0:0:0:
170,246,22484,1,0,0:0:0:0:
289,366,22721,6,0,L|386:374,1,90,2|0,0:0|0:0,0:0:0:0:
252,282,23193,1,2,0:0:0:0:
406,243,23429,1,0,0:0:0:0:
325,212,23666,1,2,0:0:0:0:
289,366,23902,1,0,0:0:0:0:
171,249,24138,1,2,0:0:0:0:
252,282,24374,1,0,0:0:0:0:
121,169,24610,6,0,P|115:117|142:59,1,90,2|0,0:0|0:0,0:0:0:0:
274,10,25083,2,0,L|392:18,1,90,2|0,0:0|0:0,0:0:0:0:
216,89,25555,1,2,0:0:0:0:
171,249,25792,1,0,0:0:0:0:
344,160,26028,2,0,P|322:162|300:161,1,45,2|0,0:0|0:0,0:0:0:0:
125,85,26264,1,8,0:0:0:0:
125,85,26382,1,8,0:0:0:0:
125,85,26500,5,12,0:0:0:0:
285,240,26736,1,2,0:0:0:0:
295,0,26973,1,2,0:0:0:0:
375,239,27209,2,0,P|351:304|260:323,1,135,6|0,0:0|0:0,0:0:0:0:
261,333,27681,1,2,0:0:0:0:
225,325,27799,1,0,0:0:0:0:
201,297,27917,1,2,0:0:0:0:
201,260,28035,1,0,0:0:0:0:
224,231,28153,1,2,0:0:0:0:
260,223,28271,1,0,0:0:0:0:
292,239,28390,6,0,L|149:227,1,135.000005149842,6|8,0:0|0:0,0:0:0:0:
294,328,29099,1,0,0:0:0:0:
194,347,29335,1,8,0:0:0:0:
194,347,29571,1,2,0:0:0:0:
310,244,29807,1,8,0:0:0:0:
427,344,30044,6,0,B|434:353|442:373|442:373|463:322|457:255,1,135.000005149842,2|2,0:0|0:0,0:0:0:0:
433,155,30752,2,0,P|428:114|437:83,1,67.5000025749208,8|8,0:0|0:0,0:0:0:0:
505,0,31225,1,8,0:0:0:0:
505,0,31461,1,2,0:0:0:0:
372,0,31697,2,0,P|339:1|297:10,1,67.5000025749208,8|2,0:0|0:0,0:0:0:0:
218,107,32169,5,2,0:0:0:0:
132,16,32406,1,2,0:0:0:0:
132,144,32642,1,8,0:0:0:0:
220,13,32878,1,2,0:0:0:0:
299,152,33114,1,2,0:0:0:0:
299,152,33351,1,2,0:0:0:0:
131,143,33587,1,8,0:0:0:0:
263,237,33823,6,0,L|419:255,1,135.000005149842,2|2,0:0|0:0,0:0:0:0:
231,313,34532,2,0,P|226:359|242:392,1,67.5000025749208,8|2,0:0|0:0,0:0:0:0:
182,239,35004,1,8,0:0:0:0:
182,239,35240,1,2,0:0:0:0:
70,304,35477,1,8,0:0:0:0:
135,158,35713,1,2,0:0:0:0:
231,313,35949,6,0,P|234:343|227:385,1,67.5000025749208,2|0,0:0|0:0,0:0:0:0:
290,158,36421,2,0,L|286:90,1,67.5000025749208,8|2,0:0|0:0,0:0:0:0:
397,252,36894,1,2,0:0:0:0:
397,252,37130,1,2,0:0:0:0:
231,313,37366,1,8,0:0:0:0:
391,351,37603,1,0,0:0:0:0:
310,248,37839,6,0,P|329:197|360:179,1,67.5000025749208,2|0,0:0|0:0,0:0:0:0:
472,97,38311,2,0,L|459:28,1,67.5000025749208,8|2,0:0|0:0,0:0:0:0:
422,178,38784,1,2,0:0:0:0:
422,178,39020,1,2,0:0:0:0:
342,45,39256,1,8,0:0:0:0:
251,176,39492,1,2,0:0:0:0:
138,23,39729,6,0,L|63:17,1,67.5000025749208,2|2,0:0|0:0,0:0:0:0:
183,181,40201,2,0,L|258:175,1,67.5000025749208,8|2,0:0|0:0,0:0:0:0:
57,292,40673,2,0,P|48:338|52:369,1,67.5000025749208,2|2,0:0|0:0,0:0:0:0:
218,309,41146,5,2,0:0:0:0:
237,281,41264,1,2,0:0:0:0:
247,249,41382,2,0,P|249:211|243:187,1,33.7500012874604,8|8,0:0|0:0,0:0:0:0:
101,134,41618,1,2,0:0:0:0:
134,139,41736,1,2,0:0:0:0:
167,135,41854,1,2,0:0:0:0:
198,121,41972,1,2,0:0:0:0:
224,100,42091,6,0,L|221:149,1,33.7500012874604,8|8,0:0|0:0,0:0:0:0:
330,256,42327,2,0,L|327:222,1,33.7500012874604,8|8,0:0|0:0,0:0:0:0:
312,0,42563,5,8,0:0:0:0:
483,119,42799,1,8,0:0:0:0:
310,88,43036,1,2,0:0:0:0:
479,232,43272,6,0,B|511:269|511:269|490:355,1,135.000005149842,6|2,0:0|0:0,0:0:0:0:
167,352,43981,1,8,0:0:0:0:
306,135,44217,1,2,0:0:0:0:
308,365,44453,1,8,0:0:0:0:
181,223,44689,1,2,0:0:0:0:
343,250,44925,1,8,0:0:0:0:
229,300,45162,1,2,0:0:0:0:
308,365,45398,1,4,0:0:0:0:
138,360,45634,5,8,3:0:0:0:
333,380,45870,1,8,3:0:0:0:
153,211,46106,1,8,3:0:0:0:
372,263,46343,1,8,0:0:0:0:
109,369,46579,1,2,0:0:0:0:
443,288,46815,1,8,0:0:0:0:
266,33,47051,1,2,0:0:0:0:
223,288,47288,6,0,P|241:341|389:328,1,225,12|8,0:0|0:0,0:0:0:0:
465,178,47996,1,2,0:0:0:0:
309,288,48232,1,8,0:0:0:0:
227,112,48469,1,2,0:0:0:0:
169,318,48705,1,8,0:0:0:0:
116,128,48941,1,2,0:0:0:0:
309,288,49177,6,0,L|435:296,1,112.5,8|2,0:0|0:0,0:0:0:0:
209,218,49650,2,0,L|83:226,1,112.5,8|2,0:0|0:0,0:0:0:0:
432,221,50122,1,8,0:0:0:0:
266,127,50358,1,2,0:0:0:0:
286,318,50595,1,8,0:0:0:0:
379,137,50831,1,2,0:0:0:0:
201,199,51067,6,0,P|171:132|267:24,1,225,8|8,0:0|0:0,0:0:0:0:
287,214,51776,1,2,0:0:0:0:
84,200,52012,1,8,0:0:0:0:
266,127,52248,1,2,0:0:0:0:
110,297,52484,1,8,0:0:0:0:
180,86,52721,1,2,0:0:0:0:
217,272,52957,6,0,L|198:395,1,112.5,8|2,0:0|0:0,0:0:0:0:
351,148,53429,2,0,P|333:86|352:40,1,112.5,8|2,0:0|0:0,0:0:0:0:
512,223,53902,1,8,0:0:0:0:
289,240,54138,1,2,0:0:0:0:
416,96,54373,1,8,0:0:0:0:
385,312,54610,1,2,0:0:0:0:
378,332,54729,1,2,0:0:0:0:
372,351,54846,6,0,L|239:360,1,112.5,12|2,0:0|0:0,0:0:0:0:
19,192,55319,2,0,L|152:201,1,112.5,8|2,0:0|0:0,0:0:0:0:
304,39,55792,1,8,0:0:0:0:
264,261,56028,1,2,0:0:0:0:
107,66,56264,1,8,0:0:0:0:
170,278,56500,1,2,0:0:0:0:
367,108,56736,6,0,P|393:31|352:-23,1,112.5,8|2,0:0|0:0,0:0:0:0:
264,261,57209,2,0,P|253:315|279:363,1,112.5,8|2,0:0|0:0,0:0:0:0:
218,110,57681,1,8,0:0:0:0:
337,300,57918,1,2,0:0:0:0:
304,39,58154,1,8,0:0:0:0:
167,270,58390,1,2,0:0:0:0:
209,10,58626,5,8,0:0:0:0:
353,225,58862,1,2,0:0:0:0:
105,129,59099,1,8,0:0:0:0:
374,117,59335,1,2,0:0:0:0:
167,270,59571,1,8,0:0:0:0:
51,20,59807,1,2,0:0:0:0:
34,300,60043,1,8,0:0:0:0:
242,95,60279,1,2,0:0:0:0:
336,381,60516,5,8,0:0:0:0:
192,181,60752,1,2,0:0:0:0:
497,214,60988,1,8,0:0:0:0:
497,214,61461,6,0,P|450:212|421:202,1,56.25,8|0,0:0|0:0,0:0:0:0:
214,98,61697,2,0,P|261:96|290:86,1,56.25,8|0,0:0|0:0,0:0:0:0:
488,45,61933,1,8,0:0:0:0:
317,252,62169,1,8,0:0:0:0:
212,19,62405,6,0,L|66:36,1,112.5,12|2,0:0|0:0,0:0:0:0:
0,230,62877,2,0,L|146:243,1,112.5,8|2,0:0|0:0,0:0:0:0:
345,260,63350,1,8,0:0:0:0:
188,83,63586,1,2,0:0:0:0:
213,308,63822,1,8,0:0:0:0:
362,145,64058,1,2,0:0:0:0:
400,338,64295,6,0,L|268:350,1,112.5,8|2,0:0|0:0,0:0:0:0:
128,210,64767,2,0,L|260:222,1,112.5,8|2,0:0|0:0,0:0:0:0:
31,371,65240,1,8,0:0:0:0:
59,115,65476,1,2,0:0:0:0:
197,335,65712,1,8,0:0:0:0:
312,103,65948,1,2,0:0:0:0:
395,337,66184,6,0,P|448:351|525:316,1,112.5,8|2,0:0|0:0,0:0:0:0:
258,256,66657,2,0,P|205:242|128:276,1,112.5,8|2,0:0|0:0,0:0:0:0:
290,362,67129,1,8,0:0:0:0:
219,142,67366,1,2,0:0:0:0:
448,256,67602,1,8,0:0:0:0:
197,335,67838,1,2,0:0:0:0:
145,100,68074,6,0,P|201:57|280:91,1,112.5,8|2,0:0|0:0,0:0:0:0:
292,251,68547,2,0,P|298:326|274:397,1,112.5,8|2,0:0|0:0,0:0:0:0:
384,110,69019,2,0,P|371:48|379:-4,1,112.5,8|2,0:0|0:0,0:0:0:0:
453,285,69492,1,8,0:0:0:0:
295,158,69728,1,2,0:0:0:0:
295,158,69847,1,2,0:0:0:0:
295,158,69964,6,0,L|155:165,1,112.5,12|2,0:0|0:0,0:0:0:0:
21,328,70436,2,0,L|145:334,1,112.5,8|2,0:0|0:0,0:0:0:0:
65,118,70909,1,8,0:0:0:0:
256,333,71145,1,2,0:0:0:0:
225,81,71381,1,8,0:0:0:0:
133,333,71618,1,2,0:0:0:0:
333,219,71854,6,0,L|494:234,1,135,12|0,0:0|0:0,0:0:0:0:
462,161,72326,1,8,0:0:0:0:
460,149,72444,1,8,0:0:0:0:
458,138,72562,1,8,0:0:0:0:
457,127,72680,1,8,0:0:0:0:
455,116,72799,6,0,L|294:101,1,135,12|0,0:0|0:0,0:0:0:0:
249,94,73272,1,2,0:0:0:0:
334,217,73508,1,2,0:0:0:0:
334,217,73626,1,2,0:0:0:0:
334,217,73744,6,0,P|291:238|218:231,1,90,12|2,0:0|0:0,0:0:0:0:
107,162,74216,2,0,P|62:164|22:185,1,90,8|2,0:0|0:0,0:0:0:0:
215,148,74688,1,8,0:0:0:0:
98,271,74925,1,2,0:0:0:0:
47,108,75161,1,8,0:0:0:0:
167,231,75397,1,2,0:0:0:0:
174,69,75633,6,0,P|227:51|359:104,1,180,8|8,0:0|0:0,0:0:0:0:
446,213,76342,1,2,0:0:0:0:
289,210,76578,1,8,0:0:0:0:
452,113,76814,5,2,0:0:0:0:
340,284,77051,1,8,0:0:0:0:
341,85,77287,1,2,0:0:0:0:
436,260,77524,5,8,0:0:0:0:
461,69,77759,1,2,0:0:0:0:
289,210,77995,1,8,0:0:0:0:
204,0,78232,1,2,0:0:0:0:
79,195,78468,5,8,0:0:0:0:
67,196,78586,1,8,0:0:0:0:
56,197,78704,1,8,0:0:0:0:
45,198,78822,1,8,0:0:0:0:
34,199,78940,1,8,0:0:0:0:
161,94,79177,1,8,0:0:0:0:
132,263,79413,6,0,P|46:270|95:194,1,202.500007724762,6|2,0:0|0:0,0:0:0:0:
170,180,80358,1,2,0:0:0:0:
254,221,80594,1,2,0:0:0:0:
351,204,80830,1,2,0:0:0:0:
444,231,81066,1,2,0:0:0:0:
412,139,81303,6,0,L|413:83,2,45,2|0|0,0:0|0:0|0:0,0:0:0:0:
345,26,82011,1,2,0:0:0:0:
256,68,82247,1,2,0:0:0:0:
173,22,82484,1,2,0:0:0:0:
86,62,82720,1,2,0:0:0:0:
154,132,82956,2,0,L|209:142,1,45,2|0,0:0|0:0,0:0:0:0:
290,160,83429,1,2,0:0:0:0:
290,160,84138,2,0,L|277:219,1,45,2|0,0:0|0:0,0:0:0:0:
206,274,84610,2,0,L|195:226,1,45,2|0,0:0|0:0,0:0:0:0:
128,162,85083,6,0,P|42:153|-9:179,1,135,2|2,0:0|0:0,0:0:0:0:
53,256,86028,1,2,0:0:0:0:
7,348,86264,1,2,0:0:0:0:
103,336,86500,1,2,0:0:0:0:
206,356,86736,6,0,P|193:308|265:320,1,135,2|2,0:0|0:0,0:0:0:0:
379,353,87918,1,2,0:0:0:0:
502,304,88390,1,0,0:0:0:0:
431,212,88626,1,2,0:0:0:0:
431,212,88743,1,2,0:0:0:0:
431,212,88862,6,0,B|391:196|342:245|288:214,1,135,2|2,0:0|0:0,0:0:0:0:
222,197,89807,1,2,0:0:0:0:
89,226,90279,1,8,0:0:0:0:
212,122,90516,1,0,0:0:0:0:
212,122,90634,1,0,0:0:0:0:
212,122,90752,6,0,P|209:83|139:113,1,135,2|2,0:0|0:0,0:0:0:0:
150,180,91697,1,0,0:0:0:0:
208,340,92169,1,8,0:0:0:0:
347,212,92642,5,8,0:0:0:0:
223,112,92878,1,2,0:0:0:0:
294,296,93114,1,8,0:0:0:0:
354,102,93351,1,2,0:0:0:0:
143,214,93587,1,8,0:0:0:0:
428,158,93823,1,2,0:0:0:0:
123,56,94059,1,8,0:0:0:0:
421,36,94295,1,2,0:0:0:0:
207,275,94532,5,8,0:0:0:0:
354,102,94768,1,8,0:0:0:0:
60,153,95004,1,8,0:0:0:0:
60,153,95122,1,0,3:0:0:0:
60,153,95240,1,0,3:0:0:0:
60,153,95358,1,0,3:0:0:0:
60,153,95476,5,8,0:0:0:0:
336,209,95712,1,2,0:0:0:0:
78,277,95948,1,8,0:0:0:0:
239,58,96184,1,8,0:0:0:0:
351,310,96421,6,0,P|421:324|487:306,1,112.5,14|2,0:0|0:0,0:0:0:0:
299,176,96894,2,0,P|239:160|160:180,1,112.5,8|2,0:0|0:0,0:0:0:0:
397,100,97366,1,8,0:0:0:0:
158,81,97603,1,2,0:0:0:0:
375,0,97839,1,8,0:0:0:0:
365,226,98075,1,2,0:0:0:0:
268,4,98311,6,0,L|249:143,1,112.5,8|2,0:0|0:0,0:0:0:0:
170,349,98784,2,0,L|154:237,1,112.5,8|2,0:0|0:0,0:0:0:0:
53,20,99255,1,8,0:0:0:0:
252,115,99492,1,2,0:0:0:0:
21,110,99728,1,8,0:0:0:0:
228,21,99965,1,2,0:0:0:0:
154,237,100200,6,0,P|227:302|339:226,1,225,8|8,0:0|0:0,0:0:0:0:
316,24,100909,1,2,0:0:0:0:
117,140,101145,1,8,0:0:0:0:
352,132,101381,1,2,0:0:0:0:
240,328,101618,1,8,0:0:0:0:
271,98,101855,1,2,0:0:0:0:
137,272,102091,6,0,L|149:403,1,112.5,8|2,0:0|0:0,0:0:0:0:
431,178,102562,2,0,P|443:127|394:58,1,112.5,8|2,0:0|0:0,0:0:0:0:
291,351,103036,1,8,0:0:0:0:
362,135,103272,1,2,0:0:0:0:
139,172,103507,1,8,0:0:0:0:
374,146,103744,1,2,0:0:0:0:
374,146,103862,1,0,0:0:0:0:
374,146,103980,6,0,L|384:18,1,112.5,12|2,0:0|0:0,0:0:0:0:
256,262,104452,2,0,L|264:374,1,112.5,8|2,0:0|0:0,0:0:0:0:
132,136,104925,1,8,0:0:0:0:
34,349,105161,1,2,0:0:0:0:
16,111,105397,1,8,0:0:0:0:
160,302,105633,1,2,0:0:0:0:
227,58,105870,6,0,P|345:43|363:137,1,225,12|8,0:0|0:0,0:0:0:0:
441,16,106579,2,0,L|517:22,1,56.25,8|8,0:0|0:0,0:0:0:0:
433,172,106815,6,0,P|315:186|297:92,1,225,12|8,0:0|0:0,0:0:0:0:
210,223,107524,2,0,L|153:227,1,56.25,8|8,0:0|0:0,0:0:0:0:
59,155,107760,5,6,0:0:0:0:
83,294,107996,2,0,P|131:317|229:314,1,135.000005149842,2|2,0:0|0:0,0:0:0:0:
331,262,108705,2,0,L|482:274,1,135.000005149842,2|8,0:0|0:0,0:0:0:0:
297,346,109414,1,2,0:0:0:0:
213,205,109650,5,8,0:0:0:0:
89,318,109885,1,2,0:0:0:0:
88,128,110121,1,8,0:0:0:0:
176,330,110358,1,2,0:0:0:0:
298,86,110594,1,8,0:0:0:0:
43,197,110830,1,2,0:0:0:0:
361,180,111066,1,8,0:0:0:0:
44,27,111303,1,2,0:0:0:0:
33,309,111540,6,0,L|48:153,1,112.5,12|2,0:0|0:0,0:0:0:0:
185,19,112012,2,0,L|195:130,1,112.5,8|2,0:0|0:0,0:0:0:0:
143,363,112484,1,8,0:0:0:0:
94,84,112721,1,2,0:0:0:0:
317,274,112957,1,8,0:0:0:0:
395,0,113193,1,2,0:0:0:0:
234,213,113429,6,0,B|205:267|205:267|188:94,1,225,12|8,0:0|0:0,0:0:0:0:
88,28,114137,2,0,L|97:112,1,56.25,8|8,0:0|0:0,0:0:0:0:
188,321,114374,6,0,B|217:375|217:375|234:202,1,225,12|2,0:0|0:0,0:0:0:0:
334,136,115083,2,0,L|325:220,1,56.25,2|2,0:0|0:0,0:0:0:0:
330,269,115319,6,0,P|377:316|377:221,1,202.500007724762,6|2,0:0|0:0,0:0:0:0:
328,191,116264,2,0,B|272:169|238:222|189:179,1,135.000005149842,2|8,0:0|0:0,0:0:0:0:
126,115,117209,1,2,0:0:0:0:
126,115,117917,5,2,0:0:0:0:
126,115,118153,1,2,0:0:0:0:
40,222,118625,1,8,0:0:0:0:
111,287,118862,1,0,3:0:0:0:
144,291,118980,1,0,3:0:0:0:
177,295,119098,1,4,0:0:0:0:
256,192,119216,12,0,120988,0:0:0:0:
