osu file format v14

[General]
AudioFilename: audio.mp3
AudioLeadIn: 0
PreviewTime: 46107
Countdown: 0
SampleSet: Soft
StackLeniency: 0.7
Mode: 0
LetterboxInBreaks: 0
WidescreenStoryboard: 0

[Editor]
DistanceSpacing: 0.8
BeatDivisor: 4
GridSize: 32
TimelineZoom: 1.6

[Metadata]
Title:To my darling...
TitleUnicode:To my darling...
Artist:Koshimizu Sachiko (CV: Taketatsu Ayana)
ArtistUnicode:輿水幸子(CV:竹達彩奈)
Creator:Shunao
Version:My Dear Darling...
Source:アイドルマスターシンデレラガールズ
Tags:shogunmoon -_frontier_- shockolatte habiholic affirmation SquareTude THE iDOLM@STER Cinderella Girls master 020
BeatmapID:1674194
BeatmapSetID:797169

[Difficulty]
HPDrainRate:6
CircleSize:4
OverallDifficulty:8.6
ApproachRate:9
SliderMultiplier:1.8
SliderTickRate:1

[Events]
//Background and Video events
0,0,"86515j.jpg",0,0
//Break Periods
2,81503,88262
//Storyboard Layer 0 (Background)
//Storyboard Layer 1 (Fail)
//Storyboard Layer 2 (Pass)
//Storyboard Layer 3 (Foreground)
//Storyboard Sound Samples

[TimingPoints]
44,472.44094488189,4,2,4,60,1,0
11146,-133.333333333333,4,2,4,60,0,0
13272,-111.111111111111,4,2,4,60,0,0
28390,-133.333333333333,4,2,4,40,0,0
39729,-133.333333333333,4,2,4,50,0,0
43272,-111.111111111111,4,2,4,60,0,0
47288,-71.4285714285714,4,2,4,60,0,1
60988,-71.4285714285714,4,2,4,60,0,0
62406,-71.4285714285714,4,2,4,60,0,1
73744,-100,4,2,4,60,0,0
81303,-100,4,2,4,30,0,0
88862,-133.333333333333,4,2,7,40,0,0
92642,-100,4,2,4,45,0,0
93587,-100,4,2,4,50,0,0
94059,-100,4,2,4,55,0,0
94532,-100,4,2,4,60,0,0
96421,-71.4285714285714,4,2,4,60,0,1
107760,-100,4,2,4,60,0,0
111540,-71.4285714285714,4,2,4,60,0,1
115319,-100,4,2,7,40,0,0
120988,-100,4,2,7,5,0,0

[Colours]
Combo1 : 203,180,224
Combo2 : 120,0,240
Combo3 : 255,128,255
Combo4 : 253,216,2

[HitObjects]
179,117,1461,5,8,0:0:0:0:
179,117,1579,1,8,0:0:0:0:
179,117,1697,1,8,0:0:0:0:
179,117,1815,1,8,0:0:0:0:
179,117,1933,5,12,0:0:0:0:
346,264,2169,1,2,0:0:0:0:
335,73,2406,1,8,0:0:0:0:
254,322,2642,1,2,0:0:0:0:
227,52,2878,1,8,0:0:0:0:
421,203,3114,1,2,0:0:0:0:
162,277,3351,1,8,0:0:0:0:
441,360,3587,1,2,0:0:0:0:
263,169,3823,5,8,0:0:0:0:
497,112,4059,1,2,0:0:0:0:
374,314,4295,1,8,0:0:0:0:
307,63,4532,1,2,0:0:0:0:
492,222,4768,1,8,0:0:0:0:
272,259,5004,1,2,0:0:0:0:
404,52,5240,1,8,0:0:0:0:
175,35,5477,1,2,0:0:0:0:
367,226,5713,5,12,0:0:0:0:
124,308,5949,1,2,0:0:0:0:
210,141,6185,1,8,0:0:0:0:
254,373,6421,1,2,0:0:0:0:
37,226,6658,1,8,0:0:0:0:
289,273,6894,1,2,0:0:0:0:
54,106,7130,1,8,0:0:0:0:
335,110,7366,1,2,0:0:0:0:
174,299,7603,5,8,0:0:0:0:
115,23,7839,1,2,0:0:0:0:
290,313,8075,5,8,0:0:0:0:
299,27,8311,1,2,0:0:0:0:
90,243,8547,5,8,0:0:0:0:
406,199,8784,1,2,0:0:0:0:
160,116,9020,5,8,0:0:0:0:
438,363,9256,1,2,0:0:0:0:
438,363,9374,1,2,0:0:0:0:
438,363,9492,5,12,0:0:0:0:
438,363,10201,1,2,0:0:0:0:
481,28,10437,1,2,0:0:0:0:
481,28,11146,6,0,B|410:5|416:54|340:33,1,135.000005149842,4|8,0:0|0:0,0:0:0:0:
180,18,11855,1,8,0:0:0:0:
156,20,11973,1,8,0:0:0:0:
133,27,12091,1,8,0:0:0:0:
114,41,12209,1,8,0:0:0:0:
97,66,12327,5,8,0:0:0:0:
89,95,12445,1,8,0:0:0:0:
89,125,12563,1,8,0:0:0:0:
97,154,12681,1,8,0:0:0:0:
116,185,12799,5,8,0:0:0:0:
147,205,12918,1,8,0:0:0:0:
183,213,13036,1,8,0:0:0:0:
220,210,13154,1,8,0:0:0:0:
254,196,13272,6,0,L|262:285,1,80.9999975280763,6|0,0:0|0:0,0:0:0:0:
386,336,13744,2,0,L|395:246,1,80.9999975280763,2|0,0:0|0:0,0:0:0:0:
290,115,14217,1,2,0:0:0:0:
407,167,14453,1,0,0:0:0:0:
254,196,14689,2,0,P|215:184|175:179,1,80.9999975280763,2|0,0:0|0:0,0:0:0:0:
317,94,15162,6,0,P|355:82|395:77,1,80.9999975280763,2|0,0:0|0:0,0:0:0:0:
485,183,15634,2,0,P|446:171|406:166,1,80.9999975280763,2|0,0:0|0:0,0:0:0:0:
254,196,16106,1,2,0:0:0:0:
381,251,16343,1,0,0:0:0:0:
317,94,16579,1,2,0:0:0:0:
234,241,16815,1,0,0:0:0:0:
85,178,17051,6,0,P|90:220|91:285,1,80.9999975280763,2|0,0:0|0:0,0:0:0:0:
204,344,17524,2,0,P|205:303|210:263,1,80.9999975280763,2|0,0:0|0:0,0:0:0:0:
338,175,17996,1,2,0:0:0:0:
312,312,18232,1,0,0:0:0:0:
223,177,18469,1,2,0:0:0:0:
412,262,18705,1,2,0:0:0:0:
412,262,18823,1,2,0:0:0:0:
412,262,18941,5,6,0:0:0:0:
468,33,19177,1,0,0:0:0:0:
500,315,19414,1,8,0:0:0:0:
406,100,19650,2,0,B|319:71|339:134|238:106,1,161.999995056153,6|8,0:0|0:0,0:0:0:0:
88,240,20358,1,2,0:0:0:0:
88,240,20477,1,2,0:0:0:0:
88,240,20595,1,2,0:0:0:0:
88,240,20713,1,2,0:0:0:0:
88,240,20831,6,0,P|132:245|184:268,1,80.9999975280763,2|0,0:0|0:0,0:0:0:0:
283,340,21303,2,0,P|239:345|187:368,1,80.9999975280763,2|0,0:0|0:0,0:0:0:0:
268,233,21776,1,2,0:0:0:0:
382,338,22012,1,0,0:0:0:0:
457,208,22248,2,0,L|465:113,1,80.9999975280763,2|0,0:0|0:0,0:0:0:0:
308,187,22721,6,0,L|316:276,1,80.9999975280763,2|0,0:0|0:0,0:0:0:0:
193,179,23193,2,0,L|184:275,1,80.9999975280763,2|0,0:0|0:0,0:0:0:0:
80,362,23665,1,2,0:0:0:0:
11,252,23902,1,0,0:0:0:0:
168,338,24138,1,2,0:0:0:0:
92,201,24374,1,0,0:0:0:0:
270,240,24610,6,0,L|366:229,1,80.9999975280763,2|0,0:0|0:0,0:0:0:0:
430,109,25083,2,0,L|334:98,1,80.9999975280763,2|0,0:0|0:0,0:0:0:0:
191,61,25555,1,2,0:0:0:0:
311,11,25791,1,0,0:0:0:0:
240,148,26028,1,2,0:0:0:0:
69,26,26264,1,8,0:0:0:0:
69,26,26382,1,8,0:0:0:0:
69,26,26500,5,12,0:0:0:0:
326,108,26736,1,2,0:0:0:0:
45,186,26973,1,2,0:0:0:0:
297,298,27209,2,0,P|310:226|320:121,1,161.999995056153,6|2,0:0|0:0,0:0:0:0:
126,153,27917,1,2,0:0:0:0:
126,173,28036,1,0,0:0:0:0:
128,193,28154,1,2,0:0:0:0:
132,212,28272,1,0,0:0:0:0:
138,227,28390,6,0,P|173:217|226:223,1,67.5000025749208,6|0,0:0|0:0,0:0:0:0:
301,246,28862,1,8,0:0:0:0:
395,193,29099,1,8,0:0:0:0:
395,193,29217,1,8,0:0:0:0:
395,193,29335,2,0,P|389:153|396:117,1,67.5000025749208,8|2,0:0|0:0,0:0:0:0:
493,168,29807,1,8,0:0:0:0:
493,168,30044,6,0,B|511:232|511:232|495:301,1,135.000005149842,2|2,0:0|0:0,0:0:0:0:
417,361,30752,1,8,0:0:0:0:
327,330,30988,1,8,0:0:0:0:
327,330,31106,1,8,0:0:0:0:
327,330,31225,2,0,L|246:324,1,67.5000025749208,8|2,0:0|0:0,0:0:0:0:
183,260,31697,2,0,L|97:266,1,67.5000025749208,8|2,0:0|0:0,0:0:0:0:
44,196,32169,6,0,P|39:161|27:123,2,67.5000025749208,2|2|8,0:0|0:0|0:0,0:0:0:0:
143,167,32878,1,2,0:0:0:0:
143,167,33114,2,0,P|147:126|158:89,1,67.5000025749208,2|2,0:0|0:0,0:0:0:0:
242,50,33587,1,8,0:0:0:0:
242,50,33823,6,0,P|302:66|374:24,1,135.000005149842,2|2,0:0|0:0,0:0:0:0:
457,80,34532,2,0,L|449:172,1,67.5000025749208,8|2,0:0|0:0,0:0:0:0:
484,242,35004,2,0,P|447:234|408:240,1,67.5000025749208,8|2,0:0|0:0,0:0:0:0:
325,196,35477,2,0,P|288:204|249:198,1,67.5000025749208,8|2,0:0|0:0,0:0:0:0:
153,321,35949,6,0,P|218:308|281:366,1,135.000005149842,2|8,0:0|0:0,0:0:0:0:
357,288,36658,1,2,0:0:0:0:
462,371,36894,2,0,L|469:290,1,67.5000025749208,2|2,0:0|0:0,0:0:0:0:
376,188,37366,1,8,0:0:0:0:
487,168,37603,1,0,0:0:0:0:
390,291,37839,6,0,L|319:284,1,67.5000025749208,2|0,0:0|0:0,0:0:0:0:
258,198,38311,1,8,0:0:0:0:
167,233,38547,2,0,L|174:286,1,33.7500012874604,2|2,0:0|0:0,0:0:0:0:
179,321,38784,2,0,L|98:312,1,67.5000025749208,2|2,0:0|0:0,0:0:0:0:
66,305,39138,1,2,0:0:0:0:
66,305,39256,1,8,0:0:0:0:
17,193,39492,1,2,0:0:0:0:
128,106,39729,6,0,L|204:100,1,67.5000025749208,2|2,0:0|0:0,0:0:0:0:
300,26,40201,2,0,L|225:20,1,67.5000025749208,8|2,0:0|0:0,0:0:0:0:
306,120,40673,2,0,L|358:113,3,33.7500012874604,2|2|2|2,0:0|0:0|0:0|0:0,0:0:0:0:
412,73,41146,2,0,L|464:80,3,33.7500012874604,2|2|8|8,0:0|0:0|0:0|0:0,0:0:0:0:
491,156,41618,6,0,P|486:183|484:209,3,33.7500012874604,2|2|2|2,0:0|0:0|0:0|0:0,0:0:0:0:
472,281,42091,1,8,0:0:0:0:
447,270,42209,1,8,0:0:0:0:
420,266,42327,1,8,0:0:0:0:
393,271,42445,1,8,0:0:0:0:
369,283,42563,1,8,0:0:0:0:
156,370,42799,1,8,0:0:0:0:
115,191,43036,1,2,0:0:0:0:
362,363,43272,6,0,L|370:266,1,80.9999975280763,6|0,0:0|0:0,0:0:0:0:
313,108,43744,1,2,0:0:0:0:
257,247,43981,1,8,0:0:0:0:
431,167,44217,1,2,0:0:0:0:
186,92,44453,1,8,0:0:0:0:
379,28,44689,1,2,0:0:0:0:
360,252,44925,1,8,0:0:0:0:
91,162,45162,1,2,0:0:0:0:
379,28,45398,5,4,0:0:0:0:
256,311,45634,1,8,3:0:0:0:
493,154,45870,1,8,3:0:0:0:
202,45,46106,1,8,3:0:0:0:
412,298,46343,5,8,0:0:0:0:
382,284,46461,1,2,0:0:0:0:
349,282,46579,1,2,0:0:0:0:
318,292,46697,1,2,0:0:0:0:
288,305,46815,1,8,0:0:0:0:
256,311,46933,1,2,0:0:0:0:
223,310,47051,1,2,0:0:0:0:
192,300,47169,1,2,0:0:0:0:
166,282,47288,6,0,L|153:147,1,125.999996154785,12|2,0:0|0:0,0:0:0:0:
342,54,47760,2,0,L|331:196,1,125.999996154785,8|2,0:0|0:0,0:0:0:0:
183,67,48232,1,8,0:0:0:0:
277,262,48469,1,2,0:0:0:0:
435,130,48705,1,8,0:0:0:0:
232,154,48941,1,2,0:0:0:0:
337,354,49177,6,0,P|271:341|198:347,1,125.999996154785,8|2,0:0|0:0,0:0:0:0:
85,180,49650,2,0,P|147:182|209:170,1,125.999996154785,8|2,0:0|0:0,0:0:0:0:
316,19,50122,1,8,0:0:0:0:
129,70,50358,1,2,0:0:0:0:
312,176,50595,1,8,0:0:0:0:
201,0,50831,1,2,0:0:0:0:
425,110,51067,6,0,B|404:180|404:180|435:282|435:282|416:362,1,251.999992309571,8|8,0:0|0:0,0:0:0:0:
271,182,51776,1,2,0:0:0:0:
156,374,52012,1,8,0:0:0:0:
376,359,52248,1,2,0:0:0:0:
141,239,52484,1,8,0:0:0:0:
312,176,52721,1,2,0:0:0:0:
123,26,52957,6,0,L|139:174,1,125.999996154785,8|2,0:0|0:0,0:0:0:0:
298,18,53429,2,0,L|285:143,1,125.999996154785,8|2,0:0|0:0,0:0:0:0:
195,308,53902,1,8,0:0:0:0:
391,355,54138,1,2,0:0:0:0:
440,347,54256,1,2,0:0:0:0:
473,309,54374,1,8,0:0:0:0:
477,258,54492,1,2,0:0:0:0:
461,210,54610,1,2,0:0:0:0:
420,181,54729,1,2,0:0:0:0:
371,179,54847,6,0,P|307:177|233:165,1,125.999996154785,12|2,0:0|0:0,0:0:0:0:
379,39,55319,2,0,P|441:29|504:27,1,125.999996154785,8|2,0:0|0:0,0:0:0:0:
470,233,55792,1,8,0:0:0:0:
302,95,56028,1,2,0:0:0:0:
512,126,56264,1,8,0:0:0:0:
305,293,56500,1,2,0:0:0:0:
143,90,56736,6,0,L|296:103,1,125.999996154785,8|2,0:0|0:0,0:0:0:0:
169,279,57209,2,0,L|33:290,1,125.999996154785,8|2,0:0|0:0,0:0:0:0:
6,75,57681,1,8,0:0:0:0:
194,186,57918,1,2,0:0:0:0:
3,290,58154,1,8,0:0:0:0:
114,105,58390,1,2,0:0:0:0:
237,357,58626,5,8,0:0:0:0:
62,198,58862,1,2,0:0:0:0:
286,127,59099,1,8,0:0:0:0:
400,366,59335,2,0,L|275:355,1,125.999996154785,2|8,0:0|0:0,0:0:0:0:
156,175,59807,1,2,0:0:0:0:
373,137,60044,2,0,P|362:197|358:273,1,125.999996154785,8|2,0:0|0:0,0:0:0:0:
182,74,60516,5,8,0:0:0:0:
176,50,60988,1,8,0:0:0:0:
171,26,61461,2,0,L|248:20,2,62.9999980773926,8|8|8,0:0|0:0|0:0,0:0:0:0:
86,217,61933,2,0,L|9:210,2,62.9999980773926,8|8|8,0:0|0:0|0:0,0:0:0:0:
306,341,62406,6,0,P|362:311|435:324,1,125.999996154785,12|2,0:0|0:0,0:0:0:0:
279,188,62878,2,0,P|221:191|162:151,1,125.999996154785,8|2,0:0|0:0,0:0:0:0:
324,21,63350,1,8,0:0:0:0:
376,235,63587,1,2,0:0:0:0:
209,81,63823,1,8,0:0:0:0:
413,128,64059,1,2,0:0:0:0:
249,295,64295,6,0,L|115:287,1,125.999996154785,8|2,0:0|0:0,0:0:0:0:
287,136,64768,2,0,L|432:126,1,125.999996154785,8|2,0:0|0:0,0:0:0:0:
507,323,65240,1,8,0:0:0:0:
282,270,65476,1,2,0:0:0:0:
478,183,65713,1,8,0:0:0:0:
357,371,65949,1,2,0:0:0:0:
128,268,66185,6,0,B|80:128|203:167|138:10,1,251.999992309571,8|8,0:0|0:0,0:0:0:0:
0,165,66894,1,2,0:0:0:0:
203,209,67130,1,8,0:0:0:0:
48,50,67366,1,2,0:0:0:0:
18,266,67602,1,8,0:0:0:0:
229,197,67839,1,2,0:0:0:0:
123,357,68075,6,0,L|250:343,1,125.999996154785,8|2,0:0|0:0,0:0:0:0:
438,284,68547,2,0,L|294:271,1,125.999996154785,8|2,0:0|0:0,0:0:0:0:
160,120,69020,1,8,0:0:0:0:
328,22,69256,1,2,0:0:0:0:
325,72,69374,1,2,0:0:0:0:
321,122,69492,1,8,0:0:0:0:
319,172,69610,1,2,0:0:0:0:
316,222,69729,1,2,0:0:0:0:
159,354,69965,6,0,P|106:328|34:335,1,125.999996154785,12|2,0:0|0:0,0:0:0:0:
107,182,70437,2,0,P|174:173|224:123,1,125.999996154785,8|2,0:0|0:0,0:0:0:0:
35,80,70910,1,8,0:0:0:0:
111,279,71146,1,2,0:0:0:0:
134,93,71382,1,8,0:0:0:0:
23,276,71618,1,2,0:0:0:0:
251,363,71855,6,0,P|314:349|397:354,1,125.999996154785,12|0,0:0|0:0,0:0:0:0:
509,257,72327,1,8,0:0:0:0:
373,138,72563,1,8,0:0:0:0:
373,138,72681,1,8,0:0:0:0:
373,138,72799,2,0,L|383:7,1,125.999996154785,12|2,0:0|0:0,0:0:0:0:
190,118,73272,1,2,0:0:0:0:
339,263,73508,1,2,0:0:0:0:
339,263,73626,1,2,0:0:0:0:
339,263,73744,6,0,L|236:254,1,90,12|2,0:0|0:0,0:0:0:0:
190,118,74217,2,0,L|299:104,1,90,8|2,0:0|0:0,0:0:0:0:
444,16,74689,1,8,0:0:0:0:
414,185,74925,1,2,0:0:0:0:
332,30,75162,1,8,0:0:0:0:
498,117,75398,1,2,0:0:0:0:
324,151,75634,6,0,L|334:256,1,90,8|2,0:0|0:0,0:0:0:0:
211,124,76107,2,0,L|202:229,1,90,8|2,0:0|0:0,0:0:0:0:
222,374,76579,1,8,0:0:0:0:
47,291,76815,1,2,0:0:0:0:
296,269,77052,1,8,0:0:0:0:
85,152,77288,1,2,0:0:0:0:
140,375,77524,5,8,0:0:0:0:
207,170,77760,1,2,0:0:0:0:
4,62,77996,1,8,0:0:0:0:
133,266,78232,1,2,0:0:0:0:
247,38,78469,1,8,0:0:0:0:
247,38,78587,1,8,0:0:0:0:
247,38,78705,1,8,0:0:0:0:
364,295,78941,1,8,0:0:0:0:
484,55,79177,1,8,0:0:0:0:
207,170,79414,5,6,0:0:0:0:
256,192,79532,12,0,81303,0:0:0:0:
476,54,88862,6,0,B|365:17|387:104|264:61,1,202.500007724762,2|2,0:0|0:0,0:0:0:0:
185,28,89807,2,0,L|93:34,1,67.5000025749208,2|0,0:0|0:0,0:0:0:0:
0,135,90280,1,8,0:0:0:0:
88,201,90516,2,0,L|146:197,1,33.7500012874604,0|0,0:0|0:0,0:0:0:0:
163,174,90752,6,0,L|379:189,1,202.500007724762,2|2,0:0|0:0,0:0:0:0:
396,285,91697,2,0,L|318:292,1,67.5000025749208,2|0,0:0|0:0,0:0:0:0:
242,345,92169,2,0,L|172:339,1,67.5000025749208,8|0,0:0|0:0,0:0:0:0:
33,223,92642,5,8,0:0:0:0:
10,195,92760,1,0,0:0:0:0:
2,159,92878,1,2,0:0:0:0:
12,124,92996,1,0,0:0:0:0:
34,95,93114,5,8,0:0:0:0:
67,82,93232,1,0,0:0:0:0:
103,78,93351,1,2,0:0:0:0:
136,91,93469,1,0,0:0:0:0:
176,110,93587,5,8,0:0:0:0:
214,133,93705,1,0,0:0:0:0:
251,157,93823,1,2,0:0:0:0:
295,159,93941,1,0,0:0:0:0:
337,144,94059,5,8,0:0:0:0:
372,116,94177,1,0,0:0:0:0:
385,73,94295,1,2,0:0:0:0:
362,33,94414,1,0,0:0:0:0:
311,14,94532,5,8,0:0:0:0:
258,26,94650,1,8,0:0:0:0:
238,76,94768,1,8,0:0:0:0:
237,129,94886,1,8,0:0:0:0:
237,182,95004,5,8,0:0:0:0:
238,235,95122,1,8,0:0:0:0:
238,288,95240,1,8,0:0:0:0:
469,212,95477,5,8,0:0:0:0:
142,184,95713,1,2,0:0:0:0:
416,365,95949,1,8,0:0:0:0:
385,73,96185,1,8,0:0:0:0:
385,73,96303,1,8,0:0:0:0:
385,73,96421,6,0,L|371:217,1,125.999996154785,14|2,0:0|0:0,0:0:0:0:
229,38,96894,2,0,L|240:173,1,125.999996154785,8|2,0:0|0:0,0:0:0:0:
271,353,97365,1,8,0:0:0:0:
101,220,97602,1,2,0:0:0:0:
335,213,97838,1,8,0:0:0:0:
142,335,98074,1,2,0:0:0:0:
29,139,98310,6,0,L|179:128,1,125.999996154785,8|2,0:0|0:0,0:0:0:0:
291,297,98783,2,0,L|162:287,1,125.999996154785,8|2,0:0|0:0,0:0:0:0:
305,149,99255,1,8,0:0:0:0:
113,40,99491,1,2,0:0:0:0:
228,222,99728,1,8,0:0:0:0:
382,79,99964,1,2,0:0:0:0:
382,335,100200,6,0,B|436:212|297:236|380:82,1,251.999992309571,8|8,0:0|0:0,0:0:0:0:
495,262,100909,1,2,0:0:0:0:
281,230,101145,1,8,0:0:0:0:
470,123,101381,1,2,0:0:0:0:
382,335,101617,1,8,0:0:0:0:
223,159,101854,1,2,0:0:0:0:
58,355,102090,6,0,L|43:217,1,125.999996154785,8|2,0:0|0:0,0:0:0:0:
234,310,102562,2,0,L|245:182,1,125.999996154785,8|2,0:0|0:0,0:0:0:0:
337,16,103035,1,8,0:0:0:0:
118,24,103271,1,2,0:0:0:0:
70,39,103389,1,2,0:0:0:0:
43,81,103507,1,8,0:0:0:0:
41,131,103626,1,2,0:0:0:0:
62,176,103743,1,2,0:0:0:0:
103,205,103862,1,2,0:0:0:0:
152,212,103981,6,0,P|213:199|292:192,1,125.999996154785,12|2,0:0|0:0,0:0:0:0:
464,111,104453,2,0,P|403:98|324:91,1,125.999996154785,8|2,0:0|0:0,0:0:0:0:
151,128,104925,1,8,0:0:0:0:
352,241,105161,1,2,0:0:0:0:
259,15,105397,1,8,0:0:0:0:
259,15,105516,1,0,0:0:0:0:
259,15,105633,1,2,0:0:0:0:
208,238,105870,6,0,L|222:378,1,125.999996154785,12|0,0:0|0:0,0:0:0:0:
422,280,106343,1,8,0:0:0:0:
335,119,106579,1,8,0:0:0:0:
335,119,106697,1,8,0:0:0:0:
335,119,106815,2,0,P|275:112|211:155,1,125.999996154785,12|0,0:0|0:0,0:0:0:0:
100,314,107288,1,8,0:0:0:0:
82,266,107406,1,8,0:0:0:0:
66,218,107524,1,8,0:0:0:0:
50,170,107642,1,8,0:0:0:0:
35,118,107760,5,6,0:0:0:0:
291,194,107996,1,2,0:0:0:0:
291,194,108469,5,2,0:0:0:0:
113,348,108705,1,2,0:0:0:0:
113,348,109177,5,8,0:0:0:0:
193,114,109414,1,2,0:0:0:0:
391,359,109650,5,8,0:0:0:0:
96,193,109886,1,2,0:0:0:0:
465,107,110122,5,8,0:0:0:0:
237,331,110358,1,2,0:0:0:0:
313,68,110595,5,8,0:0:0:0:
334,39,110713,1,2,0:0:0:0:
368,28,110831,1,2,0:0:0:0:
403,27,110949,1,2,0:0:0:0:
433,46,111067,1,8,0:0:0:0:
454,74,111185,1,2,0:0:0:0:
465,107,111303,1,2,0:0:0:0:
460,142,111421,1,2,0:0:0:0:
442,173,111540,6,0,L|302:162,1,125.999996154785,12|2,0:0|0:0,0:0:0:0:
152,317,112012,2,0,L|295:306,1,125.999996154785,8|2,0:0|0:0,0:0:0:0:
170,148,112485,1,8,0:0:0:0:
41,330,112721,1,2,0:0:0:0:
24,126,112957,1,8,0:0:0:0:
152,317,113193,1,2,0:0:0:0:
351,162,113430,6,0,P|413:144|502:163,1,125.999996154785,12|0,0:0|0:0,0:0:0:0:
271,39,113902,1,8,0:0:0:0:
172,221,114138,1,8,0:0:0:0:
172,221,114256,1,8,0:0:0:0:
172,221,114374,2,0,L|156:78,1,125.999996154785,12|0,0:0|0:0,0:0:0:0:
0,219,114847,1,2,0:0:0:0:
152,342,115083,1,2,0:0:0:0:
152,342,115201,1,2,0:0:0:0:
152,342,115319,6,0,L|259:331,1,90,6|0,0:0|0:0,0:0:0:0:
426,341,115792,1,0,0:0:0:0:
354,182,116028,2,0,P|338:264|329:369,1,180,2|0,0:0|0:0,0:0:0:0:
463,214,116736,1,8,0:0:0:0:
281,105,116973,1,0,0:0:0:0:
281,105,117091,1,0,0:0:0:0:
281,105,117209,6,0,P|158:89|89:207,1,270,2|2,0:0|0:0,0:0:0:0:
195,374,118154,1,2,0:0:0:0:
201,356,118626,1,8,0:0:0:0:
361,193,118862,1,0,3:0:0:0:
361,193,118981,1,0,3:0:0:0:
361,193,119099,6,0,B|336:155|256:129|245:22|335:-30|401:13|402:67|402:67|432:-7|564:-9|546:140|504:181|371:171|386:277,1,720,4|0,0:0|0:0,0:0:0:0:
