osu file format v14

[General]
AudioFilename: audio.mp3
AudioLeadIn: 0
PreviewTime: 46107
Countdown: 0
SampleSet: Soft
StackLeniency: 0.7
Mode: 0
LetterboxInBreaks: 0
WidescreenStoryboard: 0

[Editor]
DistanceSpacing: 1.3
BeatDivisor: 4
GridSize: 4
TimelineZoom: 1.2

[Metadata]
Title:To my darling...
TitleUnicode:To my darling...
Artist:Koshimizu Sachiko (CV: Taketatsu Ayana)
ArtistUnicode:輿水幸子(CV:竹達彩奈)
Creator:Shunao
Version:Habi's Hard
Source:アイドルマスターシンデレラガールズ
Tags:shogunmoon -_frontier_- shockolatte habiholic affirmation SquareTude THE iDOLM@STER Cinderella Girls master 020
BeatmapID:1674193
BeatmapSetID:797169

[Difficulty]
HPDrainRate:6
CircleSize:4
OverallDifficulty:6
ApproachRate:7
SliderMultiplier:1.5
SliderTickRate:1

[Events]
//Background and Video events
0,0,"86515j.jpg",0,0
//Break Periods
2,81503,87962
//Storyboard Layer 0 (Background)
//Storyboard Layer 1 (Fail)
//Storyboard Layer 2 (Pass)
//Storyboard Layer 3 (Foreground)
//Storyboard Sound Samples

[TimingPoints]
44,472.44094488189,4,2,4,60,1,0
9492,-166.666666666667,4,2,4,60,0,0
13272,-100,4,2,4,60,0,0
28390,-133.333333333333,4,2,4,40,0,0
39729,-133.333333333333,4,2,4,50,0,0
43272,-100,4,2,4,60,0,0
47288,-100,4,2,4,60,0,1
60988,-100,4,2,4,60,0,0
62406,-100,4,2,4,60,0,1
73744,-100,4,2,4,60,0,0
88862,-133.333333333333,4,2,7,40,0,0
94532,-100,4,2,4,60,0,0
96421,-100,4,2,4,60,0,1
107760,-100,4,2,4,60,0,0
111540,-100,4,2,4,60,0,1
115319,-100,4,2,7,40,0,0
120988,-100,4,2,7,5,0,0

[Colours]
Combo1 : 203,180,224
Combo2 : 120,0,240
Combo3 : 255,128,255
Combo4 : 253,216,2

[HitObjects]
80,136,1461,6,0,L|88:180,3,37.5,8|8|8|8,0:0|0:0|0:0|0:0,0:0:0:0:
96,212,1933,6,0,L|12:200,1,75,12|2,0:0|0:0,0:0:0:0:
160,292,2406,2,0,L|240:280,1,75,8|2,0:0|0:0,0:0:0:0:
312,224,2878,1,8,0:0:0:0:
392,288,3114,1,2,0:0:0:0:
404,192,3351,2,0,P|412:152|404:116,1,75,8|2,0:0|0:0,0:0:0:0:
356,36,3823,6,0,L|276:48,1,75,8|0,0:0|0:0,0:0:0:0:
196,96,4295,2,0,L|116:80,1,75,8|2,0:0|0:0,0:0:0:0:
32,32,4768,1,8,0:0:0:0:
52,128,5004,1,2,0:0:0:0:
76,224,5240,2,0,L|52:300,1,75,8|2,0:0|0:0,0:0:0:0:
128,360,5713,5,12,0:0:0:0:
208,304,5949,1,2,0:0:0:0:
284,360,6185,2,0,P|328:360|360:348,1,75,8|2,0:0|0:0,0:0:0:0:
420,276,6658,1,8,0:0:0:0:
488,344,6894,1,2,0:0:0:0:
420,276,7130,2,0,B|412:236|412:236|420:200,1,75,8|2,0:0|0:0,0:0:0:0:
483,112,7603,6,0,P|430:123|382:96,1,112.5,8|0,0:0|0:0,0:0:0:0:
360,72,8075,2,0,L|280:72,1,75,8|2,0:0|0:0,0:0:0:0:
208,15,8547,2,0,P|152:63|79:59,1,150,8|8,0:0|0:0,0:0:0:0:
12,132,9256,1,2,0:0:0:0:
12,132,9374,1,2,0:0:0:0:
12,132,9492,6,0,L|24:224,1,89.9999972534181,12|0,0:0|0:0,0:0:0:0:
92,288,10201,1,2,0:0:0:0:
92,288,10437,2,0,L|80:344,2,44.999998626709,2|0|2,0:0|0:0|0:0,0:0:0:0:
168,232,11146,6,0,P|207:251|251:246,1,89.9999972534181,4|8,0:0|0:0,0:0:0:0:
324,188,11855,2,0,L|316:160,3,22.4999993133545,8|8|8|8,0:0|0:0|0:0|0:0,0:0:0:0:
344,140,12327,2,0,L|336:112,3,22.4999993133545,8|8|8|8,0:0|0:0|0:0|0:0,0:0:0:0:
372,100,12799,2,0,L|364:52,1,44.999998626709,8|8,0:0|0:0,0:0:0:0:
448,16,13272,6,0,L|468:132,1,112.5,6|0,0:0|0:0,0:0:0:0:
476,160,13744,2,0,B|468:200|468:200|480:236,1,75,2|0,0:0|0:0,0:0:0:0:
424,300,14217,1,2,0:0:0:0:
424,300,14453,2,0,L|348:288,1,75,0|2,0:0|0:0,0:0:0:0:
292,216,14925,1,0,0:0:0:0:
216,272,15162,6,0,B|160:264|160:264|124:276|124:276|60:264,1,150,2|2,0:0|0:0,0:0:0:0:
16,184,15870,1,0,0:0:0:0:
76,112,16106,2,0,L|152:128,1,75,2|0,0:0|0:0,0:0:0:0:
236,84,16579,1,2,0:0:0:0:
316,32,16815,1,0,0:0:0:0:
388,96,17051,6,0,B|368:148|368:148|396:248,1,150,2|2,0:0|0:0,0:0:0:0:
484,272,17760,1,0,0:0:0:0:
412,336,17996,2,0,L|336:324,1,75,2|0,0:0|0:0,0:0:0:0:
200,232,18469,2,0,L|274:243,1,75,2|2,0:0|0:0,0:0:0:0:
260,140,18941,5,6,0:0:0:0:
184,84,19177,1,0,0:0:0:0:
184,84,19295,1,8,0:0:0:0:
184,84,19414,1,8,0:0:0:0:
112,144,19650,2,0,L|132:292,1,150,6|8,0:0|0:0,0:0:0:0:
200,360,20358,1,2,0:0:0:0:
284,304,20595,1,2,0:0:0:0:
284,304,20713,1,2,0:0:0:0:
284,304,20831,6,0,P|324:304|360:316,1,75,2|0,0:0|0:0,0:0:0:0:
456,276,21303,2,0,L|444:200,1,75,2|0,0:0|0:0,0:0:0:0:
372,148,21776,1,2,0:0:0:0:
288,192,22012,1,0,0:0:0:0:
292,100,22248,2,0,P|284:64|292:24,1,75,2|0,0:0|0:0,0:0:0:0:
360,148,22721,6,0,L|200:124,1,150,2|2,0:0|0:0,0:0:0:0:
144,56,23429,1,0,0:0:0:0:
56,108,23666,2,0,B|48:148|48:148|60:192,1,75,2|0,0:0|0:0,0:0:0:0:
136,300,24138,2,0,B|145:266|145:266|137:226,1,75,2|0,0:0|0:0,0:0:0:0:
64,352,24610,6,0,L|216:340,1,150,2|2,0:0|0:0,0:0:0:0:
280,272,25319,1,0,0:0:0:0:
280,272,25555,2,0,P|288:236|280:200,1,75,2|0,0:0|0:0,0:0:0:0:
216,124,26028,1,2,0:0:0:0:
280,48,26264,1,8,0:0:0:0:
280,48,26382,1,8,0:0:0:0:
280,48,26500,6,0,L|360:60,1,75,12|2,0:0|0:0,0:0:0:0:
448,16,26973,1,2,0:0:0:0:
492,140,27209,2,0,B|452:172|452:172|348:152,1,150,6|2,0:0|0:0,0:0:0:0:
264,136,27918,1,2,0:0:0:0:
200,204,28154,1,2,0:0:0:0:
111,159,28390,6,0,P|95:106|108:53,1,112.500004291535,6|8,0:0|0:0,0:0:0:0:
192,20,29099,1,8,0:0:0:0:
192,20,29217,1,8,0:0:0:0:
192,20,29335,2,0,L|252:32,1,56.2500021457673,8|2,0:0|0:0,0:0:0:0:
316,104,29807,1,8,0:0:0:0:
416,40,30044,6,0,B|400:80|400:80|416:156,1,112.500004291535,2|2,0:0|0:0,0:0:0:0:
484,216,30752,1,8,0:0:0:0:
416,276,30988,1,8,0:0:0:0:
416,276,31106,1,8,0:0:0:0:
416,276,31225,2,0,L|348:264,1,56.2500021457673,8|2,0:0|0:0,0:0:0:0:
288,204,31697,1,8,0:0:0:0:
208,256,31933,1,2,0:0:0:0:
128,204,32169,6,0,L|120:144,1,56.2500021457673,2|2,0:0|0:0,0:0:0:0:
116,52,32642,1,8,0:0:0:0:
200,96,32878,1,2,0:0:0:0:
280,48,33114,2,0,P|312:48|340:60,1,56.2500021457673,2|2,0:0|0:0,0:0:0:0:
404,120,33587,1,8,0:0:0:0:
404,120,33823,6,0,L|392:240,1,112.500004291535,2|2,0:0|0:0,0:0:0:0:
316,352,34532,2,0,L|308:296,1,56.2500021457673,8|2,0:0|0:0,0:0:0:0:
231,232,35004,2,0,P|181:255|126:250,1,112.500004291535,8|8,0:0|0:0,0:0:0:0:
48,192,35713,1,2,0:0:0:0:
48,192,35949,6,0,B|60:148|60:148|52:108,1,84.3750032186509,2|0,0:0|0:0,0:0:0:0:
44,84,36421,2,0,L|100:100,1,56.2500021457673,8|2,0:0|0:0,0:0:0:0:
184,128,36894,1,2,0:0:0:0:
264,72,37130,1,2,0:0:0:0:
272,172,37366,2,0,L|328:164,1,56.2500021457673,8|0,0:0|0:0,0:0:0:0:
463,116,37839,6,0,P|408:118|365:83,1,112.500004291535,2|8,0:0|0:0,0:0:0:0:
440,28,38547,1,2,0:0:0:0:
463,116,38784,2,0,L|456:176,1,56.2500021457673,2|2,0:0|0:0,0:0:0:0:
392,232,39256,2,0,L|400:288,1,56.2500021457673,8|2,0:0|0:0,0:0:0:0:
336,360,39729,5,2,0:0:0:0:
268,300,39965,1,2,0:0:0:0:
192,352,40201,2,0,P|160:352|132:340,1,56.2500021457673,8|2,0:0|0:0,0:0:0:0:
80,272,40673,2,0,L|96:160,1,112.500004291535,2|2,0:0|0:0,0:0:0:0:
40,80,41382,1,8,0:0:0:0:
128,28,41618,6,0,P|175:55|231:52,1,112.500004291535,2|8,0:0|0:0,0:0:0:0:
316,24,42327,1,8,0:0:0:0:
384,92,42563,2,0,L|372:148,2,56.2500021457673,8|8|2,0:0|0:0|0:0,0:0:0:0:
468,28,43272,6,0,L|488:176,1,150,6|2,0:0|0:0,0:0:0:0:
444,256,43981,1,8,0:0:0:0:
444,256,44217,1,2,0:0:0:0:
376,316,44453,2,0,L|296:304,1,75,8|2,0:0|0:0,0:0:0:0:
244,228,44925,1,8,0:0:0:0:
164,284,45162,1,2,0:0:0:0:
84,228,45398,6,0,B|76:188|76:188|84:152,1,75,4|8,0:0|3:0,0:0:0:0:
152,88,45870,2,0,L|228:108,1,75,8|8,3:0|3:0,0:0:0:0:
304,48,46343,1,8,0:0:0:0:
380,104,46579,1,2,0:0:0:0:
472,64,46815,2,0,L|464:144,1,75,8|2,0:0|0:0,0:0:0:0:
448,272,47288,6,0,B|376:248|384:308|304:284,1,150,12|8,0:0|0:0,0:0:0:0:
244,216,47996,1,2,0:0:0:0:
168,280,48232,2,0,L|180:360,1,75,8|2,0:0|0:0,0:0:0:0:
76,268,48705,2,0,L|87:193,1,75,8|2,0:0|0:0,0:0:0:0:
31,115,49177,6,0,P|94:154|165:137,1,150,8|8,0:0|0:0,0:0:0:0:
232,72,49886,1,2,0:0:0:0:
284,148,50122,2,0,L|268:224,1,75,8|2,0:0|0:0,0:0:0:0:
380,156,50595,2,0,L|364:82,1,75,8|2,0:0|0:0,0:0:0:0:
488,36,51067,6,0,L|468:200,1,150,8|8,0:0|0:0,0:0:0:0:
396,248,51776,1,2,0:0:0:0:
404,344,52012,2,0,L|480:336,1,75,8|2,0:0|0:0,0:0:0:0:
316,300,52484,2,0,L|240:308,1,75,8|2,0:0|0:0,0:0:0:0:
160,252,52957,6,0,B|140:196|140:196|160:136,1,112.5,8|0,0:0|0:0,0:0:0:0:
168,120,53429,2,0,L|248:136,1,75,8|2,0:0|0:0,0:0:0:0:
327,192,53902,2,0,P|343:158|341:120,1,75,8|2,0:0|0:0,0:0:0:0:
284,40,54374,1,8,0:0:0:0:
444,24,54610,1,2,0:0:0:0:
444,24,54729,1,2,0:0:0:0:
444,23,54847,6,0,P|428:96|448:168,1,150,12|8,0:0|0:0,0:0:0:0:
504,248,55555,1,2,0:0:0:0:
448,328,55792,2,0,L|372:312,1,75,8|2,0:0|0:0,0:0:0:0:
312,248,56264,1,8,0:0:0:0:
248,320,56500,1,2,0:0:0:0:
244,180,56736,6,0,B|184:196|184:196|164:220|164:220|108:232,1,150,8|8,0:0|0:0,0:0:0:0:
28,184,57445,1,2,0:0:0:0:
28,184,57681,2,0,B|36:144|36:144|28:108,1,75,8|2,0:0|0:0,0:0:0:0:
120,32,58154,2,0,B|112:65|112:65|120:105,1,75,8|2,0:0|0:0,0:0:0:0:
192,168,58626,5,8,0:0:0:0:
272,120,58862,1,2,0:0:0:0:
276,216,59099,1,8,0:0:0:0:
191,167,59335,2,0,P|177:96|219:36,1,150,2|2,0:0|0:0,0:0:0:0:
316,24,60044,2,0,L|392:32,1,75,8|2,0:0|0:0,0:0:0:0:
492,132,60516,6,0,L|412:124,1,75,8|2,0:0|0:0,0:0:0:0:
277,184,60988,2,0,L|352:192,1,75,8|0,0:0|0:0,0:0:0:0:
424,256,61461,1,8,0:0:0:0:
424,256,61579,1,8,0:0:0:0:
424,256,61697,1,8,0:0:0:0:
352,324,61933,2,0,L|312:320,3,37.5,8|8|8|8,0:0|0:0|0:0|0:0,0:0:0:0:
279,312,62406,6,0,P|233:342|178:337,1,112.5,12|0,0:0|0:0,0:0:0:0:
152,328,62878,2,0,L|144:248,1,75,8|2,0:0|0:0,0:0:0:0:
48,164,63351,2,0,L|55:238,1,75,8|2,0:0|0:0,0:0:0:0:
136,128,63823,2,0,L|128:53,1,75,8|2,0:0|0:0,0:0:0:0:
216,16,64295,6,0,L|232:176,1,150,8|8,0:0|0:0,0:0:0:0:
176,240,65004,1,2,0:0:0:0:
239,319,65240,2,0,P|295:319|344:291,1,112.5,8|0,0:0|0:0,0:0:0:0:
368,268,65713,2,0,L|448:268,1,75,8|2,0:0|0:0,0:0:0:0:
496,176,66185,6,0,B|436:176|436:176|404:156|404:156|352:156,1,150,8|8,0:0|0:0,0:0:0:0:
280,100,66894,1,2,0:0:0:0:
200,151,67130,2,0,P|191:188|200:224,1,75,8|2,0:0|0:0,0:0:0:0:
288,320,67603,2,0,P|296:283|288:247,1,75,8|2,0:0|0:0,0:0:0:0:
212,364,68075,6,0,L|372:364,1,150,8|8,0:0|0:0,0:0:0:0:
448,312,68784,1,2,0:0:0:0:
448,312,69020,2,0,P|456:268|448:232,1,75,8|2,0:0|0:0,0:0:0:0:
368,116,69492,2,0,P|362:152|370:189,1,75,8|2,0:0|0:0,0:0:0:0:
436,56,69965,6,0,L|288:76,1,150,12|8,0:0|0:0,0:0:0:0:
208,24,70673,1,2,0:0:0:0:
208,24,70910,2,0,B|172:36|172:36|136:26,1,75,8|2,0:0|0:0,0:0:0:0:
40,120,71382,2,0,B|80:112|80:112|116:120,1,75,8|2,0:0|0:0,0:0:0:0:
180,184,71855,6,0,L|196:334,1,150,12|8,0:0|0:0,0:0:0:0:
331,339,72563,1,8,0:0:0:0:
331,339,72681,1,8,0:0:0:0:
331,339,72799,2,0,L|345:180,1,150,12|2,0:0|0:0,0:0:0:0:
316,72,73508,1,2,0:0:0:0:
316,72,73626,1,2,0:0:0:0:
316,72,73744,6,0,B|388:52|380:104|468:84,1,150,12|8,0:0|0:0,0:0:0:0:
504,16,74453,1,2,0:0:0:0:
504,16,74689,2,0,L|488:172,1,150,8|8,0:0|0:0,0:0:0:0:
476,256,75398,1,2,0:0:0:0:
400,192,75634,6,0,P|360:192|320:204,1,75,8|2,0:0|0:0,0:0:0:0:
248,256,76106,2,0,L|168:248,1,75,8|2,0:0|0:0,0:0:0:0:
116,172,76579,1,8,0:0:0:0:
36,224,76815,1,2,0:0:0:0:
32,132,77051,2,0,P|24:96|32:56,1,75,8|2,0:0|0:0,0:0:0:0:
116,16,77524,6,0,L|200:32,1,75,8|2,0:0|0:0,0:0:0:0:
256,96,77996,1,8,0:0:0:0:
256,96,78232,2,0,L|416:76,1,150,2|8,0:0|0:0,0:0:0:0:
492,188,78941,2,0,L|408:168,1,75,8|8,0:0|0:0,0:0:0:0:
344,224,79414,5,6,0:0:0:0:
256,192,79532,12,0,81303,0:0:0:0:
48,344,88862,6,0,B|32:304|32:304|48:232,1,112.500004291535,2|0,0:0|0:0,0:0:0:0:
120,176,89571,1,2,0:0:0:0:
192,232,89807,2,0,P|246:243|296:219,1,112.500004291535,2|8,0:0|0:0,0:0:0:0:
312,208,90752,6,0,B|396:192|384:256|480:232,1,168.750006437302,2|2,0:0|0:0,0:0:0:0:
444,152,91697,2,0,L|436:96,1,56.2500021457673,2|0,0:0|0:0,0:0:0:0:
372,32,92169,1,8,0:0:0:0:
372,32,92642,5,8,0:0:0:0:
304,96,92878,1,2,0:0:0:0:
236,28,93114,2,0,B|208:28|208:28|176:36,1,56.2500021457673,8|2,0:0|0:0,0:0:0:0:
108,88,93587,2,0,L|116:148,1,56.2500021457673,8|2,0:0|0:0,0:0:0:0:
184,204,94059,2,0,L|172:260,1,56.2500021457673,8|2,0:0|0:0,0:0:0:0:
240,335,94532,6,0,P|295:335|347:357,1,112.5,8|0,0:0|0:0,0:0:0:0:
372,368,95004,2,0,L|384:288,1,75,8|8,0:0|0:0,0:0:0:0:
456,176,95477,2,0,L|467:250,2,75,8|2|8,0:0|0:0|0:0,0:0:0:0:
488,84,96185,1,8,0:0:0:0:
344,144,96421,6,0,B|304:160|304:160|200:136,1,150,14|8,0:0|0:0,0:0:0:0:
124,72,97130,1,2,0:0:0:0:
52,136,97366,2,0,B|40:172|40:172|52:208,1,75,8|2,0:0|0:0,0:0:0:0:
148,312,97839,2,0,B|160:276|160:276|148:240,1,75,8|2,0:0|0:0,0:0:0:0:
76,360,98311,6,0,L|240:344,1,150,8|8,0:0|0:0,0:0:0:0:
304,284,99020,1,2,0:0:0:0:
303,283,99256,2,0,P|293:248|291:210,1,75,8|2,0:0|0:0,0:0:0:0:
368,140,99729,2,0,P|378:175|380:213,1,75,8|2,0:0|0:0,0:0:0:0:
188,227,100201,6,0,P|116:241|58:197,1,150,8|8,0:0|0:0,0:0:0:0:
140,152,100910,1,2,0:0:0:0:
160,64,101146,2,0,L|232:84,1,75,8|2,0:0|0:0,0:0:0:0:
312,40,101618,1,8,0:0:0:0:
388,88,101855,1,2,0:0:0:0:
484,28,102091,6,0,B|464:68|464:68|484:184,1,150,8|8,0:0|0:0,0:0:0:0:
436,252,102799,1,2,0:0:0:0:
296,184,103036,1,8,0:0:0:0:
380,320,103272,1,2,0:0:0:0:
388,168,103508,1,8,0:0:0:0:
280,276,103744,1,2,0:0:0:0:
320,99,103981,6,0,P|252:129|180:114,1,150,12|8,0:0|0:0,0:0:0:0:
104,52,104689,1,2,0:0:0:0:
20,112,104925,2,0,L|28:188,1,75,8|2,0:0|0:0,0:0:0:0:
140,276,105398,2,0,L|132:201,1,75,8|2,0:0|0:0,0:0:0:0:
80,351,105870,6,0,P|143:316|215:331,1,150,12|8,0:0|0:0,0:0:0:0:
404,244,106579,1,8,0:0:0:0:
404,244,106697,1,8,0:0:0:0:
404,244,106815,2,0,P|332:259|268:223,1,150,12|8,0:0|0:0,0:0:0:0:
256,88,107524,1,8,0:0:0:0:
256,88,107642,1,8,0:0:0:0:
256,88,107760,5,6,0:0:0:0:
336,28,107996,2,0,L|420:44,1,75,2|0,0:0|0:0,0:0:0:0:
500,160,108469,2,0,L|344:128,1,150,2|0,0:0|0:0,0:0:0:0:
280,184,109177,2,0,L|296:260,1,75,8|2,0:0|0:0,0:0:0:0:
236,336,109650,5,8,0:0:0:0:
160,264,109886,1,2,0:0:0:0:
140,360,110122,2,0,L|64:348,1,75,8|2,0:0|0:0,0:0:0:0:
4,256,110595,2,0,B|12:216|12:216|4:176,1,75,8|2,0:0|0:0,0:0:0:0:
96,104,111067,2,0,B|89:137|89:137|97:177,1,75,8|2,0:0|0:0,0:0:0:0:
164,240,111540,6,0,L|240:228,1,75,12|2,0:0|0:0,0:0:0:0:
308,168,112012,1,8,0:0:0:0:
388,228,112248,1,2,0:0:0:0:
480,192,112484,2,0,P|488:152|480:120,1,75,8|2,0:0|0:0,0:0:0:0:
412,48,112957,2,0,L|336:68,1,75,8|2,0:0|0:0,0:0:0:0:
236,24,113429,6,0,B|248:76|248:76|224:172,1,150,12|8,0:0|0:0,0:0:0:0:
104,244,114138,1,8,0:0:0:0:
104,244,114256,1,8,0:0:0:0:
105,243,114374,2,0,B|184:232|160:284|248:266,1,150,12|2,0:0|0:0,0:0:0:0:
328,192,115083,1,2,0:0:0:0:
328,192,115201,1,2,0:0:0:0:
327,192,115319,6,0,P|399:190|439:249,1,150,6|0,0:0|0:0,0:0:0:0:
320,280,116028,1,2,0:0:0:0:
248,228,116264,2,0,P|236:192|248:152,1,75,2|0,0:0|0:0,0:0:0:0:
308,84,116736,2,0,L|384:96,2,75,8|0|2,0:0|0:0|0:0,0:0:0:0:
308,84,117918,5,2,0:0:0:0:
168,144,118154,1,2,0:0:0:0:
248,20,118626,5,8,0:0:0:0:
264,212,118862,1,0,3:0:0:0:
264,212,118981,1,0,3:0:0:0:
264,212,119099,1,4,0:0:0:0:
256,192,119217,12,0,120988,0:0:0:0:
