osu file format v14

[General]
AudioFilename: audio.mp3
AudioLeadIn: 0
PreviewTime: 46107
Countdown: 0
SampleSet: Soft
StackLeniency: 0.7
Mode: 0
LetterboxInBreaks: 0
WidescreenStoryboard: 0

[Editor]
DistanceSpacing: 0.8
BeatDivisor: 4
GridSize: 32
TimelineZoom: 1.2

[Metadata]
Title:To my darling...
TitleUnicode:To my darling...
Artist:Koshimizu Sachiko (CV: Taketatsu Ayana)
ArtistUnicode:輿水幸子(CV:竹達彩奈)
Creator:Shunao
Version:Frontier's Normal
Source:アイドルマスターシンデレラガールズ
Tags:shogunmoon -_frontier_- shockolatte habiholic affirmation SquareTude THE iDOLM@STER Cinderella Girls master 020
BeatmapID:1676048
BeatmapSetID:797169

[Difficulty]
HPDrainRate:4
CircleSize:3.5
OverallDifficulty:4
ApproachRate:5
SliderMultiplier:1.3
SliderTickRate:1

[Events]
//Background and Video events
0,0,"86515j.jpg",0,0
//Break Periods
2,81503,87662
//Storyboard Layer 0 (Background)
//Storyboard Layer 1 (Fail)
//Storyboard Layer 2 (Pass)
//Storyboard Layer 3 (Foreground)
//Storyboard Sound Samples

[TimingPoints]
44,472.44094488189,4,2,4,60,1,0
9492,-100,4,2,4,60,0,0
13272,-100,4,2,4,60,0,0
28390,-100,4,2,4,40,0,0
39729,-100,4,2,4,50,0,0
43272,-100,4,2,4,60,0,0
47288,-100,4,2,4,60,0,1
60988,-100,4,2,4,60,0,0
62406,-100,4,2,4,60,0,1
73744,-100,4,2,4,60,0,0
88862,-100,4,2,7,40,0,0
94532,-100,4,2,4,60,0,0
96421,-100,4,2,4,60,0,1
107760,-100,4,2,4,60,0,0
111540,-100,4,2,4,60,0,1
115319,-100,4,2,7,40,0,0
120988,-100,4,2,7,5,0,0

[Colours]
Combo1 : 203,180,224
Combo2 : 120,0,240
Combo3 : 255,128,255
Combo4 : 253,216,2

[HitObjects]
284,9,1933,6,0,P|286:41|269:71,1,65,12|2,0:0|0:0,0:0:0:0:
238,109,2406,1,8,0:0:0:0:
238,109,2642,2,0,P|175:99|101:92,1,130,2|2,0:0|0:0,0:0:0:0:
71,127,3351,2,0,P|69:159|86:189,1,65,8|2,0:0|0:0,0:0:0:0:
123,222,3823,2,0,P|125:254|108:284,2,65,8|2|8,0:0|0:0|0:0,0:0:0:0:
168,194,4532,2,0,P|216:177|293:208,1,130,2|2,0:0|0:0,0:0:0:0:
316,246,5240,1,8,0:0:0:0:
419,259,5713,6,0,P|458:253|486:263,2,65,8|2|8,0:0|0:0|0:0,0:0:0:0:
386,299,6421,2,0,B|343:293|343:293|298:309|298:309|255:304,1,130,2|2,0:0|0:0,0:0:0:0:
222,268,7130,2,0,P|216:229|211:199,1,65,8|2,0:0|0:0,0:0:0:0:
170,171,7603,2,0,P|133:157|49:204,1,130,8|8,0:0|0:0,0:0:0:0:
107,289,8547,2,0,P|144:303|228:256,1,130,8|8,0:0|0:0,0:0:0:0:
279,173,9492,6,0,P|353:187|417:204,1,130,8|0,0:0|0:0,0:0:0:0:
455,184,10201,1,2,0:0:0:0:
455,184,10437,2,0,P|495:148|474:73,1,130,2|2,0:0|0:0,0:0:0:0:
440,46,11146,1,4,0:0:0:0:
343,6,11618,1,8,0:0:0:0:
343,6,11855,2,0,P|301:21|273:49,1,65,8|8,0:0|0:0,0:0:0:0:
236,15,12327,2,0,P|216:55|216:94,1,65,8|8,0:0|0:0,0:0:0:0:
166,97,12799,2,0,P|180:139|208:167,1,65,8|8,0:0|0:0,0:0:0:0:
231,190,13272,5,6,0:0:0:0:
330,159,13744,2,0,P|371:199|356:268,1,130,2|2,0:0|0:0,0:0:0:0:
388,307,14453,2,0,P|314:290|238:285,1,130,0|0,0:0|0:0,0:0:0:0:
210,301,15162,1,2,0:0:0:0:
115,344,15634,2,0,P|111:311|104:280,1,65,2|0,0:0|0:0,0:0:0:0:
56,259,16106,1,2,0:0:0:0:
56,259,16343,2,0,P|15:219|30:150,1,130,0|0,0:0|0:0,0:0:0:0:
71,125,17051,6,0,P|107:129|135:134,1,65,2|0,0:0|0:0,0:0:0:0:
172,170,17524,1,2,0:0:0:0:
172,170,17760,2,0,P|239:157|289:203,1,130,0|0,0:0|0:0,0:0:0:0:
330,169,18469,1,2,0:0:0:0:
292,70,18941,2,0,P|282:35|281:-2,2,65,6|0|8,0:0|0:0|0:0,0:0:0:0:
240,74,19650,2,0,B|155:94|187:41|103:62,1,130,6|8,0:0|0:0,0:0:0:0:
77,23,20358,2,0,P|47:41|28:73,1,65,2|2,0:0|0:0,0:0:0:0:
12,114,20831,5,2,0:0:0:0:
113,135,21303,2,0,P|103:181|98:212,1,65,2|0,0:0|0:0,0:0:0:0:
71,239,21776,1,2,0:0:0:0:
71,239,22012,2,0,P|46:285|78:363,1,130,0|0,0:0|0:0,0:0:0:0:
114,380,22721,1,2,0:0:0:0:
197,318,23193,2,0,P|228:323|260:331,1,65,2|0,0:0|0:0,0:0:0:0:
304,375,23666,1,2,0:0:0:0:
304,375,23902,2,0,P|354:336|416:347,1,130,0|0,0:0|0:0,0:0:0:0:
456,314,24610,6,0,P|463:279|469:242,1,65,2|0,0:0|0:0,0:0:0:0:
444,214,25083,1,2,0:0:0:0:
444,214,25319,2,0,P|430:150|418:81,1,130
422,34,26028,1,2,0:0:0:0:
328,87,26500,2,0,P|314:122|314:155,2,65,12|2|2,0:0|0:0|0:0,0:0:0:0:
292,48,27209,2,0,B|216:73|241:22|166:48,1,130,6|2,0:0|0:0,0:0:0:0:
117,29,27918,2,0,P|86:45|66:77,1,65,2|2,0:0|0:0,0:0:0:0:
87,117,28390,6,0,P|97:184|111:257,1,130,6|8,0:0|0:0,0:0:0:0:
81,290,29099,1,8,0:0:0:0:
81,290,29335,2,0,P|36:283|11:282,1,65,8|2,0:0|0:0,0:0:0:0:
60,376,30044,2,0,P|124:371|188:360,1,130,2|2,0:0|0:0,0:0:0:0:
224,322,30752,2,0,P|292:307|351:363,1,130,8|8,0:0|0:0,0:0:0:0:
373,377,31461,2,0,P|412:378|444:358,1,65,2|8,0:0|0:0,0:0:0:0:
485,276,32169,6,0,P|489:237|496:211,1,65,2|2,0:0|0:0,0:0:0:0:
457,176,32642,2,0,P|453:137|446:111,1,65,8|2,0:0|0:0,0:0:0:0:
403,83,33114,1,2,0:0:0:0:
403,83,33351,1,2,0:0:0:0:
315,27,33823,2,0,P|253:15|193:70,1,130,2|2,0:0|0:0,0:0:0:0:
181,100,34532,2,0,P|190:131|197:168,1,65,8|2,0:0|0:0,0:0:0:0:
167,206,35004,2,0,P|111:195|34:185,1,130,8|8,0:0|0:0,0:0:0:0:
38,289,35949,6,0,P|102:297|166:309,1,130,2|8,0:0|0:0,0:0:0:0:
199,349,36658,1,2,0:0:0:0:
199,349,36894,2,0,P|236:354|267:343,1,65,2|2,0:0|0:0,0:0:0:0:
308,368,37366,2,0,P|337:345|351:315,1,65,8|0,0:0|0:0,0:0:0:0:
327,274,37839,1,2,0:0:0:0:
402,202,38311,2,0,P|434:208|468:213,1,65,8|2,0:0|0:0,0:0:0:0:
503,176,38784,2,0,P|526:117|500:39,1,130,2|8,0:0|0:0,0:0:0:0:
409,78,39729,6,0,P|375:68|341:64,1,65,2|2,0:0|0:0,0:0:0:0:
320,18,40201,2,0,P|286:28|252:32,1,65,8|2,0:0|0:0,0:0:0:0:
214,1,40673,2,0,P|174:50|181:113,1,130,2|2,0:0|0:0,0:0:0:0:
224,143,41382,1,8,0:0:0:0:
224,143,41618,1,2,0:0:0:0:
80,204,42327,1,8,0:0:0:0:
80,204,42563,2,0,P|112:248|115:338,1,130,8|2,0:0|0:0,0:0:0:0:
155,360,43272,6,0,B|232:334|206:385|283:360,1,130,6|2,0:0|0:0,0:0:0:0:
313,320,43981,2,0,P|345:317|375:328,1,65,8|2,0:0|0:0,0:0:0:0:
412,364,44453,2,0,P|424:287|440:218,1,130,8|8,0:0|0:0,0:0:0:0:
387,143,45398,1,4,0:0:0:0:
339,164,45634,2,0,P|306:168|273:150,1,65,8|8,3:0|3:0,0:0:0:0:
244,194,46106,2,0,P|217:173|207:137,1,65,8|8,3:0|0:0,0:0:0:0:
155,148,46579,2,0,P|150:115|169:82,1,65,2|8,0:0|0:0,0:0:0:0:
203,52,47051,1,2,0:0:0:0:
203,52,47288,6,0,P|130:75|81:38,1,130,12|8,0:0|0:0,0:0:0:0:
40,67,47996,1,2,0:0:0:0:
40,67,48232,2,0,P|45:114|48:158,1,65,8|2,0:0|0:0,0:0:0:0:
40,187,48705,1,8,0:0:0:0:
40,187,48941,1,2,0:0:0:0:
118,255,49414,2,0,P|206:251|236:213,1,130,2|2,0:0|0:0,0:0:0:0:
254,180,50122,2,0,P|310:180|406:215,1,130,8|8,0:0|0:0,0:0:0:0:
471,149,51067,6,0,P|510:113|478:48,1,130,8|8,0:0|0:0,0:0:0:0:
437,23,51776,1,2,0:0:0:0:
437,23,52012,2,0,P|396:28|352:38,1,65,8|2,0:0|0:0,0:0:0:0:
342,75,52484,2,0,P|301:69|257:59,1,65,8|2,0:0|0:0,0:0:0:0:
235,34,52957,1,8,0:0:0:0:
123,35,53429,2,0,P|107:72|112:114,1,65,8|2,0:0|0:0,0:0:0:0:
76,138,53902,2,0,P|90:175|124:201,1,65,8|2,0:0|0:0,0:0:0:0:
115,244,54374,2,0,P|152:260|194:255,1,65,8|2,0:0|0:0,0:0:0:0:
202,304,54847,6,0,P|271:287|351:282,1,130,12|8,0:0|0:0,0:0:0:0:
378,298,55555,1,2,0:0:0:0:
378,298,55792,2,0,P|439:295|436:221,1,130,8|8,0:0|0:0,0:0:0:0:
361,181,56736,2,0,P|351:127|371:42,1,130,8|8,0:0|0:0,0:0:0:0:
392,9,57445,1,2,0:0:0:0:
392,9,57681,2,0,B|316:34|341:-16|265:9,1,130,8|8,0:0|0:0,0:0:0:0:
201,90,58626,6,0,P|196:123|197:169,1,65,8|2,0:0|0:0,0:0:0:0:
220,200,59099,1,8,0:0:0:0:
220,200,59335,2,0,P|151:173|94:193,1,130,2|2,0:0|0:0,0:0:0:0:
52,166,60044,2,0,P|33:195|32:240,1,65,8|2,0:0|0:0,0:0:0:0:
59,266,60516,1,8,0:0:0:0:
2,352,60988,1,8,0:0:0:0:
104,358,61461,2,0,P|142:353|186:349,1,65,8|8,0:0|0:0,0:0:0:0:
206,315,61933,2,0,P|238:318|270:322,1,65,8|8,0:0|0:0,0:0:0:0:
319,340,62406,6,0,P|296:267|333:218,1,130,12|8,0:0|0:0,0:0:0:0:
361,191,63114,1,2,0:0:0:0:
361,191,63350,2,0,P|401:195|438:198,1,65,8|2,0:0|0:0,0:0:0:0:
476,187,63823,1,8,0:0:0:0:
476,187,64059,1,2,0:0:0:0:
503,86,64532,2,0,P|462:43|387:47,1,130,2|2,0:0|0:0,0:0:0:0:
358,6,65240,2,0,P|317:49|242:45,1,130,8|8,0:0|0:0,0:0:0:0:
190,134,66185,6,0,P|201:211|208:272,1,130,8|8,0:0|0:0,0:0:0:0:
182,308,66894,1,2,0:0:0:0:
182,308,67130,2,0,P|215:300|251:309,1,65,8|2,0:0|0:0,0:0:0:0:
283,271,67603,2,0,P|311:288|331:321,1,65,8|2,0:0|0:0,0:0:0:0:
374,337,68075,1,8,0:0:0:0:
452,267,68547,2,0,P|468:230|463:188,1,65,8|2,0:0|0:0,0:0:0:0:
499,164,69020,2,0,P|484:126|450:100,1,65,8|2,0:0|0:0,0:0:0:0:
460,58,69492,2,0,P|423:42|381:47,1,65,8|2,0:0|0:0,0:0:0:0:
357,10,69965,6,0,P|288:27|208:32,1,130,12|8,0:0|0:0,0:0:0:0:
194,70,70673,2,0,P|149:36|66:46,1,130,2|2,0:0|0:0,0:0:0:0:
32,64,71382,2,0,P|26:104|18:152,1,65,8|2,0:0|0:0,0:0:0:0:
2,176,71855,2,0,P|12:235|29:318,1,130,12|8,0:0|0:0,0:0:0:0:
119,257,72799,2,0,P|129:198|146:115,1,130,12|2,0:0|0:0,0:0:0:0:
238,88,73744,6,0,P|276:84|315:106,1,65,12|2,0:0|0:0,0:0:0:0:
339,127,74217,1,8,0:0:0:0:
339,127,74453,2,0,P|301:158|311:242,1,130,2|2,0:0|0:0,0:0:0:0:
347,262,75162,2,0,P|393:256|442:251,1,65,8|2,0:0|0:0,0:0:0:0:
455,281,75634,1,8,0:0:0:0:
504,189,76106,2,0,P|510:143|515:94,1,65,8|2,0:0|0:0,0:0:0:0:
489,77,76579,2,0,P|461:59|410:59,1,65,8|2,0:0|0:0,0:0:0:0:
389,21,77051,2,0,P|356:28|320:64,1,65,8|2,0:0|0:0,0:0:0:0:
308,93,77524,6,0,P|314:139|319:188,2,65,8|2|8,0:0|0:0|0:0,0:0:0:0:
279,48,78232,2,0,P|226:41|158:82,1,130,2|8,0:0|0:0,0:0:0:0:
111,63,78941,2,0,P|84:87|76:127,1,65,8|8,0:0|0:0,0:0:0:0:
76,165,79414,1,6,0:0:0:0:
256,192,79650,12,0,81303,0:0:0:0:
192,32,88862,6,0,P|247:77|225:152,1,130,2|0,0:0|0:0,0:0:0:0:
203,165,89571,1,2,0:0:0:0:
203,165,89807,2,0,P|115:150|49:149,1,130,2|8,0:0|0:0,0:0:0:0:
96,250,90752,2,0,P|160:254|224:266,1,130,2|0,0:0|0:0,0:0:0:0:
267,296,91461,1,2,0:0:0:0:
267,296,91697,2,0,P|346:296|378:242,1,130,2|8,0:0|0:0,0:0:0:0:
424,169,92642,6,0,P|464:166|493:165,2,65,8|2|8,0:0|0:0|0:0,0:0:0:0:
376,147,93351,2,0,P|398:104|369:33,1,130,2|2,0:0|0:0,0:0:0:0:
321,9,94059,2,0,P|286:7|250:32,1,65,8|2,0:0|0:0,0:0:0:0:
231,63,94532,2,0,P|240:132|255:203,1,130,8|8,0:0|0:0,0:0:0:0:
188,273,95477,2,0,P|150:283|117:270,1,65,8|2,0:0|0:0,0:0:0:0:
83,304,95949,2,0,P|55:276|50:241,1,65,8|8,0:0|0:0,0:0:0:0:
3,228,96421,6,0,P|8:168|21:91,1,130,14|8,0:0|0:0,0:0:0:0:
57,63,97130,1,2,0:0:0:0:
57,63,97366,2,0,P|92:57|140:85,1,65,8|2,0:0|0:0,0:0:0:0:
155,103,97839,1,8,0:0:0:0:
155,103,98075,1,2,0:0:0:0:
281,92,98547,2,0,P|341:95|391:172,1,130,2|2,0:0|0:0,0:0:0:0:
396,196,99256,2,0,P|388:260|375:353,1,130,8|8,0:0|0:0,0:0:0:0:
289,272,100200,6,0,P|233:258|185:305,1,130,8|8,0:0|0:0,0:0:0:0:
163,353,100909,1,2,0:0:0:0:
163,353,101145,2,0,P|132:348|99:341,1,65,8|2,0:0|0:0,0:0:0:0:
47,341,101618,2,0,P|28:316|10:287,1,65,8|2,0:0|0:0,0:0:0:0:
0,236,102091,1,8,0:0:0:0:
77,158,102562,2,0,P|114:142|156:147,1,65,8|2,0:0|0:0,0:0:0:0:
180,111,103035,2,0,P|217:125|243:159,1,65,8|2,0:0|0:0,0:0:0:0:
286,150,103507,2,0,P|302:187|297:229,1,65,8|2,0:0|0:0,0:0:0:0:
346,237,103980,6,0,P|333:308|324:386,1,130,12|8,0:0|0:0,0:0:0:0:
275,379,104689,1,2,0:0:0:0:
275,379,104925,2,0,P|228:334|165:343,1,130,8|8,0:0|0:0,0:0:0:0:
124,370,105634,1,2,0:0:0:0:
124,370,105870,2,0,P|113:315|99:226,1,130,12|8,0:0|0:0,0:0:0:0:
203,222,106815,2,0,P|213:167|227:78,1,130,12|8,0:0|0:0,0:0:0:0:
325,69,107760,6,0,P|383:60|444:112,1,130,6|0,0:0|0:0,0:0:0:0:
487,83,108469,1,2,0:0:0:0:
487,83,108705,2,0,P|475:124|471:224,1,130,2|8,0:0|0:0,0:0:0:0:
380,264,109650,2,0,P|339:277|300:273,1,65,8|2,0:0|0:0,0:0:0:0:
283,316,110122,2,0,P|251:286|235:251,1,65,8|2,0:0|0:0,0:0:0:0:
189,257,110595,2,0,P|198:214|221:183,1,65,8|2,0:0|0:0,0:0:0:0:
193,145,111067,2,0,P|234:132|272:135,1,65,8|2,0:0|0:0,0:0:0:0:
301,156,111539,6,0,P|278:83|315:34,1,130,12|8,0:0|0:0,0:0:0:0:
268,3,112248,2,0,P|349:12|423:17,1,130,2|2,0:0|0:0,0:0:0:0:
394,67,112957,2,0,P|404:97|430:116,1,65,8|2,0:0|0:0,0:0:0:0:
473,87,113429,2,0,P|502:133|488:213,1,130,12|8,0:0|0:0,0:0:0:0:
388,209,114374,2,0,P|359:255|373:335,1,130,12|2,0:0|0:0,0:0:0:0:
272,368,115319,6,0,P|215:339|153:356,1,130,6|0,0:0|0:0,0:0:0:0:
108,382,116027,1,2,0:0:0:0:
108,382,116264,2,0,P|123:310|84:254,1,130,2|8,0:0|0:0,0:0:0:0:
5,212,117209,2,0,P|11:147|18:79,1,130,2|0,0:0|0:0,0:0:0:0:
63,56,117918,1,2,0:0:0:0:
63,56,118154,2,0,P|117:39|175:107,1,130,2|8,0:0|0:0,0:0:0:0:
190,129,118862,2,0,P|186:161|182:199,1,65,0|4,3:0|0:0,0:0:0:0:
256,192,119335,12,0,120988,0:0:0:0:
