osu file format v14

[General]
AudioFilename: audio.mp3
AudioLeadIn: 0
PreviewTime: 46107
Countdown: 0
SampleSet: Soft
StackLeniency: 0.7
Mode: 0
LetterboxInBreaks: 0
WidescreenStoryboard: 0

[Editor]
DistanceSpacing: 1
BeatDivisor: 4
GridSize: 4
TimelineZoom: 1.2

[Metadata]
Title:To my darling...
TitleUnicode:To my darling...
Artist:Koshimizu Sachiko (CV: Taketatsu Ayana)
ArtistUnicode:輿水幸子(CV:竹達彩奈)
Creator:Shunao
Version:Easy
Source:アイドルマスターシンデレラガールズ
Tags:shogunmoon -_frontier_- shockolatte habiholic affirmation SquareTude THE iDOLM@STER Cinderella Girls master 020
BeatmapID:1674192
BeatmapSetID:797169

[Difficulty]
HPDrainRate:2
CircleSize:3
OverallDifficulty:2
ApproachRate:3
SliderMultiplier:1
SliderTickRate:1

[Events]
//Background and Video events
0,0,"86515j.jpg",0,0
//Break Periods
2,81503,87422
//Storyboard Layer 0 (Background)
//Storyboard Layer 1 (Fail)
//Storyboard Layer 2 (Pass)
//Storyboard Layer 3 (Foreground)
//Storyboard Sound Samples

[TimingPoints]
44,472.44094488189,4,2,4,60,1,0
9492,-100,4,2,4,60,0,0
13272,-100,4,2,4,60,0,0
28390,-100,4,2,4,40,0,0
39729,-100,4,2,4,50,0,0
43272,-100,4,2,4,60,0,0
47288,-100,4,2,4,60,0,1
60988,-100,4,2,4,60,0,0
62406,-100,4,2,4,60,0,1
73744,-100,4,2,4,60,0,0
88862,-100,4,2,7,40,0,0
92642,-100,4,2,7,60,0,0
96421,-100,4,2,4,60,0,1
107760,-100,4,2,4,60,0,0
111540,-100,4,2,4,60,0,1
115319,-100,4,2,7,40,0,0
120988,-100,4,2,7,5,0,0

[Colours]
Combo1 : 203,180,224
Combo2 : 120,0,240
Combo3 : 255,128,255
Combo4 : 253,216,2

[HitObjects]
158,203,1933,6,0,L|146:87,2,100,12|8|8,0:0|0:0|0:0,0:0:0:0:
233,268,3351,1,8,0:0:0:0:
323,224,3823,2,0,P|378:218|441:232,1,100,8|8,0:0|0:0,0:0:0:0:
496,158,4768,2,0,P|490:118|486:53,1,100,8|8,0:0|0:0,0:0:0:0:
391,26,5713,6,0,P|359:19|292:38,2,100,12|8|8,0:0|0:0|0:0,0:0:0:0:
351,117,7130,1,8,0:0:0:0:
295,200,7603,2,0,L|187:191,1,100,8|8,0:0|0:0,0:0:0:0:
109,242,8547,1,8,0:0:0:0:
31,178,9020,1,8,0:0:0:0:
56,81,9492,5,12,0:0:0:0:
243,150,10437,2,0,P|235:201|227:305,1,150,2|4,0:0|0:0,0:0:0:0:
360,367,11855,2,0,P|406:356|466:352,1,100,8|8,0:0|0:0,0:0:0:0:
502,262,12799,1,8,0:0:0:0:
464,169,13272,6,0,L|479:59,2,100,6|2|2,0:0|0:0|0:0,0:0:0:0:
386,231,14689,1,2,0:0:0:0:
303,287,15162,2,0,P|256:299|196:279,1,100,2|2,0:0|0:0,0:0:0:0:
122,233,16106,2,0,L|115:126,1,100,2|2,0:0|0:0,0:0:0:0:
196,74,17051,2,0,P|244:72|297:44,2,100,2|2|2,0:0|0:0|0:0,0:0:0:0:
100,42,18469,1,2,0:0:0:0:
14,94,18941,6,0,L|24:250,2,150,6|6|2,0:0|0:0|0:0,0:0:0:0:
100,42,20831,6,0,P|149:29|210:41,2,100,2|2|2,0:0|0:0|0:0,0:0:0:0:
14,94,22248,1,2,0:0:0:0:
101,142,22721,2,0,P|150:148|198:135,1,100,2|2,0:0|0:0,0:0:0:0:
285,86,23666,2,0,L|296:197,1,100,2|2,0:0|0:0,0:0:0:0:
386,224,24610,2,0,L|396:118,2,100,2|2|2,0:0|0:0|0:0,0:0:0:0:
324,303,26028,1,2,0:0:0:0:
224,296,26500,6,0,B|141:269|158:335|66:306,2,150,12|6|2,0:0|0:0|0:0,0:0:0:0:
311,344,28390,6,0,L|463:330,1,150,6|8,0:0|0:0,0:0:0:0:
509,242,29571,1,2,0:0:0:0:
454,157,30044,2,0,L|292:141,1,150,2|8,0:0|0:0,0:0:0:0:
235,70,31225,2,0,L|119:79,1,100,8|8,0:0|0:0,0:0:0:0:
52,133,32169,6,0,P|26:187|57:276,1,150,2|2,0:0|0:0,0:0:0:0:
125,203,33351,1,2,0:0:0:0:
195,274,33823,2,0,P|261:263|356:260,1,150,2|8,0:0|0:0,0:0:0:0:
441,283,35004,1,8,0:0:0:0:
494,367,35477,1,8,0:0:0:0:
394,369,35949,6,0,P|345:360|276:365,1,100,2|8,0:0|0:0,0:0:0:0:
204,319,36894,2,0,P|155:328|86:323,1,100,2|8,0:0|0:0,0:0:0:0:
23,268,37839,2,0,L|12:113,1,150,2|2,0:0|0:0,0:0:0:0:
82,47,39020,1,2,0:0:0:0:
213,119,39729,2,0,L|204:227,1,100,2|8,0:0|0:0,0:0:0:0:
253,305,40673,2,0,P|301:316|360:303,1,100,2|2,0:0|0:0,0:0:0:0:
444,274,41618,6,0,B|452:213|452:213|435:143|435:143|446:66,1,200,2|8,0:0|0:0,0:0:0:0:
295,55,43272,6,0,P|223:75|148:35,1,150,6|8,0:0|0:0,0:0:0:0:
59,23,44453,2,0,L|68:137,1,100,8|8,0:0|0:0,0:0:0:0:
124,204,45398,2,0,L|113:310,1,100,4|8,0:0|3:0,0:0:0:0:
197,358,46343,1,8,0:0:0:0:
296,349,46815,1,8,0:0:0:0:
381,296,47288,6,0,P|430:298|486:335,1,100,12|8,0:0|0:0,0:0:0:0:
501,226,48232,2,0,P|493:147|491:64,1,150,8|2,0:0|0:0,0:0:0:0:
399,34,49414,2,0,B|319:7|332:70|246:38,1,150,2|8,0:0|0:0,0:0:0:0:
155,22,50595,1,8,0:0:0:0:
74,81,51067,6,0,L|83:197,1,100,8|8,0:0|0:0,0:0:0:0:
98,279,52012,2,0,P|173:280|226:341,1,150,8|2,0:0|0:0,0:0:0:0:
367,370,53429,2,0,L|480:362,1,100,8|8,0:0|0:0,0:0:0:0:
500,268,54374,1,8,0:0:0:0:
440,187,54847,6,0,P|443:144|480:78,2,100,12|8|8,0:0|0:0|0:0,0:0:0:0:
359,246,56264,1,8,0:0:0:0:
268,289,56736,2,0,L|168:280,1,100,8|8,0:0|0:0,0:0:0:0:
106,201,57681,2,0,L|1:208,1,100,8|8,0:0|0:0,0:0:0:0:
6,107,58626,6,0,P|41:49|128:39,2,150,8|2|8,0:0|0:0|0:0,0:0:0:0:
6,207,60516,1,8,0:0:0:0:
29,304,60988,1,8,0:0:0:0:
123,272,61461,5,8,0:0:0:0:
211,319,61933,1,8,0:0:0:0:
298,273,62406,6,0,L|290:157,1,100,12|8,0:0|0:0,0:0:0:0:
204,122,63350,2,0,P|140:132|66:76,1,150,8|2,0:0|0:0,0:0:0:0:
157,34,64532,2,0,B|319:26,1,150,2|8,0:0|0:0,0:0:0:0:
406,23,65713,1,8,0:0:0:0:
473,96,66185,6,0,P|465:149|463:214,1,100,8|8,0:0|0:0,0:0:0:0:
430,290,67130,2,0,B|355:268|355:268|276:287,1,150,8|2,0:0|0:0,0:0:0:0:
138,316,68547,2,0,L|130:203,1,100,8|8,0:0|0:0,0:0:0:0:
206,150,69492,1,8,0:0:0:0:
155,63,69965,2,0,P|108:48|60:60,2,100,12|8|8,0:0|0:0|0:0,0:0:0:0:
206,150,71382,1,8,0:0:0:0:
263,231,71854,6,0,L|255:343,1,100,12|8,0:0|0:0,0:0:0:0:
352,358,72799,2,0,L|360:251,1,100,12|2,0:0|0:0,0:0:0:0:
438,196,73744,5,12,0:0:0:0:
507,123,74217,2,0,L|498:15,1,100,8|8,0:0|0:0,0:0:0:0:
399,11,75162,1,8,0:0:0:0:
317,68,75634,1,8,0:0:0:0:
293,165,76106,2,0,P|242:178|178:160,1,100,8|8,0:0|0:0,0:0:0:0:
105,127,77051,1,8,0:0:0:0:
37,200,77524,6,0,L|43:299,1,100,8|8,0:0|0:0,0:0:0:0:
129,349,78469,2,0,P|176:337|245:344,1,100,8|8,0:0|0:0,0:0:0:0:
323,364,79414,1,6,0:0:0:0:
256,192,79532,12,0,81303,0:0:0:0:
226,62,88862,6,0,P|371:62|424:204,1,300,2|8,0:0|0:0,0:0:0:0:
407,286,90752,2,0,B|250:238|281:363|107:306,1,300,2|8,0:0|0:0,0:0:0:0:
23,276,92642,6,0,L|14:157,1,100,8|8,0:0|0:0,0:0:0:0:
10,76,93587,2,0,P|56:58|113:70,1,100,8|8,0:0|0:0,0:0:0:0:
189,119,94532,1,8,0:0:0:0:
286,141,95004,1,8,0:0:0:0:
348,63,95477,5,8,0:0:0:0:
445,83,95949,1,8,0:0:0:0:
501,166,96421,6,0,L|494:279,1,100,14|8,0:0|0:0,0:0:0:0:
430,342,97366,2,0,B|350:313|358:373|269:348,1,150,8|2,0:0|0:0,0:0:0:0:
186,330,98547,2,0,B|177:163,1,150,2|8,0:0|0:0,0:0:0:0:
99,117,99728,1,8,0:0:0:0:
21,180,100200,6,0,L|28:296,1,100,8|8,0:0|0:0,0:0:0:0:
93,354,101146,2,0,P|165:368|249:327,1,150,8|2,0:0|0:0,0:0:0:0:
338,232,102563,2,0,L|331:119,1,100,8|8,0:0|0:0,0:0:0:0:
244,83,103508,1,8,0:0:0:0:
152,123,103981,2,0,P|101:132|39:115,2,100,12|8|8,0:0|0:0|0:0,0:0:0:0:
244,83,105398,1,8,0:0:0:0:
330,31,105870,6,0,L|442:25,1,100,12|8,0:0|0:0,0:0:0:0:
431,126,106815,2,0,L|331:131,1,100,12|8,0:0|0:0,0:0:0:0:
248,187,107760,6,0,B|223:227|223:227|241:344,2,150,6|2|8,0:0|0:0|0:0,0:0:0:0:
331,131,109650,2,0,L|432:126,1,100,8|8,0:0|0:0,0:0:0:0:
491,205,110595,1,8,0:0:0:0:
474,303,111067,1,8,0:0:0:0:
390,358,111540,6,0,P|345:372|282:356,2,100,12|8|8,0:0|0:0|0:0,0:0:0:0:
338,272,112957,1,8,0:0:0:0:
298,180,113429,2,0,L|195:189,1,100,12|8,0:0|0:0,0:0:0:0:
151,100,114374,2,0,L|48:91,1,100,12|2,0:0|0:0,0:0:0:0:
2,178,115319,6,0,P|9:228|13:285,1,100,6|0,0:0|0:0,0:0:0:0:
91,339,116264,1,2,0:0:0:0:
187,369,116736,1,8,0:0:0:0:
286,357,117209,2,0,P|338:344|390:348,1,100,2|0,0:0|0:0,0:0:0:0:
484,349,118154,1,2,0:0:0:0:
510,252,118626,1,8,0:0:0:0:
256,192,119099,12,0,120988,0:0:0:0:
