osu file format v14

[General]
AudioFilename: audio.mp3
AudioLeadIn: 0
PreviewTime: 46107
Countdown: 0
SampleSet: Soft
StackLeniency: 0.7
Mode: 0
LetterboxInBreaks: 0
WidescreenStoryboard: 0

[Editor]
DistanceSpacing: 1.8
BeatDivisor: 4
GridSize: 32
TimelineZoom: 1.2

[Metadata]
Title:To my darling...
TitleUnicode:To my darling...
Artist:Koshimizu Sachiko (CV: Taketatsu Ayana)
ArtistUnicode:輿水幸子(CV:竹達彩奈)
Creator:Shunao
Version:AF's Insane
Source:アイドルマスターシンデレラガールズ
Tags:shogunmoon -_frontier_- shockolatte habiholic affirmation SquareTude THE iDOLM@STER Cinderella Girls master 020
BeatmapID:1674191
BeatmapSetID:797169

[Difficulty]
HPDrainRate:6
CircleSize:4
OverallDifficulty:8
ApproachRate:9
SliderMultiplier:1
SliderTickRate:1

[Events]
//Background and Video events
0,0,"86515j.jpg",0,0
//Break Periods
2,81303,88262
//Storyboard Layer 0 (Background)
//Storyboard Layer 1 (Fail)
//Storyboard Layer 2 (Pass)
//Storyboard Layer 3 (Foreground)
//Storyboard Sound Samples

[TimingPoints]
44,472.44094488189,4,3,12,65,1,0
1461,-71.4285714285714,4,3,12,65,0,0
1933,-62.5,4,2,65,65,0,0
13272,-83.3333333333333,4,2,65,50,0,0
28390,-100,4,2,65,40,0,0
35949,-83.3333333333333,4,2,65,40,0,0
47288,-58.8235294117647,4,2,65,70,0,1
60988,-58.8235294117647,4,2,65,70,0,0
62406,-58.8235294117647,4,2,65,70,0,1
73744,-62.5,4,2,65,65,0,0
88862,-83.3333333333333,4,2,65,40,0,0
92642,-71.4285714285714,4,2,65,40,0,0
96421,-58.8235294117647,4,2,65,70,0,1
107760,-83.3333333333333,4,2,65,40,0,0
111540,-58.8235294117647,4,2,65,70,0,1
115319,-83.3333333333333,4,2,65,50,0,0
117209,-111.111111111111,4,2,65,40,0,0
119099,-200,4,2,65,30,0,0
120988,-62.5,4,2,65,5,0,0

[Colours]
Combo1 : 203,180,224
Combo2 : 120,0,240
Combo3 : 255,128,255
Combo4 : 253,216,2

[HitObjects]
243,184,1461,6,0,L|239:150,3,34.9999989318848,0|0|0|0,0:2|0:2|0:2|0:2,0:2:0:0:
273,210,1933,6,0,P|311:217|348:202,1,80,12|0,3:2|0:2,0:2:0:0:
229,72,2406,1,8,0:2:0:0:
134,254,2642,1,2,0:2:0:0:
25,162,2878,2,0,L|105:170,1,80,8|0,3:2|0:2,0:2:0:0:
242,330,3351,2,0,L|162:337,1,80,10|0,0:2|0:2,0:2:0:0:
243,184,3823,5,10,3:2:0:0:
343,382,4059,1,0,0:2:0:0:
462,199,4295,2,0,P|424:192|384:198,1,80,10|0,0:2|0:2,0:2:0:0:
242,330,4768,1,8,3:2:0:0:
190,127,5004,1,0,0:2:0:0:
54,254,5240,2,0,P|93:258|133:253,1,80,10|0,0:2|0:2,0:2:0:0:
283,115,5713,6,0,P|243:110|203:115,1,80,12|0,3:2|0:2,0:2:0:0:
307,246,6185,1,8,0:2:0:0:
424,56,6421,1,2,0:2:0:0:
505,213,6658,2,0,L|501:292,1,80,8|0,3:2|0:2,0:2:0:0:
312,359,7130,2,0,L|308:279,1,80,10|0,0:2|0:2,0:2:0:0:
420,169,7603,6,0,B|382:181|382:181|342:172,1,80,8|0,3:2|0:2,0:2:0:0:
210,69,8075,2,0,B|248:57|248:57|287:65,1,80,8|0,0:2|0:2,0:2:0:0:
258,239,8547,2,0,L|254:159,1,80,8|0,3:2|0:2,0:2:0:0:
129,31,9020,2,0,L|125:111,1,80,8|0,0:2|0:2,0:2:0:0:
42,288,9492,6,0,B|79:284|116:306|116:306|151:326|195:312,1,160,12|0,3:2|0:2,0:2:0:0:
344,193,10201,1,0,3:2:0:0:
254,159,10437,2,0,L|258:239,1,80,0|0,3:2|0:2,0:2:0:0:
316,315,10910,1,2,3:2:0:0:
484,219,11146,6,0,P|419:175|343:192,1,160,12|0,3:2|0:2,0:2:0:0:
226,260,11855,2,0,L|186:258,3,40,2|0|0|0,3:2|0:2|0:2|0:2,0:2:0:0:
102,196,12327,2,0,L|141:194,3,40,2|0|0|0,3:2|0:2|0:2|0:2,0:2:0:0:
245,120,12800,2,0,L|205:118,3,40,2|0|0|0,3:2|0:2|0:2|0:2,0:2:0:0:
120,36,13272,6,0,P|178:43|226:10,2,119.999996337891,4|0|0,3:2|1:2|3:2,0:2:0:0:
46,76,14453,1,0,0:2:0:0:
105,136,14689,2,0,L|101:195,1,59.9999981689454,0|0,1:2|0:2,0:2:0:0:
39,322,15162,6,0,P|87:289|146:297,1,119.999996337891,0|0,3:2|1:2,0:2:0:0:
208,352,15870,1,0,0:2:0:0:
274,300,16106,2,0,L|264:240,1,59.9999981689454,0|0,3:2|0:2,0:2:0:0:
360,198,16579,2,0,L|350:257,1,59.9999981689454,0|0,1:2|0:2,0:2:0:0:
308,136,17051,6,0,P|363:155|419:136,2,119.999996337891,4|0|0,3:2|1:2|3:2,0:2:0:0:
243,81,18232,1,0,0:2:0:0:
151,173,18469,2,0,L|121:173,2,29.9999990844727,2|2|2,1:2|0:2|0:2,0:2:0:0:
283,242,18941,6,0,P|253:238|223:238,1,59.9999981689454,14|2,0:2|3:2,0:2:0:0:
298,339,19414,1,2,3:2:0:0:
395,233,19650,2,0,B|405:195|393:169|393:169|380:143|387:115,1,119.999996337891,14|2,0:2|0:2,0:2:0:0:
468,34,20358,2,0,L|497:38,2,29.9999990844727,2|2|2,0:2|0:2|0:2,0:2:0:0:
272,62,20831,6,0,P|214:72|155:59,1,119.999996337891,4|0,3:2|1:2,0:2:0:0:
113,132,21540,1,0,0:2:0:0:
39,91,21776,2,0,L|28:150,1,59.9999981689454,0|0,3:2|0:2,0:2:0:0:
122,210,22248,2,0,L|112:151,1,59.9999981689454,0|0,1:2|0:2,0:2:0:0:
70,272,22721,6,0,P|126:254|185:262,1,119.999996337891,0|0,3:2|1:2,0:2:0:0:
256,308,23429,1,0,0:2:0:0:
320,254,23666,2,0,L|324:194,1,59.9999981689454,0|0,3:2|0:2,0:2:0:0:
234,127,24138,2,0,L|238:186,1,59.9999981689454,0|0,1:2|0:2,0:2:0:0:
295,61,24610,6,0,P|241:37|183:51,2,119.999996337891,4|0|0,3:2|1:2|3:2,0:2:0:0:
361,113,25792,1,0,0:2:0:0:
423,55,26028,1,0,1:2:0:0:
493,196,26264,1,0,0:2:0:0:
493,196,26382,1,0,0:2:0:0:
493,196,26500,5,12,0:2:0:0:
361,113,26737,1,0,3:2:0:0:
403,311,26973,1,0,3:2:0:0:
223,213,27209,2,0,P|253:207|283:208,1,59.9999981689454,12|0,0:2|0:2,0:2:0:0:
372,316,27681,1,2,0:2:0:0:
372,316,27799,1,2,0:2:0:0:
372,316,27917,2,0,L|370:345,3,29.9999990844727,2|0|0|0,0:2|0:2|0:2|0:2,0:2:0:0:
299,374,28390,6,0,P|255:350|206:350,1,100,4|2,3:2|0:3,0:2:0:0:
121,381,29099,1,0,0:0:0:0:
46,331,29335,2,0,L|49:282,2,50,0|0|2,3:2|3:2|0:3,0:2:0:0:
60,193,30044,6,0,L|159:199,1,100,0|0,3:2|0:2,0:2:0:0:
296,200,30752,2,0,L|246:203,1,50,0|2,3:2|0:3,0:2:0:0:
233,243,31106,1,2,0:3:0:0:
233,243,31225,2,0,L|229:292,1,50,2|0,3:3|3:2,0:2:0:0:
319,345,31697,2,0,L|315:295,1,50,2|0,0:3|3:2,0:2:0:0:
424,218,32169,6,0,L|374:221,1,50,0|0,3:2|0:2,0:2:0:0:
347,140,32642,2,0,L|350:90,1,50,2|0,0:3|0:2,0:2:0:0:
354,5,33114,1,0,3:2:0:0:
250,59,33351,2,0,L|253:108,1,50,0|2,0:2|0:3,0:2:0:0:
145,175,33823,6,0,P|122:133|129:84,1,100,0|0,3:2|0:2,0:2:0:0:
227,201,34532,2,0,L|219:250,1,50,2|0,0:3|0:2,0:2:0:0:
117,324,35004,2,0,L|167:317,1,50,0|0,3:2|3:2,0:2:0:0:
285,348,35477,2,0,L|335:356,1,50,2|0,0:3|3:2,0:2:0:0:
369,332,35831,1,0,0:0:0:0:
369,332,35949,6,0,P|390:278|366:225,1,119.999996337891,4|0,3:2|1:2,0:2:0:0:
255,168,36658,1,0,0:2:0:0:
349,113,36894,2,0,L|408:103,1,59.9999981689454,0|0,3:2|3:2,0:2:0:0:
229,162,37366,2,0,L|169:152,1,59.9999981689454,0|0,1:2|0:2,0:2:0:0:
94,276,37839,6,0,P|148:297|201:273,1,119.999996337891,6|2,3:2|1:2,0:2:0:0:
296,240,38547,1,2,0:2:0:0:
296,240,38784,2,0,L|286:299,1,59.9999981689454,0|0,3:2|0:2,0:2:0:0:
396,348,39256,2,0,L|386:288,1,59.9999981689454,0|0,1:2|0:2,0:2:0:0:
295,144,39729,6,0,L|235:134,1,59.9999981689454,4|0,3:2|0:2,0:2:0:0:
406,183,40201,2,0,L|465:173,1,59.9999981689454,0|0,1:2|0:2,0:2:0:0:
391,35,40673,2,0,L|386:64,3,29.9999990844727,0|0|0|0,3:2|0:2|0:2|0:2,0:2:0:0:
306,125,41146,2,0,L|301:95,3,29.9999990844727,0|0|0|0,1:2|0:2|0:2|0:2,0:2:0:0:
231,25,41618,5,4,3:2:0:0:
231,25,42091,1,2,0:3:0:0:
229,32,42209,1,2,0:3:0:0:
228,39,42327,1,2,0:3:0:0:
227,47,42445,1,2,0:3:0:0:
226,54,42563,2,0,L|166:44,1,59.9999981689454,4|0,3:2|0:2,0:2:0:0:
89,139,43036,1,0,1:2:0:0:
198,247,43272,6,0,P|217:191|195:136,1,119.999996337891,4|0,3:2|0:2,0:2:0:0:
106,282,43981,1,0,1:2:0:0:
362,201,44217,1,0,3:2:0:0:
108,117,44453,1,0,1:2:0:0:
264,335,44689,1,0,3:2:0:0:
265,67,44925,1,0,1:2:0:0:
272,358,45162,1,0,3:2:0:0:
195,136,45398,5,4,3:2:0:0:
385,193,45634,1,0,1:2:0:0:
120,356,45870,1,0,1:2:0:0:
146,42,46106,1,0,1:2:0:0:
199,298,46343,6,0,L|193:326,3,29.9999990844727,2|2|2|2,3:2|0:2|3:2|0:2,0:2:0:0:
252,236,46815,1,2,1:2:0:0:
273,228,46933,1,2,0:2:0:0:
296,228,47051,1,2,0:2:0:0:
316,236,47169,1,2,0:2:0:0:
333,252,47288,6,0,L|417:243,1,85.0000016212464,12|0,3:2|0:2,0:2:0:0:
339,142,47760,1,10,0:2:0:0:
272,358,47996,1,0,0:2:0:0:
187,176,48232,2,0,L|195:91,1,85.0000016212464,8|0,3:2|0:2,0:2:0:0:
99,271,48705,1,10,0:2:0:0:
333,252,48941,1,0,0:2:0:0:
200,59,49177,5,8,3:2:0:0:
412,54,49414,2,0,P|422:96|416:138,1,85.0000016212464,0|10,0:2|0:2,0:2:0:0:
312,269,49886,1,0,0:2:0:0:
115,67,50122,2,0,L|199:58,1,85.0000016212464,8|0,3:2|0:2,0:2:0:0:
271,184,50595,2,0,L|186:175,1,85.0000016212464,10|0,0:2|0:2,0:2:0:0:
218,382,51067,6,0,P|226:340|221:298,1,85.0000016212464,12|0,3:2|0:2,0:2:0:0:
59,175,51540,1,10,0:2:0:0:
141,339,51776,1,0,0:2:0:0:
355,175,52012,2,0,L|270:183,1,85.0000016212464,8|0,3:2|0:2,0:2:0:0:
420,56,52484,1,10,0:2:0:0:
445,275,52721,1,0,0:2:0:0:
243,187,52957,6,0,P|237:145|246:103,1,85.0000016212464,8|0,3:2|0:2,0:2:0:0:
305,289,53429,2,0,L|220:297,1,85.0000016212464,10|0,0:2|0:2,0:2:0:0:
76,152,53902,2,0,L|160:160,1,85.0000016212464,8|0,3:2|0:2,0:2:0:0:
119,345,54374,2,0,P|110:303|115:261,1,85.0000016212464,10|0,0:2|0:2,0:2:0:0:
228,79,54847,6,0,P|264:153|237:231,1,170.000003242493,12|10,3:2|0:2,0:2:0:0:
119,345,55555,1,0,0:2:0:0:
76,152,55792,2,0,L|160:160,1,85.0000016212464,8|0,3:2|0:2,0:2:0:0:
299,328,56264,2,0,L|214:336,1,85.0000016212464,10|0,0:2|0:2,0:2:0:0:
0,268,56736,6,0,P|74:231|152:258,1,170.000003242493,12|10,3:2|0:2,0:2:0:0:
286,356,57445,1,0,0:2:0:0:
347,140,57681,2,0,P|305:133|263:140,1,85.0000016212464,8|0,3:2|0:2,0:2:0:0:
396,340,58154,2,0,L|404:255,1,85.0000016212464,10|0,0:2|0:2,0:2:0:0:
208,28,58626,5,12,3:2:0:0:
283,250,58862,1,0,3:2:0:0:
207,52,59099,1,8,3:2:0:0:
152,257,59335,2,0,P|147:300|158:340,1,85.0000016212464,0|8,3:0|3:2,0:0:0:0:
104,136,59807,1,0,3:2:0:0:
317,125,60043,1,8,3:2:0:0:
80,135,60280,1,0,3:2:0:0:
278,333,60516,6,0,P|285:291|282:249,1,85.0000016212464,4|0,3:2|0:2,0:2:0:0:
99,52,60988,2,0,P|95:94|103:135,1,85.0000016212464,8|0,0:2|0:2,0:2:0:0:
276,220,61461,2,0,L|318:216,2,42.5000008106232,2|2|2,3:2|0:2|3:2,0:2:0:0:
152,258,61933,2,0,L|109:254,2,42.5000008106232,10|2|2,3:2|0:2|0:2,0:2:0:0:
357,350,62406,6,0,P|319:330|277:332,1,85.0000016212464,12|0,3:2|0:2,0:2:0:0:
130,382,62878,1,10,0:2:0:0:
221,219,63114,1,0,0:2:0:0:
24,261,63351,2,0,L|108:253,1,85.0000016212464,8|0,3:2|0:2,0:2:0:0:
323,187,63823,1,10,0:2:0:0:
157,34,64059,1,0,0:2:0:0:
133,269,64295,5,8,3:2:0:0:
321,92,64532,2,0,P|278:88|237:96,1,85.0000016212464,0|10,0:2|0:2,0:2:0:0:
107,191,65004,1,0,0:2:0:0:
253,328,65240,2,0,L|258:243,1,85.0000016212464,8|0,3:2|0:2,0:2:0:0:
118,83,65713,2,0,L|112:167,1,85.0000016212464,10|0,0:2|0:2,0:2:0:0:
321,100,66185,6,0,P|279:92|237:95,1,85.0000016212464,12|0,3:2|0:2,0:2:0:0:
110,315,66658,1,10,0:2:0:0:
269,215,66894,1,0,0:2:0:0:
118,83,67130,2,0,L|112:167,1,85.0000016212464,8|0,3:2|0:2,0:2:0:0:
293,303,67603,1,10,0:2:0:0:
237,95,67839,1,0,0:2:0:0:
89,286,68075,6,0,P|130:293|172:290,1,85.0000016212464,8|0,3:2|0:2,0:2:0:0:
373,202,68547,2,0,L|367:286,1,85.0000016212464,10|0,0:2|0:2,0:2:0:0:
242,179,69020,2,0,L|236:94,1,85.0000016212464,8|0,3:2|0:2,0:2:0:0:
64,160,69492,2,0,P|105:168|146:159,1,85.0000016212464,10|0,0:2|0:2,0:2:0:0:
315,62,69965,6,0,P|251:10|174:36,1,170.000003242493,12|10,3:2|0:2,0:2:0:0:
64,160,70673,1,0,0:2:0:0:
242,179,70910,2,0,L|236:94,1,85.0000016212464,8|0,3:2|0:2,0:2:0:0:
144,218,71382,2,0,L|149:302,1,85.0000016212464,10|0,0:2|0:2,0:2:0:0:
318,373,71855,6,0,L|323:288,1,85.0000016212464,12|0,3:2|0:2,0:2:0:0:
366,136,72327,2,0,L|368:178,3,42.5000008106232,2|2|2|2,0:3|0:3|0:3|0:3,0:3:0:0:
444,263,72799,2,0,L|449:178,1,85.0000016212464,12|0,3:2|0:2,0:2:0:0:
283,93,73272,2,0,L|285:135,3,42.5000008106232,2|2|2|2,0:3|0:3|0:3|0:3,0:3:0:0:
224,223,73744,6,0,P|191:203|151:203,1,80,4|0,3:2|0:2,0:2:0:0:
285,135,74217,1,8,0:2:0:0:
168,288,74453,1,0,3:2:0:0:
185,73,74689,1,8,0:2:0:0:
288,279,74925,1,0,3:2:0:0:
415,87,75162,1,8,0:2:0:0:
218,202,75398,1,0,3:2:0:0:
422,266,75634,6,0,P|428:226|415:189,1,80,2|0,3:2|0:2,0:2:0:0:
215,51,76106,1,8,0:2:0:0:
168,288,76343,1,0,3:2:0:0:
310,194,76579,1,8,0:2:0:0:
68,67,76815,2,0,P|66:107|72:146,1,80,0|8,0:2|0:2,0:2:0:0:
156,267,77288,1,0,3:2:0:0:
286,121,77524,6,0,L|207:135,1,80,10|0,3:2|0:2,0:2:0:0:
49,243,77996,2,0,L|127:257,1,80,10|0,0:2|0:2,0:2:0:0:
301,355,78469,2,0,L|293:315,3,40,8|0|0|0,3:2|0:2|0:2|0:2,0:2:0:0:
385,245,78941,2,0,L|377:284,3,40,8|0|0|0,0:2|0:2|0:2|0:2,0:2:0:0:
293,193,79414,5,12,0:2:0:0:
231,113,88862,6,0,P|288:122|338:91,1,119.999996337891,4|0,3:2|0:2,0:2:0:0:
359,8,89571,1,2,3:2:0:0:
493,99,89807,2,0,L|481:218,1,119.999996337891,2|8,3:2|0:2,0:2:0:0:
496,245,90752,6,0,P|447:279|388:274,1,119.999996337891,4|0,3:2|0:2,0:2:0:0:
322,222,91461,1,2,3:2:0:0:
200,340,91697,2,0,P|151:306|92:311,1,119.999996337891,2|8,3:2|0:2,0:2:0:0:
67,291,92642,6,0,L|73:221,1,69.9999978637696,4|0,3:2|0:2,0:2:0:0:
164,145,93114,2,0,L|171:215,1,69.9999978637696,0|0,1:2|0:2,0:2:0:0:
74,99,93587,2,0,L|4:92,1,69.9999978637696,0|0,3:2|0:2,0:2:0:0:
188,125,94059,2,0,L|257:118,1,69.9999978637696,0|0,1:2|0:2,0:2:0:0:
372,227,94532,6,0,L|337:223,3,34.9999989318848,2|2|2|2,3:3|0:3|0:3|0:3,0:3:0:0:
224,288,95004,2,0,L|258:284,3,34.9999989318848,2|2|2|2,3:3|0:3|0:3|0:3,0:3:0:0:
175,201,95477,1,2,3:2:0:0:
352,322,95713,1,2,0:2:0:0:
161,201,95949,1,2,1:2:0:0:
463,171,96185,1,2,0:2:0:0:
280,38,96421,6,0,P|268:79|277:120,1,85.0000016212464,12|0,3:2|0:2,0:2:0:0:
182,41,96894,1,10,0:2:0:0:
371,251,97130,1,0,0:2:0:0:
185,178,97366,2,0,P|142:181|101:192,1,85.0000016212464,8|0,3:2|0:2,0:2:0:0:
215,319,97839,1,10,0:2:0:0:
353,82,98075,1,0,0:2:0:0:
228,300,98311,5,8,3:2:0:0:
454,265,98547,2,0,P|413:253|370:250,1,85.0000016212464,0|10,0:2|0:2,0:2:0:0:
202,338,99020,1,0,0:2:0:0:
296,167,99256,2,0,L|302:82,1,85.0000016212464,8|0,3:2|0:2,0:2:0:0:
94,167,99729,2,0,L|100:251,1,85.0000016212464,10|0,0:2|0:2,0:2:0:0:
324,356,100201,6,0,L|330:271,1,85.0000016212464,12|0,3:2|0:2,0:2:0:0:
202,338,100673,1,10,0:2:0:0:
456,234,100910,1,0,0:2:0:0:
296,167,101146,2,0,L|211:160,1,85.0000016212464,8|0,3:2|0:2,0:2:0:0:
371,67,101618,1,10,0:2:0:0:
330,271,101855,1,0,0:2:0:0:
173,133,102091,6,0,P|167:90|172:48,1,85.0000016212464,8|0,3:2|0:2,0:2:0:0:
231,264,102563,2,0,L|146:270,1,85.0000016212464,10|0,0:2|0:2,0:2:0:0:
0,183,103036,2,0,L|84:189,1,85.0000016212464,8|0,3:2|0:2,0:2:0:0:
253,134,103508,2,0,P|212:122|171:132,1,85.0000016212464,10|0,0:2|0:2,0:2:0:0:
320,224,103981,6,0,B|346:178|346:178|326:62,1,170.000003242493,12|10,3:2|0:2,0:2:0:0:
211,209,104689,1,0,0:2:0:0:
429,239,104925,2,0,P|470:230|502:203,1,85.0000016212464,8|0,3:2|0:2,0:2:0:0:
215,296,105398,2,0,P|173:287|141:260,1,85.0000016212464,10|0,0:2|0:2,0:2:0:0:
379,299,105870,6,0,L|371:383,1,85.0000016212464,4|0,3:2|0:2,0:2:0:0:
298,287,106343,2,0,L|294:244,3,42.5000008106232,2|2|2|2,0:3|0:3|0:3|0:3,0:3:0:0:
386,214,106815,2,0,L|378:298,1,85.0000016212464,4|0,3:2|0:2,0:2:0:0:
313,150,107288,2,0,L|309:107,3,42.5000008106232,2|2|2|2,0:3|0:3|0:3|0:3,0:3:0:0:
219,76,107760,6,0,P|163:95|108:74,1,119.999996337891,4|0,3:2|0:2,0:2:0:0:
38,27,108469,1,0,3:2:0:0:
93,188,108705,2,0,L|80:307,1,119.999996337891,0|0,3:2|1:2,0:2:0:0:
89,328,109650,5,0,3:2:0:0:
320,224,109886,1,0,0:2:0:0:
188,132,110122,5,2,1:3:0:0:
281,355,110358,1,0,0:2:0:0:
325,87,110595,5,2,1:3:0:0:
275,368,110831,1,0,0:2:0:0:
106,91,111067,5,2,1:3:0:0:
403,212,111303,1,0,0:2:0:0:
35,171,111540,6,0,P|0:95|28:18,1,170.000003242493,12|10,3:2|0:2,0:2:0:0:
136,223,112248,1,0,0:2:0:0:
267,48,112484,2,0,L|182:56,1,85.0000016212464,8|0,3:2|0:2,0:2:0:0:
335,185,112957,2,0,L|419:193,1,85.0000016212464,10|0,0:2|0:2,0:2:0:0:
459,375,113429,6,0,L|450:290,1,85.0000016212464,4|0,3:2|0:2,0:2:0:0:
279,328,113902,2,0,P|299:333|320:336,3,42.5000008106232,2|2|2|2,0:3|0:3|0:3|0:3,0:3:0:0:
379,246,114374,2,0,L|370:161,1,85.0000016212464,4|0,3:2|0:2,0:2:0:0:
200,186,114847,2,0,P|220:191|241:194,3,42.5000008106232,2|2|2|2,0:3|0:3|0:3|0:3,0:3:0:0:
300,110,115319,6,0,P|347:74|405:80,1,119.999996337891,4|0,3:2|0:2,0:2:0:0:
470,135,116028,1,0,3:2:0:0:
376,220,116264,2,0,L|369:160,1,59.9999981689454,0|0,3:2|0:2,0:2:0:0:
450,290,116736,2,0,L|443:349,1,59.9999981689454,8|0,0:2|0:2,0:2:0:0:
252,377,117209,6,0,P|242:333|261:293,1,89.9999972534181,0|0,3:2|0:2,0:2:0:0:
287,184,117918,1,0,3:2:0:0:
287,184,118154,2,0,L|198:197,1,89.9999972534181,0|8,3:2|0:2,0:2:0:0:
81,345,118862,1,0,3:2:0:0:
78,348,118981,1,0,3:2:0:0:
75,351,119099,6,0,B|37:310|54:231|54:231|82:278|77:299,1,200,12|0,3:2|0:2,0:2:0:0:
