osu file format v14

[General]
AudioFilename: audio.ogg
AudioLeadIn: 0
PreviewTime: 103432
Countdown: 0
SampleSet: Normal
StackLeniency: 0.6
Mode: 0
LetterboxInBreaks: 0
WidescreenStoryboard: 0

[Editor]
Bookmarks: 31051,61528,103432,118670,133909,164385,194861,210099,210337,210575,210813,211051,211290,211528,211766,212004,212242,212480,212718,212956,213194,213432,213670,213909,232956,248194,264861
DistanceSpacing: 0.8
BeatDivisor: 6
GridSize: 4
TimelineZoom: 2.799999

[Metadata]
Title:Sanaton maa
TitleUnicode:Sanaton maa
Artist:Korpiklaani
ArtistUnicode:Korpiklaani
Creator:SaltyLucario
Version:Tyven
Source:
Tags:saltking salty -kemsyt finnish hair folk metal rock jylhä jylha finland suomi nuclear blast cane Kalle Savijärvi savijarvi Jonne Järvelä jarvela Jarkko Aaltonen Tuomas Rounakari Sami Perttula Samuli Mikkonen
BeatmapID:3794702
BeatmapSetID:1847266

[Difficulty]
HPDrainRate:5.2
CircleSize:4.2
OverallDifficulty:8.6
ApproachRate:8
SliderMultiplier:1.8
SliderTickRate:1

[Events]
//Background and Video events
0,0,"sanatonmaaaaaaaaaaaa.jpg",0,0
//Break Periods
2,210180,213159
//Storyboard Layer 0 (Background)
//Storyboard Layer 1 (Fail)
//Storyboard Layer 2 (Pass)
//Storyboard Layer 3 (Foreground)
//Storyboard Layer 4 (Overlay)
//Storyboard Sound Samples

[TimingPoints]
-1329,476.190476190476,4,1,1,50,1,0
99,-133.333333333333,4,1,1,50,0,0
575,-133.333333333333,4,1,1,50,0,0
3909,-100,4,1,1,70,0,0
4385,-100,4,1,1,70,0,0
6051,-100,4,1,2,70,0,0
6528,-100,4,1,1,70,0,0
7718,-200,4,1,2,70,0,0
8075,-200,4,1,2,5,0,0
8194,-86.9565217391304,4,1,1,80,0,0
18670,-76.9230769230769,4,1,1,80,0,0
19028,-76.9230769230769,4,1,1,5,0,0
19147,-76.9230769230769,4,1,1,80,0,0
19504,-76.9230769230769,4,1,1,5,0,0
19623,-86.9565217391304,4,1,1,80,0,0
21647,-86.9565217391304,4,1,1,5,0,0
21766,-86.9565217391304,4,1,1,80,0,0
23432,-100,4,1,4,60,0,0
25218,-100,4,1,4,5,0,0
25337,-100,4,1,4,60,0,0
26766,-200,4,1,5,60,0,0
27123,-200,4,1,1,5,0,0
27242,-100,4,1,4,60,0,0
29623,-100,4,1,5,60,0,0
30099,-100,4,1,2,60,0,0
30337,-100,4,1,1,60,0,0
30575,-100,4,1,2,60,0,0
31051,-100,4,1,4,70,0,0
34861,-100,4,1,5,70,0,0
37718,-86.9565217391304,4,1,5,70,0,0
38075,-86.9565217391304,4,1,5,5,0,0
38194,-86.9565217391304,4,1,5,70,0,0
38551,-86.9565217391304,4,1,5,5,0,0
38670,-100,4,1,4,70,0,0
42480,-100,4,1,5,70,0,0
45694,-100,4,1,5,5,0,0
45813,-100,4,1,5,70,0,0
46170,-100,4,1,5,5,0,0
46290,-100,4,1,3,60,0,0
46766,-500,4,1,3,60,0,0
49147,-100,4,1,3,60,0,0
51051,-100,4,1,1,60,0,0
51766,-100,4,1,2,60,0,0
52956,-100,4,1,3,60,0,0
53909,-100,4,1,3,60,0,0
54623,-500,4,1,3,60,0,0
56766,-100,4,1,3,60,0,0
57718,-90.9090909090909,4,1,3,60,0,0
61051,-500,4,1,2,60,0,0
61528,-80,4,3,1,80,0,1
62599,-80,4,3,1,5,0,1
62718,-80,4,3,1,80,0,1
64742,-80,4,3,1,5,0,1
64861,-80,4,3,1,80,0,1
65218,-80,4,3,1,5,0,1
65337,-80,4,3,1,80,0,1
67599,-80,4,3,1,5,0,1
67718,-80,4,3,1,80,0,1
70218,-80,4,3,1,5,0,1
70337,-80,4,3,1,80,0,1
71885,-80,4,3,1,5,0,1
72004,-80,4,3,1,80,0,1
76647,-80,4,3,1,80,0,0
76766,-74.0740740740741,4,3,1,80,0,1
82599,-74.0740740740741,4,3,1,5,0,1
82718,-74.0740740740741,4,3,1,80,0,1
86409,-74.0740740740741,4,3,1,5,0,1
86528,-74.0740740740741,4,3,1,80,0,1
92004,-74.0740740740741,4,1,1,70,0,0
93909,-100,4,1,1,70,0,0
95099,-100,4,1,2,70,0,0
95218,-100,4,1,1,70,0,0
95278,-100,4,1,2,70,0,0
95337,-100,4,1,1,70,0,0
95813,-100,4,1,4,60,0,0
99147,-200,4,1,5,60,0,0
99504,-200,4,1,1,5,0,0
99623,-100,4,1,4,60,0,0
101885,-100,4,1,1,5,0,0
102004,-100,4,1,4,60,0,0
102480,-100,4,1,2,60,0,0
102718,-100,4,1,3,60,0,0
102956,-100,4,1,2,60,0,0
103432,-100,4,1,4,70,0,0
107242,-100,4,1,5,70,0,0
109028,-100,4,1,5,5,0,0
109147,-100,4,1,5,70,0,0
110099,-86.9565217391304,4,1,5,70,0,0
110456,-86.9565217391304,4,1,5,5,0,0
110575,-86.9565217391304,4,1,5,70,0,0
110932,-86.9565217391304,4,1,5,5,0,0
111051,-100,4,1,4,70,0,0
114861,-100,4,1,5,70,0,0
116647,-100,4,1,5,5,0,0
116766,-100,4,1,5,70,0,0
117718,-86.9565217391304,4,1,5,70,0,0
118075,-86.9565217391304,4,1,5,5,0,0
118194,-86.9565217391304,4,1,5,70,0,0
118670,-86.9565217391304,4,1,3,70,0,0
119147,-500,4,1,3,70,0,0
121528,-100,4,1,3,70,0,0
122361,-100,4,1,3,5,0,0
122480,-100,4,1,3,70,0,0
123432,-100,4,1,1,60,0,0
124147,-100,4,1,2,60,0,0
124385,-125,4,1,2,60,0,0
125337,-125,4,1,3,70,0,0
126290,-125,4,1,3,70,0,0
127004,-500,4,1,3,70,0,0
129147,-100,4,1,3,70,0,0
130099,-83.3333333333333,4,1,3,70,0,0
132004,-83.3333333333333,4,1,3,70,0,0
133432,-76.9230769230769,4,1,2,70,0,0
133790,-76.9230769230769,4,1,1,5,0,0
133909,-80,4,3,1,80,0,1
135456,-80,4,3,1,5,0,1
135575,-80,4,3,1,80,0,1
137123,-80,4,3,1,5,0,1
137242,-80,4,3,1,80,0,1
137599,-80,4,3,1,5,0,1
137718,-80,4,3,1,80,0,1
138790,-80,4,3,1,5,0,1
138909,-80,4,3,1,80,0,1
140932,-80,4,3,1,5,0,1
141051,-80,4,3,1,80,0,1
143075,-80,4,3,1,5,0,1
143194,-80,4,3,1,80,0,1
144742,-80,4,3,1,5,0,1
144861,-80,4,3,1,80,0,1
145218,-80,4,3,1,5,0,1
145337,-80,4,3,1,80,0,1
145694,-80,4,3,1,5,0,1
145813,-80,4,3,1,80,0,1
149028,-80,4,3,1,80,0,0
149147,-74.0740740740741,4,3,1,80,0,1
149504,-74.0740740740741,4,3,1,5,0,1
149623,-74.0740740740741,4,3,1,80,0,1
151170,-74.0740740740741,4,3,1,5,0,1
151290,-74.0740740740741,4,3,1,80,0,1
153313,-74.0740740740741,4,3,1,5,0,1
153432,-74.0740740740741,4,3,1,80,0,1
154980,-74.0740740740741,4,3,1,5,0,1
155099,-74.0740740740741,4,3,1,80,0,1
158790,-74.0740740740741,4,3,1,5,0,1
158909,-74.0740740740741,4,3,1,80,0,1
162599,-74.0740740740741,4,3,1,5,0,1
162718,-74.0740740740741,4,3,1,80,0,1
164385,-200,4,1,5,50,0,0
166051,-133.333333333333,4,1,5,50,0,0
168194,-100,4,1,5,50,0,0
168670,-133.333333333333,4,1,5,50,0,0
171290,-133.333333333333,4,1,2,50,0,0
171528,-133.333333333333,4,1,1,50,0,0
171766,-133.333333333333,4,1,2,50,0,0
172004,-100,4,1,5,50,0,0
172956,-200,4,1,5,50,0,0
173670,-100,4,1,5,50,0,0
175099,-200,4,1,5,50,0,0
175813,-100,4,1,5,50,0,0
176766,-133.333333333333,4,1,5,50,0,0
179623,-80,4,1,3,70,0,0
181686,-80,4,1,3,5,0,0
181766,-80,4,1,3,70,0,0
181924,-80,4,1,3,5,0,0
182004,-80,4,1,3,70,0,0
187242,-74.0740740740741,4,1,3,70,0,0
188194,-100,4,1,3,70,0,0
188670,-83.3333333333333,4,1,3,70,0,0
194861,-74.0740740740741,4,3,3,70,0,1
196885,-74.0740740740741,4,3,3,5,0,1
197004,-74.0740740740741,4,3,3,70,0,1
200694,-74.0740740740741,4,3,3,5,0,1
200813,-74.0740740740741,4,3,3,70,0,1
207480,-74.0740740740741,4,3,3,35,0,1
207718,-74.0740740740741,4,3,3,70,0,1
208194,-74.0740740740741,4,1,1,55,0,1
208670,-74.0740740740741,4,1,2,55,0,1
209147,-74.0740740740741,4,1,1,55,0,1
209623,-100,4,1,2,55,0,1
210099,-100,4,1,1,70,0,0
213909,-100,4,1,1,60,0,0
215575,-100,4,1,2,60,0,0
216290,-100,4,1,1,60,0,0
217242,-1000,4,1,1,70,0,0
217599,-1000,4,1,1,5,0,0
217718,-74.0740740740741,4,3,1,80,0,1
218790,-74.0740740740741,4,3,1,5,0,1
218909,-74.0740740740741,4,3,1,80,0,1
220932,-74.0740740740741,4,3,1,5,0,1
221051,-74.0740740740741,4,3,1,80,0,1
221409,-74.0740740740741,4,3,1,5,0,1
221528,-74.0740740740741,4,3,1,80,0,1
223790,-74.0740740740741,4,3,1,5,0,1
223909,-74.0740740740741,4,3,1,80,0,1
228551,-74.0740740740741,4,3,1,5,0,1
228670,-74.0740740740741,4,3,1,80,0,1
229028,-74.0740740740741,4,3,1,5,0,1
229147,-74.0740740740741,4,3,1,80,0,1
232837,-74.0740740740741,4,3,1,80,0,0
232956,-68.9655172413793,4,3,1,80,0,1
233313,-68.9655172413793,4,3,1,5,0,1
233432,-68.9655172413793,4,3,1,80,0,1
234980,-68.9655172413793,4,3,1,5,0,1
235099,-68.9655172413793,4,3,1,80,0,1
237123,-68.9655172413793,4,3,1,5,0,1
237242,-68.9655172413793,4,3,1,80,0,1
238790,-68.9655172413793,4,3,1,5,0,1
238909,-68.9655172413793,4,3,1,80,0,1
242599,-68.9655172413793,4,3,1,5,0,1
242718,-68.9655172413793,4,3,1,80,0,1
247480,-68.9655172413793,4,3,1,40,0,1
247718,-68.9655172413793,4,3,1,80,0,1
248075,-68.9655172413793,4,3,1,80,0,0
248194,-68.9655172413793,4,3,3,80,0,1
249623,-68.9655172413793,4,3,3,80,0,1
261290,-68.9655172413793,4,3,3,40,0,1
261528,-68.9655172413793,4,3,3,80,0,1
262004,-68.9655172413793,4,3,1,60,0,1
262956,-68.9655172413793,4,3,2,60,0,1
263670,-68.9655172413793,4,3,3,80,0,1
264861,-68.9655172413793,4,3,3,80,0,0

[Colours]
Combo1 : 164,187,68
Combo2 : 64,159,119
Combo3 : 55,189,186
Combo4 : 199,169,67

[HitObjects]
100,305,99,5,0,0:0:0:0:
98,288,218,1,0,0:0:0:0:
96,271,337,1,0,0:0:0:0:
94,254,456,1,0,0:0:0:0:
92,237,575,6,0,B|187:247|187:247|189:251|189:251|205:251|223:255,1,135.000005149842,0|0,0:0|0:0,0:0:0:0:
311,295,1290,2,0,B|317:281|325:266|325:266|316:231,1,67.5000025749208,0|0,0:0|0:0,0:0:0:0:
365,131,1766,1,0,0:0:0:0:
365,131,1885,1,0,0:0:0:0:
365,131,2004,1,0,0:0:0:0:
452,190,2242,1,0,0:0:0:0:
332,111,2480,2,0,B|283:116|283:116|281:119|281:119|240:124|240:124|224:110|205:103,2,135.000005149842,0|0|0,0:0|0:0|0:0,0:0:0:0:
332,111,3909,5,4,3:2:0:0:
183,179,4147,1,0,0:0:0:0:
410,77,4385,1,4,3:2:0:0:
512,212,4623,5,8,0:2:0:0:
506,255,4742,1,8,0:2:0:0:
500,298,4861,1,8,0:2:0:0:
494,341,4980,1,8,0:2:0:0:
488,384,5099,1,0,3:0:0:0:
355,202,5337,5,8,0:3:0:0:
359,236,5456,1,8,0:3:0:0:
364,270,5575,1,8,0:3:0:0:
369,305,5694,1,8,0:3:0:0:
374,339,5813,1,0,3:3:0:0:
192,240,6051,5,8,0:3:0:0:
202,265,6170,1,8,0:3:0:0:
213,290,6290,1,8,0:3:0:0:
224,316,6409,1,8,0:3:0:0:
235,341,6528,5,8,0:2:0:0:
250,292,6647,1,8,0:2:0:0:
233,243,6766,1,8,0:2:0:0:
191,213,6885,1,8,0:2:0:0:
140,213,7004,1,8,0:2:0:0:
98,243,7123,1,8,0:2:0:0:
81,291,7242,1,8,0:2:0:0:
81,291,7718,6,0,P|69:259|53:229,1,67.5,4|0,0:3|0:0,0:0:0:0:
4,168,8194,5,6,3:2:0:0:
98,97,8432,1,0,3:2:0:0:
0,0,8670,1,10,3:2:0:0:
120,117,8909,2,0,B|155:102|197:102|197:102|205:107|205:107|268:101|268:101|290:117|319:119,1,207.000003948212,0|0,3:2|3:2,0:2:0:0:
377,181,9504,1,0,0:2:0:0:
377,181,9623,1,10,3:2:0:0:
323,36,9861,1,0,3:2:0:0:
498,114,10099,6,0,B|482:179|482:179|485:183|485:183|479:199|474:212,1,103.500001974106,2|0,3:2|3:2,0:2:0:0:
327,271,10575,1,10,3:2:0:0:
411,384,10813,1,0,3:2:0:0:
310,250,11051,1,2,3:2:0:0:
173,384,11290,1,0,3:2:0:0:
11,220,11528,1,10,3:2:0:0:
13,210,11587,1,0,0:2:0:0:
14,199,11647,2,0,L|20:145,1,51.7500009870529,0|0,0:2|3:0,0:0:0:0:
230,34,12004,5,6,3:2:0:0:
71,19,12242,1,0,3:2:0:0:
262,37,12480,1,10,3:2:0:0:
116,102,12718,2,0,B|128:129|129:161|129:161|135:165|135:165|136:190|130:210,1,103.500001974106,0|2,3:2|3:2,0:2:0:0:
238,318,13194,1,0,3:2:0:0:
75,254,13432,1,10,3:2:0:0:
181,371,13670,6,0,B|217:363|242:330|242:330|251:336|251:336|295:333|340:352|362:381,1,207.000003948212,0|0,3:2|3:2,0:2:0:0:
497,275,14385,2,0,B|490:288|478:302|478:302|488:266|492:232,1,103.500001974106,10|0,3:2|3:2,0:2:0:0:
492,219,14702,1,0,0:2:0:0:
491,205,14782,1,0,0:2:0:0:
489,191,14861,1,2,3:2:0:0:
369,96,15099,1,0,3:2:0:0:
512,0,15337,1,10,3:2:0:0:
390,81,15575,1,0,3:2:0:0:
318,237,15813,6,0,P|269:218|218:210,1,103.500001974106,6|0,3:2|3:2,0:2:0:0:
104,254,16290,1,10,3:2:0:0:
73,94,16528,2,0,B|69:68|76:38|76:38|126:99|126:99|120:133|120:133|130:149|137:167,1,207.000003948212,0|0,3:2|3:2,0:2:0:0:
104,254,17123,1,0,0:2:0:0:
104,254,17242,1,10,3:2:0:0:
299,337,17480,6,0,B|278:327|278:327|277:322|277:322|243:305|189:309|189:309|186:305|186:305|160:344|117:349,1,207.000003948212,0|0,3:2|3:2,0:2:0:0:
0,200,18194,2,0,B|-5:175|4:155|4:155|3:150|3:150|15:124|37:110,1,103.500001974106,10|0,3:2|3:2,0:2:0:0:
212,228,18670,6,0,B|322:214|322:214|327:218|327:218|389:209,1,175.499991966248,2|0,3:2|0:2,0:2:0:0:
462,242,19147,2,0,B|454:211|433:191|433:191|432:185|432:185|395:246|433:294,1,175.499991966248,10|0,3:2|0:2,0:2:0:0:
512,320,19623,6,0,B|447:283|399:336|399:340|399:344|369:383|324:380,1,207.000003948212,2|10,3:2|3:2,0:2:0:0:
217,298,20337,1,0,3:2:0:0:
79,384,20575,1,2,3:2:0:0:
79,384,20813,1,0,3:2:0:0:
243,281,21051,1,10,3:2:0:0:
75,199,21290,6,0,B|99:153|89:102|89:102|104:97|104:97|108:78|120:61,1,155.250002961159,0|0,3:2|0:2,0:2:0:0:
33,28,21766,1,8,3:2:0:0:
196,116,22004,1,10,3:2:0:0:
277,68,22242,1,0,3:2:0:0:
225,258,22480,1,10,3:2:0:0:
193,99,22718,1,0,3:2:0:0:
298,222,22956,2,0,L|323:226,1,25.8750004935265,10|8,3:2|0:2,0:2:0:0:
481,249,23194,1,0,3:2:0:0:
293,384,23432,6,0,P|218:336|131:348,1,180,4|10,3:2|0:2,0:2:0:0:
17,292,24147,1,0,0:2:0:0:
17,292,24385,2,0,P|6:249|22:207,1,90,2|0,3:2|0:2,0:2:0:0:
128,135,24861,2,0,B|203:141|203:141|211:147|211:147|260:150,1,135,10|0,0:2|0:2,0:2:0:0:
279,145,25337,6,0,B|293:103|293:103|279:59,1,90,0|0,3:2|0:2,0:2:0:0:
369,0,25813,2,0,B|355:42|355:42|368:85,1,90,8|0,0:2|0:2,0:2:0:0:
512,128,26290,1,2,3:2:0:0:
440,41,26528,1,0,3:2:0:0:
418,189,26766,6,2,L|432:254,1,67.5,10|0,0:2|0:2,0:2:0:0:
437,277,27242,6,0,P|401:354|316:350,1,180,2|10,3:2|0:2,0:2:0:0:
230,264,27956,1,0,0:2:0:0:
134,379,28194,2,0,P|90:366|45:366,1,90,2|0,3:2|0:2,0:2:0:0:
230,264,28670,2,0,B|231:213|231:213|234:210|234:210|235:176,1,90,10|0,0:2|0:2,0:2:0:0:
115,28,29147,6,0,B|89:-5|89:-5|72:27|82:68|82:68|80:78|80:78|98:97|104:124,1,180,2|10,3:2|0:2,0:2:0:0:
235,175,29861,1,8,0:3:0:0:
359,125,30099,1,8,0:3:0:0:
474,171,30337,1,4,0:3:0:0:
500,262,30575,1,4,0:3:0:0:
253,64,31051,5,4,3:2:0:0:
163,38,31290,1,0,0:2:0:0:
265,73,31528,1,10,0:2:0:0:
113,160,31766,2,0,P|156:147|199:134,2,90,0|2|0,0:2|3:2|0:2,0:2:0:0:
23,106,32480,1,10,0:2:0:0:
7,241,32718,1,0,0:2:0:0:
7,241,32837,1,0,0:2:0:0:
7,241,32956,6,0,B|45:215|82:245|82:245|87:243|87:243|107:303|180:289,1,180,2|10,3:2|0:2,0:2:0:0:
181,132,33670,2,0,B|151:162|151:162|182:231,1,90,0|2,0:2|3:2,0:2:0:0:
350,232,34147,1,0,0:2:0:0:
265,186,34385,1,10,0:2:0:0:
229,276,34623,1,0,0:2:0:0:
344,146,34861,6,0,B|330:102|330:102|326:97|326:97|314:48,1,90,2|0,3:2|0:2,0:2:0:0:
430,223,35337,1,8,0:2:0:0:
471,105,35575,2,0,P|479:139|487:167,1,45,2|0,0:2|0:2,0:2:0:0:
422,240,35813,2,0,B|413:276|413:276|409:281|409:281|395:325,1,90,0|0,3:2|0:2,0:2:0:0:
227,259,36290,2,0,B|254:240|254:240|280:237|321:265,1,90,10|0,0:2|0:2,0:2:0:0:
431,113,36766,5,0,3:2:0:0:
298,159,37004,2,0,L|371:178,1,45,2|0,0:2|0:2,0:2:0:0:
329,0,37242,2,0,P|343:47|361:118,1,90,8|0,0:2|0:2,0:2:0:0:
220,202,37718,6,0,B|200:161|213:132|213:132|212:123|212:123|225:84|259:67,1,155.250002961159,2|0,3:2|0:2,0:2:0:0:
329,0,38194,2,0,B|312:32|273:45|273:45|264:44|264:44|235:57|194:37,1,155.250002961159,10|0,0:2|0:2,0:2:0:0:
113,19,38670,5,4,3:2:0:0:
139,114,38909,1,0,0:2:0:0:
104,15,39147,1,10,0:2:0:0:
0,103,39385,2,0,P|42:115|68:151,2,90,0|2|0,0:2|3:2|0:2,0:2:0:0:
49,246,40099,1,10,0:2:0:0:
159,161,40337,1,0,0:2:0:0:
159,161,40456,1,0,0:2:0:0:
159,161,40575,6,0,B|147:200|145:236|145:236|150:249|150:249|137:296|129:355,1,180,2|10,3:2|0:2,0:2:0:0:
281,384,41290,2,0,P|266:326|255:272,1,90,0|2,0:2|3:2,0:2:0:0:
391,187,41766,1,0,0:2:0:0:
441,265,42004,1,10,0:2:0:0:
367,321,42242,1,0,0:2:0:0:
291,177,42480,6,0,B|303:137|303:137|301:130|301:130|315:87,1,90,2|0,3:2|0:2,0:2:0:0:
225,50,42956,1,8,0:2:0:0:
378,26,43194,2,0,B|339:-2|339:-2|288:6,1,90,2|0,0:2|3:2,0:2:0:0:
178,122,43670,1,0,0:2:0:0:
64,92,43909,2,0,L|80:152,1,45,10|0,0:2|0:2,0:2:0:0:
214,21,44147,6,0,B|185:144,1,90,0|0,0:2|3:2,0:2:0:0:
294,176,44623,2,0,P|265:191|235:208,1,45,2|0,0:2|0:2,0:2:0:0:
158,250,44861,1,8,0:2:0:0:
235,330,45099,1,0,0:2:0:0:
71,275,45337,6,0,B|59:242|73:212|73:212|120:177|97:120,1,135,2|0,3:2|0:2,0:2:0:0:
8,104,45813,2,0,B|41:92|71:106|71:106|106:153|163:130,1,135,10|0,0:2|0:2,0:2:0:0:
240,75,46290,5,6,3:2:0:0:
201,226,46528,1,2,3:2:0:0:
165,382,46766,2,0,L|175:343,1,36,2|8,3:2|0:2,0:2:0:0:
84,256,47480,5,2,0:2:0:0:
165,209,47718,1,0,3:2:0:0:
268,330,47956,6,0,L|259:287,1,36,6|2,3:2|3:2,0:2:0:0:
314,192,48670,1,2,3:2:0:0:
231,142,48909,1,2,0:2:0:0:
226,127,49028,1,2,0:2:0:0:
221,108,49147,2,0,B|242:86|242:86|278:80|314:113,1,90,10|2,0:2|0:2,0:2:0:0:
436,194,49623,1,2,0:2:0:0:
475,73,49861,1,2,0:2:0:0:
327,205,50099,5,4,3:2:0:0:
488,316,50337,1,8,0:2:0:0:
476,282,50456,1,8,0:2:0:0:
464,248,50575,1,8,0:2:0:0:
453,208,50694,1,8,0:2:0:0:
442,167,50813,1,4,3:2:0:0:
301,297,51051,5,8,0:3:0:0:
309,267,51170,1,8,0:3:0:0:
317,238,51290,1,8,0:3:0:0:
327,205,51409,1,8,0:3:0:0:
335,177,51528,1,4,3:2:0:0:
190,268,51766,6,0,L|173:210,1,45,8|8,0:3|0:3,0:0:0:0:
223,138,52004,1,8,0:3:0:0:
232,163,52123,1,8,0:3:0:0:
240,185,52242,1,4,3:2:0:0:
75,165,52480,6,0,L|91:83,1,45,4|4,0:3|0:3,0:3:0:0:
120,60,52718,2,0,L|106:133,1,45,4|4,0:3|0:3,0:3:0:0:
60,242,52956,5,6,3:2:0:0:
128,223,53075,1,2,0:2:0:0:
196,205,53194,1,2,3:2:0:0:
279,45,53432,5,14,0:2:0:0:
231,31,53551,1,2,0:2:0:0:
182,17,53670,1,2,3:2:0:0:
367,144,53909,5,2,3:2:0:0:
186,197,54147,1,2,3:2:0:0:
13,245,54385,1,2,3:2:0:0:
186,197,54623,6,0,L|182:218,1,18,0|8,0:2|0:2,0:2:0:0:
257,297,55099,1,2,0:2:0:0:
204,368,55337,1,0,3:2:0:0:
101,238,55575,6,0,L|108:276,1,36,6|2,3:2|3:2,0:2:0:0:
217,184,56290,1,2,3:2:0:0:
113,140,56528,1,2,3:2:0:0:
207,265,56766,2,0,B|231:271|231:271|276:249|276:249|317:257,1,90,10|2,0:2|3:2,0:2:0:0:
435,322,57242,1,2,0:2:0:0:
292,374,57480,1,2,3:2:0:0:
373,160,57718,6,0,B|395:139|405:111|405:111|380:252,1,198.000006042481,10|0,0:2|3:2,0:2:0:0:
209,126,58432,1,8,0:2:0:0:
279,271,58670,5,2,3:2:0:0:
307,99,58909,1,2,3:2:0:0:
134,73,59147,1,10,0:2:0:0:
106,245,59385,1,2,3:2:0:0:
355,226,59623,5,10,0:2:0:0:
320,198,59742,1,8,0:2:0:0:
273,194,59861,1,10,0:2:0:0:
231,216,59980,1,8,0:2:0:0:
207,261,60099,1,10,0:2:0:0:
179,306,60218,1,8,0:2:0:0:
126,321,60337,1,10,0:2:0:0:
67,314,60456,1,8,0:2:0:0:
35,254,60575,1,10,0:2:0:0:
306,316,61051,6,0,L|300:292,1,18,4|0,0:3|0:0,0:0:0:0:
333,229,61528,5,6,3:2:0:0:
466,255,61766,1,0,3:2:0:0:
344,221,62004,1,10,3:2:0:0:
470,269,62242,6,0,B|465:240|479:212|479:212|478:206|478:206|516:165|503:109,1,168.75,0|0,0:2|2:2,0:2:0:0:
492,90,62718,2,0,B|435:96|435:96|433:101|433:101|382:108,1,112.5,0|10,0:2|0:2,0:2:0:0:
255,39,63194,1,0,0:2:0:0:
129,187,63432,5,2,0:2:0:0:
129,187,63670,1,0,0:2:0:0:
264,145,63909,2,0,B|277:101|277:101|254:38,1,112.5,10|0,0:2|0:2,0:2:0:0:
41,135,64385,6,0,B|75:156|87:198|87:198|84:205|84:205|93:249|71:284,1,168.75,2|0,0:2|2:2,0:2:0:0:
22,339,64861,2,0,B|43:305|85:293|85:293|92:296|92:296|136:287|171:309,1,168.75,14|0,0:2|2:2,0:2:0:0:
221,364,65337,5,6,0:2:0:0:
334,275,65575,1,0,0:2:0:0:
433,342,65813,1,10,0:2:0:0:
317,263,66051,2,0,B|322:197|322:197|326:194|326:194|329:152,1,112.5,0|2,0:2|0:2,0:2:0:0:
256,36,66528,1,0,0:2:0:0:
256,36,66766,1,10,0:2:0:0:
177,163,67004,1,0,0:0:0:0:
331,135,67242,6,0,B|416:126|416:126|420:121|420:121|496:114,1,168.75,2|0,0:2|2:2,0:2:0:0:
512,111,67718,2,0,B|518:92|527:72|527:72|510:41|502:6,1,112.5,10|0,0:2|0:2,0:2:0:0:
315,137,68194,2,0,B|309:156|300:176|300:176|317:207|324:241,1,112.5,2|4,0:2|0:2,0:2:0:0:
471,342,68670,1,10,0:2:0:0:
509,263,68909,1,0,0:2:0:0:
358,347,69147,6,0,P|303:351|253:326,1,112.5,6|0,0:2|0:2,0:2:0:0:
196,204,69623,1,10,0:2:0:0:
77,349,69861,2,0,B|93:315|87:269|87:269|81:268|81:268|72:224|39:200,1,168.75,0|0,0:2|2:2,0:2:0:0:
20,191,70337,2,0,B|26:124|26:124|29:119|29:119|34:78,1,112.5,0|10,0:2|0:2,0:2:0:0:
143,0,70813,1,0,0:2:0:0:
263,101,71051,5,2,0:2:0:0:
263,101,71290,1,0,0:2:0:0:
169,147,71528,2,0,B|278:130|278:130|282:133|282:133|336:125,1,168.75,10|0,0:2|2:2,0:2:0:0:
373,62,72004,6,0,P|366:116|395:163,1,112.5,2|0,0:2|0:2,0:2:0:0:
512,114,72480,2,0,P|519:59|490:12,1,112.5,10|0,0:2|0:2,0:2:0:0:
476,191,72956,6,0,B|432:242|451:325|451:325|425:286|384:279,1,225,2|10,0:2|0:2,0:2:0:0:
176,348,73670,1,0,0:2:0:0:
369,371,73909,2,0,B|318:379|318:379|314:375|314:375|259:384,1,112.5,2|0,0:2|0:2,0:2:0:0:
95,307,74385,1,10,0:2:0:0:
95,307,74623,1,0,0:2:0:0:
181,170,74861,5,2,0:2:0:0:
63,64,75099,1,12,0:2:0:0:
15,229,75337,1,14,0:2:0:0:
84,161,75575,1,0,0:2:0:0:
218,184,75813,1,14,0:2:0:0:
336,114,76051,5,0,0:2:0:0:
328,75,76170,1,0,0:2:0:0:
320,36,76290,1,14,0:2:0:0:
439,212,76528,2,0,L|427:267,1,56.25,8|8,0:2|0:2,0:2:0:0:
355,328,76766,6,0,P|296:312|236:300,1,121.500000463486,6|0,0:2|0:2,0:2:0:0:
251,313,77123,1,0,0:2:0:0:
266,328,77242,1,10,0:2:0:0:
126,301,77480,1,0,0:2:0:0:
141,314,77599,1,0,0:2:0:0:
156,329,77718,1,2,0:2:0:0:
15,301,77956,1,0,0:2:0:0:
30,314,78075,1,0,0:2:0:0:
45,329,78194,1,10,0:2:0:0:
183,208,78432,6,0,B|152:143|211:103|213:105|215:107|281:67|260:-3,1,243.000000926971,0|0,0:2|0:2,0:2:0:0:
174,20,79028,1,0,0:2:0:0:
174,20,79147,1,10,0:2:0:0:
258,176,79385,5,0,0:2:0:0:
288,172,79504,1,0,0:2:0:0:
318,168,79623,1,2,0:2:0:0:
458,95,79861,1,0,0:2:0:0:
428,99,79980,1,0,0:2:0:0:
398,103,80099,1,14,0:2:0:0:
250,197,80337,1,0,0:2:0:0:
280,193,80456,1,0,0:2:0:0:
310,189,80575,5,6,0:2:0:0:
163,124,80813,1,0,0:2:0:0:
56,243,81051,2,0,P|47:302|72:357,2,121.500000463486,10|0|2,0:2|0:2|0:2,0:2:0:0:
178,113,81766,1,0,0:2:0:0:
139,22,82004,1,10,0:2:0:0:
270,129,82242,6,0,B|358:121|358:121|376:132|376:132|449:125,1,182.250000695229,0|0,0:2|2:2,0:2:0:0:
512,168,82718,2,0,B|529:118|529:118|497:57,1,121.500000463486,0|10,0:2|0:2,0:2:0:0:
351,158,83194,1,0,0:2:0:0:
226,50,83432,5,2,0:2:0:0:
118,125,83670,1,0,0:2:0:0:
71,120,83790,1,0,0:2:0:0:
34,91,83909,1,14,0:2:0:0:
231,3,84147,1,0,0:2:0:0:
226,50,84266,1,0,0:2:0:0:
197,87,84385,5,6,0:2:0:0:
34,91,84623,2,0,B|40:145|48:199|48:199|62:210|62:210|69:264|77:325,1,243.000000926971,0|0,0:2|0:2,0:2:0:0:
63,313,85218,1,0,0:2:0:0:
49,301,85337,1,2,0:2:0:0:
198,325,85575,1,0,0:2:0:0:
184,313,85694,1,0,0:2:0:0:
170,301,85813,1,10,0:2:0:0:
318,324,86051,6,0,B|365:298|427:311|427:311|433:318|433:318|462:321|494:345,1,182.250000695229,0|0,0:2|2:2,0:2:0:0:
506,360,86528,1,0,0:2:0:0:
389,275,86766,1,10,0:2:0:0:
501,165,87004,5,0,0:2:0:0:
505,137,87123,1,0,0:2:0:0:
509,109,87242,1,2,0:2:0:0:
418,14,87480,5,0,0:2:0:0:
366,0,87599,1,0,0:2:0:0:
314,8,87718,1,14,0:2:0:0:
268,34,87837,1,0,0:2:0:0:
225,66,87956,1,0,0:2:0:0:
175,80,88075,1,0,0:2:0:0:
123,72,88194,5,6,0:2:0:0:
20,142,88432,2,0,P|29:170|32:201,1,60.7500002317429,0|0,0:2|0:2,0:2:0:0:
0,270,88670,2,0,P|50:238|108:246,1,121.500000463486,10|0,0:2|0:2,0:2:0:0:
123,257,89028,1,0,0:2:0:0:
131,272,89147,1,2,0:2:0:0:
236,267,89385,1,0,0:2:0:0:
238,285,89504,1,0,0:2:0:0:
233,301,89623,1,10,0:2:0:0:
310,363,89861,1,0,0:2:0:0:
298,377,89980,1,0,0:2:0:0:
283,384,90099,1,2,0:2:0:0:
68,320,90337,5,0,0:2:0:0:
142,214,90575,1,10,0:2:0:0:
7,113,90813,1,0,0:2:0:0:
11,141,90932,1,0,0:2:0:0:
15,169,91051,1,2,0:2:0:0:
159,223,91290,5,0,0:2:0:0:
181,202,91409,1,0,0:2:0:0:
227,184,91528,1,10,0:2:0:0:
277,189,91647,1,0,0:2:0:0:
325,223,91766,1,0,0:2:0:0:
350,280,91885,1,0,0:2:0:0:
348,340,92004,5,4,3:2:0:0:
256,192,92123,12,0,93790,0:0:0:0:
348,340,93909,5,8,0:2:0:0:
362,341,93988,1,8,0:2:0:0:
376,339,94067,1,8,0:2:0:0:
391,335,94147,1,8,0:2:0:0:
405,327,94226,1,8,0:2:0:0:
416,319,94305,1,8,0:3:0:0:
427,308,94385,2,0,P|432:286|432:264,2,45,8|4|4,0:3|0:3|0:3,0:0:0:0:
508,125,94861,5,8,0:2:0:0:
472,151,94980,1,8,0:3:0:0:
428,159,95099,1,8,0:3:0:0:
385,150,95218,2,0,L|374:180,1,22.5,4|4,0:3|0:3,0:0:0:0:
348,123,95337,1,4,0:3:0:0:
35,280,95813,5,4,3:2:0:0:
35,280,96051,2,0,B|63:244|52:187|52:187|57:183|57:183|58:140|88:116,1,180,0|0,0:2|0:2,0:2:0:0:
184,98,96647,1,0,0:2:0:0:
184,98,96766,2,0,P|119:92|85:37,1,135,2|0,3:2|0:2,0:2:0:0:
85,28,97182,1,0,0:2:0:0:
86,20,97242,1,10,0:2:0:0:
87,116,97480,1,0,0:2:0:0:
247,45,97718,5,2,3:2:0:0:
301,50,97837,1,0,0:2:0:0:
355,55,97956,2,0,L|400:61,2,30,0|0|0,0:2|0:2|0:2,0:2:0:0:
446,15,98194,1,10,0:2:0:0:
512,125,98432,1,0,0:2:0:0:
406,252,98670,6,0,P|401:274|402:297,1,45,2|0,3:2|0:2,0:2:0:0:
459,356,98909,2,0,P|480:360|503:359,1,45,0|0,3:2|0:2,0:2:0:0:
336,340,99147,6,2,P|302:338|270:346,1,67.5,10|0,0:2|2:2,0:2:0:0:
119,294,99623,5,2,3:2:0:0:
119,294,99861,2,0,B|151:245|151:245|122:127,1,180,0|0,0:2|0:2,0:2:0:0:
46,68,100456,1,0,0:0:0:0:
46,68,100575,1,2,3:2:0:0:
209,76,100813,1,8,0:3:0:0:
8,68,101051,1,10,0:2:0:0:
144,0,101290,1,4,0:3:0:0:
308,102,101528,6,0,P|330:166|316:231,1,135,2|0,3:2|2:2,0:2:0:0:
265,289,102004,1,10,0:2:0:0:
370,166,102242,1,8,0:3:0:0:
495,318,102480,5,8,0:3:0:0:
478,202,102718,1,4,0:3:0:0:
461,86,102956,1,4,0:3:0:0:
269,282,103432,5,4,3:2:0:0:
295,190,103670,1,0,0:2:0:0:
257,296,103909,1,10,0:2:0:0:
140,240,104147,2,0,P|102:246|47:261,2,90,0|2|0,0:2|3:2|0:2,0:2:0:0:
239,104,104861,1,10,0:2:0:0:
155,142,105099,1,0,0:2:0:0:
315,236,105337,5,2,3:2:0:0:
225,195,105575,1,0,0:2:0:0:
366,140,105813,1,10,0:2:0:0:
293,254,106051,2,0,B|279:269|270:290|270:290|289:315|301:349,1,90,0|2,0:2|3:2,0:2:0:0:
446,259,106528,2,0,B|450:243|469:218|469:218|460:197|446:182,2,90,0|10|0,0:2|0:2|0:2,0:2:0:0:
267,168,107242,6,0,B|302:176|302:176|307:181|307:181|351:194,1,90,2|0,3:2|0:2,0:2:0:0:
418,107,107718,1,8,0:2:0:0:
298,18,107956,2,0,B|317:63|317:63|322:64|322:64|353:135,1,90,2|0,0:2|3:2,0:2:0:0:
272,205,108432,1,0,0:2:0:0:
429,180,108670,2,0,P|368:198|371:260,1,135,10|0,0:2|2:2,0:2:0:0:
443,296,109147,5,0,3:2:0:0:
344,346,109385,2,0,L|409:371,1,45,2|0,0:2|0:2,0:2:0:0:
271,216,109623,5,8,0:2:0:0:
371,260,109861,1,0,0:2:0:0:
229,347,110099,6,0,B|239:305|216:281|216:281|221:277|221:277|179:235|210:164,1,155.250002961159,2|0,3:2|2:2,0:2:0:0:
124,137,110575,2,0,B|134:179|111:203|111:203|116:207|116:207|74:249|105:320,1,155.250002961159,10|0,0:2|2:2,0:2:0:0:
28,340,111051,5,4,3:2:0:0:
129,384,111290,1,0,0:2:0:0:
34,352,111528,1,10,0:2:0:0:
177,276,111766,2,0,B|204:290|204:290|219:327|215:375,2,90,0|2|0,0:2|3:2|0:2,0:2:0:0:
47,225,112480,1,10,0:2:0:0:
165,155,112718,1,0,0:2:0:0:
165,155,112837,1,0,0:2:0:0:
165,155,112956,5,2,3:2:0:0:
48,110,113194,1,0,0:2:0:0:
145,243,113432,1,10,0:2:0:0:
238,191,113670,2,0,B|247:143|247:143|245:141|245:141|260:73,1,90,0|2,0:2|3:2,0:2:0:0:
205,22,114147,1,0,0:2:0:0:
335,87,114385,2,0,P|317:34|276:14,1,90,10|0,0:2|0:2,0:2:0:0:
314,216,114861,5,2,3:2:0:0:
430,144,115099,1,0,0:2:0:0:
501,203,115337,1,8,0:2:0:0:
307,227,115575,5,2,0:2:0:0:
451,278,115813,2,0,P|462:321|474:364,1,90,0|0,3:2|0:2,0:2:0:0:
222,346,116290,6,0,B|257:317|290:334|290:334|325:338|361:298,1,135,10|0,0:2|2:2,0:2:0:0:
383,242,116766,1,0,3:2:0:0:
248,179,117004,2,0,L|262:236,1,45,2|0,0:2|0:2,0:2:0:0:
353,119,117242,1,8,0:2:0:0:
348,141,117361,1,0,0:2:0:0:
344,161,117480,1,0,0:2:0:0:
158,169,117718,6,0,B|159:132|192:103|192:103|196:106|196:106|234:73|301:98,1,155.250002961159,2|0,3:2|2:2,0:2:0:0:
348,141,118194,1,8,0:2:0:0:
198,367,118670,5,6,3:2:0:0:
101,233,118909,1,2,3:2:0:0:
8,101,119147,2,0,L|31:135,1,36,2|8,3:2|0:2,0:2:0:0:
231,38,119861,5,2,0:2:0:0:
202,130,120099,1,0,3:2:0:0:
289,254,120337,6,0,L|326:268,1,36,6|2,3:2|3:2,0:2:0:0:
510,342,121051,5,2,3:2:0:0:
439,248,121290,1,2,0:2:0:0:
510,131,121528,2,0,B|518:112|520:82|520:82|505:68|495:50,1,90,10|2,0:2|0:2,0:2:0:0:
339,0,122004,2,0,P|275:21|208:29,1,135,2|0,0:2|0:2,0:2:0:0:
197,41,122480,5,4,3:2:0:0:
304,126,122718,1,8,0:2:0:0:
358,117,122837,1,8,0:2:0:0:
408,142,122956,1,8,0:2:0:0:
432,190,123075,1,8,0:2:0:0:
426,245,123194,1,4,3:2:0:0:
323,320,123432,5,8,0:3:0:0:
293,313,123551,1,8,0:3:0:0:
263,306,123670,1,8,0:3:0:0:
233,299,123790,1,8,0:3:0:0:
203,292,123909,1,4,3:2:0:0:
35,171,124147,5,8,0:3:0:0:
58,163,124266,1,8,0:3:0:0:
81,155,124385,2,0,L|75:197,1,36,8|8,0:3|0:3,0:0:0:0:
66,278,124623,1,4,3:2:0:0:
277,372,124861,6,0,L|271:336,1,36,4|4,0:3|0:3,0:0:0:0:
242,271,125099,2,0,L|247:306,1,36,4|4,0:3|0:3,0:0:0:0:
298,182,125337,5,2,3:2:0:0:
375,196,125456,1,2,0:2:0:0:
452,210,125575,1,2,3:2:0:0:
301,76,125813,5,10,0:2:0:0:
255,84,125932,1,2,0:2:0:0:
209,93,126051,1,2,3:2:0:0:
415,49,126290,5,2,3:2:0:0:
452,210,126528,1,2,3:2:0:0:
489,371,126766,1,2,3:2:0:0:
345,320,127004,6,0,L|362:315,1,18,0|8,0:2|0:2,0:0:0:0:
241,291,127480,1,2,0:2:0:0:
241,291,127718,1,0,3:0:0:0:
68,384,127956,6,0,L|57:348,1,36,6|0,3:2|3:0,0:0:0:0:
63,147,128670,1,2,3:2:0:0:
112,248,128909,1,2,0:2:0:0:
248,161,129147,6,0,B|222:154|202:128|202:128|188:137|180:152,1,90,10|2,0:2|3:2,0:0:0:0:
275,73,129623,1,2,0:2:0:0:
354,145,129861,1,2,3:2:0:0:
310,303,130099,5,10,0:2:0:0:
428,252,130337,1,0,3:0:0:0:
512,351,130575,1,0,3:0:0:0:
297,285,130813,5,10,0:2:0:0:
179,234,131051,1,0,3:0:0:0:
95,333,131290,1,0,3:0:0:0:
288,306,131528,5,10,0:2:0:0:
302,170,131766,1,0,0:0:0:0:
181,57,132004,5,10,0:2:0:0:
210,90,132123,1,8,0:2:0:0:
256,102,132242,1,10,0:2:0:0:
301,88,132361,1,8,0:2:0:0:
332,48,132480,1,10,0:2:0:0:
368,8,132599,1,8,0:2:0:0:
423,3,132718,1,10,0:2:0:0:
479,20,132837,1,8,0:2:0:0:
501,84,132956,1,10,0:2:0:0:
501,84,133432,6,0,B|452:89|430:50|426:42|422:34|402:-6|357:0,1,175.499991966248,4|0,0:3|0:0,0:0:0:0:
266,36,133909,5,6,0:2:0:0:
226,169,134147,1,0,0:2:0:0:
278,44,134385,1,10,0:2:0:0:
372,191,134623,2,0,B|363:138|363:138|358:138|358:138|346:70,1,112.5,0|2,0:2|0:2,0:2:0:0:
265,246,135099,2,0,B|239:202|175:198|175:198|178:205|178:205|160:235|136:240,1,168.75,0|0,0:2|2:2,0:2:0:0:
112,243,135575,1,0,0:2:0:0:
204,319,135813,5,2,0:2:0:0:
204,319,136051,1,0,0:2:0:0:
57,184,136290,2,0,P|19:233|39:284,1,112.5,10|0,0:2|0:2,0:2:0:0:
214,128,136766,6,0,B|177:122|149:108|149:108|122:113|122:113|89:98|26:86,1,168.75,2|0,0:2|2:2,0:2:0:0:
21,22,137242,2,0,B|36:59|32:98|32:98|45:114|45:114|44:155|68:215,1,168.75,10|0,0:2|2:2,0:2:0:0:
0,252,137718,5,6,0:2:0:0:
120,340,137956,2,0,B|103:307|103:307|121:257|133:238,1,112.5,0|10,0:2|0:2,0:2:0:0:
0,163,138432,2,0,B|85:197|76:98|171:145,1,168.75,0|0,0:2|2:2,0:2:0:0:
170,162,138909,1,0,0:2:0:0:
304,87,139147,1,10,0:2:0:0:
199,41,139385,1,0,0:2:0:0:
280,202,139623,6,0,B|293:258|293:258|297:263|297:263|303:287|318:360,1,112.5,2|0,0:2|0:2,0:2:0:0:
446,114,140099,2,0,B|433:170|433:170|429:175|429:175|423:199|408:272,1,112.5,10|0,0:2|0:2,0:2:0:0:
211,149,140575,6,0,B|246:121|243:73|243:73|262:115|336:131,1,168.75,2|0,0:2|2:2,0:2:0:0:
325,119,141051,5,10,0:2:0:0:
443,72,141290,1,0,0:2:0:0:
278,203,141528,5,6,0:2:0:0:
429,267,141766,1,0,0:2:0:0:
271,215,142004,1,10,0:2:0:0:
450,186,142242,2,0,B|425:178|406:159|406:159|370:178|359:226,1,112.5,0|2,0:2|0:2,0:2:0:0:
235,322,142718,2,0,B|260:326|277:343|277:343|309:268|239:208,1,168.75,0|0,0:2|2:2,0:2:0:0:
232,207,143194,1,0,0:2:0:0:
144,328,143432,5,2,0:2:0:0:
144,328,143670,1,0,0:2:0:0:
61,181,143909,2,0,P|104:237|143:226,1,112.5,10|0,0:2|0:2,0:2:0:0:
189,69,144385,6,0,B|175:61|160:22|160:22|157:99|130:160,1,168.75,6|0,0:2|2:2,0:2:0:0:
214,183,144861,2,0,B|230:216|233:293|233:293|248:254|262:246,1,168.75,14|0,0:2|2:2,0:2:0:0:
318,309,145337,6,0,B|202:333|150:345,1,168.75,6|0,0:2|2:2,0:2:0:0:
139,360,145813,2,0,B|113:336|113:336|122:304|133:229,1,112.5,10|0,0:2|0:2,0:2:0:0:
156,67,146290,5,2,0:2:0:0:
252,164,146528,1,0,0:2:0:0:
369,86,146766,1,10,0:2:0:0:
252,181,147004,2,0,B|229:210|229:210|242:238|260:309,1,112.5,0|2,0:2|0:2,0:2:0:0:
459,372,147480,5,12,0:2:0:0:
401,194,147718,1,14,0:2:0:0:
359,275,147956,1,0,0:2:0:0:
512,227,148194,5,14,0:2:0:0:
449,109,148432,1,0,0:2:0:0:
419,96,148551,1,0,0:2:0:0:
387,87,148670,2,0,L|325:108,1,56.25,14|0,0:2|0:2,0:2:0:0:
302,175,148909,2,0,L|246:158,1,56.25,0|0,0:2|0:2,0:2:0:0:
140,38,149147,6,0,B|175:72|155:121|155:121|150:123|150:123|127:186|181:225,1,182.250000695229,6|0,0:2|2:2,0:2:0:0:
230,243,149623,1,10,0:2:0:0:
76,279,149861,1,0,0:2:0:0:
80,264,149980,1,0,0:2:0:0:
85,244,150099,1,2,0:2:0:0:
191,361,150337,1,0,0:2:0:0:
187,346,150456,1,0,0:2:0:0:
182,326,150575,1,10,0:2:0:0:
15,206,150813,6,0,B|102:220|102:220|107:218|107:218|219:239,1,182.250000695229,0|0,0:2|2:2,0:2:0:0:
263,192,151290,1,0,0:2:0:0:
390,120,151528,1,10,0:2:0:0:
467,206,151766,1,0,0:2:0:0:
372,336,152004,6,0,B|360:314|349:303|349:303|357:270|376:191,1,121.500000463486,2|0,0:2|0:2,0:2:0:0:
449,187,152361,1,0,0:2:0:0:
457,196,152480,2,0,B|469:174|480:163|480:163|472:130|453:51,1,121.500000463486,14|0,0:2|0:2,0:2:0:0:
231,114,152956,6,0,B|357:142|357:142|324:145|307:170,1,182.250000695229,6|0,0:2|2:2,0:2:0:0:
241,192,153432,1,10,0:2:0:0:
381,254,153670,1,0,0:2:0:0:
376,234,153790,1,0,0:2:0:0:
372,219,153909,1,2,0:2:0:0:
228,270,154147,1,0,0:2:0:0:
224,285,154266,1,0,0:2:0:0:
219,305,154385,1,10,0:2:0:0:
396,357,154623,6,0,B|363:314|300:323|300:323|302:326|302:326|289:376|226:380,1,182.250000695229,0|0,0:2|2:2,0:2:0:0:
219,305,155099,1,0,0:2:0:0:
114,198,155337,1,10,0:2:0:0:
16,288,155575,1,0,0:2:0:0:
31,277,155694,1,0,0:2:0:0:
47,260,155813,2,0,P|31:185|17:129,1,121.500000463486,2|0,0:2|0:2,0:2:0:0:
176,68,156290,5,14,0:2:0:0:
143,176,156528,1,0,0:2:0:0:
0,52,156766,5,6,0:2:0:0:
0,52,157004,2,0,P|88:82|96:123,1,121.500000463486,0|10,0:2|0:2,0:2:0:0:
29,245,157480,1,0,0:2:0:0:
14,234,157599,1,0,0:2:0:0:
0,224,157718,2,0,B|-18:205|-18:205|24:161|90:187,1,121.500000463486,2|0,0:2|0:2,0:2:0:0:
126,232,158075,1,0,0:2:0:0:
119,250,158194,1,10,0:2:0:0:
185,61,158432,6,0,B|193:122|203:140|203:140|202:171|202:171|218:206|223:267,1,182.250000695229,0|0,0:2|2:2,0:2:0:0:
261,303,158909,1,0,0:2:0:0:
386,198,159147,1,10,0:2:0:0:
292,131,159385,1,0,0:2:0:0:
356,309,159623,6,0,B|375:282|394:281|394:281|485:308,1,121.500000463486,2|0,0:2|0:2,0:2:0:0:
500,223,159980,1,0,0:2:0:0:
507,209,160099,1,14,0:2:0:0:
471,195,160218,1,0,0:2:0:0:
432,211,160337,1,0,0:2:0:0:
305,38,160575,5,2,0:2:0:0:
456,115,160813,1,0,0:2:0:0:
354,180,161051,2,0,B|364:125|364:125|367:123|367:123|382:45,1,121.500000463486,10|0,0:2|0:2,0:2:0:0:
303,38,161409,1,0,0:2:0:0:
283,33,161528,2,0,P|247:77|291:134,1,121.500000463486,2|0,0:2|0:2,0:2:0:0:
338,170,161885,1,0,0:2:0:0:
331,190,162004,1,10,0:2:0:0:
165,253,162242,6,0,B|212:231|249:266|249:266|246:271|246:271|295:323|357:278,1,182.250000695229,0|0,0:2|2:2,0:2:0:0:
390,252,162718,1,0,0:2:0:0:
219,361,162956,2,0,B|167:349|167:349|160:351|160:351|81:335,1,121.500000463486,14|0,0:2|0:2,0:2:0:0:
23,161,163432,5,2,0:2:0:0:
130,131,163670,1,12,0:2:0:0:
2,292,163909,1,14,0:2:0:0:
107,357,164147,1,0,0:2:0:0:
31,177,164385,6,0,B|21:85,1,90,4|0,3:2|3:0,0:0:0:0:
21,189,165099,1,0,3:0:0:0:
143,288,165337,2,0,P|186:284|214:250,1,90,10|0,0:2|3:0,0:0:0:0:
277,148,166051,6,0,B|265:65|265:65|269:61|269:61|263:14,1,135.000005149842,4|0,3:2|3:0,0:0:0:0:
370,85,166766,1,0,3:0:0:0:
370,85,167004,1,0,0:0:0:0:
352,221,167242,2,0,P|384:226|415:213,1,67.5000025749208,10|0,0:2|3:0,0:0:0:0:
466,151,167718,1,0,0:0:0:0:
349,74,167956,5,0,3:0:0:0:
333,81,168036,1,0,3:0:0:0:
317,88,168115,1,0,3:0:0:0:
301,95,168194,6,0,B|225:79|225:79|217:87|217:87|127:67,1,180,4|0,3:2|0:0,0:0:0:0:
0,120,168909,1,0,3:0:0:0:
38,2,169147,2,0,B|58:27|58:27|50:42|49:61,1,67.5000025749208,10|0,0:2|0:0,0:0:0:0:
11,179,169623,2,0,B|-9:154|-9:154|-1:138|0:119,1,67.5000025749208,0|4,3:0|3:2,0:0:0:0:
139,85,170099,5,0,0:0:0:0:
190,193,170337,2,0,P|171:220|161:253,1,67.5000025749208,0|0,3:0|3:0,0:0:0:0:
164,332,170813,1,0,3:0:0:0:
296,382,171051,5,8,0:2:0:0:
347,294,171290,1,8,0:3:0:0:
429,261,171528,1,4,0:3:0:0:
512,270,171766,1,4,0:3:0:0:
436,384,172004,6,0,B|395:353|401:291|446:262|448:279|496:250|496:181|453:150,1,270,4|0,3:2|3:0,0:0:0:0:
506,8,172956,2,0,P|466:28|422:36,1,90,10|0,0:2|3:0,0:0:0:0:
312,137,173670,6,0,B|282:101|237:97|237:97|232:91|232:91|184:97|156:126,1,180,4|0,3:2|3:0,0:0:0:0:
0,77,174385,1,0,3:0:0:0:
0,77,174623,1,0,0:0:0:0:
153,0,174861,1,10,0:2:0:0:
61,162,175099,6,0,L|69:262,1,90,0|0,3:0|3:0,0:0:0:0:
172,363,175813,6,0,B|243:388|295:329|282:319|342:253|412:278,1,270,4|0,3:2|3:0,0:0:0:0:
512,384,176766,2,0,B|488:373|475:346|475:346|478:305|504:272,1,135.000005149842,10|0,0:2|3:0,0:0:0:0:
449,147,177480,1,0,3:0:0:0:
449,147,177956,5,10,0:2:0:0:
512,0,178194,1,8,0:2:0:0:
428,69,178432,1,0,3:0:0:0:
512,202,178670,5,10,0:2:0:0:
411,277,178909,1,0,3:0:0:0:
313,145,179147,1,10,0:2:0:0:
267,114,179266,1,8,0:2:0:0:
211,115,179385,1,8,0:2:0:0:
169,148,179504,1,8,0:2:0:0:
152,201,179623,6,0,L|162:237,2,37.5,2|0|0,3:2|0:2|0:2,0:2:0:0:
233,273,179861,2,0,L|243:237,2,37.5,2|0|0,3:2|0:2|0:2,0:2:0:0:
154,323,180099,6,0,P|126:317|102:297,1,56.25,10|0,0:2|0:2,0:2:0:0:
252,370,180337,1,2,3:2:0:0:
261,358,180397,1,0,0:0:0:0:
273,351,180456,1,0,0:0:0:0:
287,346,180516,1,0,0:0:0:0:
302,346,180575,6,0,B|359:351|387:291|389:285|392:279|417:222|479:229,1,225,2|8,3:2|0:2,0:2:0:0:
395,323,181290,1,0,3:2:0:0:
252,258,181528,6,0,P|261:221|262:184,1,75,2|0,3:2|0:2,0:2:0:0:
283,160,181766,2,0,P|274:123|273:86,1,75,2|0,3:2|0:2,0:2:0:0:
256,60,182004,1,10,0:2:0:0:
368,15,182163,5,2,0:2:0:0:
351,41,182242,2,0,P|299:57|252:28,1,112.5,2|0,3:2|3:2,0:2:0:0:
397,146,182718,6,0,P|443:117|495:133,1,112.5,2|10,3:2|0:2,0:2:0:0:
490,123,183036,1,0,0:2:0:0:
485,112,183115,1,0,0:2:0:0:
480,100,183194,2,0,P|491:75|493:47,1,56.25,2|0,3:2|0:2,0:2:0:0:
320,136,183432,5,2,3:2:0:0:
320,136,183551,1,2,0:2:0:0:
319,136,183670,2,0,P|319:163|330:189,1,56.25,2|0,3:2|0:2,0:2:0:0:
413,246,183909,2,0,P|394:266|369:279,1,56.25,10|0,0:2|0:2,0:2:0:0:
338,370,184147,2,0,P|319:349|294:336,1,56.25,2|0,3:2|0:2,0:2:0:0:
184,274,184385,6,0,P|160:289|133:294,1,56.25,2|0,3:2|0:2,0:2:0:0:
4,253,184623,1,2,3:2:0:0:
8,231,184702,1,0,0:2:0:0:
12,209,184782,1,0,0:2:0:0:
16,187,184861,6,0,L|8:142,1,45,10|0,0:2|0:2,0:2:0:0:
99,74,185051,2,0,L|91:118,2,45,2|0|0,0:2|0:2|0:2,0:2:0:0:
6,51,185337,6,0,P|15:25|34:3,1,56.25,2|0,3:2|0:2,0:2:0:0:
198,60,185575,1,2,3:2:0:0:
207,49,185635,1,0,0:0:0:0:
218,40,185694,1,0,0:0:0:0:
230,34,185754,1,0,0:0:0:0:
243,31,185813,6,0,P|264:37|279:45,2,37.5,10|0|0,0:2|0:2|0:2,0:2:0:0:
352,58,186051,2,0,P|346:79|338:94,2,37.5,2|0|0,3:2|0:2|0:2,0:2:0:0:
352,168,186290,5,2,3:2:0:0:
333,170,186369,1,0,0:2:0:0:
316,178,186448,1,0,0:2:0:0:
302,191,186528,2,0,L|306:228,2,37.5,2|0|0,3:2|0:2|0:2,0:2:0:0:
261,292,186766,5,10,0:2:0:0:
282,277,186845,1,0,0:2:0:0:
306,272,186924,1,0,0:2:0:0:
330,277,187004,1,2,3:2:0:0:
350,291,187083,1,0,0:2:0:0:
362,313,187162,1,0,0:2:0:0:
365,338,187242,6,0,B|318:300|250:309|250:309|242:295|242:295|182:300|137:289,1,243.000000926971,6|8,3:2|0:2,0:1:0:0:
0,198,187956,1,0,3:2:0:0:
58,364,188194,2,0,B|52:324|52:324|56:321|56:321|50:276,1,90,0|0,3:2|3:2,0:2:0:0:
143,53,188670,5,10,0:2:0:0:
199,152,188909,1,2,3:2:0:0:
34,44,189147,2,0,P|141:41|240:0,1,215.999993408203,2|10,3:2|0:2,0:2:0:0:
445,144,189861,1,0,3:2:0:0:
265,112,190099,5,2,3:2:0:0:
380,17,190337,1,0,3:2:0:0:
346,185,190575,1,10,0:2:0:0:
246,97,190813,2,0,L|205:142,1,53.9999983520508,2|2,3:2|3:2,0:2:0:0:
64,282,191051,5,6,3:2:0:0:
73,144,191290,1,0,3:2:0:0:
132,329,191528,2,0,B|162:328|193:345|193:345|195:351|195:351|215:347|233:351,1,107.999996704102,10|0,0:2|3:2,0:2:0:0:
459,335,192004,5,2,3:2:0:0:
419,222,192242,1,0,3:2:0:0:
306,262,192480,1,10,0:2:0:0:
346,375,192718,1,0,3:2:0:0:
430,201,192956,5,2,3:2:0:0:
279,337,193194,1,10,0:2:0:0:
507,254,193432,2,0,B|513:227|534:207|534:207|528:177|509:160,1,107.999996704102,10|0,0:2|3:2,0:2:0:0:
456,0,193909,5,10,0:2:0:0:
315,106,194147,1,2,3:2:0:0:
347,112,194266,1,2,3:2:0:0:
379,118,194385,5,10,0:2:0:0:
207,25,194623,1,2,3:2:0:0:
159,34,194742,1,2,3:2:0:0:
111,43,194861,6,0,B|130:89|130:89|105:131|104:184,1,121.500000463486,10|2,0:2|0:2,0:2:0:0:
52,213,195218,1,2,0:2:0:0:
83,232,195337,1,10,0:2:0:0:
18,87,195575,1,2,0:2:0:0:
189,174,195813,6,0,B|170:220|170:220|195:262|196:315,1,121.500000463486,8|2,0:2|0:2,0:2:0:0:
244,347,196170,1,2,0:2:0:0:
213,366,196290,1,10,0:2:0:0:
285,207,196528,6,0,B|336:190|368:227|368:227|373:221|373:221|402:262|480:246,1,182.250000695229,2|0,0:2|0:2,0:2:0:0:
510,192,197004,1,2,0:2:0:0:
479,171,197123,1,2,0:2:0:0:
439,166,197242,1,10,0:2:0:0:
304,289,197480,1,2,0:2:0:0:
222,88,197718,5,10,0:2:0:0:
338,161,197956,1,2,0:2:0:0:
341,173,198036,1,2,1:2:0:0:
345,183,198115,1,2,1:2:0:0:
349,196,198194,1,14,0:2:0:0:
191,276,198432,2,0,L|202:216,1,60.7500002317429,2|0,0:2|0:2,0:2:0:0:
243,107,198670,6,0,B|189:119|189:119|187:115|187:115|127:129,1,121.500000463486,14|2,0:2|0:2,0:2:0:0:
56,106,199028,1,2,0:2:0:0:
46,134,199147,1,10,0:2:0:0:
112,31,199385,1,2,0:2:0:0:
184,201,199623,6,0,B|237:213|237:213|239:209|239:209|299:223,1,121.500000463486,10|2,0:2|0:2,0:2:0:0:
371,191,199981,1,2,0:2:0:0:
377,218,200100,1,10,0:2:0:0:
283,356,200337,6,0,B|266:376|266:376|262:328|300:306|300:306|312:260|287:229|270:204,1,182.250000695229,2|0,0:2|0:2,0:2:0:0:
226,190,200813,1,2,0:2:0:0:
206,221,200932,1,2,0:2:0:0:
212,257,201051,1,10,0:2:0:0:
356,168,201290,2,0,P|313:154|280:144,1,60.7500002317429,2|0,0:2|0:2,0:2:0:0:
176,52,201528,5,14,0:2:0:0:
208,66,201647,1,0,0:2:0:0:
244,59,201766,1,2,0:2:0:0:
266,36,201885,1,0,0:2:0:0:
295,14,202004,1,14,0:2:0:0:
331,13,202123,1,0,0:2:0:0:
361,28,202242,2,0,P|354:62|348:95,1,60.7500002317429,2|0,0:2|0:2,0:2:0:0:
219,146,202480,5,14,0:2:0:0:
227,169,202599,1,0,0:2:0:0:
236,195,202718,1,2,0:2:0:0:
242,221,202837,1,0,0:2:0:0:
249,251,202956,2,0,P|258:284|266:313,1,60.7500002317429,10|0,0:2|0:2,0:2:0:0:
154,353,203194,2,0,P|163:320|171:291,1,60.7500002317429,2|0,0:2|0:2,0:2:0:0:
106,194,203432,5,10,0:2:0:0:
144,185,203551,1,0,0:2:0:0:
186,178,203670,1,2,0:2:0:0:
227,169,203790,1,0,0:2:0:0:
270,162,203909,2,0,L|343:147,1,60.7500002317429,10|0,0:2|0:2,0:2:0:0:
410,293,204147,5,2,0:2:0:0:
378,259,204266,1,0,0:2:0:0:
381,213,204385,1,8,0:2:0:0:
413,180,204504,1,0,0:2:0:0:
424,147,204623,1,2,0:2:0:0:
413,115,204742,1,0,0:2:0:0:
391,98,204861,6,0,P|339:109|300:116,1,60.7500002317429,10|0,0:2|0:2,0:2:0:0:
269,202,205099,2,0,P|239:195|209:189,1,60.7500002317429,2|0,0:2|0:2,0:2:0:0:
225,39,205337,6,0,P|244:102|254:135,1,60.7500002317429,10|0,0:2|0:2,0:2:0:0:
110,203,205575,1,2,0:2:0:0:
113,192,205655,1,2,1:2:0:0:
116,182,205734,1,2,1:2:0:0:
120,171,205813,2,0,P|128:141|137:112,1,60.7500002317429,14|0,0:2|0:2,0:2:0:0:
231,248,206051,2,0,P|222:218|213:189,1,60.7500002317429,2|0,0:2|0:2,0:2:0:0:
65,308,206290,5,14,0:2:0:0:
47,287,206409,1,0,0:2:0:0:
44,260,206528,1,2,0:2:0:0:
55,237,206647,1,0,0:2:0:0:
77,224,206766,2,0,L|146:238,1,60.7500002317429,10|0,0:2|0:2,0:2:0:0:
201,333,207004,2,0,L|132:347,1,60.7500002317429,2|0,0:2|0:2,0:2:0:0:
225,182,207242,6,0,P|234:211|243:241,1,60.7500002317429,14|0,0:2|0:2,0:2:0:0:
323,310,207480,2,0,L|329:280,2,30.3750001158714,10|8|8,0:2|0:2|0:2,0:2:0:0:
442,257,207718,5,10,0:2:0:0:
433,238,207837,1,8,0:2:0:0:
413,202,207956,2,0,L|324:183,1,60.7500002317429,10|8,0:2|0:2,0:2:0:0:
224,104,208194,5,8,0:3:0:0:
233,144,208313,1,8,0:3:0:0:
241,177,208432,1,8,0:3:0:0:
251,213,208551,1,8,0:3:0:0:
262,250,208670,5,8,0:3:0:0:
271,215,208789,1,8,0:3:0:0:
278,182,208908,1,8,0:3:0:0:
286,141,209027,1,8,0:3:0:0:
294,101,209147,5,4,0:3:0:0:
313,87,209266,1,4,0:3:0:0:
336,87,209385,1,4,0:3:0:0:
357,92,209504,1,4,0:3:0:0:
372,107,209623,6,0,P|369:128|350:155,1,45,4|4,0:3|0:3,0:0:0:0:
279,60,209861,2,0,P|282:81|301:108,1,45,4|4,0:3|0:3,0:0:0:0:
209,223,213909,5,0,3:0:0:0:
82,353,214147,1,8,0:2:0:0:
141,340,214266,1,8,0:2:0:0:
200,328,214385,1,8,0:2:0:0:
259,316,214504,1,8,0:2:0:0:
318,305,214623,1,0,3:0:0:0:
509,357,214861,5,8,0:3:0:0:
476,342,214980,1,8,0:3:0:0:
455,312,215099,1,8,0:3:0:0:
449,276,215218,1,8,0:3:0:0:
459,241,215337,1,12,0:3:0:0:
314,51,215575,5,4,0:3:0:0:
317,68,215694,1,4,0:3:0:0:
320,85,215813,1,4,0:3:0:0:
323,102,215932,1,4,0:3:0:0:
326,119,216051,1,4,0:3:0:0:
329,136,216170,1,4,0:3:0:0:
332,153,216290,5,8,0:2:0:0:
352,93,216409,1,8,0:2:0:0:
318,39,216528,1,8,0:2:0:0:
257,22,216647,1,8,0:2:0:0:
204,56,216766,1,8,0:2:0:0:
204,56,217242,6,0,L|208:68,1,13.5,4|0,0:3|0:0,0:0:0:0:
335,170,217718,5,6,3:2:0:0:
216,159,217956,1,0,0:2:0:0:
363,172,218194,1,10,0:2:0:0:
168,231,218432,2,0,B|202:261|198:316|198:316|187:317|187:317|178:364|140:373,1,182.250000695229,0|0,0:2|0:2,0:2:0:0:
58,384,218909,2,0,B|60:352|40:327|40:327|43:323|43:323|20:294|23:261,1,121.500000463486,0|10,0:2|0:2,0:2:0:0:
64,151,219385,1,0,0:2:0:0:
224,294,219623,5,2,0:2:0:0:
342,283,219861,1,0,0:2:0:0:
507,176,220099,2,0,B|450:168|450:168|447:172|447:172|372:163,1,121.500000463486,10|0,0:2|0:2,0:2:0:0:
233,5,220575,6,0,B|251:13|267:31|267:31|265:35|265:35|291:70|281:114|281:114|283:118|283:118|276:147|263:160,1,182.250000695229,2|0,0:2|0:2,0:2:0:0:
193,184,221051,2,0,B|175:176|159:158|159:158|161:154|161:154|135:119|145:75|145:75|143:71|143:71|150:42|162:28,1,182.250000695229,14|0,0:2|0:2,0:2:0:0:
310,87,221528,5,6,0:2:0:0:
257,246,221766,2,0,P|254:306|287:356,1,121.500000463486,0|10,0:2|0:2,0:2:0:0:
475,287,222242,2,0,L|354:279,2,121.500000463486,0|2|0,0:2|0:2|0:2,0:2:0:0:
226,317,222956,1,10,0:2:0:0:
226,317,223194,1,0,0:2:0:0:
9,176,223432,6,0,P|76:230|61:316,1,182.250000695229,2|0,0:2|0:2,0:2:0:0:
0,359,223909,1,10,0:2:0:0:
108,215,224147,1,0,0:2:0:0:
249,337,224385,2,0,P|307:336|346:290,1,121.500000463486,2|4,0:2|0:2,0:2:0:0:
405,108,224861,1,10,0:2:0:0:
486,216,225099,1,0,0:2:0:0:
356,44,225337,5,6,0:2:0:0:
378,216,225575,1,0,0:2:0:0:
332,32,225813,1,10,0:2:0:0:
228,160,226051,2,0,B|171:150|171:150|159:157|159:157|110:148,1,121.500000463486,0|2,0:2|0:2,0:2:0:0:
0,116,226528,2,0,B|9:58|87:61|92:119|92:119|101:222,1,243.000000926971,0|0,0:2|0:2,0:2:0:0:
72,384,227242,5,2,0:2:0:0:
0,286,227480,1,0,0:2:0:0:
155,346,227718,2,0,P|215:344|259:303,1,121.500000463486,10|0,0:2|0:2,0:2:0:0:
468,376,228194,6,0,B|419:348|413:281|413:281|422:286|422:286|414:223|474:192,1,182.250000695229,6|0,0:2|0:2,0:2:0:0:
476,143,228670,2,0,B|525:171|531:238|531:238|522:233|522:233|530:296|470:327,1,182.250000695229,14|0,0:2|0:2,0:2:0:0:
351,238,229147,5,6,0:2:0:0:
373,134,229385,1,0,0:2:0:0:
258,24,229623,1,10,0:2:0:0:
154,46,229861,1,0,0:2:0:0:
0,162,230099,5,2,0:2:0:0:
104,140,230337,1,0,0:2:0:0:
126,244,230575,1,10,0:2:0:0:
22,266,230813,1,0,0:2:0:0:
13,281,230932,1,0,0:2:0:0:
27,303,231051,5,14,0:2:0:0:
123,348,231290,1,0,0:2:0:0:
348,250,231528,5,14,0:2:0:0:
252,295,231767,1,0,0:2:0:0:
0,162,232004,5,14,0:2:0:0:
44,193,232123,1,8,0:2:0:0:
96,207,232243,1,0,0:2:0:0:
86,181,232361,1,0,0:2:0:0:
111,170,232480,5,14,0:2:0:0:
45,288,232718,1,0,0:2:0:0:
60,95,232956,6,0,B|152:81|152:81|160:87|160:87|261:72,1,195.750005973816,6|0,0:2|0:2,0:2:0:0:
318,113,233432,1,10,0:2:0:0:
199,179,233670,1,0,0:2:0:0:
219,163,233789,1,0,0:2:0:0:
246,151,233909,1,2,0:2:0:0:
369,236,234147,1,0,0:2:0:0:
339,219,234267,1,0,0:2:0:0:
323,199,234386,1,10,0:2:0:0:
234,342,234623,6,0,B|229:320|195:305|195:305|374:339,1,195.750005973816,0|0,0:2|0:2,0:2:0:0:
399,375,235099,2,0,P|413:320|399:291,1,65.250001991272,0|0,0:2|0:2,0:2:0:0:
355,248,235337,1,10,0:2:0:0:
475,139,235575,1,0,0:2:0:0:
270,66,235813,6,0,B|296:62|331:80|331:80|333:76|333:76|359:90|385:140,1,130.500003982544,2|0,0:2|0:2,0:2:0:0:
355,208,236170,1,0,0:2:0:0:
323,219,236290,2,0,B|297:223|262:205|262:205|260:209|260:209|234:195|208:145,1,130.500003982544,14|0,0:2|0:2,0:2:0:0:
88,9,236766,6,0,B|131:37|132:68|132:68|137:73|137:73|75:123|108:202,1,195.750005973816,6|0,0:2|0:2,0:2:0:0:
54,238,237242,1,10,0:2:0:0:
179,291,237480,1,0,0:2:0:0:
166,266,237599,1,0,0:2:0:0:
142,246,237718,1,2,0:2:0:0:
40,359,237956,1,0,0:2:0:0:
60,335,238075,1,0,0:2:0:0:
85,322,238194,1,10,0:2:0:0:
256,384,238432,6,0,B|243:357|243:357|256:295|256:295|260:293|260:293|272:228|272:228|245:181,1,195.750005973816,0|0,0:2|0:2,0:2:0:0:
193,151,238909,2,0,P|229:122|266:125,1,65.250001991272,0|0,0:2|0:2,0:2:0:0:
324,160,239147,1,10,0:2:0:0:
435,48,239385,1,0,0:2:0:0:
410,29,239504,1,0,0:2:0:0:
379,29,239623,2,0,P|404:125|421:208,1,130.500003982544,2|0,0:2|0:2,0:2:0:0:
475,326,240099,5,14,0:2:0:0:
432,167,240337,1,0,0:2:0:0:
276,257,240575,5,6,0:2:0:0:
276,257,240813,2,0,P|339:242|371:301,1,130.500003982544,0|10,0:2|0:2,0:2:0:0:
244,157,241290,1,0,0:2:0:0:
220,184,241409,1,0,0:2:0:0:
183,179,241528,2,0,B|170:154|170:154|184:96|195:45,1,130.500003982544,2|0,0:2|0:2,0:2:0:0:
264,17,241885,1,0,0:2:0:0:
274,44,242004,1,10,0:2:0:0:
416,159,242242,6,0,B|421:125|447:119|447:119|366:65|319:157,1,195.750005973816,0|0,0:2|0:2,0:2:0:0:
261,182,242718,2,0,P|291:226|289:274,1,65.250001991272,0|0,0:2|0:2,0:2:0:0:
260,318,242956,1,10,0:2:0:0:
405,243,243194,1,0,0:2:0:0:
198,248,243432,6,0,B|139:262|139:262|135:260|135:260|48:279,1,130.500003982544,2|0,0:2|0:2,0:2:0:0:
0,228,243790,1,0,0:2:0:0:
10,198,243909,1,14,0:2:0:0:
57,184,244028,1,0,0:2:0:0:
106,172,244147,1,0,0:2:0:0:
247,60,244385,5,6,0:2:0:0:
88,31,244623,1,0,0:2:0:0:
194,133,244861,2,0,B|211:114|211:114|256:109|325:94,1,130.500003982544,10|0,0:2|0:2,0:2:0:0:
340,26,245218,1,0,0:2:0:0:
374,35,245337,1,2,0:2:0:0:
479,130,245575,5,0,0:2:0:0:
438,125,245694,1,0,0:2:0:0:
400,146,245813,1,10,0:2:0:0:
394,189,245932,1,0,0:2:0:0:
415,228,246051,2,0,P|448:243|457:315,1,65.250001991272,0|0,0:2|0:2,0:2:0:0:
339,358,246290,6,0,P|393:309|394:309,1,65.250001991272,14|0,0:2|0:2,0:2:0:0:
273,164,246528,5,0,0:2:0:0:
295,166,246647,1,0,0:2:0:0:
316,184,246766,2,0,P|322:234|287:263,1,65.250001991272,14|0,0:2|0:2,0:2:0:0:
180,312,247004,5,0,0:2:0:0:
202,310,247123,1,0,0:2:0:0:
221,295,247242,2,0,P|227:245|192:216,1,65.250001991272,14|0,0:2|0:2,0:2:0:0:
71,125,247480,6,0,L|61:87,3,32.625000995636,8|8|8|8,0:2|0:2|0:2|0:2,0:2:0:0:
143,158,247718,5,10,0:2:0:0:
137,201,247837,1,8,0:2:0:0:
127,243,247956,2,0,P|96:259|50:245,1,65.250001991272,8|8,0:2|0:2,0:2:0:0:
228,194,248194,5,14,0:2:0:0:
282,188,248313,1,0,0:2:0:0:
336,182,248432,1,2,0:2:0:0:
390,176,248551,1,0,0:2:0:0:
400,190,248670,6,0,L|335:181,1,65.250001991272,10|0,0:2|0:2,0:2:0:0:
276,225,248909,2,0,L|211:216,1,65.250001991272,2|0,0:2|0:2,0:2:0:0:
313,294,249147,6,0,L|302:98,1,195.750005973816,10|0,0:2|0:2,0:2:0:0:
404,0,249623,2,0,B|389:40|353:44|353:44|327:23|297:28,1,130.500003982544,10|2,0:2|0:2,0:2:0:0:
291,108,249980,1,0,0:2:0:0:
279,117,250099,6,0,L|287:248,1,130.500003982544,10|2,0:2|0:2,0:2:0:0:
242,321,250456,1,0,0:2:0:0:
228,307,250575,2,0,P|286:279|348:292,1,130.500003982544,10|2,0:2|0:2,0:2:0:0:
446,320,250932,1,0,0:2:0:0:
428,338,251051,6,0,L|439:255,1,65.250001991272,8|0,0:2|0:2,0:2:0:0:
416,197,251290,2,0,L|424:261,1,65.250001991272,2|0,0:2|0:2,0:2:0:0:
496,371,251528,2,0,L|513:238,1,130.500003982544,14|2,0:2|0:2,0:2:0:0:
411,38,252004,6,0,P|350:26|312:75,1,130.500003982544,14|2,0:2|0:2,0:2:0:0:
355,149,252361,1,0,0:2:0:0:
369,129,252480,2,0,P|304:121|241:102,1,130.500003982544,10|2,0:2|0:2,0:2:0:0:
112,0,252956,6,0,P|128:28|129:60,1,65.250001991272,10|0,0:2|0:2,0:2:0:0:
81,184,253194,1,2,0:2:0:0:
26,172,253313,1,0,0:2:0:0:
1,121,253432,2,0,P|2:89|19:61,1,65.250001991272,10|0,0:2|0:2,0:2:0:0:
167,149,253670,1,2,0:2:0:0:
167,149,253790,1,0,0:2:0:0:
167,149,253909,6,0,L|151:301,1,130.500003982544,10|2,0:2|0:2,0:2:0:0:
125,356,254266,1,0,0:2:0:0:
109,344,254385,2,0,B|93:327|93:327|150:311|194:346,1,130.500003982544,10|2,0:2|0:2,0:2:0:0:
347,328,254742,1,0,0:2:0:0:
341,346,254861,5,14,0:2:0:0:
312,302,254980,1,0,0:2:0:0:
316,250,255099,1,2,0:2:0:0:
351,211,255218,1,0,0:2:0:0:
402,200,255337,1,14,0:2:0:0:
453,189,255456,1,0,0:2:0:0:
488,150,255575,1,2,0:2:0:0:
492,98,255694,1,0,0:2:0:0:
463,54,255813,6,0,B|420:124|508:178|471:249,1,195.750005973816,14|0,0:2|0:2,0:2:0:0:
412,284,256290,2,0,P|460:262|449:314,1,130.500003982544,10|0,0:2|0:2,0:2:0:0:
252,377,256766,5,10,0:2:0:0:
261,303,256885,1,2,0:2:0:0:
270,229,257004,1,2,0:2:0:0:
178,65,257242,2,0,P|122:39|82:85,1,130.500003982544,10|2,0:2|0:2,0:2:0:0:
14,138,257599,1,0,0:2:0:0:
0,112,257718,5,10,0:2:0:0:
146,149,257956,1,2,0:2:0:0:
9,228,258194,1,10,0:2:0:0:
82,85,258432,1,2,0:2:0:0:
126,275,258670,5,10,0:2:0:0:
126,275,258909,2,0,B|177:251|227:280|216:286|267:318|323:285,1,195.750005973816,2|0,0:2|0:2,0:2:0:0:
382,346,259385,2,0,P|399:318|401:286,1,65.250001991272,2|0,0:2|0:2,0:2:0:0:
499,221,259623,6,0,B|523:192|500:143|446:157|446:157|406:167|406:167|405:173|405:173|385:173|370:180,1,195.750005973816,14|0,0:2|0:2,0:2:0:0:
274,212,260099,1,10,0:2:0:0:
402,286,260337,1,2,0:2:0:0:
459,129,260575,5,10,0:2:0:0:
259,218,260813,1,2,0:2:0:0:
264,191,260932,1,2,0:2:0:0:
269,164,261051,1,14,0:2:0:0:
182,45,261290,2,0,L|174:8,3,32.625000995636,8|8|8|8,0:2|0:2|0:2|0:2,0:2:0:0:
261,75,261528,5,8,0:2:0:0:
310,63,261647,1,8,0:2:0:0:
358,50,261766,1,8,0:2:0:0:
406,37,261885,1,8,0:2:0:0:
454,24,262004,5,8,0:3:0:0:
441,72,262123,1,8,0:3:0:0:
428,120,262242,1,8,0:3:0:0:
415,168,262361,1,12,0:3:0:0:
402,216,262480,6,0,L|383:142,1,65.250001991272,4|4,0:3|0:3,0:3:0:0:
470,253,262718,2,4,L|486:316,1,65.250001991272,4|4,0:3|0:3,0:3:0:0:
345,381,262956,5,4,0:3:0:0:
270,371,263075,1,4,0:3:0:0:
195,361,263194,1,4,0:3:0:0:
120,351,263313,1,4,0:3:0:0:
11,101,263670,6,8,P|31:77|62:67,1,65.250001991272,10|8,0:2|0:2,0:2:0:0:
139,182,263909,2,8,P|107:176|83:154,1,65.250001991272,10|8,0:2|0:2,0:2:0:0:
145,31,264147,2,8,P|155:61|149:92,1,65.250001991272,10|8,0:2|0:2,0:2:0:0:
20,65,264385,2,8,P|49:51|81:55,1,65.250001991272,10|8,0:2|0:2,0:2:0:0:
102,191,264624,2,8,P|76:173|63:143,1,65.250001991272,10|8,0:2|0:2,0:2:0:0:
171,57,264861,1,14,0:2:0:0:
