osu file format v14

[General]
AudioFilename: audio.mp3
AudioLeadIn: 0
PreviewTime: 60918
Countdown: 0
SampleSet: Soft
StackLeniency: 0.7
Mode: 0
LetterboxInBreaks: 0
WidescreenStoryboard: 1

[Editor]
DistanceSpacing: 0.5
BeatDivisor: 4
GridSize: 32
TimelineZoom: 2.15

[Metadata]
Title:Iden Tei Tei Meltdown
TitleUnicode:アイデン貞貞メルトダウン
Artist:Korone Pochi x Nanahira
ArtistUnicode:ころねぽち × ななひら
Creator:Len
Version:tomatas' Hard
Source:お兄ちゃんはおしまい!
Tags:opening op anime Full ver Japanese pop jpop j-pop oniichan wa oshimai im I'm Now Your Sister! おにまい onimai onii-chan identity pmaru-sama. p-maru-sama. fast tomatas95 lude hoto cocoa interlude- amamya kokoro nelitoru hinae eringira
BeatmapID:4075941
BeatmapSetID:1948471

[Difficulty]
HPDrainRate:4
CircleSize:3.5
OverallDifficulty:6
ApproachRate:7.5
SliderMultiplier:1.50000000596047
SliderTickRate:1

[Events]
//Background and Video events
0,0,"ore.jpg",0,0
//Break Periods
2,119981,124956
2,183265,188634
//Storyboard Layer 0 (Background)
//Storyboard Layer 1 (Fail)
//Storyboard Layer 2 (Pass)
//Storyboard Layer 3 (Foreground)
//Storyboard Layer 4 (Overlay)
//Storyboard Sound Samples

[TimingPoints]
556,387.096774193548,4,2,1,60,1,0
556,-111.111111111111,4,2,1,60,0,0
2491,-166.666666666666,4,2,1,60,0,0
4620,-166.666666666666,4,2,2,50,0,0
4814,-125,4,2,2,50,0,0
5201,-83.3333333333333,4,2,10,70,0,0
5297,-83.3333333333333,4,2,1,70,0,0
5588,-90.9090909090909,4,2,1,70,0,0
11394,-83.3333333333333,4,2,1,70,0,0
11781,-90.9090909090909,4,2,1,70,0,0
12555,-83.3333333333333,4,2,1,70,0,0
12942,-90.9090909090909,4,2,1,70,0,0
14104,-83.3333333333333,4,2,1,70,0,0
14491,-90.9090909090909,4,2,1,70,0,0
16039,-76.9230769230769,4,2,1,70,0,0
17201,-90.9090909090909,4,2,1,70,0,0
17588,-125,4,2,2,50,0,0
19910,-125,4,2,2,50,0,0
20685,-100,4,2,2,60,0,0
23781,-125,4,2,2,50,0,0
26103,-125,4,2,2,50,0,0
26878,-100,4,2,2,60,0,0
29975,-111.111111111111,4,2,2,50,0,0
42362,-111.111111111111,4,2,2,60,0,0
48362,-111.111111111111,4,2,2,63,0,0
51459,-111.111111111111,4,2,2,66,0,0
54555,-99.9999999999999,4,2,2,70,0,0
57846,-111.111111111111,4,2,2,60,0,0
59588,-111.111111111111,4,2,2,62,0,0
59781,-111.111111111111,4,2,2,64,0,0
59975,-111.111111111111,4,2,2,66,0,0
60168,-111.111111111111,4,2,2,68,0,0
60362,-111.111111111111,4,2,2,70,0,0
60555,-111.111111111111,4,2,2,72,0,0
60943,-83.3333333333333,4,2,10,80,0,1
61039,-83.3333333333333,4,2,1,80,0,1
73330,-83.3333333333333,4,2,1,85,0,1
76039,-111.111111111111,4,2,3,80,0,1
76426,-83.3333333333333,4,2,10,70,0,0
76523,-83.3333333333333,4,2,1,70,0,0
76813,-90.9090909090909,4,2,1,70,0,0
82620,-83.3333333333333,4,2,1,70,0,0
83007,-90.9090909090909,4,2,1,70,0,0
83781,-83.3333333333333,4,2,1,70,0,0
84168,-90.9090909090909,4,2,1,70,0,0
85330,-83.3333333333333,4,2,1,70,0,0
85717,-90.9090909090909,4,2,1,70,0,0
87265,-76.9230769230769,4,2,1,70,0,0
88426,-90.9090909090909,4,2,1,70,0,0
88813,-125,4,2,2,50,0,0
91135,-125,4,2,2,50,0,0
91910,-100,4,2,2,60,0,0
95007,-125,4,2,2,50,0,0
98104,-100,4,2,2,60,0,0
101201,-111.111111111111,4,2,2,60,0,0
112426,-111.111111111111,4,2,1,60,0,0
113588,-111.111111111111,4,2,2,60,0,0
119781,-111.111111111111,4,2,2,40,0,0
125781,-99.9999999999999,4,2,2,70,0,0
129072,-99.9999999999999,4,2,2,60,0,0
130814,-99.9999999999999,4,2,2,62,0,0
131007,-99.9999999999999,4,2,2,64,0,0
131201,-99.9999999999999,4,2,2,66,0,0
131394,-111.111111111111,4,2,2,68,0,0
131588,-111.111111111111,4,2,2,70,0,0
131781,-111.111111111111,4,2,2,72,0,0
132168,-83.3333333333333,4,2,10,80,0,1
132265,-83.3333333333333,4,2,1,80,0,1
144555,-83.3333333333333,4,2,1,85,0,1
147265,-111.111111111111,4,2,3,80,0,1
147652,-83.3333333333333,4,2,10,70,0,0
147749,-83.3333333333333,4,2,1,70,0,0
152297,-100,4,2,1,70,0,0
153072,-100,4,2,4,70,0,0
153265,-100,4,2,1,70,0,0
153846,-90.9090909090909,4,2,1,70,0,0
158491,-90.9090909090909,4,2,1,80,0,0
160039,-111.111111111111,4,2,2,60,0,0
169330,-111.111111111111,4,2,2,65,0,0
175523,-100,4,2,2,70,0,0
178620,-100,4,2,2,60,0,0
180362,-100,4,2,2,62,0,0
180555,-100,4,2,2,64,0,0
180749,-100,4,2,2,66,0,0
180943,-100,4,2,2,68,0,0
181136,-100,4,2,2,70,0,0
181330,-100,4,2,2,72,0,0
181523,-100,4,2,2,65,0,0
182685,-100,4,2,2,50,0,0
183265,-100,4,2,3,50,0,0
189459,-111.111111111111,4,2,3,40,0,0
191007,-111.111111111111,4,2,3,45,0,0
191781,-111.111111111111,4,2,3,50,0,0
192555,-111.111111111111,4,2,3,52,0,0
192749,-111.111111111111,4,2,3,54,0,0
192943,-111.111111111111,4,2,3,56,0,0
193136,-111.111111111111,4,2,3,58,0,0
193330,-111.111111111111,4,2,3,60,0,0
193523,-111.111111111111,4,2,3,62,0,0
193717,-111.111111111111,4,2,3,64,0,0
193910,-111.111111111111,4,2,3,66,0,0
194104,-111.111111111111,4,2,3,68,0,0
194491,-111.111111111111,4,2,3,69,0,0
194878,-111.111111111111,4,2,3,70,0,0
195072,-111.111111111111,4,2,3,55,0,0
195265,-111.111111111111,4,2,3,60,0,0
195652,-83.3333333333333,4,2,10,80,0,1
195749,-83.3333333333333,4,2,1,80,0,1
208039,-83.3333333333333,4,2,1,85,0,1
217330,-83.3333333333333,4,2,1,90,0,1
218878,-83.3333333333333,4,2,1,90,0,0
219072,-83.3333333333333,4,2,1,60,0,0
220426,-83.3333333333333,4,2,10,70,0,0
220523,-83.3333333333333,4,2,1,70,0,0
220813,-90.9090909090909,4,2,1,70,0,0
226619,-83.3333333333333,4,2,1,70,0,0
227006,-90.9090909090909,4,2,1,70,0,0
227780,-83.3333333333333,4,2,1,70,0,0
228167,-90.9090909090909,4,2,1,70,0,0
229329,-83.3333333333333,4,2,1,70,0,0
229716,-90.9090909090909,4,2,1,70,0,0
231265,-90.9090909090909,4,2,1,50,0,0
232814,-111.111111111111,4,2,1,60,0,0
234749,-166.666666666666,4,2,1,60,0,0
236878,-111.111111111111,4,2,3,60,0,0
237459,-111.111111111111,4,2,10,60,0,0

[Colours]
Combo1 : 255,222,123
Combo2 : 255,140,198
Combo3 : 131,208,245
Combo4 : 205,242,128

[HitObjects]
70,68,556,6,0,L|58:14,1,33.7499991041423,8|8,0:0|0:0,0:0:0:0:
55,225,943,2,0,L|14:262,1,33.7499991041423,8|8,0:0|0:0,0:0:0:0:
199,160,1330,2,0,L|251:176,3,33.7499991041423,8|8|8|8,0:0|0:0|0:0|0:0,0:0:0:0:
113,151,1814,5,8,0:0:0:0:
102,150,1910,2,0,L|25:142,2,67.4999982082847,8|8|8,0:0|0:0|1:3,0:0:0:0:
199,160,2491,6,0,B|214:71|339:55|377:156|332:217|332:217|240:283|315:373,1,449.999988055231,4|8,1:2|0:0,0:0:0:0:
368,302,4620,1,2,0:0:0:0:
368,302,4814,2,0,L|478:319,1,90.0000003576282,2|0,0:0|0:0,0:0:0:0:
469,320,5201,6,0,P|471:266|495:153,1,134.999996416569,12|0,1:1|0:0,0:0:0:0:
490,174,5588,2,0,P|451:158|406:172,1,82.5000028455261,10|0,0:0|0:0,0:0:0:0:
338,222,5975,1,2,1:2:0:0:
252,184,6168,1,2,0:0:0:0:
328,130,6362,2,0,P|324:92|310:25,1,82.5000028455261,8|0,0:2|0:0,0:0:0:0:
221,13,6749,5,0,1:1:0:0:
163,84,6943,1,2,0:0:0:0:
105,13,7136,2,0,P|57:25|2:29,1,82.5000028455261,10|0,0:0|0:0,0:0:0:0:
18,176,7523,5,2,1:2:0:0:
76,105,7717,1,2,0:0:0:0:
134,176,7910,2,0,P|182:164|237:160,1,82.5000028455261,8|0,0:0|0:0,0:0:0:0:
297,120,8297,5,0,1:2:0:0:
337,203,8491,1,2,0:0:0:0:
254,243,8685,2,0,L|272:348,1,82.5000028455261,10|2,0:0|0:0,0:0:0:0:
184,384,9072,2,0,L|166:279,1,82.5000028455261,2|2,1:2|0:0,0:0:0:0:
167,290,9362,1,2,0:0:0:0:
165,277,9459,1,8,0:0:0:0:
79,342,9652,5,2,0:0:0:0:
77,329,9749,1,2,0:0:0:0:
75,316,9846,2,0,L|57:211,1,82.5000028455261,2|2,1:2|0:0,0:0:0:0:
163,264,10233,2,0,L|145:159,1,82.5000028455261,10|2,0:0|0:0,0:0:0:0:
123,84,10620,2,0,B|72:117|72:117|5:87,2,123.750004268289,2|2|2,1:2|0:0|0:0,0:0:0:0:
220,40,11394,6,0,L|242:173,1,134.999996416569,4|0,1:2|0:0,0:0:0:0:
245,185,11781,2,0,P|285:174|328:189,1,82.5000028455261,10|0,0:0|0:0,0:0:0:0:
396,254,12168,1,2,1:2:0:0:
492,225,12362,1,2,0:0:0:0:
419,156,12555,2,0,L|396:22,1,134.999996416569,8|0,0:0|0:0,0:0:0:0:
395,10,12943,6,0,P|356:24|310:13,1,82.5000028455261,0|2,1:2|0:0,0:0:0:0:
273,95,13330,2,0,P|234:80|188:91,1,82.5000028455261,10|0,0:0|0:0,0:0:0:0:
122,29,13717,1,2,1:2:0:0:
34,61,13910,1,2,0:0:0:0:
106,120,14104,2,0,P|98:180|87:260,1,134.999996416569,8|0,0:0|0:0,0:0:0:0:
85,266,14491,6,0,B|45:251|45:251|0:273,1,82.5000028455261,0|2,1:2|0:0,0:0:0:0:
53,347,14878,2,0,B|92:361|92:361|138:340,1,82.5000028455261,10|0,0:0|0:0,0:0:0:0:
233,254,15265,2,0,P|223:315|215:376,2,123.750004268289,2|2|2,1:2|0:0|0:0,0:0:0:0:
193,164,16039,6,0,B|288:130|369:223|319:225|379:335|548:327|607:170|484:49|367:117,1,584.99997554541,4|8,1:2|0:0,0:0:0:0:
286,60,17394,1,2,0:0:0:0:
286,60,17491,1,2,0:0:0:0:
286,60,17588,5,0,1:0:0:0:
286,60,19136,5,0,1:2:0:0:
384,66,19330,1,0,1:2:0:0:
384,66,19910,6,0,P|380:51|378:36,1,30.0000001192094,8|8,0:0|0:0,0:0:0:0:
460,0,20201,2,0,P|467:44|477:88,1,90.0000003576282,8|8,0:0|0:0,0:0:0:0:
406,183,20685,6,0,B|439:169|439:169|476:181,1,75.0000002980235,4|2,1:2|3:2,0:0:0:0:
478,275,21072,2,0,B|444:288|444:288|407:276,1,75.0000002980235,10|0,0:0|3:0,0:0:0:0:
329,231,21459,2,0,L|315:352,2,112.500000447035,2|2|0,1:2|3:2|3:0,0:0:0:0:
235,242,22233,6,0,L|225:320,2,75.0000002980235,2|2|10,1:2|3:2|0:0,0:0:0:0:
272,155,22814,1,2,3:2:0:0:
274,144,22910,1,2,0:0:0:0:
275,132,23007,2,0,P|281:91|289:54,1,75.0000002980235,0|2,1:2|0:0,0:0:0:0:
214,5,23394,1,10,0:1:0:0:
143,66,23588,1,2,0:1:0:0:
72,5,23781,1,0,1:2:0:0:
72,5,25330,5,0,1:2:0:0:
29,88,25523,1,0,1:2:0:0:
29,88,26104,2,0,L|-15:81,4,30.0000001192094,8|8|8|8|8,0:0|0:0|0:0|0:0|0:0,0:0:0:0:
195,147,26878,6,0,P|198:113|209:69,1,75.0000002980235,4|2,1:2|3:2,0:0:0:0:
118,67,27265,2,0,P|113:104|105:140,1,75.0000002980235,10|0,0:2|0:0,0:0:0:0:
125,231,27652,2,0,P|72:223|9:212,2,112.500000447035,2|2|0,1:2|0:0|3:0,0:0:0:0:
93,318,28426,6,0,P|57:312|15:305,2,75.0000002980235,2|2|10,1:2|3:2|0:0,0:0:0:0:
175,359,29007,1,2,3:2:0:0:
180,349,29104,1,10,0:0:0:0:
188,341,29201,2,0,L|198:284,3,37.5000001490117,8|8|10|8,0:0|0:0|0:0|0:0,0:0:0:0:
221,281,29588,2,0,L|231:224,3,37.5000001490117,10|8|8|8,0:0|0:0|0:0|0:0,0:0:0:0:
258,213,29975,6,0,L|111:198,2,134.999996416569,2|2|2,1:2|1:1|1:2,0:0:0:0:
321,274,30943,1,2,0:0:0:0:
321,274,31136,2,0,L|388:280,1,67.4999982082847,10|2,0:0|0:0,0:0:0:0:
476,292,31523,6,0,B|563:254|549:158|492:124|440:145|418:192|440:216,1,269.999992833139,2|0,1:1|1:2,0:0:0:0:
388,280,32491,2,0,L|381:347,2,67.4999982082847,2|10|2,0:0|0:0|0:0,0:0:0:0:
332,216,33072,6,0,P|296:230|254:218,1,67.4999982082847,2|0,1:1|0:0,0:0:0:0:
290,145,33459,2,0,P|259:120|249:78,1,67.4999982082847,2|0,1:2|0:0,0:0:0:0:
330,73,33846,2,0,P|335:34|367:4,1,67.4999982082847,2|0,1:2|0:0,0:0:0:0:
412,71,34233,2,0,P|448:57|490:69,1,67.4999982082847,10|0,0:0|0:0,0:0:0:0:
457,137,34620,6,0,P|467:188|480:250,2,101.249997312427,2|2|2,1:1|0:0|0:0,0:0:0:0:
290,145,35588,2,0,P|298:211|306:278,1,134.999996416569,2|2,0:0|0:0,0:0:0:0:
393,272,36168,6,0,P|384:205|376:138,1,134.999996416569,2|0,1:1|1:2,0:0:0:0:
342,56,36749,2,0,B|289:77|247:38|247:38|203:-1|148:20,1,202.499994624854,2|8,0:0|0:0,0:0:0:0:
192,100,37523,1,2,0:0:0:0:
192,100,37717,6,0,P|184:134|179:176,1,67.4999982082847,2|0,1:1|0:0,0:0:0:0:
261,245,38104,2,0,P|225:248|184:256,1,67.4999982082847,2|0,1:2|0:0,0:0:0:0:
144,355,38491,2,0,P|129:322|109:285,1,67.4999982082847,2|0,1:2|0:0,0:0:0:0:
3,277,38878,2,0,P|29:253|58:223,1,67.4999982082847,10|0,0:0|0:0,0:0:0:0:
91,150,39265,6,0,P|104:94|47:18,1,134.999996416569,2|2,1:1|1:2,0:0:0:0:
22,102,39846,2,0,B|90:130|146:78|146:78|203:26|275:55,1,269.999992833139,2|0,0:0|0:0,0:0:0:0:
233,131,40814,6,0,P|243:194|256:269,1,134.999996416569,2|2,1:2|0:1,0:0:0:0:
349,252,41394,1,2,0:1:0:0:
349,252,41588,2,0,P|338:188|326:114,1,134.999996416569,2|8,0:1|0:0,0:0:0:0:
490,44,42362,6,0,P|441:10|353:36,2,134.999996416569,6|10|2,1:2|0:1|1:2,0:0:0:0:
423,94,43330,1,0,1:2:0:0:
423,94,43523,2,0,P|428:127|434:160,1,67.4999982082847,10|2,0:0|0:0,0:0:0:0:
368,246,43910,6,0,P|434:239|515:232,1,134.999996416569,2|8,1:1|0:0,0:0:0:0:
507,323,44491,2,0,P|441:330|360:337,1,134.999996416569,0|2,1:2|1:2,0:0:0:0:
290,370,45072,1,10,0:0:0:0:
290,370,45265,1,2,0:2:0:0:
219,315,45459,6,0,P|214:278|201:238,1,67.4999982082847,2|0,1:1|0:0,0:0:0:0:
286,207,45846,2,0,P|291:170|304:130,1,67.4999982082847,10|0,0:0|0:0,0:0:0:0:
282,45,46233,2,0,P|248:57|206:55,1,67.4999982082847,2|0,1:2|1:2,0:0:0:0:
203,151,46620,2,0,P|169:139|127:141,1,67.4999982082847,10|0,0:0|0:0,0:0:0:0:
61,103,47007,6,0,L|42:-15,2,101.249997312427,2|2|2,1:2|0:0|1:2,0:0:0:0:
67,187,47781,1,2,0:1:0:0:
35,266,47975,2,0,P|16:264|-10:276,2,33.7499991041423,2|0|10,1:1|0:0|0:1,0:0:0:0:
90,338,48362,6,0,L|234:323,1,134.999996416569,6|2,1:2|1:2,0:0:0:0:
313,315,48943,1,10,0:0:0:0:
344,209,49136,6,0,L|200:194,1,134.999996416569,2|2,1:2|1:2,0:0:0:0:
121,186,49717,1,10,0:0:0:0:
90,80,49910,6,0,L|234:65,1,134.999996416569,2|2,1:2|1:2,0:0:0:0:
316,66,50491,1,10,0:2:0:0:
316,66,50685,2,0,P|311:31|325:-5,2,67.4999982082847,2|0|0,3:2|1:0|1:0,0:0:0:0:
394,41,51265,1,8,0:0:0:0:
440,115,51459,6,0,P|428:174|415:254,1,134.999996416569,6|2,1:2|1:2,0:0:0:0:
392,329,52039,1,10,0:0:0:0:
268,280,52233,6,0,P|279:220|293:141,1,134.999996416569,6|2,1:2|1:2,0:0:0:0:
316,66,52813,1,10,0:0:0:0:
188,81,53007,6,0,P|176:140|163:220,1,134.999996416569,6|2,1:2|1:2,0:0:0:0:
140,295,53587,1,8,0:0:0:0:
140,295,53781,2,0,P|181:303|214:309,2,67.4999982082847,2|0|2,0:0|1:2|1:2,0:0:0:0:
60,345,54362,1,10,0:0:0:0:
57,251,54555,6,0,P|52:198|31:96,1,150.000000596047,6|2,1:2|1:1,0:0:0:0:
31,91,55039,1,2,0:1:0:0:
30,79,55136,2,0,L|109:67,1,75.0000002980235,10|2,0:1|0:1,0:0:0:0:
181,16,55523,5,10,0:1:0:0:
253,82,55716,1,2,1:1:0:0:
187,154,55910,1,10,0:1:0:0:
253,226,56104,1,2,1:1:0:0:
187,298,56297,6,0,L|108:312,1,75.0000002980235,8|2,0:0|0:1,0:0:0:0:
275,336,56685,2,0,L|353:346,1,75.0000002980235,10|2,0:1|0:1,0:0:0:0:
438,364,57072,1,8,0:0:0:0:
491,290,57265,1,2,1:2:0:0:
491,290,57362,1,0,0:0:0:0:
491,290,57459,1,10,0:0:0:0:
439,215,57652,1,2,1:2:0:0:
491,142,57846,6,0,B|446:130|446:130|423:108|423:108|365:98,1,134.999996416569,2|8,1:2|0:0,0:0:0:0:
283,22,58426,1,2,1:2:0:0:
256,132,58620,2,0,P|267:186|284:283,1,134.999996416569,2|8,1:2|0:0,0:0:0:0:
169,338,59201,6,0,P|157:271|143:205,1,134.999996416569,2|2,1:2|1:2,0:0:0:0:
123,115,59781,1,2,1:0:0:0:
55,177,59975,1,2,1:0:0:0:
35,87,60168,2,0,L|43:10,1,67.4999982082847,2|2,1:0|1:1,0:0:0:0:
137,0,60555,2,0,L|125:112,1,101.249997312427,0|0,1:0|0:0,0:0:0:0:
123,115,60943,6,0,B|166:132|166:132|219:110,1,89.9999976110462,14|2,1:0|0:0,0:0:0:0:
257,40,61330,2,0,B|300:23|300:23|353:45,1,89.9999976110462,10|2,0:0|0:0,0:0:0:0:
436,9,61717,1,2,1:2:0:0:
509,77,61910,1,2,0:0:0:0:
509,77,62104,1,10,0:0:0:0:
487,175,62297,6,0,L|291:152,1,179.999995222092,2|2,0:0|0:0,0:0:0:0:
333,243,62878,2,0,L|422:253,1,89.9999976110462,10|2,0:0|0:0,0:0:0:0:
411,342,63265,2,0,L|321:331,1,89.9999976110462,2|2,1:2|0:0,0:0:0:0:
230,367,63652,1,10,0:0:0:0:
158,310,63846,1,2,0:0:0:0:
243,277,64039,6,0,P|239:227|226:174,1,89.9999976110462,0|2,1:0|0:1,0:0:0:0:
225,175,64330,1,2,0:1:0:0:
218,161,64426,2,0,P|262:157|326:152,1,89.9999976110462,10|2,0:1|0:0,0:0:0:0:
378,86,64814,1,2,1:2:0:0:
299,31,65007,1,2,0:1:0:0:
286,34,65104,1,2,0:1:0:0:
272,36,65201,2,0,P|228:40|164:45,1,89.9999976110462,8|2,0:0|0:0,0:0:0:0:
65,21,65588,6,0,P|83:61|81:106,1,89.9999976110462,2|0,1:2|0:0,0:0:0:0:
162,142,65975,2,0,P|136:178|96:198,1,89.9999976110462,10|0,0:0|0:0,0:0:0:0:
8,164,66362,1,2,1:2:0:0:
23,258,66555,1,2,0:1:0:0:
112,293,66749,2,0,L|212:306,1,89.9999976110462,10|0,0:1|1:0,0:0:0:0:
214,308,67039,1,8,0:0:0:0:
227,310,67136,6,0,P|229:267|215:212,1,89.9999976110462,6|2,1:2|0:2,0:0:0:0:
326,140,67523,2,0,P|316:183|317:228,1,89.9999976110462,10|2,0:2|0:2,0:0:0:0:
344,322,67910,1,2,1:2:0:0:
438,345,68104,1,2,0:2:0:0:
505,276,68297,1,10,0:2:0:0:
411,253,68491,6,0,L|440:51,1,179.999995222092,2|2,0:0|0:2,0:0:0:0:
377,10,69072,2,0,P|333:27|287:16,1,89.9999976110462,10|2,0:2|0:2,0:0:0:0:
256,105,69459,2,0,P|214:88|171:96,1,89.9999976110462,2|2,1:2|0:2,0:0:0:0:
107,25,69846,1,10,0:2:0:0:
13,44,70039,1,2,0:2:0:0:
77,115,70233,6,0,L|58:220,1,89.9999976110462,0|2,1:0|0:1,0:0:0:0:
59,217,70523,1,2,0:1:0:0:
57,230,70620,1,10,0:1:0:0:
9,309,70814,2,0,P|52:323|95:311,1,89.9999976110462,2|0,0:1|1:2,0:0:0:0:
147,237,71201,1,2,0:1:0:0:
148,222,71297,1,2,0:1:0:0:
150,209,71394,1,10,0:1:0:0:
211,139,71588,1,2,0:1:0:0:
241,226,71781,6,0,P|282:236|339:212,1,89.9999976110462,2|2,1:2|0:2,0:0:0:0:
381,299,72168,2,0,P|410:268|417:207,1,89.9999976110462,10|2,0:2|0:2,0:0:0:0:
509,212,72555,2,0,P|497:171|447:134,1,89.9999976110462,2|2,1:1|0:1,0:0:0:0:
373,141,72943,2,0,L|361:47,1,89.9999976110462,10|0,0:1|1:2,0:0:0:0:
360,38,73233,1,8,0:0:0:0:
355,25,73330,6,0,P|309:31|250:48,1,89.9999976110462,4|2,1:2|0:0,0:0:0:0:
167,108,73717,1,10,0:0:0:0:
266,174,73910,1,2,0:0:0:0:
167,240,74104,2,0,P|177:303|190:383,2,134.999996416569,10|2|2,0:0|0:0|1:2,0:0:0:0:
167,108,74878,6,0,P|125:125|68:111,1,89.9999976110462,2|2,1:2|0:0,0:0:0:0:
266,174,75265,2,0,P|308:191|365:177,1,89.9999976110462,10|2,0:0|0:0,0:0:0:0:
167,240,75652,2,0,P|125:257|68:243,1,89.9999976110462,14|0,0:0|0:0,0:0:0:0:
258,308,76039,6,0,P|305:297|361:320,1,101.249997312427,8|0,0:0|0:0,0:0:0:0:
360,325,76426,6,0,B|396:339|424:312|424:312|455:286|492:300,1,134.999996416569,12|0,1:1|0:0,0:0:0:0:
495,304,76814,2,0,P|498:264|512:206,1,82.5000028455261,10|0,0:0|0:0,0:0:0:0:
499,127,77201,1,2,1:2:0:0:
413,85,77394,1,2,0:0:0:0:
334,139,77588,2,0,B|296:151|296:151|243:133,1,82.5000028455261,8|0,0:2|0:0,0:0:0:0:
155,27,77975,5,0,1:1:0:0:
127,115,78168,1,2,0:0:0:0:
99,203,78362,2,0,L|13:190,1,82.5000028455261,10|0,0:0|0:0,0:0:0:0:
186,182,78749,5,2,1:2:0:0:
214,270,78942,1,2,0:0:0:0:
242,358,79136,2,0,L|328:345,1,82.5000028455261,8|0,0:0|0:0,0:0:0:0:
480,297,79523,5,0,1:2:0:0:
414,366,79717,1,2,0:0:0:0:
387,274,79910,2,0,P|379:228|365:159,1,82.5000028455261,10|2,0:0|0:0,0:0:0:0:
443,100,80297,2,0,P|450:140|457:181,1,82.5000028455261,2|2,1:2|0:0,0:0:0:0:
461,194,80588,1,2,0:0:0:0:
463,207,80685,1,8,0:0:0:0:
387,274,80878,1,2,0:0:0:0:
375,270,80975,1,2,0:0:0:0:
363,266,81072,6,0,L|272:254,1,82.5000028455261,2|2,1:2|0:0,0:0:0:0:
236,333,81459,2,0,L|145:321,1,82.5000028455261,10|2,0:0|0:0,0:0:0:0:
107,254,81846,2,0,P|71:302|82:362,2,123.750004268289,2|2|2,1:2|0:0|0:0,0:0:0:0:
208,189,82620,6,0,P|152:180|68:167,1,134.999996416569,4|0,1:2|0:0,0:0:0:0:
62,165,83007,2,0,P|64:123|35:72,1,82.5000028455261,10|0,0:0|0:0,0:0:0:0:
101,6,83394,1,2,1:2:0:0:
144,92,83588,1,2,0:0:0:0:
197,12,83781,2,0,L|339:32,1,134.999996416569,8|0,0:0|0:0,0:0:0:0:
342,34,84168,6,0,L|321:129,1,82.5000028455261,0|2,1:2|0:0,0:0:0:0:
397,189,84555,2,0,L|418:94,1,82.5000028455261,10|0,0:0|0:0,0:0:0:0:
441,13,84943,1,2,1:2:0:0:
510,84,85136,1,2,0:0:0:0:
488,182,85330,2,0,L|453:337,1,134.999996416569,8|0,0:0|0:0,0:0:0:0:
457,326,85717,6,0,B|413:333|413:333|365:307,1,82.5000028455261,0|2,1:2|0:0,0:0:0:0:
319,381,86104,2,0,B|290:346|290:346|289:292,1,82.5000028455261,10|0,0:0|0:0,0:0:0:0:
228,236,86491,2,0,P|283:211|340:233,2,123.750004268289,2|2|2,1:2|0:0|0:0,0:0:0:0:
142,288,87265,6,0,B|169:205|58:166|55:168|53:171|-45:186|-41:-9|67:-27|188:45|125:96|214:210|72:148|4:194|5:274|39:306,1,584.99997554541,4|0,1:2|0:0,0:0:0:0:
103,369,88620,1,0,0:0:0:0:
103,369,88717,1,0,0:0:0:0:
103,369,88814,5,0,1:0:0:0:
220,336,89007,1,0,1:0:0:0:
220,336,89588,5,0,1:0:0:0:
133,252,89781,1,0,1:0:0:0:
133,252,90362,5,0,1:0:0:0:
220,168,90555,1,0,1:0:0:0:
220,168,91137,5,0,1:0:0:0:
133,84,91330,1,0,1:0:0:0:
133,84,91910,6,0,B|93:96|93:96|53:80,1,75.0000002980235,4|2,1:2|3:2,0:0:0:0:
50,193,92297,2,0,B|89:180|89:180|130:197,1,75.0000002980235,10|0,0:0|3:0,0:0:0:0:
220,168,92685,6,0,P|212:230|202:302,2,112.500000447035,2|2|0,1:2|3:2|3:0,0:0:0:0:
232,79,93459,2,0,P|268:88|309:77,1,75.0000002980235,2|2,1:2|3:2,0:0:0:0:
374,21,93846,2,0,P|410:12|451:23,1,75.0000002980235,10|2,0:0|3:2,0:0:0:0:
454,28,94136,1,2,0:0:0:0:
460,37,94233,2,0,L|475:134,1,75.0000002980235,0|2,1:2|0:0,0:0:0:0:
396,211,94620,2,0,L|381:114,1,75.0000002980235,10|2,0:1|0:1,0:0:0:0:
304,79,95007,5,4,1:2:0:0:
259,189,95201,1,2,1:2:0:0:
259,189,95781,5,2,1:2:0:0:
186,95,95975,1,0,1:2:0:0:
186,95,96555,5,2,1:2:0:0:
113,189,96749,1,0,1:2:0:0:
113,189,97329,5,2,1:2:0:0:
40,95,97523,1,0,1:2:0:0:
40,95,98104,6,0,L|25:13,1,75.0000002980235,4|2,1:2|3:2,0:0:0:0:
121,21,98491,2,0,L|136:103,1,75.0000002980235,10|0,0:2|0:0,0:0:0:0:
115,196,98878,2,0,P|65:178|0:214,2,112.500000447035,2|2|0,1:2|0:0|3:0,0:0:0:0:
65,262,99652,6,0,P|72:309|78:346,1,75.0000002980235,2|2,1:2|3:2,0:0:0:0:
168,365,100039,2,0,P|161:318|155:281,1,75.0000002980235,10|2,0:0|3:2,0:0:0:0:
154,279,100330,1,10,0:0:0:0:
152,267,100426,2,0,L|214:259,3,37.5000001490117,8|8|10|8,0:0|0:0|0:0|0:0,0:0:0:0:
213,237,100814,2,0,L|275:229,3,37.5000001490117,10|8|8|8,0:0|0:0|0:0|0:0,0:0:0:0:
276,199,101201,6,0,P|270:147|246:43,2,134.999996416569,2|8|2,1:1|0:0|3:2,0:0:0:0:
356,253,102168,1,2,1:2:0:0:
356,253,102362,2,0,P|359:227|371:175,1,67.4999982082847,10|2,0:0|3:2,0:0:0:0:
376,103,102749,6,0,B|428:23|520:54|544:116|514:163|464:177|444:151,1,269.999992833139,2|0,1:1|3:0,0:0:0:0:
368,187,103717,2,0,P|330:179|291:174,2,67.4999982082847,2|10|2,1:2|0:0|3:2,0:0:0:0:
424,260,104297,6,0,P|414:307|406:349,1,67.4999982082847,2|0,1:1|3:0,0:0:0:0:
337,383,104685,2,0,P|290:373|248:365,1,67.4999982082847,10|0,0:0|1:0,0:0:0:0:
214,296,105072,2,0,P|224:249|232:207,1,67.4999982082847,2|0,3:2|1:2,0:0:0:0:
301,173,105459,2,0,P|348:183|390:191,1,67.4999982082847,10|0,0:0|3:0,0:0:0:0:
450,134,105846,6,0,P|455:84|471:17,2,101.249997312427,2|2|2,1:1|0:0|3:2,0:0:0:0:
484,315,106814,2,0,P|499:273|416:258,1,134.999996416569,2|2,1:2|3:2,0:0:0:0:
403,318,107394,6,0,P|363:323|246:346,1,134.999996416569,2|10,1:1|0:0,0:0:0:0:
127,350,107975,2,0,B|183:365|183:365|217:310|144:285|198:205,1,202.499994624854,2|8,1:2|0:0,0:0:0:0:
149,148,108749,1,2,3:2:0:0:
149,148,108943,6,0,L|226:139,1,67.4999982082847,2|0,1:1|1:2,0:0:0:0:
97,219,109330,2,0,L|20:228,1,67.4999982082847,10|0,0:0|3:0,0:0:0:0:
16,131,109717,6,0,P|9:88|-5:47,1,67.4999982082847,2|0,3:2|1:2,0:0:0:0:
111,14,110104,2,0,P|101:46|97:79,1,67.4999982082847,10|0,0:0|3:2,0:0:0:0:
149,148,110491,6,0,L|283:132,1,134.999996416569,2|10,1:1|0:0,0:0:0:0:
362,163,111072,2,0,B|378:116|349:79|349:79|311:42|323:-22|404:-32|424:28,1,269.999992833139,2|0,1:2|3:0,0:0:0:0:
468,102,112039,6,0,P|451:150|487:226,1,134.999996416569,2|8,1:2|0:0,0:0:0:0:
429,299,112620,1,8,3:0:0:0:
429,299,112814,2,0,P|395:260|312:253,1,134.999996416569,8|8,1:3|0:0,0:0:0:0:
150,317,113588,6,0,P|141:250|131:183,2,134.999996416569,2|2|2,1:2|1:1|1:2,0:0:0:0:
239,309,114555,1,0,3:0:0:0:
239,309,114749,2,0,P|234:275|229:242,1,67.4999982082847,10|2,0:0|3:2,0:0:0:0:
222,143,115136,6,0,P|281:166|351:127,1,134.999996416569,2|0,1:1|1:2,0:0:0:0:
280,69,115717,2,0,P|221:46|151:85,1,134.999996416569,0|2,3:0|3:2,0:0:0:0:
68,95,116297,1,10,0:0:0:0:
68,95,116491,1,2,3:2:0:0:
131,164,116685,6,0,L|117:247,1,67.4999982082847,2|0,1:1|3:0,0:0:0:0:
27,250,117072,2,0,L|38:183,1,67.4999982082847,2|0,1:2|3:0,0:0:0:0:
68,95,117459,2,0,P|31:104|-8:83,1,67.4999982082847,2|0,1:2|3:0,0:0:0:0:
9,8,117846,2,0,P|46:-1|85:20,1,67.4999982082847,10|0,0:0|3:0,0:0:0:0:
148,53,118233,6,0,P|207:46|278:38,2,101.249997312427,2|2|2,1:2|3:2|3:2,0:0:0:0:
68,95,119007,1,2,1:0:0:0:
64,185,119201,1,10,0:1:0:0:
152,144,119394,1,2,1:1:0:0:
152,144,119491,1,10,0:1:0:0:
152,144,119588,1,10,0:1:0:0:
228,198,119781,1,6,1:1:0:0:
0,83,125781,6,0,B|56:73|56:73|68:56|68:56|145:46,1,150.000000596047,6|2,1:2|1:1,0:0:0:0:
150,46,126265,1,2,0:1:0:0:
161,45,126362,2,0,L|180:147,1,75.0000002980235,10|2,0:1|0:1,0:0:0:0:
149,230,126749,5,10,0:1:0:0:
240,179,126943,1,2,1:1:0:0:
331,230,127136,1,10,0:1:0:0:
422,179,127330,1,2,1:1:0:0:
512,230,127523,6,0,P|503:277|497:321,1,75.0000002980235,8|2,0:0|0:1,0:0:0:0:
422,179,127910,2,0,P|416:141|409:105,1,75.0000002980235,10|2,0:1|0:1,0:0:0:0:
457,22,128297,1,8,0:0:0:0:
361,21,128491,1,2,1:2:0:0:
313,104,128685,1,10,0:0:0:0:
339,196,128878,1,2,1:2:0:0:
288,278,129072,6,0,L|131:262,1,150.000000596047,2|8,1:2|0:0,0:0:0:0:
37,328,129652,1,2,1:2:0:0:
31,208,129846,2,0,P|25:141|10:59,1,150.000000596047,2|8,1:2|0:0,0:0:0:0:
142,0,130426,6,0,P|149:74|162:148,1,150.000000596047,2|2,1:2|1:2,0:0:0:0:
220,248,131007,1,2,1:0:0:0:
277,147,131201,1,2,1:0:0:0:
335,246,131394,2,0,L|421:232,1,67.4999982082847,2|2,1:0|1:1,0:0:0:0:
390,127,131781,2,0,L|290:143,1,101.249997312427,0|0,1:0|0:0,0:0:0:0:
277,147,132168,6,0,P|267:103|263:58,1,89.9999976110462,14|2,1:0|0:0,0:0:0:0:
152,11,132555,2,0,P|120:43|85:70,1,89.9999976110462,10|2,0:0|0:0,0:0:0:0:
97,188,132943,2,0,P|139:201|180:220,1,89.9999976110462,2|2,1:2|0:0,0:0:0:0:
281,232,133330,1,10,0:0:0:0:
220,314,133523,6,0,P|134:326|36:340,1,179.999995222092,2|2,0:0|0:0,0:0:0:0:
2,232,134104,5,10,0:0:0:0:
2,232,134297,1,2,0:0:0:0:
49,123,134491,5,2,1:2:0:0:
49,123,134684,1,2,0:0:0:0:
2,40,134878,1,10,0:0:0:0:
97,40,135072,1,2,0:0:0:0:
144,123,135265,6,0,L|259:102,1,89.9999976110462,0|2,1:0|0:1,0:0:0:0:
245,104,135555,1,2,0:1:0:0:
258,102,135652,2,0,L|247:4,1,89.9999976110462,10|2,0:1|0:0,0:0:0:0:
373,0,136039,2,0,L|384:98,1,89.9999976110462,2|2,1:2|0:1,0:0:0:0:
383,103,136330,1,2,0:1:0:0:
390,114,136426,2,0,L|479:103,1,89.9999976110462,8|2,0:0|0:0,0:0:0:0:
512,205,136814,6,0,P|502:257|500:317,1,89.9999976110462,2|0,1:2|0:0,0:0:0:0:
392,312,137201,2,0,P|388:267|379:223,1,89.9999976110462,10|0,0:0|0:0,0:0:0:0:
390,114,137588,1,2,1:2:0:0:
290,158,137781,1,2,0:1:0:0:
279,266,137975,2,0,L|181:280,1,89.9999976110462,10|0,0:1|1:0,0:0:0:0:
176,282,138265,1,8,0:0:0:0:
162,285,138362,6,0,P|165:236|133:190,1,89.9999976110462,6|2,1:2|0:2,0:0:0:0:
0,232,138749,2,0,P|40:259|96:254,1,89.9999976110462,10|2,0:2|0:2,0:0:0:0:
126,118,139136,2,0,P|82:139|58:190,1,89.9999976110462,2|2,1:2|0:2,0:0:0:0:
145,201,139523,1,10,0:2:0:0:
215,138,139717,6,0,L|407:122,1,179.999995222092,2|2,0:0|0:2,0:0:0:0:
502,178,140297,5,10,0:2:0:0:
502,178,140491,1,2,0:2:0:0:
495,56,140685,5,2,1:2:0:0:
495,56,140878,1,2,0:2:0:0:
409,9,141072,1,10,0:2:0:0:
338,68,141265,1,2,0:2:0:0:
273,0,141459,6,0,P|226:7|181:12,1,89.9999976110462,0|2,1:0|0:1,0:0:0:0:
170,14,141749,1,2,0:1:0:0:
157,18,141846,1,10,0:1:0:0:
50,3,142039,2,0,P|66:51|74:99,1,89.9999976110462,2|0,0:1|1:2,0:0:0:0:
151,144,142426,1,2,0:1:0:0:
147,156,142523,1,2,0:1:0:0:
144,169,142620,1,10,0:1:0:0:
68,228,142814,1,2,0:1:0:0:
144,287,143007,6,0,L|258:299,1,89.9999976110462,2|2,1:2|0:2,0:0:0:0:
260,202,143394,2,0,L|349:211,1,89.9999976110462,10|2,0:2|0:2,0:0:0:0:
416,296,143781,1,2,1:1:0:0:
501,229,143975,1,2,0:1:0:0:
434,144,144168,2,0,P|438:93|448:50,1,89.9999976110462,10|0,0:1|1:2,0:0:0:0:
449,41,144459,1,8,0:0:0:0:
450,27,144555,6,0,L|352:37,1,89.9999976110462,4|2,1:2|0:0,0:0:0:0:
247,5,144943,1,10,0:0:0:0:
275,117,145136,1,2,0:0:0:0:
162,85,145330,2,0,L|26:71,2,134.999996416569,10|2|2,0:0|0:0|1:2,0:0:0:0:
275,117,146104,5,2,1:2:0:0:
275,117,146297,1,2,0:0:0:0:
187,214,146491,5,10,0:0:0:0:
187,214,146684,1,2,0:0:0:0:
275,311,146878,6,0,L|383:298,1,89.9999976110462,10|0,0:0|0:0,0:0:0:0:
287,201,147265,2,0,L|179:214,1,101.249997312427,8|0,0:0|0:0,0:0:0:0:
174,219,147652,6,0,P|165:160|146:39,1,179.999995222092,14|2,1:1|3:2,0:0:0:0:
42,25,148233,1,2,0:0:0:0:
45,38,148330,1,2,0:0:0:0:
46,51,148426,2,0,P|53:95|59:139,1,89.9999976110462,10|2,0:0|0:0,0:0:0:0:
6,209,148814,1,2,3:2:0:0:
57,288,149007,1,2,0:0:0:0:
62,300,149104,1,2,0:0:0:0:
68,312,149201,6,0,P|113:298|159:315,1,89.9999976110462,2|2,1:2|0:0,0:0:0:0:
239,351,149588,2,0,L|246:283,3,44.9999988055231,2|2|2|2,3:2|0:0|1:2|0:0,0:0:0:0:
228,271,149975,2,0,L|235:203,3,44.9999988055231,10|0|2|2,0:0|0:0|0:0|0:0,0:0:0:0:
217,191,150362,2,0,L|224:123,3,44.9999988055231,2|0|2|2,3:2|0:0|0:0|0:0,0:0:0:0:
194,104,150749,5,2,1:2:0:0:
259,32,150943,1,2,0:0:0:0:
262,45,151039,1,2,0:0:0:0:
266,57,151136,2,0,L|386:44,1,89.9999976110462,2|2,3:2|0:0,0:0:0:0:
443,0,151523,1,10,0:0:0:0:
440,100,151717,1,2,0:0:0:0:
440,113,151814,1,2,0:0:0:0:
438,126,151910,2,0,P|449:175|461:235,1,89.9999976110462,2|2,3:2|0:0,0:0:0:0:
361,247,152297,6,0,P|348:185|333:123,2,112.500000447035,4|0|0,1:3|1:2|1:2,0:0:0:0:
443,306,153072,1,8,0:0:0:0:
443,306,153168,1,8,0:0:0:0:
443,306,153265,1,0,0:0:0:0:
357,349,153459,1,2,3:1:0:0:
357,349,153652,1,8,3:3:0:0:
269,290,153846,6,0,L|168:279,1,82.5000028455261,0|2,1:2|0:0,0:0:0:0:
175,277,154136,1,2,0:0:0:0:
162,277,154233,2,0,P|157:297|155:317,3,41.2500014227631,2|2|2|2,3:2|0:0|0:0|0:0,0:0:0:0:
145,357,154620,2,0,P|125:363|106:371,3,41.2500014227631,10|0|2|2,0:0|0:0|0:0|0:0,0:0:0:0:
56,373,155007,2,0,P|40:359|24:346,3,41.2500014227631,2|0|2|2,3:2|0:0|0:0|0:0,0:0:0:0:
6,308,155394,6,0,P|11:268|20:213,1,82.5000028455261,2|2,1:2|0:0,0:0:0:0:
21,214,155685,1,2,0:0:0:0:
22,201,155781,2,0,L|117:210,1,82.5000028455261,2|2,3:2|1:2,0:0:0:0:
183,269,156168,1,10,0:0:0:0:
196,170,156362,1,2,0:0:0:0:
195,157,156459,1,2,0:0:0:0:
196,144,156555,2,0,P|201:103|208:62,1,82.5000028455261,2|2,3:2|0:0,0:0:0:0:
99,10,156943,6,0,P|107:57|112:101,1,82.5000028455261,2|2,1:2|0:0,0:0:0:0:
113,103,157233,1,2,0:0:0:0:
113,115,157330,2,0,L|31:104,1,82.5000028455261,2|2,3:2|0:0,0:0:0:0:
19,107,157620,1,2,0:0:0:0:
7,110,157717,2,0,P|17:162|20:198,1,82.5000028455261,10|2,0:0|0:0,0:0:0:0:
48,275,158104,1,2,3:2:0:0:
129,239,158297,1,2,0:0:0:0:
128,226,158394,1,2,0:0:0:0:
128,213,158491,6,0,P|120:139|105:67,2,123.750004268289,0|2|2,1:2|0:0|1:2,0:0:0:0:
122,321,159265,1,10,0:2:0:0:
221,277,159459,1,2,1:2:0:0:
320,321,159652,2,0,L|342:178,1,123.750004268289,10|0,0:2|3:2,0:0:0:0:
341,188,160039,6,0,P|375:192|433:202,1,67.4999982082847,6|2,1:1|0:0,0:0:0:0:
421,113,160426,2,0,P|386:108|329:99,1,67.4999982082847,2|2,1:2|0:0,0:0:0:0:
367,20,160814,2,0,P|416:28|467:34,2,101.249997312427,10|2|2,0:0|0:0|0:0,0:0:0:0:
289,51,161588,5,2,1:2:0:0:
289,51,161781,1,2,0:0:0:0:
206,24,161975,2,0,L|121:37,1,67.4999982082847,2|0,1:2|0:0,0:0:0:0:
69,93,162362,5,10,0:1:0:0:
69,93,162555,1,2,0:1:0:0:
152,120,162749,2,0,L|237:107,1,67.4999982082847,2|0,1:1|0:0,0:0:0:0:
289,51,163136,6,0,P|299:86|303:144,1,67.4999982082847,6|2,1:1|0:0,0:0:0:0:
377,174,163523,2,0,P|366:209|363:267,1,67.4999982082847,2|2,1:2|0:0,0:0:0:0:
308,305,163910,2,0,P|358:325|417:299,2,101.249997312427,10|2|2,0:0|0:0|0:0,0:0:0:0:
279,224,164685,5,2,1:2:0:0:
279,224,164878,1,2,0:0:0:0:
198,258,165072,2,0,L|217:346,1,67.4999982082847,2|0,1:2|0:0,0:0:0:0:
142,384,165459,5,10,0:1:0:0:
142,384,165652,1,2,0:1:0:0:
55,353,165846,2,0,L|36:265,1,67.4999982082847,10|0,0:1|0:0,0:0:0:0:
80,192,166233,6,0,P|51:202|2:187,1,67.4999982082847,6|2,1:1|0:0,0:0:0:0:
114,114,166620,2,0,P|90:93|79:43,1,67.4999982082847,2|2,1:2|0:0,0:0:0:0:
198,104,167007,2,0,P|203:73|282:43,2,101.249997312427,10|2|2,0:0|0:0|0:0,0:0:0:0:
164,182,167781,5,2,1:2:0:0:
164,182,167975,1,2,0:0:0:0:
252,169,168168,2,0,L|341:157,1,67.4999982082847,2|0,1:2|0:0,0:0:0:0:
421,236,168555,5,10,0:1:0:0:
421,236,168749,1,2,0:1:0:0:
333,249,168942,2,0,L|244:261,1,67.4999982082847,2|0,1:1|0:0,0:0:0:0:
266,347,169330,6,0,L|399:328,1,134.999996416569,4|10,1:2|0:0,0:0:0:0:
482,306,169910,1,2,0:0:0:0:
482,306,170104,2,0,P|488:351|494:382,2,67.4999982082847,2|2|10,3:2|1:2|0:0,0:0:0:0:
494,221,170685,6,0,P|477:157|511:94,1,134.999996416569,2|2,0:0|1:2,0:0:0:0:
421,49,171265,1,10,0:0:0:0:
421,49,171459,2,0,P|374:95|302:97,1,134.999996416569,2|2,3:2|1:2,0:0:0:0:
247,31,172039,1,10,0:0:0:0:
157,49,172233,1,2,3:2:0:0:
218,118,172426,6,0,B|209:168|209:168|211:192|211:192|195:265,1,134.999996416569,2|8,1:2|0:0,0:0:0:0:
191,342,173007,1,2,0:0:0:0:
191,342,173201,2,0,P|149:334|51:320,1,134.999996416569,0|8,3:0|0:2,0:0:0:0:
5,248,173781,1,2,0:0:0:0:
47,169,173975,6,0,L|32:83,1,67.4999982082847,2|0,3:2|1:0,0:0:0:0:
137,185,174362,2,0,L|122:99,1,67.4999982082847,10|0,0:0|0:0,0:0:0:0:
227,201,174749,2,0,L|212:115,1,67.4999982082847,2|0,1:2|1:0,0:0:0:0:
317,217,175136,2,0,L|302:131,1,67.4999982082847,10|0,0:0|3:0,0:0:0:0:
277,62,175523,6,0,B|323:56|323:56|349:35|349:35|426:29,1,150.000000596047,6|10,1:2|0:1,0:0:0:0:
512,15,176104,1,2,0:1:0:0:
478,104,176297,2,0,L|497:194,1,75.0000002980235,10|2,0:1|1:1,0:0:0:0:
415,235,176685,2,0,L|399:161,1,75.0000002980235,10|2,0:1|1:1,0:0:0:0:
357,74,177072,1,8,0:0:0:0:
302,153,177265,1,2,0:1:0:0:
302,153,177362,1,2,0:1:0:0:
302,153,177459,2,0,P|264:148|227:142,1,75.0000002980235,10|2,0:1|0:1,0:0:0:0:
147,85,177845,5,8,0:0:0:0:
90,165,178039,1,2,1:2:0:0:
170,222,178233,1,10,0:0:0:0:
113,302,178426,1,2,1:2:0:0:
193,359,178620,6,0,L|356:339,1,150.000000596047,2|10,1:2|0:1,0:0:0:0:
459,355,179201,1,2,1:2:0:0:
411,244,179394,2,0,P|401:191|375:69,1,150.000000596047,2|10,1:2|0:1,0:0:0:0:
253,47,179975,6,0,P|263:100|289:222,1,150.000000596047,2|2,1:2|1:1,0:0:0:0:
239,311,180555,1,10,1:1:0:0:
160,216,180749,1,2,1:1:0:0:
81,311,180943,6,0,B|71:253|71:253|74:222|74:222|57:152,1,150.000000596047,10|8,1:1|1:1,0:0:0:0:
30,68,181523,1,0,0:1:0:0:
127,91,181717,1,4,0:0:0:0:
45,118,189459,6,0,P|38:77|29:45,1,67.4999982082847,10|2,1:2|1:2,0:0:0:0:
127,34,189846,2,0,P|132:67|140:99,1,67.4999982082847,10|0,1:2|1:2,0:0:0:0:
112,190,190233,2,0,L|37:209,1,67.4999982082847,10|2,1:2|1:2,0:0:0:0:
71,290,190620,2,0,L|146:271,1,67.4999982082847,10|2,1:2|1:2,0:0:0:0:
212,230,191007,6,0,P|221:262|218:296,1,67.4999982082847,8|2,1:2|1:2,0:0:0:0:
280,362,191394,2,0,P|312:352|346:355,1,67.4999982082847,10|0,1:2|1:2,0:0:0:0:
412,293,191781,2,0,P|402:260|405:227,1,67.4999982082847,10|2,1:2|1:2,0:0:0:0:
344,161,192168,2,0,P|311:170|278:167,1,67.4999982082847,10|2,1:2|1:2,0:0:0:0:
212,101,192555,6,0,L|198:29,1,67.4999982082847,8|2,1:2|1:2,0:0:0:0:
287,21,192943,2,0,L|301:93,1,67.4999982082847,10|0,1:2|1:2,0:0:0:0:
389,79,193330,2,0,L|376:12,1,67.4999982082847,10|2,1:2|1:2,0:0:0:0:
468,21,193717,2,0,L|474:54,3,33.7499991041423,8|0|2|0,1:2|1:0|1:2|1:0,0:0:0:0:
480,91,194104,5,2,3:2:0:0:
323,193,194491,1,2,0:2:0:0:
490,278,194878,1,2,0:2:0:0:
439,191,195072,5,2,0:0:0:0:
439,191,195265,1,10,0:0:0:0:
332,344,195652,6,0,B|287:327|287:327|242:346,1,89.9999976110462,14|2,1:0|0:0,0:0:0:0:
158,305,196039,2,0,B|119:321|119:321|74:304,1,89.9999976110462,10|2,0:0|0:0,0:0:0:0:
19,228,196426,1,2,1:2:0:0:
58,142,196620,1,2,0:0:0:0:
151,134,196814,1,10,0:0:0:0:
205,211,197007,6,0,P|282:201|394:189,1,179.999995222092,2|2,0:0|0:0,0:0:0:0:
503,224,197588,5,10,0:0:0:0:
503,224,197781,1,2,0:0:0:0:
472,103,197975,5,2,1:2:0:0:
472,103,198168,1,2,0:0:0:0:
384,191,198362,5,10,0:0:0:0:
350,71,198555,1,2,0:0:0:0:
263,161,198749,6,0,L|160:172,1,89.9999976110462,0|2,1:0|0:1,0:0:0:0:
161,175,199039,1,2,0:1:0:0:
147,178,199136,2,0,P|143:132|158:70,1,89.9999976110462,10|2,0:1|0:0,0:0:0:0:
43,34,199523,2,0,P|50:78|46:122,1,89.9999976110462,2|2,1:2|0:1,0:0:0:0:
42,135,199814,1,2,0:1:0:0:
42,148,199910,2,0,L|51:237,1,89.9999976110462,8|2,0:0|0:0,0:0:0:0:
11,335,200297,6,0,P|51:320|95:333,1,89.9999976110462,2|0,1:2|0:0,0:0:0:0:
147,254,200685,2,0,P|193:264|239:239,1,89.9999976110462,10|0,0:0|0:0,0:0:0:0:
179,174,201072,5,2,1:2:0:0:
255,75,201265,1,2,0:1:0:0:
302,190,201459,2,0,L|414:202,1,89.9999976110462,10|0,0:1|1:0,0:0:0:0:
403,205,201749,1,8,0:0:0:0:
415,210,201846,6,0,P|405:253|393:297,1,89.9999976110462,6|2,1:2|0:2,0:0:0:0:
491,324,202233,2,0,P|500:280|512:236,1,89.9999976110462,10|2,0:2|0:2,0:0:0:0:
487,144,202620,1,2,1:2:0:0:
487,144,202814,1,2,0:2:0:0:
512,53,203007,1,10,0:2:0:0:
421,77,203201,6,0,P|336:67|243:55,1,179.999995222092,2|2,0:0|0:2,0:0:0:0:
129,29,203781,5,10,0:2:0:0:
129,29,203975,1,2,0:2:0:0:
72,130,204168,5,2,1:2:0:0:
72,130,204362,1,2,0:2:0:0:
148,215,204555,5,10,0:2:0:0:
253,168,204749,1,2,0:2:0:0:
242,54,204943,6,0,P|284:59|333:65,1,89.9999976110462,0|2,1:0|0:1,0:0:0:0:
344,68,205233,1,2,0:1:0:0:
355,71,205330,1,10,0:1:0:0:
342,178,205523,2,0,P|299:172|251:167,1,89.9999976110462,2|0,0:1|1:2,0:0:0:0:
170,121,205910,1,2,0:1:0:0:
170,121,206007,1,2,0:1:0:0:
170,121,206104,1,10,0:1:0:0:
171,215,206297,1,2,0:1:0:0:
89,168,206491,6,0,L|-6:184,1,89.9999976110462,2|2,1:2|0:2,0:0:0:0:
24,304,206878,2,0,L|119:288,1,89.9999976110462,10|2,0:2|0:2,0:0:0:0:
171,215,207265,5,2,1:1:0:0:
228,325,207459,1,2,0:1:0:0:
294,220,207652,2,0,P|287:168|274:110,1,89.9999976110462,10|0,0:1|1:2,0:0:0:0:
275,118,207943,1,8,0:0:0:0:
273,104,208039,6,0,L|368:88,1,89.9999976110462,4|2,1:2|0:0,0:0:0:0:
375,89,208330,1,2,0:0:0:0:
388,88,208426,1,10,0:0:0:0:
488,19,208620,1,2,0:0:0:0:
494,143,208814,2,0,L|514:295,2,134.999996416569,10|2|2,0:0|0:0|1:2,0:0:0:0:
388,88,209588,5,10,0:0:0:0:
388,88,209781,1,2,0:0:0:0:
360,216,209975,5,10,0:0:0:0:
360,216,210168,1,2,0:0:0:0:
332,344,210362,6,0,L|238:330,1,89.9999976110462,10|0,0:0|1:0,0:0:0:0:
268,198,210749,2,0,L|362:212,1,89.9999976110462,8|0,0:0|1:0,0:0:0:0:
388,88,211136,6,0,L|294:74,1,89.9999976110462,4|2,1:2|0:0,0:0:0:0:
285,71,211426,1,2,0:0:0:0:
271,69,211523,1,10,0:0:0:0:
189,0,211717,1,2,0:0:0:0:
119,82,211910,6,0,P|56:60|-11:109,2,134.999996416569,10|2|2,0:0|0:0|1:2,0:0:0:0:
65,151,212685,5,10,0:0:0:0:
65,151,212878,1,2,0:0:0:0:
27,277,213072,5,10,0:0:0:0:
27,277,213265,1,2,0:0:0:0:
156,247,213459,6,0,L|174:138,1,89.9999976110462,10|0,0:0|1:0,0:0:0:0:
265,204,213846,2,0,L|251:293,1,89.9999976110462,8|0,0:0|1:0,0:0:0:0:
346,339,214233,6,0,L|364:230,1,89.9999976110462,4|2,1:2|0:0,0:0:0:0:
363,236,214523,1,2,0:0:0:0:
366,222,214620,1,10,0:0:0:0:
475,284,214814,1,2,0:0:0:0:
475,158,215007,2,0,L|496:24,2,134.999996416569,2|2|2,1:2|0:0|0:0,0:0:0:0:
366,222,215781,5,2,1:2:0:0:
385,103,215975,1,2,0:0:0:0:
277,47,216168,1,10,0:0:0:0:
191,134,216362,1,2,0:0:0:0:
247,244,216555,6,0,L|229:353,1,89.9999976110462,10|0,0:0|1:2,0:0:0:0:
112,319,216943,2,0,L|130:210,1,89.9999976110462,10|0,0:0|1:2,0:0:0:0:
191,134,217330,6,0,P|110:142|1:157,1,179.999995222092,14|8,0:0|0:0,0:0:0:0:
10,49,217910,1,2,0:0:0:0:
10,49,218104,2,0,P|91:41|200:26,1,179.999995222092,10|8,0:0|0:0,0:0:0:0:
291,81,218685,1,0,1:2:0:0:
191,134,218878,1,8,0:0:0:0:
191,134,220426,6,0,P|201:195|214:289,1,134.999996416569,12|0,1:1|0:0,0:0:0:0:
214,279,220814,2,0,P|255:268|306:293,1,82.5000028455261,10|0,0:0|0:0,0:0:0:0:
371,339,221201,1,2,1:2:0:0:
371,339,221394,1,2,0:0:0:0:
461,299,221588,2,0,L|476:188,1,82.5000028455261,8|0,0:2|0:0,0:0:0:0:
481,96,221975,5,0,1:1:0:0:
393,120,222168,1,2,0:0:0:0:
305,144,222362,2,0,L|214:159,1,82.5000028455261,10|0,0:0|0:0,0:0:0:0:
214,278,222749,5,2,1:2:0:0:
302,254,222942,1,2,0:0:0:0:
390,230,223136,2,0,L|481:215,1,82.5000028455261,8|0,0:0|0:0,0:0:0:0:
481,96,223523,5,0,1:2:0:0:
481,96,223717,1,2,0:0:0:0:
393,120,223910,2,0,P|383:80|371:26,1,82.5000028455261,10|2,0:0|0:0,0:0:0:0:
285,63,224297,2,0,P|294:102|307:157,1,82.5000028455261,2|2,1:2|0:0,0:0:0:0:
304,155,224588,1,2,0:0:0:0:
306,167,224685,1,8,0:0:0:0:
390,230,224878,1,2,0:0:0:0:
388,242,224975,1,2,0:0:0:0:
386,254,225072,6,0,P|344:245|288:267,1,82.5000028455261,2|2,1:2|0:0,0:0:0:0:
243,318,225459,2,0,P|201:327|145:305,1,82.5000028455261,10|2,0:0|0:0,0:0:0:0:
79,251,225846,2,0,L|59:390,2,123.750004268289,2|2|2,1:2|0:0|0:0,0:0:0:0:
28,173,226620,6,0,P|89:155|163:214,1,134.999996416569,4|0,1:2|0:0,0:0:0:0:
155,197,227007,2,0,P|193:190|251:182,1,82.5000028455261,10|0,0:0|0:0,0:0:0:0:
319,224,227394,1,2,1:2:0:0:
319,224,227588,1,2,0:0:0:0:
396,172,227781,2,0,P|388:124|371:19,1,134.999996416569,8|0,0:0|0:0,0:0:0:0:
370,26,228168,6,0,B|329:40|329:40|286:23,1,82.5000028455261,0|2,1:2|0:0,0:0:0:0:
233,92,228555,2,0,B|192:78|192:78|149:95,1,82.5000028455261,10|0,0:0|0:0,0:0:0:0:
72,50,228943,1,2,1:2:0:0:
0,105,229136,1,2,0:0:0:0:
77,142,229330,2,0,L|55:299,1,134.999996416569,8|0,0:0|0:0,0:0:0:0:
58,288,229717,6,0,L|169:307,1,82.5000028455261,0|2,1:2|0:0,0:0:0:0:
227,265,230104,2,0,L|338:284,1,82.5000028455261,10|0,0:0|0:0,0:0:0:0:
372,221,230491,2,0,P|397:276|378:334,2,123.750004268289,2|2|2,1:2|0:0|0:0,0:0:0:0:
291,195,231265,1,6,1:2:0:0:
291,195,232814,6,0,L|302:259,1,33.7499991041423,8|8,0:0|0:0,0:0:0:0:
345,59,233201,2,0,L|395:16,1,33.7499991041423,8|8,0:0|0:0,0:0:0:0:
201,79,233588,2,0,L|139:56,3,33.7499991041423,8|8|8|8,0:0|0:0|0:0|0:0,0:0:0:0:
277,119,234072,5,8,0:0:0:0:
279,128,234168,2,0,L|291:196,2,67.4999982082847,8|8|8,0:0|0:0|1:3,0:0:0:0:
201,79,234749,6,0,B|215:64|214:25|193:-19|138:-38|61:-29|40:56|87:99|87:99|150:123|148:186|118:227|73:223,1,449.999988055231,4|8,1:2|0:0,0:0:0:0:
111,320,236878,2,0,P|68:311|-5:303,2,101.249997312427,2|2|14,3:2|3:2|1:1,0:0:0:0:
256,192,237555,12,0,239588,0:0:0:0:
