osu file format v14

[General]
AudioFilename: audio.mp3
AudioLeadIn: 0
PreviewTime: 60918
Countdown: 0
SampleSet: Soft
StackLeniency: 0.7
Mode: 0
LetterboxInBreaks: 0
WidescreenStoryboard: 0

[Editor]
Bookmarks: 561,5206,17593,29980,42367,54560,60948,76431,88819,101206,113593,125786,132173,147657,160044,175528,181528,183270,195657,218883,220431,231270,232819,237464,239781
DistanceSpacing: 0.7
BeatDivisor: 4
GridSize: 32
TimelineZoom: 2.15

[Metadata]
Title:Iden Tei Tei Meltdown
TitleUnicode:アイデン貞貞メルトダウン
Artist:Korone Pochi x Nanahira
ArtistUnicode:ころねぽち × ななひら
Creator:Len
Version:!
Source:お兄ちゃんはおしまい!
Tags:opening op anime Full ver Japanese pop jpop j-pop oniichan wa oshimai im I'm Now Your Sister! おにまい onimai onii-chan identity pmaru-sama. p-maru-sama. fast tomatas95 lude hoto cocoa interlude- amamya kokoro nelitoru hinae eringira
BeatmapID:4033021
BeatmapSetID:1948471

[Difficulty]
HPDrainRate:5
CircleSize:3.8
OverallDifficulty:9
ApproachRate:9.5
SliderMultiplier:1.86
SliderTickRate:0.5

[Events]
//Background and Video events
0,0,"ore.jpg",0,0
//Break Periods
2,183465,188789
2,189659,192030
//Storyboard Layer 0 (Background)
//Storyboard Layer 1 (Fail)
//Storyboard Layer 2 (Pass)
//Storyboard Layer 3 (Foreground)
//Storyboard Layer 4 (Overlay)
//Storyboard Sound Samples

[TimingPoints]
556,387.096774193548,4,2,1,60,1,0
2491,-454.545454545455,4,2,1,60,0,0
4426,-100,4,2,1,60,0,0
4620,-100,4,2,2,50,0,0
4943,-50,4,2,2,50,0,0
5201,-50,4,2,10,70,0,0
5297,-50,4,2,1,70,0,0
5394,-66.6666666666667,4,2,1,70,0,0
5975,-41.6666666666667,4,2,1,70,0,0
6168,-50,4,2,1,70,0,0
6749,-83.3333333333333,4,2,1,70,0,0
7136,-66.6666666666667,4,2,1,70,0,0
7523,-41.6666666666667,4,2,1,70,0,0
7717,-50,4,2,1,70,0,0
8297,-76.9230769230769,4,2,1,70,0,0
8685,-100,4,2,1,70,0,0
9846,-55.5555555555556,4,2,1,70,0,0
11007,-71.4285714285714,4,2,1,70,0,0
11201,-33.3333333333333,4,2,1,70,0,0
11588,-66.6666666666667,4,2,1,70,0,0
12168,-41.6666666666667,4,2,1,70,0,0
12362,-50,4,2,1,70,0,0
12943,-83.3333333333333,4,2,1,70,0,0
13330,-66.6666666666667,4,2,1,70,0,0
13717,-41.6666666666667,4,2,1,70,0,0
13910,-50,4,2,1,70,0,0
14491,-71.4285714285714,4,2,1,70,0,0
14878,-90.9090909090909,4,2,1,70,0,0
15265,-58.8235294117647,4,2,1,70,0,0
15846,-71.4285714285714,4,2,1,70,0,0
17588,-71.4285714285714,4,2,2,50,0,0
19910,-125,4,2,2,50,0,0
20201,-62.5,4,2,2,50,0,0
20685,-50,4,2,2,60,0,0
21072,-83.3333333333333,4,2,2,60,0,0
21459,-90.9090909090909,4,2,2,60,0,0
21846,-166.666666666667,4,2,2,60,0,0
22233,-83.3333333333333,4,2,2,60,0,0
23201,-76.9230769230769,4,2,2,60,0,0
23781,-76.9230769230769,4,2,2,50,0,0
26878,-83.3333333333333,4,2,2,60,0,0
27652,-90.9090909090909,4,2,2,60,0,0
28039,-166.666666666667,4,2,2,60,0,0
28814,-83.3333333333333,4,2,2,60,0,0
29975,-100,4,2,2,50,0,0
42362,-100,4,2,2,60,0,0
47975,-71.4285714285714,4,2,2,60,0,0
48362,-83.3333333333333,4,2,2,63,0,0
49136,-58.8235294117647,4,2,2,63,0,0
49717,-66.6666666666667,4,2,2,63,0,0
49910,-50,4,2,2,63,0,0
51072,-111.111111111111,4,2,2,63,0,0
51265,-90.9090909090909,4,2,2,63,0,0
51459,-71.4285714285714,4,2,2,66,0,0
52233,-55.5555555555556,4,2,2,66,0,0
53007,-47.6190476190476,4,2,2,66,0,0
54168,-83.3333333333333,4,2,2,66,0,0
54362,-76.9230769230769,4,2,2,66,0,0
54555,-76.9230769230769,4,2,2,70,0,0
56491,-111.111111111111,4,2,2,70,0,0
57846,-111.111111111111,4,2,2,60,0,0
58233,-71.4285714285714,4,2,2,60,0,0
59201,-66.6666666666667,4,2,2,60,0,0
59588,-66.6666666666667,4,2,2,62,0,0
59781,-66.6666666666667,4,2,2,64,0,0
59975,-66.6666666666667,4,2,2,66,0,0
60168,-76.9230769230769,4,2,2,68,0,0
60362,-76.9230769230769,4,2,2,70,0,0
60555,-45.4545454545455,4,2,2,72,0,0
60943,-40,4,2,10,80,0,1
61039,-40,4,2,1,80,0,1
61330,-55.5555555555556,4,2,1,80,0,1
73330,-55.5555555555556,4,2,1,85,0,1
76039,-333.333333333333,4,2,3,80,0,1
76426,-62.5,4,2,10,70,0,0
76523,-62.5,4,2,1,70,0,0
81072,-55.5555555555556,4,2,1,70,0,0
82233,-71.4285714285714,4,2,1,70,0,0
82426,-27.7777777777778,4,2,1,70,0,0
82814,-66.6666666666667,4,2,1,70,0,0
83394,-41.6666666666667,4,2,1,70,0,0
83588,-50,4,2,1,70,0,0
84168,-83.3333333333333,4,2,1,70,0,0
84555,-66.6666666666667,4,2,1,70,0,0
84943,-41.6666666666667,4,2,1,70,0,0
85136,-50,4,2,1,70,0,0
85717,-71.4285714285714,4,2,1,70,0,0
86104,-90.9090909090909,4,2,1,70,0,0
86491,-58.8235294117647,4,2,1,70,0,0
87072,-71.4285714285714,4,2,1,70,0,0
88814,-71.4285714285714,4,2,2,50,0,0
91910,-52.6315789473684,4,2,2,60,0,0
92297,-83.3333333333333,4,2,2,60,0,0
93072,-166.666666666667,4,2,2,60,0,0
93459,-83.3333333333333,4,2,2,60,0,0
94426,-76.9230769230769,4,2,2,60,0,0
94620,-71.4285714285714,4,2,2,60,0,0
94814,-52.6315789473684,4,2,2,60,0,0
95007,-52.6315789473684,4,2,2,50,0,0
96265,-83.3333333333333,4,2,2,50,0,0
96555,-55.5555555555556,4,2,2,50,0,0
98104,-83.3333333333333,4,2,2,60,0,0
99265,-166.666666666667,4,2,2,60,0,0
100136,-76.9230769230769,4,2,2,60,0,0
101201,-100,4,2,2,60,0,0
112426,-100,4,2,1,60,0,0
113588,-100,4,2,2,60,0,0
119201,-71.4285714285714,4,2,2,60,0,0
119781,-71.4285714285714,4,2,2,40,0,0
125781,-83.3333333333333,4,2,2,70,0,0
127523,-111.111111111111,4,2,2,70,0,0
129072,-111.111111111111,4,2,2,60,0,0
129459,-71.4285714285714,4,2,2,60,0,0
130426,-66.6666666666667,4,2,2,60,0,0
130814,-66.6666666666667,4,2,2,62,0,0
131007,-66.6666666666667,4,2,2,64,0,0
131201,-66.6666666666667,4,2,2,66,0,0
131394,-76.9230769230769,4,2,2,68,0,0
131588,-76.9230769230769,4,2,2,70,0,0
131781,-45.4545454545455,4,2,2,72,0,0
132168,-40,4,2,10,80,0,1
132265,-40,4,2,1,80,0,1
132555,-55.5555555555556,4,2,1,80,0,1
144555,-55.5555555555556,4,2,1,85,0,1
147265,-333.333333333333,4,2,3,80,0,1
147652,-100,4,2,10,70,0,0
147749,-100,4,2,1,70,0,0
149201,-83.3333333333333,4,2,1,70,0,0
149975,-62.5,4,2,1,70,0,0
151523,-76.9230769230769,4,2,1,70,0,0
152297,-83.3333333333333,4,2,1,70,0,0
152588,-100,4,2,1,70,0,0
152878,-62.5,4,2,1,70,0,0
153072,-62.5,4,2,4,70,0,0
153265,-62.5,4,2,1,70,0,0
153459,-250,4,2,1,70,0,0
153846,-100,4,2,1,70,0,0
155394,-83.3333333333333,4,2,1,70,0,0
156168,-62.5,4,2,1,70,0,0
157717,-76.9230769230769,4,2,1,70,0,0
157910,-83.3333333333333,4,2,1,70,0,0
158491,-83.3333333333333,4,2,1,80,0,0
158878,-100,4,2,1,80,0,0
159265,-66.6666666666667,4,2,1,80,0,0
159652,-62.5,4,2,1,80,0,0
160039,-83.3333333333333,4,2,2,60,0,0
169330,-83.3333333333333,4,2,2,65,0,0
170685,-111.111111111111,4,2,2,65,0,0
171459,-90.9090909090909,4,2,2,65,0,0
172814,-100,4,2,2,65,0,0
175523,-100,4,2,2,70,0,0
178620,-100,4,2,2,60,0,0
179007,-71.4285714285714,4,2,2,60,0,0
179975,-66.6666666666667,4,2,2,60,0,0
180362,-66.6666666666667,4,2,2,62,0,0
180555,-66.6666666666667,4,2,2,64,0,0
180749,-66.6666666666667,4,2,2,66,0,0
180943,-76.9230769230769,4,2,2,68,0,0
181136,-76.9230769230769,4,2,2,70,0,0
181330,-45.4545454545455,4,2,2,72,0,0
181523,-45.4545454545455,4,2,2,65,0,0
182685,-166.666666666667,4,2,2,50,0,0
183265,-333.333333333333,4,2,3,50,0,0
189314,-125,4,2,3,50,0,0
189459,-200,4,2,3,40,0,0
191007,-125,4,2,3,45,0,0
191781,-125,4,2,3,50,0,0
192555,-125,4,2,3,52,0,0
192749,-125,4,2,3,54,0,0
192943,-125,4,2,3,56,0,0
193136,-125,4,2,3,58,0,0
193330,-125,4,2,3,60,0,0
193523,-125,4,2,3,62,0,0
193717,-125,4,2,3,64,0,0
193910,-125,4,2,3,66,0,0
194104,-125,4,2,3,68,0,0
194491,-125,4,2,3,69,0,0
194878,-125,4,2,3,70,0,0
195072,-125,4,2,3,55,0,0
195265,-45.4545454545455,4,2,3,60,0,0
195652,-40,4,2,10,80,0,1
195749,-40,4,2,1,80,0,1
196039,-55.5555555555556,4,2,1,80,0,1
208039,-55.5555555555556,4,2,1,85,0,1
217330,-55.5555555555556,4,2,1,90,0,1
218878,-55.5555555555556,4,2,1,90,0,0
219072,-55.5555555555556,4,2,1,60,0,0
220426,-66.6666666666667,4,2,10,70,0,0
220523,-66.6666666666667,4,2,1,70,0,0
220814,-55.5555555555556,4,2,1,70,0,0
221201,-41.6666666666667,4,2,1,70,0,0
221394,-50,4,2,1,70,0,0
221975,-66.6666666666667,4,2,1,70,0,0
222362,-55.5555555555556,4,2,1,70,0,0
222749,-41.6666666666667,4,2,1,70,0,0
222943,-50,4,2,1,70,0,0
223523,-66.6666666666667,4,2,1,70,0,0
223910,-55.5555555555556,4,2,1,70,0,0
224685,-50,4,2,1,70,0,0
225265,-55.5555555555556,4,2,1,70,0,0
226233,-66.6666666666667,4,2,1,70,0,0
226426,-33.3333333333333,4,2,1,70,0,0
226814,-66.6666666666667,4,2,1,70,0,0
227007,-55.5555555555556,4,2,1,70,0,0
227394,-41.6666666666667,4,2,1,70,0,0
227588,-50,4,2,1,70,0,0
228168,-66.6666666666667,4,2,1,70,0,0
228555,-55.5555555555556,4,2,1,70,0,0
228943,-41.6666666666667,4,2,1,70,0,0
229136,-50,4,2,1,70,0,0
229717,-66.6666666666667,4,2,1,70,0,0
230104,-55.5555555555556,4,2,1,70,0,0
230878,-45.4545454545455,4,2,1,70,0,0
231265,-45.4545454545455,4,2,1,50,0,0
232814,-45.4545454545455,4,2,1,60,0,0
234749,-222.222222222222,4,2,1,60,0,0
235765,-125,4,2,1,60,0,0
236878,-125,4,2,3,60,0,0
237459,-125,4,2,10,60,0,0

[Colours]
Combo1 : 255,222,123
Combo2 : 255,140,198
Combo3 : 131,208,245
Combo4 : 205,242,128

[HitObjects]
218,29,556,5,8,0:0:0:0:
216,20,653,1,8,0:0:0:0:
102,179,943,5,8,0:0:0:0:
28,203,1040,1,8,0:0:0:0:
296,364,1330,5,8,0:0:0:0:
290,355,1426,1,8,0:0:0:0:
342,287,1523,1,8,0:0:0:0:
416,332,1620,1,8,0:0:0:0:
269,213,1814,5,8,0:0:0:0:
266,201,1910,1,8,0:0:0:0:
426,17,2105,5,8,0:0:0:0:
422,25,2201,5,8,1:3:0:0:
428,22,2298,5,8,1:3:0:0:
420,19,2395,5,8,1:3:0:0:
505,51,2492,6,0,B|451:35|416:79|416:83|418:87|385:133|317:113,1,204.600006243897,4|8,1:2|0:0,0:0:0:0:
398,151,4621,6,0,P|432:164|455:175,1,46.5,2|0,0:0|0:0,0:0:0:0:
245,20,4814,1,2,0:0:0:0:
236,11,4943,6,0,B|202:44|202:44|219:127|219:127|260:151,1,155,2|0,0:0|0:0,0:0:0:0:
347,34,5201,5,12,1:1:0:0:
233,368,5395,6,0,P|222:334|209:302,1,69.7500026607514,2|0,0:0|0:0,0:0:0:0:
149,237,5589,2,0,B|120:257|84:264|84:264|113:283|138:350,1,139.500005321503,10|0,0:0|0:0,0:0:0:0:
231,144,5879,1,0,0:0:0:0:
239,138,5976,6,0,B|248:109|260:85|260:85|231:73|177:28,1,111.599996594238,2|0,1:2|0:0,0:0:0:0:
65,151,6169,2,0,P|182:113|197:109,1,93,2|0,0:0|0:0,0:0:0:0:
284,0,6363,1,8,0:2:0:0:
467,202,6556,5,0,0:0:0:0:
425,280,6653,1,0,0:0:0:0:
477,214,6750,2,0,B|427:210|411:174|413:170|414:166|391:120|308:131,1,167.399994891358,0|0,1:1|0:0,0:0:0:0:
165,19,7137,6,0,B|118:40|118:40|158:133,1,139.500005321503,10|0,0:0|0:0,0:0:0:0:
273,266,7427,1,0,0:0:0:0:
280,272,7524,6,0,B|305:288|305:288|342:205,1,111.599996594238,2|0,1:2|0:0,0:0:0:0:
478,342,7718,2,0,P|434:315|384:288,1,93,2|0,0:0|0:0,0:0:0:0:
255,140,7911,1,8,0:0:0:0:
93,343,8105,5,0,0:0:0:0:
51,265,8201,1,0,0:0:0:0:
86,353,8298,2,0,B|203:311|203:311|220:337|257:365,1,181.349991698456,0|0,1:2|0:0,0:0:0:0:
280,272,8685,6,0,P|266:197|256:156,1,93,10|2,0:0|0:0,0:0:0:0:
245,100,8976,1,0,0:0:0:0:
242,86,9072,1,2,1:2:0:0:
493,22,9266,5,2,0:0:0:0:
512,78,9363,1,2,0:0:0:0:
464,110,9459,1,8,0:0:0:0:
379,38,9653,5,2,0:0:0:0:
375,43,9750,1,2,0:0:0:0:
371,48,9847,2,0,P|313:29|191:-6,1,167.399994891358,2|2,1:2|0:0,0:0:0:0:
249,363,10234,6,0,P|191:344|134:326,1,83.6999974456788,10|0,0:0|0:0,0:0:0:0:
99,279,10427,2,0,P|41:260|-16:242,1,83.6999974456788,2|0,0:0|0:0,0:0:0:0:
396,142,10621,5,2,1:2:0:0:
416,202,10718,1,0,0:0:0:0:
362,231,10814,1,0,0:0:0:0:
309,170,10911,5,2,0:0:0:0:
303,166,11008,2,0,P|298:128|283:75,1,65.0999980133057,8|0,0:0|0:0,0:0:0:0:
307,293,11201,6,0,P|341:157|378:23,1,279.000010643006,2|4,0:0|1:2,0:0:0:0:
129,186,11589,6,0,P|119:152|106:119,1,69.7500026607514,2|0,0:0|0:0,0:0:0:0:
78,38,11782,2,0,B|39:50|7:44|7:44|22:75|21:144,1,139.500005321503,10|0,0:0|0:0,0:0:0:0:
237,177,12072,1,0,0:0:0:0:
244,171,12169,6,0,B|281:143|281:143|152:183,1,111.599996594238,2|0,1:2|0:0,0:0:0:0:
63,247,12363,2,0,B|29:271|29:271|57:328,1,93,2|0,0:0|0:0,0:0:0:0:
157,376,12556,1,8,0:0:0:0:
362,194,12750,5,0,0:0:0:0:
390,275,12847,1,0,0:0:0:0:
371,185,12943,2,0,B|375:135|411:119|415:121|419:122|465:99|454:16,1,167.399994891358,0|0,1:2|0:0,0:0:0:0:
294,132,13330,6,0,P|228:114|238:28,1,139.500005321503,10|0,0:0|0:0,0:0:0:0:
247,226,13621,1,0,0:0:0:0:
239,220,13718,6,0,B|198:249|198:249|245:338,1,111.599996594238,2|0,1:2|0:0,0:0:0:0:
481,201,13911,2,0,B|510:179|510:179|381:219,1,93,2|0,0:0|0:0,0:0:0:0:
363,49,14105,1,8,0:0:0:0:
359,345,14298,5,0,0:0:0:0:
332,265,14395,1,0,0:0:0:0:
368,350,14492,2,0,B|357:348|357:348|346:355|346:355|160:391,1,195.299994039917,0|0,1:2|0:0,0:0:0:0:
109,333,14879,6,0,B|76:309|76:309|126:234,1,102.300003121948,10|0,0:0|0:0,0:0:0:0:
211,177,15169,1,0,0:0:0:0:
200,259,15266,2,0,P|187:182|151:20,1,237.150004523277,2|2,1:2|0:0,0:0:0:0:
159,18,15653,1,8,0:0:0:0:
211,177,15847,6,0,P|218:139|233:95,1,65.0999980133057,2|0,0:0|0:0,0:0:0:0:
270,0,16040,1,4,1:2:0:0:
256,192,16137,12,8,17202,0:0:0:0:
495,63,17589,5,0,1:0:0:0:
68,201,19137,5,0,1:2:0:0:
47,124,19330,1,0,1:2:0:0:
417,210,19911,5,8,0:0:0:0:
410,215,20008,2,0,P|402:252|390:305,1,74.4,8|8,0:0|0:0,0:0:0:0:
348,357,20298,1,8,0:0:0:0:
490,318,20492,6,0,B|520:298|520:298|467:311,1,74.4,8|8,0:0|0:0,0:0:0:0:
438,383,20685,6,0,B|383:378|367:342|369:338|370:333|347:287|264:299,1,186,4|2,1:2|3:2,0:0:0:0:
8,217,21072,2,0,P|54:229|111:126,1,167.399994891358,10|0,0:0|3:0,0:0:0:0:
109,137,21459,2,0,B|83:159|83:159|111:245,1,102.300003121948,2|0,1:2|3:0,0:0:0:0:
179,276,21750,1,2,3:2:0:0:
187,281,21847,6,0,P|220:290|256:300,1,55.7999982971192,8|0,0:0|3:0,0:0:0:0:
479,160,22234,6,0,P|426:152|398:70,1,111.599996594238,2|2,1:2|3:2,0:0:0:0:
348,11,22524,1,0,0:0:0:0:
281,55,22621,1,10,0:0:0:0:
275,57,22718,1,0,3:0:0:0:
269,59,22814,2,0,P|233:47|201:38,1,55.7999982971192,2|2,3:2|0:0,0:0:0:0:
126,147,23008,1,0,1:2:0:0:
196,213,23201,6,0,P|166:221|138:230,1,60.4499972328187,2|0,0:0|3:0,0:0:0:0:
28,73,23395,1,10,0:1:0:0:
26,63,23492,1,2,0:1:0:0:
24,53,23589,1,2,0:1:0:0:
22,43,23685,1,2,0:1:0:0:
20,33,23782,1,0,1:2:0:0:
437,178,25330,5,0,1:2:0:0:
454,97,25524,1,0,1:2:0:0:
161,267,26105,5,8,0:0:0:0:
158,257,26201,1,8,0:0:0:0:
156,247,26298,1,8,0:0:0:0:
154,237,26395,1,8,0:0:0:0:
96,327,26492,6,0,B|155:337|180:294|177:290|176:285|201:236|286:262,1,181.349991698456,8|0,0:0|0:0,0:0:0:0:
315,329,26879,6,0,P|355:366|408:356,1,111.599996594238,4|2,1:2|3:2,0:0:0:0:
507,167,27266,2,0,P|445:177|388:74,1,167.399994891358,10|0,0:2|0:0,0:0:0:0:
393,98,27653,2,0,B|419:120|419:120|391:206,1,102.300003121948,2|2,1:2|3:2,0:0:0:0:
347,248,27943,1,2,0:0:0:0:
341,253,28040,6,0,P|308:262|277:272,1,55.8,8|0,0:0|3:0,0:0:0:0:
105,125,28427,1,2,1:2:0:0:
43,201,28621,5,2,3:2:0:0:
0,158,28718,1,2,3:2:0:0:
25,104,28814,1,10,0:0:0:0:
187,143,29008,5,2,3:2:0:0:
194,134,29105,2,0,P|187:102|180:67,1,55.7999982971192,10|8,0:0|0:0,0:0:0:0:
259,25,29298,1,8,0:0:0:0:
254,36,29395,2,0,P|259:63|265:90,1,55.7999982971192,10|0,0:0|0:0,0:0:0:0:
427,210,29589,5,10,0:0:0:0:
435,212,29685,1,8,0:0:0:0:
444,216,29782,1,8,0:0:0:0:
453,219,29879,1,8,0:0:0:0:
461,223,29976,6,0,B|404:213|380:254|383:258|384:263|360:310|278:285,2,186,2|2|2,1:2|1:1|1:2,0:0:0:0:
504,298,30943,1,2,0:0:0:0:
329,178,31137,1,10,0:0:0:0:
264,370,31330,1,2,0:0:0:0:
329,178,31524,6,0,P|306:93|377:42,2,186,2|0|0,1:1|1:2|1:2,0:0:0:0:
498,313,32492,1,2,0:0:0:0:
264,370,32685,1,10,0:0:0:0:
329,178,32879,1,2,0:0:0:0:
461,223,33072,6,0,B|404:213|380:254|383:258|384:263|360:310|278:285,2,186,2|2|2,1:1|1:2|1:2,0:0:0:0:
329,178,34040,1,0,0:0:0:0:
430,365,34234,1,10,0:0:0:0:
430,365,34621,6,0,P|493:304|460:222,1,186,2|0,1:1|1:2,0:0:0:0:
379,197,35201,1,2,0:0:0:0:
333,268,35395,1,0,1:2:0:0:
250,238,35589,1,2,0:0:0:0:
196,331,35782,1,8,0:0:0:0:
97,280,35976,1,2,0:0:0:0:
43,384,36169,6,0,P|32:327|1:201,1,186,2|0,1:1|1:2,0:0:0:0:
66,275,36750,2,0,P|119:255|158:243,1,93,2|0,0:0|1:2,0:0:0:0:
128,83,37137,2,0,P|75:103|36:115,1,93,0|8,0:0|0:0,0:0:0:0:
100,179,37524,1,2,0:0:0:0:
232,289,37718,6,0,P|281:266|266:134,2,186,2|2|2,1:1|1:2|1:2,0:0:0:0:
153,244,38685,2,0,P|147:219|141:193,2,46.5,0|0|10,0:0|0:0|0:0,0:0:0:0:
365,384,39266,6,0,P|383:308|421:187,1,186,2|2,1:1|1:2,0:0:0:0:
475,138,39847,2,0,B|418:128|394:169|397:173|398:178|374:225|292:200,1,186,2|0,0:0|0:0,0:0:0:0:
254,140,40427,5,8,0:0:0:0:
325,85,40621,1,0,0:0:0:0:
269,17,40814,1,2,1:2:0:0:
205,368,41201,5,2,0:1:0:0:
200,364,41298,2,0,P|194:339|184:299,2,46.5,2|2|2,0:1|0:1|0:1,0:0:0:0:
256,265,41589,1,2,0:1:0:0:
330,320,41782,5,0,3:0:0:0:
388,306,41879,1,0,3:0:0:0:
415,358,41976,1,8,0:0:0:0:
176,42,42363,6,0,B|119:26|91:68|92:73|95:77|71:118|14:108,2,186,6|10|2,1:2|0:1|1:2,0:0:0:0:
258,1,43330,1,0,1:2:0:0:
306,102,43524,1,10,0:0:0:0:
398,64,43718,1,2,0:0:0:0:
454,178,43911,6,0,P|473:112|518:-11,2,186,2|8|0,1:1|0:0|0:0,0:0:0:0:
357,106,44879,1,2,1:2:0:0:
301,260,45072,1,10,0:0:0:0:
199,194,45266,1,2,0:2:0:0:
99,334,45459,6,0,P|49:314|-16:296,1,93,2|0,1:1|0:0,0:0:0:0:
126,142,45847,2,0,P|103:87|86:36,1,93,10|0,0:0|0:0,0:0:0:0:
192,217,46234,5,2,1:2:0:0:
111,244,46427,1,0,1:2:0:0:
251,0,46621,2,0,P|236:43|220:87,1,93,10|0,0:0|0:0,0:0:0:0:
91,357,47008,6,0,P|144:367|200:285,1,139.5,2|2,1:2|0:0,0:0:0:0:
195,301,47395,1,8,0:0:0:0:
267,373,47589,2,0,B|285:388|285:388|367:366,1,93,2|2,1:2|0:1,0:0:0:0:
381,282,47976,6,0,B|397:294|397:294|443:281,1,65.0999980133057,2|0,1:1|0:0,0:0:0:0:
512,324,48169,1,10,0:1:0:0:
279,197,48363,6,0,P|193:195|160:106,1,167.399994891358,6|0,1:2|0:0,0:0:0:0:
212,61,48750,1,2,1:2:0:0:
113,1,48943,1,10,0:0:0:0:
72,147,49137,6,0,P|158:115|317:69,1,237.150004523277,2|0,1:2|0:0,0:0:0:0:
342,3,49524,1,2,1:2:0:0:
429,125,49718,2,0,B|444:105|444:105|423:33,1,69.7500026607514,10|0,0:0|0:0,0:0:0:0:
195,19,49911,6,0,P|238:173|266:315,1,279,2|0,1:2|0:0,0:0:0:0:
259,300,50298,1,2,1:2:0:0:
326,158,50492,1,10,0:2:0:0:
53,43,50685,5,2,3:2:0:0:
24,96,50782,1,0,3:0:0:0:
66,136,50879,1,0,1:0:0:0:
135,89,51072,6,0,P|162:83|190:79,1,41.8499987228394,0|0,1:0|0:0,0:0:0:0:
256,105,51266,2,0,P|262:80|269:55,1,51.1500015609742,8|0,0:0|0:0,0:0:0:0:
494,114,51459,6,0,P|442:95|351:195,1,195.299994039917,6|0,1:2|0:0,0:0:0:0:
287,245,51847,1,2,1:2:0:0:
382,368,52040,1,10,0:0:0:0:
462,231,52234,6,0,P|354:256|152:322,1,251.099992337036,6|0,1:2|0:0,0:0:0:0:
159,354,52621,1,2,1:2:0:0:
82,214,52814,1,10,0:0:0:0:
295,382,53008,6,0,P|321:279|378:80,1,292.949991059876,6|0,1:2|0:0,0:0:0:0:
432,41,53395,1,2,1:2:0:0:
231,144,53589,1,8,0:0:0:0:
453,288,53782,5,2,0:0:0:0:
505,256,53879,1,0,0:0:0:0:
494,200,53976,1,0,1:2:0:0:
409,213,54169,6,0,P|378:202|342:188,1,55.7999982971192,2|0,1:2|0:0,0:0:0:0:
259,213,54363,2,0,P|247:169|239:140,1,60.4499972328187,10|0,0:0|0:0,0:0:0:0:
61,32,54556,1,6,1:2:0:0:
17,147,54943,5,2,1:1:0:0:
9,139,55040,1,2,0:1:0:0:
0,133,55137,1,10,0:1:0:0:
61,32,55330,1,2,0:1:0:0:
120,118,55524,1,10,0:1:0:0:
204,79,55718,1,2,1:1:0:0:
243,154,55911,1,10,0:1:0:0:
322,132,56105,1,2,1:1:0:0:
376,187,56298,1,8,0:0:0:0:
100,267,56492,6,0,P|93:245|81:212,2,41.8499987228394,2|2|10,0:1|0:1|0:1,0:0:0:0:
187,350,56879,1,2,0:1:0:0:
245,257,57072,1,8,0:0:0:0:
334,298,57266,1,2,1:2:0:0:
389,238,57459,1,10,0:0:0:0:
460,263,57653,1,2,1:2:0:0:
512,60,57847,5,2,1:2:0:0:
10,122,58234,6,0,P|23:168|31:202,1,65.0999980133057,8|0,0:0|0:0,0:0:0:0:
102,139,58427,2,0,P|89:93|81:59,1,65.0999980133057,2|0,1:2|0:0,0:0:0:0:
28,8,58621,1,2,1:2:0:0:
471,215,59008,6,0,P|458:261|450:295,1,65.0999980133057,8|0,0:0|0:0,0:0:0:0:
489,352,59201,2,0,P|400:358|376:222,1,209.250007982254,2|0,1:2|0:0,0:0:0:0:
307,190,59589,5,2,1:2:0:0:
197,384,59782,1,2,1:0:0:0:
22,244,59976,1,2,1:0:0:0:
240,309,60169,6,0,P|225:266|215:229,1,60.4499972328187,2|0,1:0|0:0,0:0:0:0:
123,189,60363,2,0,P|138:232|148:269,1,60.4499972328187,2|0,1:1|0:0,0:0:0:0:
66,364,60556,6,0,P|208:306|354:260,1,306.900009365845,0|0,1:0|0:0,0:0:0:0:
481,237,60943,6,0,B|523:216|521:316|393:300|354:146,1,232.5,14|2,1:0|0:0,0:0:0:0:
60,57,61330,2,0,B|0:47|-28:140|81:211|170:119|156:50,1,251.099992337036,10|0,0:0|0:0,0:0:0:0:
151,90,61718,6,0,P|140:46|130:0,1,83.6999974456788,2|0,1:2|0:0,0:0:0:0:
296,108,61911,2,0,P|281:159|266:213,1,83.6999974456788,2|0,0:0|0:0,0:0:0:0:
162,363,62105,5,10,0:0:0:0:
119,287,62201,1,0,0:0:0:0:
156,374,62298,2,0,P|235:338|271:326,1,83.6999974456788,2|0,0:0|0:0,0:0:0:0:
507,236,62492,6,0,B|488:252|469:273|469:273|420:245|358:221,1,167.399994891358,0|2,1:0|0:0,0:0:0:0:
329,299,62782,1,0,0:0:0:0:
332,309,62879,2,0,P|370:325|408:343,1,83.6999974456788,10|0,0:0|0:0,0:0:0:0:
443,160,63072,2,0,P|428:112|418:67,1,83.6999974456788,2|0,0:0|0:0,0:0:0:0:
265,9,63266,5,2,1:2:0:0:
365,224,63459,1,2,0:0:0:0:
512,61,63653,1,10,0:0:0:0:
287,176,63847,5,2,0:0:0:0:
316,94,63943,1,0,0:0:0:0:
279,185,64040,2,0,P|201:201|80:239,1,167.399994891358,0|2,1:0|0:1,0:0:0:0:
53,165,64330,1,2,0:1:0:0:
37,281,64427,6,0,P|117:250|228:220,1,167.399994891358,10|2,0:1|0:0,0:0:0:0:
240,16,64718,1,0,0:0:0:0:
201,92,64814,6,0,P|160:103|97:127,1,83.6999974456788,2|0,1:2|0:0,0:0:0:0:
359,224,65008,1,2,0:1:0:0:
363,231,65105,1,2,0:1:0:0:
313,326,65201,2,0,P|272:337|209:361,1,83.6999974456788,8|0,0:0|0:0,0:0:0:0:
361,136,65395,2,0,P|320:147|257:171,1,83.6999974456788,2|0,0:0|0:0,0:0:0:0:
433,365,65589,6,0,P|483:346|487:224,1,167.399994891358,2|0,1:2|0:0,0:0:0:0:
469,128,65879,1,0,0:0:0:0:
359,224,65976,2,0,P|272:249|101:318,1,251.099992337036,10|0,0:0|0:0,0:0:0:0:
120,320,66363,1,2,1:2:0:0:
447,101,66556,5,2,0:1:0:0:
382,39,66653,1,0,0:0:0:0:
318,105,66750,2,0,P|267:88|217:74,1,83.6999974456788,10|0,0:1|0:0,0:0:0:0:
15,55,66943,5,0,1:0:0:0:
93,12,67040,1,8,0:0:0:0:
5,45,67137,2,0,B|-6:91|25:123|28:120|33:119|60:161|48:207,1,167.399994891358,6|2,1:2|0:2,0:0:0:0:
476,336,67524,6,0,P|379:343|379:224,1,167.399994891358,10|2,0:2|0:2,0:0:0:0:
406,122,67814,1,0,0:0:0:0:
294,177,67911,6,0,P|333:190|373:204,1,83.6999974456788,2|0,1:2|0:0,0:0:0:0:
454,45,68105,2,0,P|414:31|374:17,1,83.6999974456788,2|0,0:2|0:0,0:0:0:0:
135,35,68298,5,10,0:2:0:0:
215,71,68395,1,0,0:0:0:0:
127,28,68492,2,0,P|139:83|146:136,1,83.6999974456788,2|0,0:0|0:0,0:0:0:0:
227,320,68685,6,0,B|179:322|153:286|157:284|158:279|122:245|74:249,1,167.399994891358,0|2,1:0|0:2,0:0:0:0:
0,354,68976,1,0,0:0:0:0:
5,361,69072,2,0,B|31:371|31:371|92:329,1,83.6999974456788,10|0,0:2|0:0,0:0:0:0:
228,237,69266,2,0,P|221:207|207:135,1,83.6999974456788,2|0,0:2|0:0,0:0:0:0:
243,6,69459,5,2,1:2:0:0:
74,162,69653,1,2,0:2:0:0:
331,199,69847,1,10,0:2:0:0:
186,361,70040,5,2,0:2:0:0:
136,289,70137,1,0,0:0:0:0:
179,373,70234,2,0,P|255:348|352:324,1,167.399994891358,0|2,1:0|0:1,0:0:0:0:
429,135,70524,5,2,0:1:0:0:
493,210,70621,2,0,P|445:222|374:247,1,83.6999974456788,10|0,0:1|0:0,0:0:0:0:
300,98,70814,6,0,P|223:119|135:141,1,167.399994891358,2|0,0:1|1:2,0:0:0:0:
134,17,71105,1,0,0:0:0:0:
213,0,71201,5,2,0:1:0:0:
221,5,71298,1,2,0:1:0:0:
230,11,71395,2,0,P|214:66|203:106,1,83.6999974456788,10|0,0:1|0:0,0:0:0:0:
397,75,71589,2,0,P|381:130|370:170,1,83.6999974456788,2|0,0:1|0:0,0:0:0:0:
266,384,71782,5,2,1:2:0:0:
84,204,71976,1,2,0:2:0:0:
266,384,72169,5,10,0:2:0:0:
373,155,72363,1,2,0:2:0:0:
153,264,72556,6,0,P|167:304|180:344,1,83.6999974456788,2|0,1:1|0:0,0:0:0:0:
269,186,72750,2,0,P|282:144|304:85,1,83.6999974456788,2|0,0:1|0:0,0:0:0:0:
64,23,72943,2,0,B|89:46|105:72|105:72|150:47|225:30,1,167.399994891358,10|0,0:1|1:2,0:0:0:0:
424,91,73234,1,8,0:0:0:0:
431,83,73330,6,0,P|446:37|461:-1,1,83.6999974456788,4|0,1:2|0:0,0:0:0:0:
360,249,73524,1,2,0:0:0:0:
348,244,73621,1,2,0:0:0:0:
337,239,73718,2,0,P|322:193|307:155,1,83.6999974456788,10|0,0:0|0:0,0:0:0:0:
511,155,73911,1,2,0:0:0:0:
76,357,74105,6,0,B|14:348|30:294|183:259|148:305,1,167.399994891358,10|0,0:0|1:2,0:0:0:0:
257,327,74395,1,2,0:0:0:0:
180,372,74492,6,0,P|154:338|153:274,1,83.6999974456788,8|0,0:0|0:0,0:0:0:0:
365,195,74685,2,0,P|327:209|304:244,1,83.6999974456788,2|0,1:2|0:0,0:0:0:0:
363,382,74879,5,2,1:2:0:0:
28,199,75072,1,2,0:0:0:0:
471,45,75266,1,10,0:0:0:0:
168,152,75459,5,2,0:0:0:0:
259,87,75556,1,0,0:0:0:0:
230,213,75653,2,0,B|178:213|160:172|164:170|166:165|135:125|84:134,1,167.399994891358,14|0,0:0|0:0,0:0:0:0:
339,325,76040,2,0,P|345:305|355:287,1,41.8499987228394,8|0,0:0|0:0,0:0:0:0:
287,384,76427,5,12,1:1:0:0:
256,192,76621,1,2,0:0:0:0:
225,0,76814,1,10,0:0:0:0:
201,270,77008,5,0,0:0:0:0:
197,279,77105,1,0,0:0:0:0:
193,288,77201,1,2,1:2:0:0:
370,198,77395,1,2,0:0:0:0:
204,89,77589,1,8,0:2:0:0:
259,198,77782,5,0,0:0:0:0:
259,185,77879,1,0,0:0:0:0:
248,192,77976,1,0,1:1:0:0:
64,223,78169,5,2,0:0:0:0:
256,192,78363,1,10,0:0:0:0:
448,161,78556,1,0,0:0:0:0:
166,175,78750,5,2,1:2:0:0:
286,277,78943,1,2,0:0:0:0:
314,122,79137,1,8,0:0:0:0:
117,377,79330,5,0,0:0:0:0:
83,328,79427,1,0,0:0:0:0:
131,290,79524,2,0,P|177:306|220:321,1,74.4,0|0,1:2|0:0,0:0:0:0:
421,242,79718,5,2,0:0:0:0:
418,234,79814,1,0,0:0:0:0:
411,236,79911,2,0,P|382:227|337:210,1,74.4,10|0,0:0|0:0,0:0:0:0:
156,115,80105,2,0,P|184:104|229:89,1,74.4,2|0,0:0|0:0,0:0:0:0:
304,9,80298,5,2,1:2:0:0:
252,186,80492,5,2,0:0:0:0:
252,198,80589,1,2,0:0:0:0:
263,191,80685,1,8,0:0:0:0:
207,374,80879,5,2,0:0:0:0:
156,298,80976,1,2,0:0:0:0:
199,384,81072,2,0,P|261:370|387:345,1,167.399994891358,2|2,1:2|0:0,0:0:0:0:
41,120,81459,6,0,P|103:106|162:89,1,83.6999974456788,10|0,0:0|0:0,0:0:0:0:
188,32,81653,2,0,P|250:18|309:1,1,83.6999974456788,2|0,0:0|0:0,0:0:0:0:
420,248,81847,5,2,1:2:0:0:
440,188,81943,1,0,0:0:0:0:
386,159,82040,1,0,0:0:0:0:
333,226,82137,5,2,0:0:0:0:
326,233,82234,2,0,P|288:243|241:258,1,65.0999980133057,8|0,0:0|0:0,0:0:0:0:
512,245,82427,6,0,P|352:197|193:144,1,334.799989782715,2|4,0:0|1:2,0:0:0:0:
60,367,82814,6,0,P|47:327|33:291,1,69.7500026607514,2|0,0:0|0:0,0:0:0:0:
10,218,83008,2,0,B|50:214|78:195|78:195|83:230|116:270,1,139.500005321503,10|0,0:0|0:0,0:0:0:0:
290,320,83298,1,0,0:0:0:0:
293,328,83395,6,0,B|269:335|241:349|241:349|231:315|205:282,1,111.599996594238,2|0,1:2|0:0,0:0:0:0:
311,152,83589,2,0,P|290:211|277:267,1,93,2|0,0:0|0:0,0:0:0:0:
140,335,83782,1,8,0:0:0:0:
40,88,83976,5,0,0:0:0:0:
77,172,84072,1,0,0:0:0:0:
52,78,84169,2,0,B|102:74|123:107|122:111|121:115|151:157|231:133,1,167.399994891358,0|0,1:2|0:0,0:0:0:0:
317,0,84556,6,0,B|245:0|270:51|178:55,1,139.500005321503,10|0,0:0|0:0,0:0:0:0:
267,241,84847,1,0,0:0:0:0:
274,235,84943,6,0,B|294:217|308:209|308:209|295:174|282:117,1,111.599996594238,2|0,1:2|0:0,0:0:0:0:
142,303,85137,2,0,B|106:283|106:283|166:294,1,93,2|0,0:0|0:0,0:0:0:0:
291,381,85330,1,8,0:0:0:0:
469,200,85524,5,0,0:0:0:0:
511,281,85621,1,0,0:0:0:0:
479,189,85718,2,0,B|470:124|470:124|462:117|462:117|443:-7,1,195.299994039917,0|0,1:2|0:0,0:0:0:0:
417,119,86105,6,0,B|373:133|373:133|327:73,1,102.300003121948,10|0,0:0|0:0,0:0:0:0:
245,130,86395,1,0,0:0:0:0:
330,0,86492,6,0,P|309:83|277:249,1,237.150004523277,2|2,1:2|0:0,0:0:0:0:
285,240,86879,1,8,0:0:0:0:
245,130,87072,6,0,P|232:89|215:46,1,65.0999980133057,2|0,0:0|0:0,0:0:0:0:
206,307,87266,1,4,1:2:0:0:
256,192,87363,12,0,88427,0:0:0:0:
38,300,88814,5,0,1:0:0:0:
58,384,89008,1,0,1:0:0:0:
451,189,89589,5,0,1:0:0:0:
431,273,89782,1,0,1:0:0:0:
81,63,90363,5,0,1:0:0:0:
101,147,90556,1,0,1:0:0:0:
387,0,91137,5,0,1:0:0:0:
367,84,91330,1,0,1:0:0:0:
38,324,91911,6,0,B|62:346|76:371|76:371|120:340|196:319,1,176.699995281601,4|2,1:2|3:2,0:0:0:0:
460,252,92298,2,0,P|374:255|340:177,1,167.399994891358,10|0,0:0|3:0,0:0:0:0:
343,183,92685,5,2,1:2:0:0:
369,290,92879,1,0,3:0:0:0:
360,300,92976,1,2,3:2:0:0:
353,310,93072,2,0,P|321:320|286:331,1,55.8,8|0,0:0|3:0,0:0:0:0:
5,201,93459,6,0,P|62:196|90:114,1,111.599996594238,2|2,1:2|3:2,0:0:0:0:
141,60,93750,1,0,0:0:0:0:
208,104,93847,1,10,0:0:0:0:
214,106,93943,1,0,3:0:0:0:
220,108,94040,2,0,P|256:96|288:87,1,55.7999982971192,2|2,3:2|0:0,0:0:0:0:
390,0,94234,1,0,1:2:0:0:
491,192,94427,6,0,B|478:206|478:206|417:188,1,60.4499972328187,2|0,0:0|3:0,0:0:0:0:
330,177,94621,2,0,B|317:163|317:163|257:181,1,65.0999980133057,10|2,0:1|0:1,0:0:0:0:
184,224,94814,2,0,P|157:216|95:203,1,88.3499976408005,2|2,0:1|0:1,0:0:0:0:
0,176,95008,5,4,1:2:0:0:
312,378,95201,1,2,1:2:0:0:
318,366,95298,1,2,0:0:0:0:
325,356,95395,1,2,0:1:0:0:
48,270,95782,5,2,1:2:0:0:
383,119,95976,1,0,1:2:0:0:
390,111,96072,1,2,0:0:0:0:
214,57,96265,6,0,B|201:31|201:31|234:9,2,55.7999982971192,2|0|2,0:0|0:0|0:0,0:0:0:0:
222,66,96556,6,0,P|175:78|83:96,1,83.6999974456788,2|0,1:2|0:0,0:0:0:0:
245,151,96750,2,0,P|204:159|163:170,1,83.6999974456788,0|0,1:2|0:0,0:0:0:0:
78,152,96943,1,2,0:1:0:0:
459,370,97330,6,0,P|481:311|495:277,1,83.6999974456788,2|0,1:2|0:0,0:0:0:0:
378,338,97524,2,0,P|393:299|407:259,1,83.6999974456788,0|0,1:2|0:0,0:0:0:0:
479,203,97718,1,2,0:1:0:0:
56,349,98105,6,0,P|38:281|15:208,1,111.599996594238,4|2,1:2|3:2,0:0:0:0:
314,62,98492,2,0,P|250:80|189:-6,1,167.399994891358,10|0,0:2|0:0,0:0:0:0:
194,7,98879,5,2,1:2:0:0:
236,108,99072,1,2,3:2:0:0:
229,121,99169,1,2,0:0:0:0:
222,135,99266,2,0,P|190:143|159:150,1,55.8,8|0,0:0|3:0,0:0:0:0:
16,111,99653,1,2,1:2:0:0:
293,372,99847,5,2,3:2:0:0:
313,319,99943,1,2,3:2:0:0:
265,283,100040,1,10,0:0:0:0:
201,335,100137,5,0,0:0:0:0:
200,342,100234,1,2,3:2:0:0:
198,349,100330,2,0,P|156:358|123:367,1,60.4499972328187,10|8,0:0|0:0,0:0:0:0:
24,297,100524,1,8,0:0:0:0:
30,302,100621,2,0,P|72:293|105:284,1,60.4499972328187,10|0,0:0|0:0,0:0:0:0:
249,195,100814,5,10,0:0:0:0:
251,187,100911,1,8,0:0:0:0:
255,178,101008,1,8,0:0:0:0:
258,169,101105,1,8,0:0:0:0:
262,161,101201,6,0,B|272:104|231:80|227:83|222:84|175:60|200:-22,2,186,2|8|2,1:1|0:0|3:2,0:0:0:0:
322,30,102169,1,2,1:2:0:0:
143,125,102362,1,10,0:0:0:0:
324,225,102556,1,2,3:2:0:0:
141,318,102750,6,0,P|81:300|93:176,2,186,2|8|0,1:1|0:0|3:0,0:0:0:0:
143,125,103718,1,2,1:2:0:0:
324,225,103911,1,10,0:0:0:0:
322,30,104105,1,2,3:2:0:0:
262,161,104298,6,0,B|272:104|231:80|227:83|222:84|175:60|200:-22,2,186,2|10|2,1:1|0:0|3:2,0:0:0:0:
322,30,105266,1,0,1:2:0:0:
189,206,105459,1,10,0:0:0:0:
189,206,105847,6,0,P|142:206|104:160,1,93,2|0,1:1|1:2,0:0:0:0:
83,59,106234,1,8,0:0:0:0:
34,133,106427,1,2,3:2:0:0:
159,109,106621,6,0,P|199:95|257:79,1,93,0|2,1:0|1:2,0:0:0:0:
348,0,107008,1,8,0:0:0:0:
506,211,107395,6,0,B|456:199|426:240|426:245|426:248|397:291|320:265,1,186,2|10,1:1|0:0,0:0:0:0:
275,203,107976,2,0,P|201:226|133:137,1,186,2|0,1:2|1:2,0:0:0:0:
87,270,108556,5,8,0:0:0:0:
4,303,108750,1,2,3:2:0:0:
29,210,108943,1,2,1:1:0:0:
177,366,109137,5,0,1:2:0:0:
177,366,109330,2,0,P|190:307|201:257,1,93,10|0,0:0|3:0,0:0:0:0:
141,198,109718,2,0,P|154:139|165:89,1,93,2|0,3:2|1:2,0:0:0:0:
127,0,110105,1,10,0:0:0:0:
311,214,110492,6,0,P|376:228|437:133,1,186,2|10,1:1|0:0,0:0:0:0:
509,82,111072,2,0,P|470:13|365:19,1,186,2|0,1:2|1:2,0:0:0:0:
276,3,111653,2,0,P|292:61|301:102,1,93,8|0,0:0|3:0,0:0:0:0:
381,22,112040,5,2,1:2:0:0:
197,67,112427,1,8,0:0:0:0:
381,22,112814,1,8,1:3:0:0:
442,86,113008,5,8,3:0:0:0:
494,57,113105,1,0,0:0:0:0:
482,0,113201,1,8,0:0:0:0:
300,355,113589,6,0,P|389:328|480:308,2,186,2|2|2,1:2|1:1|1:2,0:0:0:0:
245,278,114556,1,0,3:0:0:0:
156,331,114750,1,10,0:0:0:0:
96,179,114943,1,2,3:2:0:0:
0,315,115137,6,0,B|57:331|85:289|84:284|81:280|105:239|162:249,2,186,2|0|0,1:1|1:2|1:0,0:0:0:0:
96,179,116105,1,2,3:2:0:0:
175,357,116298,1,10,0:0:0:0:
302,267,116492,1,2,3:2:0:0:
381,384,116685,5,2,1:1:0:0:
210,279,117072,1,2,1:2:0:0:
313,118,117459,1,2,1:2:0:0:
476,207,117847,1,10,0:0:0:0:
381,384,118234,6,0,P|428:356|417:266,1,139.5,2|2,1:2|3:2,0:0:0:0:
421,274,118621,1,0,1:0:0:0:
499,227,118814,2,0,B|520:203|520:203|497:138,1,93,2|2,3:2|1:0,0:0:0:0:
381,159,119201,6,0,B|395:144|395:144|378:94,1,65.0999980133057,10|0,0:1|0:0,0:0:0:0:
465,73,119395,5,2,1:1:0:0:
468,69,119492,1,10,0:1:0:0:
473,65,119589,2,0,B|483:46|483:46|471:-1,1,65.0999980133057,10|2,0:1|3:1,0:0:0:0:
372,0,119782,5,6,1:1:0:0:
80,364,122685,5,2,0:0:0:0:
376,243,123459,1,2,0:0:0:0:
132,27,124234,1,2,0:0:0:0:
447,237,125782,6,0,P|430:290|417:345,1,111.599996594238,6|0,1:2|0:0,0:0:0:0:
508,90,126169,1,2,1:1:0:0:
505,82,126266,1,2,0:1:0:0:
504,74,126363,1,10,0:1:0:0:
405,15,126556,1,2,0:1:0:0:
373,157,126750,1,10,0:1:0:0:
262,103,126943,1,2,1:1:0:0:
210,207,127137,1,10,0:1:0:0:
129,181,127330,1,2,1:1:0:0:
458,270,127524,5,8,0:0:0:0:
454,262,127621,2,0,L|469:216,2,41.8499987228394,0|2|2,0:0|0:1|0:1,0:0:0:0:
394,320,127911,1,10,0:1:0:0:
373,157,128105,1,2,0:1:0:0:
234,230,128298,1,8,0:0:0:0:
192,108,128492,1,2,1:2:0:0:
96,141,128685,1,10,0:0:0:0:
42,86,128879,1,2,1:2:0:0:
0,303,129072,5,2,1:2:0:0:
491,84,129459,6,0,P|472:143|462:180,1,65.0999980133057,8|0,0:0|0:0,0:0:0:0:
398,204,129653,2,0,P|388:172|377:142,1,65.0999980133057,2|0,1:2|0:0,0:0:0:0:
398,20,129847,1,2,1:2:0:0:
159,380,130234,6,0,P|151:347|141:317,1,65.0999980133057,8|0,0:0|0:0,0:0:0:0:
75,266,130427,2,0,P|137:188|249:238,1,209.250007982254,2|0,1:2|0:0,0:0:0:0:
248,290,130814,5,2,1:2:0:0:
430,147,131008,1,2,1:0:0:0:
499,360,131201,1,2,1:0:0:0:
334,242,131395,6,0,P|349:199|364:164,1,60.4499972328187,2|0,1:0|0:0,0:0:0:0:
376,328,131589,2,0,P|361:371|346:406,1,60.4499972328187,2|0,1:1|0:0,0:0:0:0:
499,360,131782,6,0,P|355:307|199:262,1,306.900009365845,0|0,1:0|0:0,0:0:0:0:
33,118,132169,6,0,B|-9:99|31:37|138:78|150:224,1,232.5,14|2,1:0|0:0,0:0:0:0:
466,226,132556,2,0,B|532:202|521:66|357:131|341:215,1,251.099992337036,10|0,0:0|0:0,0:0:0:0:
354,184,132943,6,0,P|366:239|389:292,1,83.6999974456788,2|0,1:2|0:0,0:0:0:0:
228,80,133137,2,0,P|241:38|249:0,1,83.6999974456788,2|0,0:0|0:0,0:0:0:0:
485,42,133330,5,10,0:0:0:0:
418,106,133427,1,0,0:0:0:0:
495,37,133524,2,0,P|428:17|386:3,1,83.6999974456788,2|0,0:0|0:0,0:0:0:0:
256,212,133718,6,0,B|209:206|189:166|193:164|196:160|166:122|116:124,1,167.399994891358,0|2,1:0|0:0,0:0:0:0:
53,238,134008,1,0,0:0:0:0:
60,245,134105,2,0,B|90:260|90:260|141:219,1,83.6999974456788,10|0,0:0|0:0,0:0:0:0:
0,65,134298,2,0,P|16:128|22:169,1,83.6999974456788,2|0,0:0|0:0,0:0:0:0:
312,4,134492,5,2,1:2:0:0:
121,123,134685,1,2,0:0:0:0:
344,251,134879,1,10,0:0:0:0:
198,63,135072,5,2,0:0:0:0:
229,146,135169,1,0,0:0:0:0:
186,55,135266,2,0,P|261:37|361:7,1,167.399994891358,0|2,1:0|0:1,0:0:0:0:
477,49,135556,1,2,0:1:0:0:
416,206,135653,6,0,P|374:213|237:255,1,167.399994891358,10|2,0:1|0:0,0:0:0:0:
158,197,135943,1,0,0:0:0:0:
308,110,136040,6,0,P|327:177|337:205,1,83.6999974456788,2|0,1:2|0:0,0:0:0:0:
117,29,136234,1,2,0:1:0:0:
121,22,136330,1,2,0:1:0:0:
49,103,136427,2,0,P|68:157|78:198,1,83.6999974456788,8|0,0:0|0:0,0:0:0:0:
254,248,136621,2,0,P|265:288|279:327,1,83.6999974456788,2|2,0:0|0:0,0:0:0:0:
10,360,136814,6,0,P|43:290|150:296,1,167.399994891358,2|0,1:2|0:0,0:0:0:0:
179,194,137105,1,0,0:0:0:0:
213,367,137201,2,0,P|287:335|460:288,1,251.099992337036,10|0,0:0|0:0,0:0:0:0:
459,295,137589,1,2,1:2:0:0:
195,48,137782,5,2,0:1:0:0:
142,113,137879,1,0,0:0:0:0:
191,35,137976,2,0,P|236:53|280:65,1,83.6999974456788,10|0,0:1|0:0,0:0:0:0:
448,96,138169,5,0,1:0:0:0:
510,36,138266,1,8,0:0:0:0:
401,11,138363,2,0,P|420:93|437:233,1,167.399994891358,6|2,1:2|0:2,0:0:0:0:
244,367,138750,6,0,P|166:350|152:239,1,167.399994891358,10|2,0:2|0:2,0:0:0:0:
308,148,139040,1,0,0:0:0:0:
299,242,139137,6,0,P|256:254|197:272,1,83.6999974456788,2|0,1:2|0:0,0:0:0:0:
133,104,139330,2,0,P|176:92|235:74,1,83.6999974456788,2|0,0:2|0:0,0:0:0:0:
440,74,139524,5,10,0:2:0:0:
374,14,139621,1,0,0:0:0:0:
451,67,139718,2,0,P|435:131|428:164,1,83.6999974456788,2|0,0:0|0:0,0:0:0:0:
329,324,139911,6,0,B|377:326|403:290|399:288|398:283|434:249|482:253,1,167.399994891358,0|2,1:0|0:2,0:0:0:0:
354,206,140201,1,0,0:0:0:0:
349,212,140298,2,0,B|321:222|321:222|271:167,1,83.6999974456788,10|0,0:2|0:0,0:0:0:0:
177,331,140492,2,0,P|131:346|89:362,1,83.6999974456788,2|0,0:2|0:0,0:0:0:0:
64,73,140685,5,2,1:2:0:0:
225,250,140879,1,2,0:2:0:0:
0,341,141072,1,10,0:2:0:0:
153,122,141266,5,2,0:2:0:0:
123,205,141363,1,0,0:0:0:0:
147,112,141459,2,0,P|226:96|322:74,1,167.399994891358,0|2,1:0|0:1,0:0:0:0:
421,280,141750,1,2,0:1:0:0:
486,217,141847,6,0,P|473:158|465:114,1,83.6999974456788,10|0,0:1|0:0,0:0:0:0:
205,13,142040,2,0,P|228:93|243:175,1,167.399994891358,2|0,0:1|1:2,0:0:0:0:
156,374,142330,1,0,0:0:0:0:
103,311,142427,5,2,0:1:0:0:
102,303,142524,1,2,0:1:0:0:
101,296,142621,2,0,P|57:285|12:271,1,83.6999974456788,10|0,0:1|0:0,0:0:0:0:
293,273,142814,2,0,P|249:262|204:248,1,83.6999974456788,2|0,0:1|0:0,0:0:0:0:
394,49,143008,5,2,1:2:0:0:
146,181,143201,1,2,0:2:0:0:
350,366,143395,5,10,0:2:0:0:
146,181,143589,1,2,0:2:0:0:
443,234,143782,6,0,P|421:309|416:342,1,83.6999974456788,2|0,1:1|0:0,0:0:0:0:
320,113,143976,2,0,P|310:72|297:32,1,83.6999974456788,2|0,0:1|0:0,0:0:0:0:
212,250,144169,2,0,B|187:273|171:299|171:299|130:272|56:247,1,167.399994891358,10|0,0:1|1:2,0:0:0:0:
19,30,144459,1,8,0:0:0:0:
11,25,144556,6,0,P|29:85|35:122,1,83.6999974456788,4|0,1:2|0:0,0:0:0:0:
146,181,144750,1,2,0:0:0:0:
153,177,144847,1,2,0:0:0:0:
161,174,144943,2,0,P|174:132|192:89,1,83.6999974456788,10|0,0:0|0:0,0:0:0:0:
4,285,145137,1,2,0:0:0:0:
405,62,145330,6,0,B|434:30|391:11|287:47|292:112,1,167.399994891358,10|0,0:0|1:2,0:0:0:0:
352,186,145621,1,2,0:0:0:0:
433,144,145718,6,0,P|480:155|519:174,1,83.6999974456788,8|0,0:0|0:0,0:0:0:0:
335,271,145911,2,0,P|298:291|272:324,1,83.6999974456788,2|0,1:2|0:0,0:0:0:0:
411,365,146105,5,2,1:2:0:0:
50,206,146298,1,2,0:0:0:0:
490,27,146492,1,10,0:0:0:0:
180,265,146685,5,2,0:0:0:0:
124,144,146782,1,0,0:0:0:0:
249,207,146879,2,0,B|300:197|310:154|306:153|303:148|327:103|379:103,1,167.399994891358,10|0,0:0|0:0,0:0:0:0:
183,39,147266,2,0,P|178:18|170:0,1,41.8499987228394,8|0,0:0|0:0,0:0:0:0:
255,79,147653,5,14,1:1:0:0:
86,256,147847,5,2,0:0:0:0:
31,213,147943,1,2,0:0:0:0:
30,160,148040,1,2,3:2:0:0:
59,121,148137,1,2,0:0:0:0:
96,116,148234,1,2,0:0:0:0:
113,127,148330,1,2,0:0:0:0:
118,136,148427,6,0,P|108:165|102:186,1,46.5,10|0,0:0|0:0,0:0:0:0:
45,331,148621,1,2,0:0:0:0:
42,324,148718,1,2,0:0:0:0:
45,318,148814,1,2,3:2:0:0:
51,318,148911,1,0,0:0:0:0:
54,323,149008,1,2,0:0:0:0:
54,328,149105,1,2,0:0:0:0:
51,332,149201,6,0,P|21:321|-17:314,1,55.7999982971192,2|0,1:2|0:0,0:0:0:0:
185,236,149395,5,2,0:0:0:0:
218,221,149492,1,2,0:0:0:0:
263,233,149589,1,2,3:2:0:0:
287,285,149685,1,2,0:0:0:0:
341,326,149782,1,2,1:2:0:0:
423,307,149879,1,2,0:0:0:0:
458,215,149976,6,0,P|448:180|430:121,1,74.4,10|0,0:0|0:0,0:0:0:0:
266,42,150169,1,2,0:0:0:0:
271,50,150266,1,2,0:0:0:0:
345,90,150363,6,0,P|383:74|424:59,1,74.4,2|0,3:2|0:0,0:0:0:0:
275,229,150556,2,0,P|240:214|205:202,1,74.4,2|2,0:0|0:0,0:0:0:0:
130,10,150750,1,2,1:2:0:0:
0,296,150943,5,2,0:0:0:0:
105,253,151040,1,2,0:0:0:0:
123,367,151137,1,2,3:2:0:0:
201,319,151234,1,2,0:0:0:0:
262,373,151330,1,2,0:0:0:0:
330,337,151427,1,2,0:0:0:0:
392,384,151524,2,0,P|429:374|470:364,1,60.4499972328187,10|0,0:0|0:0,0:0:0:0:
503,141,151718,5,2,0:0:0:0:
476,130,151814,1,2,0:0:0:0:
481,158,151911,1,2,3:2:0:0:
460,149,152008,1,0,0:0:0:0:
461,166,152105,1,2,0:0:0:0:
451,165,152201,1,2,0:0:0:0:
448,174,152298,6,0,P|387:145|319:118,1,111.599996594238,4|0,1:3|3:2,0:0:0:0:
326,220,152589,2,0,B|311:231|311:231|274:239|239:251,1,93,0|0,1:2|0:0,0:0:0:0:
184,180,152879,2,0,P|148:167|113:156,1,74.4,0|0,1:2|0:0,0:0:0:0:
0,228,153072,5,8,0:0:0:0:
54,205,153169,1,8,0:0:0:0:
38,150,153266,1,0,0:0:0:0:
73,117,153363,1,0,0:0:0:0:
10,63,153459,6,0,L|2:26,1,37.2,2|8,3:1|3:3,0:0:0:0:
1,20,153750,1,0,0:0:0:0:
0,12,153847,1,0,1:2:0:0:
77,320,154040,5,2,0:0:0:0:
135,249,154137,1,2,0:0:0:0:
218,269,154234,1,2,3:2:0:0:
234,320,154330,1,2,0:0:0:0:
271,349,154427,1,2,0:0:0:0:
312,342,154524,1,2,0:0:0:0:
325,328,154621,2,0,P|331:300|341:261,1,46.5,10|0,0:0|0:0,0:0:0:0:
360,41,154814,5,2,0:0:0:0:
357,36,154911,1,2,0:0:0:0:
359,32,155008,1,2,3:2:0:0:
365,31,155105,1,0,0:0:0:0:
369,34,155201,1,2,0:0:0:0:
370,41,155298,1,2,0:0:0:0:
364,45,155395,2,0,P|325:31|282:21,1,55.7999982971192,2|0,1:2|0:0,0:0:0:0:
499,215,155589,5,2,0:0:0:0:
483,179,155685,1,2,0:0:0:0:
436,151,155782,1,2,3:2:0:0:
364,172,155879,1,2,0:0:0:0:
335,256,155976,1,2,1:2:0:0:
242,285,156072,1,2,0:0:0:0:
170,206,156169,6,0,P|160:158|148:113,1,74.4,10|0,0:0|0:0,0:0:0:0:
12,2,156363,1,2,0:0:0:0:
10,11,156459,1,2,0:0:0:0:
80,70,156556,6,0,P|125:57|179:41,1,74.4,2|0,3:2|0:0,0:0:0:0:
348,147,156750,2,0,P|305:158|249:176,1,74.4,2|2,0:0|0:0,0:0:0:0:
204,303,156943,1,2,1:2:0:0:
381,43,157137,5,2,0:0:0:0:
488,78,157234,1,2,0:0:0:0:
432,159,157330,1,2,3:2:0:0:
497,228,157427,1,2,0:0:0:0:
420,266,157524,1,2,0:0:0:0:
468,322,157621,1,2,0:0:0:0:
405,358,157718,2,0,P|370:368|332:382,1,60.4499972328187,10|0,0:0|0:0,0:0:0:0:
60,186,157911,5,2,0:0:0:0:
108,159,158008,1,2,0:0:0:0:
96,208,158105,1,2,3:2:0:0:
127,193,158201,1,0,0:0:0:0:
130,222,158298,1,2,0:0:0:0:
146,224,158395,1,2,0:0:0:0:
152,232,158492,6,0,P|211:210|281:190,1,111.599996594238,0|2,1:2|0:0,0:0:0:0:
324,70,158782,1,2,0:0:0:0:
316,65,158879,6,0,P|249:88|191:107,1,93,2|2,3:2|1:2,0:0:0:0:
189,307,159169,1,2,0:0:0:0:
265,335,159266,6,0,P|330:312|353:304,1,69.7500026607514,10|0,0:2|0:0,0:0:0:0:
421,238,159459,1,2,1:2:0:0:
425,231,159556,1,2,0:0:0:0:
425,376,159653,6,0,P|403:285|363:134,1,223.2,10|0,0:2|3:2,0:0:0:0:
364,153,160040,1,6,1:1:0:0:
500,1,160234,5,2,0:0:0:0:
458,80,160427,1,2,1:2:0:0:
376,49,160621,1,2,0:0:0:0:
287,211,160814,5,10,0:0:0:0:
246,132,161008,1,2,0:0:0:0:
245,124,161105,1,2,0:0:0:0:
163,163,161298,1,0,0:0:0:0:
160,171,161395,1,2,0:0:0:0:
17,38,161589,6,0,P|36:116|51:183,1,111.599996594238,2|2,1:2|0:0,0:0:0:0:
202,244,161976,2,0,P|170:325|152:385,1,111.599996594238,2|0,1:2|0:0,0:0:0:0:
108,4,162363,5,10,0:1:0:0:
287,211,162556,1,2,0:1:0:0:
17,38,162750,1,2,1:1:0:0:
435,366,163137,5,6,1:1:0:0:
511,140,163330,5,2,0:0:0:0:
461,216,163524,1,2,1:2:0:0:
386,177,163718,1,2,0:0:0:0:
283,330,163911,5,10,0:0:0:0:
211,271,164105,1,2,0:0:0:0:
209,264,164201,1,2,0:0:0:0:
154,343,164395,1,0,0:0:0:0:
150,347,164492,1,2,0:0:0:0:
63,187,164685,6,0,P|49:113|33:47,1,111.599996594238,2|2,1:2|0:0,0:0:0:0:
283,330,165072,2,0,P|308:260|335:203,1,111.599996594238,2|0,1:2|0:0,0:0:0:0:
31,275,165459,5,10,0:1:0:0:
230,109,165653,1,2,0:1:0:0:
0,370,165847,1,10,0:1:0:0:
502,83,166234,5,6,1:1:0:0:
209,0,166427,5,2,0:0:0:0:
299,42,166621,1,2,1:2:0:0:
230,109,166814,1,2,0:0:0:0:
324,206,167008,5,10,0:0:0:0:
188,281,167201,1,2,0:0:0:0:
186,288,167298,1,2,0:0:0:0:
262,373,167492,1,0,0:0:0:0:
267,377,167589,1,2,0:0:0:0:
148,142,167782,6,0,P|67:119|9:99,1,111.599996594238,2|2,1:2|0:0,0:0:0:0:
346,308,168169,2,0,P|427:331|484:351,1,111.599996594238,2|0,1:2|0:0,0:0:0:0:
82,280,168556,5,10,0:1:0:0:
221,29,168750,1,2,0:1:0:0:
266,384,168943,1,2,1:1:0:0:
148,214,169330,5,4,1:2:0:0:
82,280,169718,5,10,0:0:0:0:
148,214,169911,1,2,0:0:0:0:
184,311,170105,1,2,3:2:0:0:
286,193,170298,1,2,1:2:0:0:
322,362,170492,1,10,0:0:0:0:
422,149,170685,1,2,0:0:0:0:
488,384,170878,6,0,P|439:364|399:329,1,83.6999974456788,0|2,3:0|1:2,0:0:0:0:
362,209,171265,1,10,0:0:0:0:
322,362,171459,6,0,P|408:323|528:283,1,204.600006243897,2|2,3:2|1:2,0:0:0:0:
340,127,172040,5,10,0:0:0:0:
424,267,172234,1,2,3:2:0:0:
474,51,172427,1,2,1:2:0:0:
73,368,172814,6,0,B|47:354|47:354|27:263,1,93,8|2,0:0|0:0,0:0:0:0:
144,185,173201,2,0,P|132:230|120:275,1,93,0|0,3:0|1:0,0:0:0:0:
79,122,173589,1,8,0:2:0:0:
76,115,173782,1,2,0:0:0:0:
211,254,173976,6,0,B|270:259|291:216|288:212|287:207|312:155|387:173,2,186,2|10|2,3:2|0:0|1:2,0:0:0:0:
274,194,174943,1,0,1:0:0:0:
170,361,175137,1,10,0:0:0:0:
20,139,175330,5,0,3:0:0:0:
20,130,175427,1,0,3:0:0:0:
16,123,175524,2,0,P|87:96|165:166,1,186,6|10,1:2|0:1,0:0:0:0:
246,71,176105,1,2,0:1:0:0:
257,217,176298,1,10,0:1:0:0:
352,123,176492,1,2,1:1:0:0:
386,235,176685,1,10,0:1:0:0:
452,181,176879,1,2,1:1:0:0:
512,223,177072,1,8,0:0:0:0:
116,323,177266,6,0,P|106:290|98:264,2,46.5,2|2|10,0:1|0:1|0:1,0:0:0:0:
209,359,177653,1,2,0:1:0:0:
239,232,177847,1,8,0:0:0:0:
333,310,178040,1,2,1:2:0:0:
386,235,178234,1,10,0:0:0:0:
451,284,178427,1,2,1:2:0:0:
512,78,178621,5,2,1:2:0:0:
35,332,179008,6,0,P|24:298|8:253,1,65.0999980133057,10|0,0:1|0:0,0:0:0:0:
107,295,179201,2,0,P|96:264|86:233,1,65.0999980133057,2|0,1:2|0:0,0:0:0:0:
28,175,179395,1,2,1:2:0:0:
426,17,179782,6,0,P|415:53|406:85,1,65.0999980133057,10|0,0:1|0:0,0:0:0:0:
452,154,179976,2,0,P|346:173|306:60,1,209.250007982254,2|0,1:2|0:0,0:0:0:0:
249,26,180363,5,2,1:1:0:0:
28,175,180556,1,10,1:1:0:0:
291,277,180750,1,2,1:1:0:0:
94,83,180943,6,0,P|106:136|111:164,1,60.4499972328187,10|0,1:1|0:0,0:0:0:0:
205,208,181137,2,0,P|193:155|188:127,1,60.4499972328187,2|0,1:1|0:0,0:0:0:0:
28,175,181330,5,8,1:1:0:0:
249,26,181524,1,0,0:1:0:0:
152,303,181718,1,4,0:0:0:0:
152,303,182685,6,0,B|230:293|207:351|303:343,1,139.499995742798,2|0,0:0|0:0,0:0:0:0:
289,338,183265,1,8,0:0:0:0:
265,196,189314,6,0,L|263:178,3,18.6,8|8|8|10,0:0|0:0|0:0|1:2,0:0:0:0:
256,192,192555,12,0,193233,0:0:0:0:
256,192,193330,12,0,194008,1:0:0:0:
303,20,194105,5,2,3:2:0:0:
162,129,194492,1,2,0:2:0:0:
353,200,194879,1,2,0:2:0:0:
314,115,195072,5,2,0:0:0:0:
227,369,195266,2,0,P|314:320|518:250,1,306.900009365845,10|0,0:0|0:0,0:0:0:0:
268,241,195653,6,0,B|227:248|226:145|341:170|406:278,1,232.5,14|2,1:0|0:0,0:0:0:0:
89,341,196040,2,0,B|39:406|-91:289|100:187,1,251.099992337036,10|0,0:0|0:0,0:0:0:0:
67,206,196427,6,0,P|123:228|174:244,1,83.6999974456788,2|0,1:2|0:0,0:0:0:0:
283,75,196621,2,0,P|249:99|218:128,1,83.6999974456788,2|0,0:0|0:0,0:0:0:0:
26,13,196814,5,10,0:0:0:0:
63,91,196911,1,0,0:0:0:0:
37,3,197008,2,0,P|91:18|126:26,1,83.6999974456788,2|0,0:0|0:0,0:0:0:0:
230,214,197201,6,0,P|309:189|408:170,1,167.399994891358,0|2,1:0|0:0,0:0:0:0:
511,81,197492,1,0,0:0:0:0:
445,13,197589,2,0,P|425:71|417:107,1,83.6999974456788,10|0,0:0|0:0,0:0:0:0:
410,273,197782,2,0,P|368:267|328:227,1,83.6999974456788,2|0,0:0|0:0,0:0:0:0:
283,75,197976,5,2,1:2:0:0:
234,353,198169,1,2,0:0:0:0:
510,208,198363,1,10,0:0:0:0:
195,125,198556,5,2,0:0:0:0:
249,198,198653,1,0,0:0:0:0:
202,114,198750,2,0,B|156:103|124:134|127:137|128:142|86:169|40:157,1,167.399994891358,0|2,1:0|0:1,0:0:0:0:
25,76,199040,1,2,0:1:0:0:
118,244,199137,6,0,B|166:228|198:259|195:262|194:267|233:296|280:275,1,167.399994891358,10|2,0:1|0:0,0:0:0:0:
404,165,199427,1,0,0:0:0:0:
375,359,199524,6,0,P|368:320|357:277,1,83.6999974456788,2|0,1:2|0:0,0:0:0:0:
507,120,199718,1,2,0:1:0:0:
510,111,199814,1,2,0:1:0:0:
425,81,199911,2,0,P|418:42|407:-1,1,83.6999974456788,8|0,0:0|0:0,0:0:0:0:
215,123,200105,2,0,P|208:84|197:41,1,83.6999974456788,2|0,0:0|0:0,0:0:0:0:
509,262,200298,6,0,P|462:196|365:210,1,167.399994891358,2|0,1:2|0:0,0:0:0:0:
306,81,200589,1,0,0:0:0:0:
273,277,200685,2,0,P|171:303|-7:356,1,251.099992337036,10|0,0:0|0:0,0:0:0:0:
20,340,201072,1,2,1:2:0:0:
219,77,201266,5,2,0:1:0:0:
171,159,201363,1,0,0:0:0:0:
111,67,201459,2,0,P|160:59|204:50,1,83.6999974456788,10|0,0:1|0:0,0:0:0:0:
367,300,201653,5,0,1:0:0:0:
421,218,201750,1,8,0:0:0:0:
375,312,201847,2,0,P|297:307|247:393,1,167.399994891358,6|2,1:2|0:2,0:0:0:0:
0,151,202234,6,0,P|79:138|135:210,1,167.399994891358,10|2,0:2|0:2,0:0:0:0:
85,283,202524,1,0,0:0:0:0:
231,209,202621,6,0,P|213:156|197:111,1,83.6999974456788,2|0,1:2|0:0,0:0:0:0:
94,291,202814,2,0,P|111:334|128:389,1,83.6999974456788,2|0,0:2|0:0,0:0:0:0:
339,32,203008,5,10,0:2:0:0:
292,106,203105,1,0,0:0:0:0:
351,28,203201,2,0,P|300:10|260:-6,1,83.6999974456788,2|0,0:0|0:0,0:0:0:0:
354,204,203395,6,0,P|427:173|523:149,1,167.399994891358,0|2,1:0|0:2,0:0:0:0:
386,108,203685,1,0,0:0:0:0:
461,74,203782,2,0,B|482:50|482:50|470:-1,1,83.6999974456788,10|0,0:2|0:0,0:0:0:0:
259,175,203976,2,0,P|274:233|281:271,1,83.6999974456788,2|0,0:2|0:0,0:0:0:0:
459,384,204169,5,2,1:2:0:0:
411,298,204266,1,0,0:0:0:0:
331,361,204363,2,0,P|285:344|239:332,1,83.6999974456788,2|0,0:2|0:0,0:0:0:0:
121,163,204556,1,10,0:2:0:0:
45,358,204750,5,2,0:2:0:0:
0,280,204847,1,0,0:0:0:0:
36,369,204943,2,0,B|86:367|106:327|102:325|99:321|126:280|177:284,1,167.399994891358,0|2,1:0|0:1,0:0:0:0:
349,179,205234,1,2,0:1:0:0:
426,243,205330,6,0,P|382:257|325:280,1,83.6999974456788,10|0,0:1|0:0,0:0:0:0:
177,367,205523,2,0,P|157:263|125:164,1,167.399994891358,2|0,0:1|1:2,0:0:0:0:
441,12,205911,5,2,0:1:0:0:
365,67,206008,1,2,0:1:0:0:
424,143,206105,2,0,P|468:132|512:124,1,83.6999974456788,10|0,0:1|0:0,0:0:0:0:
331,246,206297,2,0,P|254:209|215:196,1,83.6999974456788,2|0,0:1|0:0,0:0:0:0:
115,6,206491,1,2,1:2:0:0:
289,129,206685,5,2,0:2:0:0:
230,100,206781,1,0,0:0:0:0:
191,152,206878,1,10,0:2:0:0:
0,272,207072,5,2,0:2:0:0:
95,239,207168,1,0,0:0:0:0:
123,336,207265,2,0,P|174:351|209:366,1,83.6999974456788,2|0,1:1|0:0,0:0:0:0:
255,209,207459,2,0,P|277:264|288:299,1,83.6999974456788,2|0,0:1|0:0,0:0:0:0:
387,384,207652,2,0,P|412:307|460:194,1,167.399994891358,10|0,0:1|1:2,0:0:0:0:
342,33,207943,1,8,0:0:0:0:
264,87,208039,6,0,P|254:46|242:6,1,83.6999974456788,4|0,1:2|0:0,0:0:0:0:
432,2,208233,1,2,0:0:0:0:
494,67,208330,1,2,0:0:0:0:
427,129,208426,2,0,P|388:140|340:159,1,83.6999974456788,10|0,0:0|0:0,0:0:0:0:
512,188,208620,1,2,0:0:0:0:
110,345,208814,6,0,B|88:388|-16:330|34:230|65:231,1,167.399994891358,10|0,0:0|1:2,0:0:0:0:
109,168,209104,1,2,0:0:0:0:
201,233,209201,6,0,P|144:256|107:282,1,83.6999974456788,8|0,0:0|0:0,0:0:0:0:
284,103,209394,2,0,P|259:70|224:49,1,83.6999974456788,2|0,1:2|0:0,0:0:0:0:
216,327,209588,5,10,0:0:0:0:
79,21,209781,1,2,0:0:0:0:
469,167,209975,1,10,0:0:0:0:
125,267,210168,5,2,0:0:0:0:
160,147,210265,1,0,0:0:0:0:
53,205,210362,2,0,P|75:282|98:413,1,167.399994891358,10|0,0:0|1:0,0:0:0:0:
410,46,210749,2,0,P|388:123|365:254,1,167.399994891358,8|0,0:0|1:0,0:0:0:0:
391,304,211039,1,0,0:0:0:0:
456,373,211136,1,4,1:2:0:0:
177,134,211330,5,2,0:0:0:0:
229,217,211426,1,2,0:0:0:0:
271,100,211523,2,0,P|282:60|292:20,1,83.6999974456788,10|0,0:0|0:0,0:0:0:0:
105,218,211717,2,0,P|86:181|61:148,1,83.6999974456788,2|0,0:0|0:0,0:0:0:0:
0,0,211910,6,0,P|83:28|186:46,1,167.399994891358,10|0,0:0|1:2,0:0:0:0:
502,291,212297,2,0,P|419:307|340:334,1,167.399994891358,8|2,0:0|1:2,0:0:0:0:
231,384,212588,1,0,0:0:0:0:
149,302,212685,5,10,0:0:0:0:
310,15,212878,1,2,0:0:0:0:
442,384,213072,1,10,0:0:0:0:
215,82,213265,5,2,0:0:0:0:
171,166,213362,1,0,0:0:0:0:
204,69,213459,2,0,P|287:65|334:148,1,167.399994891358,10|0,0:0|1:0,0:0:0:0:
490,283,213846,6,0,P|409:277|360:341,1,167.399994891358,8|0,0:0|1:0,0:0:0:0:
442,384,214136,1,0,0:0:0:0:
377,246,214233,1,4,1:2:0:0:
72,338,214426,5,2,0:0:0:0:
105,236,214523,1,2,0:0:0:0:
63,351,214620,2,0,P|115:325|229:293,1,167.399994891358,10|2,0:0|0:0,0:0:0:0:
510,127,215007,6,0,B|460:125|440:85|444:83|447:79|420:38|369:42,1,167.399994891358,2|0,1:2|1:2,0:0:0:0:
294,107,215297,1,2,0:0:0:0:
377,246,215394,2,0,P|394:201|422:148,1,83.6999974456788,8|0,0:0|0:0,0:0:0:0:
152,0,215588,5,2,0:0:0:0:
191,105,215685,1,0,0:0:0:0:
72,58,215781,2,0,P|-7:108|16:182,1,167.399994891358,2|2,1:2|0:0,0:0:0:0:
259,360,216168,6,0,P|305:344|346:334,1,83.6999974456788,10|0,0:0|0:0,0:0:0:0:
506,189,216362,1,2,0:0:0:0:
377,246,216459,1,0,0:0:0:0:
509,358,216555,5,10,0:0:0:0:
254,248,216749,1,0,1:2:0:0:
0,138,216943,1,10,0:0:0:0:
308,151,217136,5,0,1:2:0:0:
254,248,217233,1,0,1:0:0:0:
211,350,217330,2,0,P|328:311|457:282,1,251.099992337036,14|0,0:0|0:0,0:0:0:0:
509,358,217717,5,8,0:0:0:0:
164,205,217910,1,2,0:0:0:0:
509,35,218104,5,10,0:0:0:0:
339,384,218297,1,0,1:2:0:0:
207,10,218491,5,8,0:0:0:0:
269,64,218588,1,8,3:0:0:0:
289,144,218685,1,0,1:2:0:0:
353,92,218781,1,8,1:2:0:0:
435,88,218878,1,8,0:0:0:0:
509,35,220039,5,2,0:0:0:0:
2,376,220426,6,0,P|48:360|89:352,1,69.7500026607514,12|0,1:1|0:0,0:0:0:0:
124,276,220620,2,0,P|160:295|206:312,1,69.7500026607514,2|0,0:0|0:0,0:0:0:0:
466,249,220814,6,0,B|438:258|409:275|409:275|386:235|336:179,1,167.399994891358,10|0,0:0|0:0,0:0:0:0:
442,53,221104,1,0,0:0:0:0:
448,59,221201,6,0,B|455:74|468:93|468:93|454:123|440:158,1,111.599996594238,2|0,1:2|0:0,0:0:0:0:
327,370,221394,2,0,P|319:331|299:280,1,93,2|0,0:0|0:0,0:0:0:0:
475,343,221588,1,8,0:2:0:0:
261,137,221781,5,0,0:0:0:0:
196,198,221877,1,0,0:0:0:0:
273,146,221975,2,0,P|281:107|300:41,1,69.7500026607514,0|0,1:1|0:0,0:0:0:0:
111,26,222168,2,0,P|78:14|46:0,1,69.7500026607514,2|0,0:0|0:0,0:0:0:0:
62,242,222362,6,0,B|84:216|106:198|106:198|85:163|61:84,1,167.399994891358,10|0,0:0|0:0,0:0:0:0:
236,277,222652,1,0,0:0:0:0:
241,286,222749,6,0,B|224:296|211:311|211:311|185:293|122:272,1,111.599996594238,2|0,1:2|0:0,0:0:0:0:
171,95,222943,2,0,B|191:77|191:77|205:40|215:15,1,93,2|0,0:0|0:0,0:0:0:0:
57,119,223136,1,8,0:0:0:0:
318,204,223330,5,0,0:0:0:0:
399,162,223426,1,0,0:0:0:0:
327,222,223523,2,0,P|358:235|389:252,1,69.7500026607514,0|0,1:2|0:0,0:0:0:0:
432,73,223717,2,0,P|417:36|404:-7,1,69.7500026607514,2|0,0:0|0:0,0:0:0:0:
512,266,223910,6,0,P|421:301|343:353,1,167.399994891358,10|2,0:0|0:0,0:0:0:0:
284,382,224201,1,0,0:0:0:0:
205,267,224297,6,0,P|148:237|26:195,1,167.399994891358,2|2,1:2|0:0,0:0:0:0:
0,272,224588,1,2,0:0:0:0:
91,324,224685,6,0,P|125:237|166:154,1,186,8|2,0:0|0:0,0:0:0:0:
153,35,224975,1,2,0:0:0:0:
149,23,225072,1,2,1:2:0:0:
240,212,225265,6,0,P|288:185|304:146,1,83.6999974456788,2|0,0:0|0:0,0:0:0:0:
68,101,225459,2,0,P|41:73|-11:56,1,83.6999974456788,10|0,0:0|0:0,0:0:0:0:
342,81,225652,2,0,P|330:41|304:8,1,83.6999974456788,2|0,0:0|0:0,0:0:0:0:
104,228,225846,5,2,1:2:0:0:
82,288,225943,1,0,0:0:0:0:
131,321,226039,1,0,0:0:0:0:
199,274,226136,5,2,0:0:0:0:
205,267,226233,2,0,P|214:231|224:198,1,69.7500026607514,8|0,0:0|0:0,0:0:0:0:
199,384,226426,6,0,P|177:246|149:109,1,279.000010643006,2|4,0:0|1:2,0:0:0:0:
410,335,226814,6,0,P|421:296|442:242,1,69.7500026607514,2|0,0:0|0:0,0:0:0:0:
509,146,227007,2,0,B|482:168|464:189|464:189|418:163|343:137,1,167.399994891358,10|0,0:0|0:0,0:0:0:0:
444,5,227297,1,0,0:0:0:0:
449,0,227394,6,0,B|464:22|478:34|478:34|456:63|437:111,1,111.599996594238,2|0,1:2|0:0,0:0:0:0:
268,255,227588,2,0,B|293:260|293:260|327:242|361:231,1,93,2|0,0:0|0:0,0:0:0:0:
314,83,227781,1,8,0:0:0:0:
69,289,227975,5,0,0:0:0:0:
5,212,228072,1,0,0:0:0:0:
80,281,228168,2,0,P|65:335|60:361,1,69.7500026607514,0|0,1:2|0:0,0:0:0:0:
190,210,228362,2,0,P|221:183|257:160,1,69.7500026607514,2|0,0:0|0:0,0:0:0:0:
32,2,228555,6,0,P|56:69|83:182,1,167.399994891358,10|0,0:0|0:0,0:0:0:0:
172,87,228846,1,0,0:0:0:0:
181,91,228943,6,0,B|204:79|220:73|220:73|230:43|249:-2,1,111.599996594238,2|0,1:2|0:0,0:0:0:0:
312,223,229136,2,0,B|351:252|351:252|313:196,1,93,2|0,0:0|0:0,0:0:0:0:
131,9,229330,1,8,0:0:0:0:
448,135,229523,5,0,0:0:0:0:
479,53,229620,1,0,0:0:0:0:
459,143,229717,2,0,P|424:151|368:176,1,69.7500026607514,0|0,1:2|0:0,0:0:0:0:
260,298,229910,2,0,P|278:344|286:383,1,69.7500026607514,2|0,0:0|0:0,0:0:0:0:
483,350,230104,6,0,B|433:348|413:308|417:306|420:302|393:261|342:265,1,167.399994891358,10|0,0:0|0:0,0:0:0:0:
303,172,230394,1,0,0:0:0:0:
183,260,230491,6,0,B|133:253|106:289|110:291|112:296|78:332|29:319,1,167.399994891358,2|0,1:2|0:0,0:0:0:0:
0,245,230781,1,2,0:0:0:0:
93,181,230878,6,0,P|111:292|124:388,1,204.600006243897,8|2,0:0|0:0,0:0:0:0:
129,373,231265,1,6,1:2:0:0:
71,309,232039,5,2,0:0:0:0:
278,238,232330,1,2,0:0:0:0:
498,164,232620,1,2,0:0:0:0:
252,341,232814,5,8,0:0:0:0:
250,350,232911,1,8,0:0:0:0:
123,177,233201,5,8,0:0:0:0:
49,153,233298,1,8,0:0:0:0:
325,13,233588,5,8,0:0:0:0:
360,95,233685,1,8,0:0:0:0:
446,72,233781,1,8,0:0:0:0:
453,60,233878,1,8,0:0:0:0:
225,162,234072,5,8,0:0:0:0:
244,240,234168,1,8,0:0:0:0:
426,367,234362,5,8,0:0:0:0:
422,359,234458,5,8,1:3:0:0:
420,365,234555,5,8,1:3:0:0:
428,362,234652,5,8,1:3:0:0:
509,333,234749,6,0,B|453:349|418:305|418:301|420:297|387:251|318:273,1,209.249993614197,4|0,1:2|0:0,0:0:0:0:
256,316,235765,2,0,L|261:344,3,18.6,8|8|8|8,0:0|0:0|0:0|0:0,0:0:0:0:
197,227,236201,5,8,0:0:0:0:
105,300,236491,5,8,0:0:0:0:
34,263,236685,5,8,0:0:0:0:
478,121,236878,5,2,3:2:0:0:
256,192,237168,5,2,3:2:0:0:
0,277,237459,5,14,1:1:0:0:
256,192,237555,12,0,239781,0:0:0:0:
