osu file format v14

[General]
AudioFilename: audio.mp3
AudioLeadIn: 0
PreviewTime: 105988
Countdown: 0
SampleSet: Soft
StackLeniency: 0.4
Mode: 0
LetterboxInBreaks: 0
WidescreenStoryboard: 1

[Editor]
Bookmarks: 11099
DistanceSpacing: 1
BeatDivisor: 4
GridSize: 4
TimelineZoom: 1.9

[Metadata]
Title:Iwashi ga Tsuchi kara Haete Kurunda
TitleUnicode:イワシがつちからはえてくるんだ
Artist:Koronba
ArtistUnicode:ころんば
Creator:Damnjelly
Version:Hard
Source:
Tags:Nemu Kasane Teto Pumpking CACTLOID Neumafu Miteinanda cambrian creatures anomalocaris canadinesis jellyfish nautilus opabinia regalis fossil fossils ground evolution train station 8bit 8-bit ころんば4号 ネウマフ 未ていなんだ 草声ネムUTAU UTAUloid Vocaloid Kusagoe Nemu A Sardine Grows from the Soil
BeatmapID:1310506
BeatmapSetID:602367

[Difficulty]
HPDrainRate:5
CircleSize:4
OverallDifficulty:7
ApproachRate:6.8
SliderMultiplier:1.2
SliderTickRate:1

[Events]
//Background and Video events
0,0,"sardinebg.jpg",0,0
//Break Periods
//Storyboard Layer 0 (Background)
//Storyboard Layer 1 (Fail)
//Storyboard Layer 2 (Pass)
//Storyboard Layer 3 (Foreground)
//Storyboard Sound Samples

[TimingPoints]
7100,444.444444444444,4,2,1,50,1,0
14211,-83.3333333333333,4,2,1,50,0,0
27544,-71.4285714285714,4,2,1,50,0,1
56877,-83.3333333333333,4,2,2,50,0,0
71099,-76.9230769230769,4,2,2,50,0,0
85322,-100,4,2,1,50,0,0
90655,-83.3333333333333,4,2,1,50,0,0
92433,-83.3333333333333,4,2,1,50,0,0
93544,-83.3333333333333,4,2,2,50,0,0
94211,-83.3333333333333,4,2,1,50,0,0
95322,-83.3333333333333,4,2,2,50,0,0
95988,-83.3333333333333,4,2,1,50,0,0
97544,-83.3333333333333,4,2,2,50,0,0
97988,-83.3333333333333,4,2,1,50,0,0
100655,-83.3333333333333,4,2,2,50,0,0
101322,-83.3333333333333,4,2,1,50,0,0
105766,-71.4285714285714,4,2,1,55,0,0
106655,-71.4285714285714,4,2,1,55,0,1
133322,-71.4285714285714,4,2,1,55,0,0
135099,-62.5,4,2,2,60,0,1
136322,-62.5,4,2,1,60,0,1
136877,-62.5,4,2,2,60,0,1
138099,-62.5,4,2,1,60,0,1
140433,-62.5,4,2,2,60,0,1
141655,-62.5,4,2,1,60,0,1
143988,-62.5,4,2,2,60,0,1
145211,-62.5,4,2,1,60,0,1
146655,-62.5,4,2,2,60,0,1
147877,-62.5,4,2,1,60,0,1
149322,-62.5,4,2,2,60,0,1
150544,-62.5,4,2,1,60,0,1
151099,-62.5,4,2,2,60,0,1
152322,-62.5,4,2,1,60,0,1
154655,-62.5,4,2,2,60,0,1
155877,-62.5,4,2,1,60,0,1
158211,-62.5,4,2,2,60,0,1
159433,-62.5,4,2,1,60,0,1
160877,-62.5,4,2,2,60,0,1
162099,-62.5,4,2,1,60,0,1
163544,-83.3333333333333,4,2,1,40,0,0

[Colours]
Combo1 : 151,60,60
Combo2 : 90,158,101
Combo3 : 168,104,66
Combo4 : 163,99,163

[HitObjects]
112,60,7099,6,0,P|88:100|80:136,1,60
168,212,7544,2,0,P|160:132|172:104,1,90,2|0,0:0|0:0,0:0:0:0:
188,108,7988,6,0,P|182:153|188:189,1,60
292,224,8433,2,0,P|263:148|267:118,1,90,2|0,0:0|0:0,0:0:0:0:
284,118,8877,6,0,P|290:163|305:196,1,60
372,264,9322,2,0,P|400:188|396:158,1,90,2|0,0:0|0:0,0:0:0:0:
380,158,9766,6,0,P|373:203|358:236,1,60
248,244,10211,2,0,P|294:178|298:148,1,90,2|0,0:0|0:0,0:0:0:0:
283,143,10655,6,0,P|265:185|241:213,1,60
204,308,11099,2,0,P|157:242|153:212,1,90,2|0,0:0|0:0,0:0:0:0:
169,207,11543,6,0,P|186:249|210:277,1,60
300,292,11988,2,0,P|271:216|275:186,1,90,2|0,0:0|0:0,0:0:0:0:
292,188,12433,6,0,P|330:211|373:222,2,90,8|8|8,0:0|0:0|0:0,0:0:0:0:
268,48,13322,2,0,P|275:76|277:106,1,60,2|0,0:1|0:0,0:0:0:0:
216,160,13766,1,2,0:1:0:0:
216,160,13988,1,0,0:0:0:0:
84,232,14211,6,0,B|123:237|123:237|137:235|137:235|150:241|150:241|200:249,1,107.999996704102,10|0,0:0|0:0,0:0:0:0:
216,272,14655,2,0,P|241:256|287:244,1,71.9999978027344,8|0,0:0|0:0,0:0:0:0:
400,296,15099,6,0,P|360:244|368:160,1,143.999995605469,10|8,0:1|0:0,0:0:0:0:
420,96,15766,1,0,0:0:0:0:
252,136,15988,5,10,0:0:0:0:
232,52,16211,1,0,0:0:0:0:
316,32,16433,1,10,0:0:0:0:
336,116,16655,1,2,0:0:0:0:
168,164,16877,2,0,B|129:173|129:173|115:173|115:173|102:180|102:180|64:190,1,107.999996704102,10|0,0:1|0:0,0:0:0:0:
32,208,17322,2,0,P|45:174|50:139,1,71.9999978027344,8|0,0:0|0:0,0:0:0:0:
8,16,17766,6,0,P|56:65|127:71,1,143.999995605469,10|8,0:0|0:0,0:0:0:0:
216,36,18433,1,0,0:0:0:0:
206,121,18655,1,10,0:1:0:0:
295,130,18877,1,0,0:0:0:0:
304,45,19099,1,10,0:1:0:0:
304,45,19211,1,0,0:0:0:0:
304,45,19322,1,8,0:0:0:0:
132,32,19544,6,0,B|127:70|127:70|121:84|121:84|123:98|123:98|120:138,1,107.999996704102,4|0,0:0|0:0,0:0:0:0:
100,168,19988,2,0,P|136:163|171:169,1,71.9999978027344,8|0,0:0|0:0,0:0:0:0:
204,264,20433,1,10,0:1:0:0:
214,349,20655,1,0,0:0:0:0:
128,360,20878,1,10,0:1:0:0:
117,275,21100,1,0,0:0:0:0:
290,252,21322,5,10,0:0:0:0:
302,338,21544,1,2,0:0:0:0:
388,327,21767,1,10,0:0:0:0:
378,242,21989,1,2,0:0:0:0:
204,264,22211,2,8,B|209:302|209:302|215:316|215:316|213:330|213:330|217:370,2,107.999996704102,10|2|2,0:1|0:1|0:1,0:0:0:0:
196,156,23099,6,0,P|166:176|133:189,1,71.9999978027344,8|0,0:0|0:0,0:0:0:0:
20,268,23544,2,0,P|55:271|91:267,1,71.9999978027344,10|0,0:0|0:0,0:0:0:0:
264,280,23988,1,10,0:1:0:0:
241,196,24210,1,0,0:0:0:0:
157,218,24433,1,10,0:0:0:0:
180,301,24655,1,0,0:0:0:0:
348,258,24877,5,8,0:0:0:0:
264,279,25099,1,8,0:0:0:0:
241,196,25322,1,8,0:0:0:0:
325,174,25544,1,8,0:0:0:0:
371,341,25766,5,2,0:1:0:0:
287,362,25988,1,8,0:1:0:0:
264,279,26211,1,2,0:1:0:0:
348,257,26433,1,8,0:1:0:0:
371,341,26655,5,6,0:1:0:0:
204,340,26988,1,12,0:1:0:0:
288,195,27322,1,12,0:1:0:0:
287,291,27544,6,0,B|260:278|260:278|250:271|250:271|240:268|240:268|210:255,1,83.9999974365235,6|0,0:1|0:0,0:0:0:0:
96,216,27877,1,0,0:0:0:0:
96,216,27988,2,0,B|98:245|98:245|96:257|96:257|99:267|99:267|103:299,1,83.9999974365235,6|6,0:1|0:1,0:0:0:0:
305,331,28433,5,8,0:0:0:0:
293,231,28655,1,0,0:0:0:0:
193,243,28877,1,8,0:0:0:0:
205,343,29099,1,0,0:0:0:0:
408,320,29322,2,0,B|404:276|404:276|406:258|406:258|402:243|402:243|397:196,1,125.999996154785,10|0,0:1|0:0,0:0:0:0:
416,160,29766,2,0,P|389:184|334:205,1,83.9999974365235,8|0,0:0|0:0,0:0:0:0:
148,172,30211,5,10,0:0:0:0:
160,72,30433,1,0,0:0:0:0:
260,84,30655,1,10,0:0:0:0:
248,184,30877,1,10,0:0:0:0:
48,160,31099,2,0,B|52:116|52:116|50:98|50:98|54:83|54:83|59:36,1,125.999996154785,10|0,0:1|0:0,0:0:0:0:
32,4,31544,2,0,P|62:23|120:34,1,83.9999974365235,8|0,0:0|0:0,0:0:0:0:
292,40,31988,2,0,P|228:40|171:101,1,125.999996154785,10|0,0:0|0:0,0:0:0:0:
164,116,32433,2,0,P|162:160|197:218,1,83.9999974365235,8|0,0:0|0:0,0:0:0:0:
248,324,32877,6,0,P|284:299|352:299,1,83.9999974365235,10|0,0:1|0:0,0:0:0:0:
136,352,33322,2,0,P|146:308|195:262,1,83.9999974365235,8|0,0:0|0:0,0:0:0:0:
368,240,33766,1,10,0:0:0:0:
268,228,33988,1,2,0:0:0:0:
280,128,34210,1,10,0:0:0:0:
380,140,34432,1,2,0:0:0:0:
356,340,34655,2,0,B|293:333|293:333|273:327|273:327|249:330|249:330|190:325,1,167.999994873047,10|8,0:1|0:0,0:0:0:0:
112,228,35322,5,0,0:0:0:0:
112,228,35433,1,0,0:0:0:0:
112,228,35544,2,0,B|158:221|158:221|173:217|173:217|191:219|191:219|235:215,1,125.999996154785,10|0,0:0|0:0,0:0:0:0:
276,232,35988,2,0,P|319:240|381:214,1,83.9999974365235,8|0,0:0|0:0,0:0:0:0:
264,64,36433,2,0,P|234:97|226:164,1,83.9999974365235,10|0,0:1|0:0,0:0:0:0:
224,144,36766,1,0,0:0:0:0:
226,152,36877,1,10,0:1:0:0:
328,140,37099,1,0,0:0:0:0:
128,172,37322,5,10,0:0:0:0:
148,270,37544,1,2,0:0:0:0:
246,250,37766,1,10,0:0:0:0:
226,152,37988,1,10,0:0:0:0:
28,196,38211,2,0,B|41:240|41:240|47:255|47:255|48:273|48:273|59:316,1,125.999996154785,10|0,0:1|0:0,0:0:0:0:
48,356,38655,2,0,P|78:337|136:326,1,83.9999974365235,8|0,0:1|0:0,0:0:0:0:
308,320,39099,2,0,P|244:320|187:259,1,125.999996154785,10|0,0:0|0:0,0:0:0:0:
180,244,39544,2,0,P|178:200|213:142,1,83.9999974365235,8|0,0:0|0:0,0:0:0:0:
284,124,39988,5,10,0:1:0:0:
184,136,40211,1,0,0:0:0:0:
208,336,40433,1,10,0:0:0:0:
308,324,40656,1,2,0:0:0:0:
292,224,40877,2,0,B|254:229|254:229|235:226|235:226|218:233|218:233|184:236|184:236|151:242|57:211|65:107|112:68,1,335.999989746094,6|8,0:0|0:1,0:0:0:0:
376,152,42211,2,0,B|378:181|378:181|376:193|376:193|379:203|379:203|383:235,1,83.9999974365235,10|8,0:0|0:0,0:0:0:0:
184,268,42655,5,8,0:0:0:0:
172,168,42877,1,0,0:0:0:0:
271,157,43099,1,8,0:0:0:0:
283,256,43321,1,0,0:0:0:0:
84,284,43544,2,0,B|88:237|88:237|91:222|91:222|88:204|88:204|90:158,1,125.999996154785,10|0,0:1|0:0,0:0:0:0:
84,116,43988,2,0,P|114:135|172:146,1,83.9999974365235,8|0,0:0|0:0,0:0:0:0:
364,148,44433,5,10,0:0:0:0:
265,160,44655,1,0,0:0:0:0:
276,259,44877,1,10,0:0:0:0:
376,247,45099,1,2,0:0:0:0:
352,48,45322,2,0,B|307:59|307:59|289:60|289:60|275:66|275:66|230:80,1,125.999996154785,10|0,0:1|0:0,0:0:0:0:
199,109,45766,2,0,P|235:128|264:159,1,83.9999974365235,8|0,0:0|0:0,0:0:0:0:
212,336,46211,2,0,P|222:272|291:226,1,125.999996154785,10|0,0:0|0:0,0:0:0:0:
308,224,46656,2,0,P|351:228|403:272,1,83.9999974365235,8|0,0:0|0:0,0:0:0:0:
184,160,47099,6,0,P|228:154|278:109,1,83.9999974365235,10|0,0:1|0:0,0:0:0:0:
270,124,47433,1,0,0:0:0:0:
275,113,47543,1,8,0:0:0:0:
184,68,47766,1,0,0:0:0:0:
120,260,47988,5,10,0:0:0:0:
220,236,48211,1,2,0:0:0:0:
196,136,48433,1,10,0:0:0:0:
96,160,48655,1,2,0:0:0:0:
152,364,48877,2,0,B|212:366|212:366|236:362|236:362|258:368|258:368|318:372,1,167.999994873047,10|10,0:1|0:0,0:0:0:0:
376,256,49544,5,0,0:0:0:0:
376,256,49655,1,0,0:0:0:0:
376,256,49766,2,0,B|329:258|329:258|314:261|314:261|296:258|296:258|252:258,1,125.999996154785,10|0,0:0|0:0,0:0:0:0:
216,284,50211,2,0,P|198:243|212:177,1,83.9999974365235,8|0,0:0|0:0,0:0:0:0:
352,160,50655,2,0,P|311:177|244:165,1,83.9999974365235,10|0,0:1|0:0,0:0:0:0:
196,127,50988,1,0,0:0:0:0:
196,127,51100,2,0,P|178:86|190:19,1,83.9999974365235,8|0,0:0|0:0,0:0:0:0:
368,120,51544,5,10,0:0:0:0:
266,104,51767,1,2,0:0:0:0:
281,3,51989,1,10,0:0:0:0:
383,18,52211,1,2,0:0:0:0:
352,216,52433,2,0,B|306:219|306:219|290:217|290:217|273:223|273:223|228:228,1,125.999996154785,10|0,0:1|0:0,0:0:0:0:
192,208,52877,2,0,P|150:207|112:224,1,83.9999974365235,8|0,0:0|0:0,0:0:0:0:
276,268,53322,6,0,P|295:207|255:134,1,125.999996154785,10|0,0:0|0:0,0:0:0:0:
243,122,53767,2,0,P|201:106|135:121,1,83.9999974365235,8|0,0:0|0:0,0:0:0:0:
88,208,54211,5,10,0:1:0:0:
188,201,54434,1,0,0:0:0:0:
174,0,54655,1,8,0:0:0:0:
74,7,54877,1,0,0:0:0:0:
80,108,55099,6,0,B|125:104|125:104|141:106|141:106|158:100|158:100|203:95,2,125.999996154785,10|2|2,0:0|0:0|0:0,0:0:0:0:
248,200,55988,2,0,B|202:196|202:196|186:198|186:198|169:192|169:192|124:187,2,125.999996154785,10|2|2,0:1|0:0|0:0,0:0:0:0:
280,36,56877,6,0,B|291:88|291:88|343:77,2,107.999996704102,8|8|8,0:0|0:0|0:0,0:0:0:0:
364,152,57766,2,0,B|258:174|258:174|281:279,1,215.999993408203,2|0,0:0|0:0,0:0:0:0:
448,348,58655,2,0,B|358:328|358:328|376:241,1,179.999994506836,10|0,0:0|0:0,0:0:0:0:
376,241,59322,1,8,0:0:0:0:
320,116,59544,6,0,B|297:222|297:222|192:199,1,215.999993408203,0|0,0:0|0:0,0:0:0:0:
108,70,60433,2,0,B|214:93|214:93|191:198,1,215.999993408203,10|0,0:0|0:0,0:0:0:0:
160,344,61322,2,0,B|149:297|149:297,2,47.9999985351563,2|0|0,0:0|0:0|0:0,0:0:0:0:
252,240,61766,2,0,B|241:286,2,47.9999985351563,2|0|0,0:0|0:0|0:0,0:0:0:0:
128,216,62211,6,0,B|41:234|41:234|22:146,1,179.999994506836,10|8,0:0|0:0,0:0:0:0:
21,146,62878,1,0,0:0:0:0:
172,120,63099,2,0,B|277:96|277:96|300:201,1,215.999993408203,2|0,0:0|0:0,0:0:0:0:
159,251,63988,6,0,B|170:198|170:198|222:209,2,107.999996704102,8|8|8,0:0|0:0|0:0,0:0:0:0:
308,232,64877,6,0,B|413:256|413:256|436:151,1,215.999993408203,2|0,0:0|0:0,0:0:0:0:
292,120,65766,6,0,B|284:152,9,23.9999992675781,2|0|0|0|0|0|0|0|0|0,0:0|0:0|0:0|0:0|0:0|0:0|0:0|0:0|0:0|0:0,0:0:0:0:
170,198,66655,2,0,B|164:174,9,23.9999992675781,2|0|0|0|0|0|0|0|0|0,0:0|0:0|0:0|0:0|0:0|0:0|0:0|0:0|0:0|0:0,0:0:0:0:
52,96,67544,6,0,B|71:185|71:185|158:167,1,179.999994506836,10|8,0:0|0:0,0:0:0:0:
158,167,68211,1,0,0:0:0:0:
304,144,68433,2,0,B|243:157|243:157,2,47.9999985351563,2|0|0,0:0|0:0|0:0,0:0:0:0:
232,288,68877,2,0,B|222:242,2,47.9999985351563,2|0|0,0:0|0:0|0:0,0:0:0:0:
104,244,69322,6,0,B|98:267,3,23.9999992675781,10|0|0|0,0:0|0:0|0:0|0:0,0:0:0:0:
237,311,69766,2,0,B|231:287,3,23.9999992675781,2|0|0|8,0:0|0:0|0:0|0:0,0:0:0:0:
192,148,70211,2,0,B|186:171,3,23.9999992675781,10|0|0|0,0:0|0:0|0:0|0:0,0:0:0:0:
325,215,70655,2,0,B|319:191,3,23.9999992675781,10|0|0|0,0:0|0:0|0:0|0:0,0:0:0:0:
256,48,71099,6,0,P|176:44|124:80,1,116.999994644165,10|0,0:0|0:0,0:0:0:0:
116,84,71544,2,0,P|93:136|92:185,1,77.9999964294435,8|0,0:0|0:0,0:0:0:0:
184,160,71988,1,2,0:0:0:0:
197,182,72099,1,0,0:0:0:0:
216,198,72210,1,0,0:0:0:0:
241,207,72321,1,0,0:0:0:0:
267,210,72433,2,0,L|308:236,3,38.9999982147218,2|2|2|2,0:0|0:0|0:0|0:0,0:0:0:0:
312,268,72877,6,0,P|273:197|282:135,1,116.999994644165,10|0,0:0|0:0,0:0:0:0:
282,126,73322,2,0,P|319:83|363:60,1,77.9999964294435,8|0,0:0|0:0,0:0:0:0:
468,128,73766,1,2,0:0:0:0:
455,150,73877,1,0,0:0:0:0:
436,166,73988,1,0,0:0:0:0:
411,175,74099,1,0,0:0:0:0:
385,178,74211,2,0,L|344:204,3,38.9999982147218,2|2|2|2,0:0|0:0|0:0|0:0,0:0:0:0:
336,236,74655,6,0,P|273:185|210:184,1,116.999994644165,10|0,0:0|0:0,0:0:0:0:
201,181,75100,2,0,P|152:210|122:249,1,77.9999964294435,8|0,0:0|0:0,0:0:0:0:
128,340,75544,2,0,L|119:291,3,38.9999982147218,2|2|2|2,0:0|0:0|0:0|0:0,0:0:0:0:
60,248,75988,2,0,L|66:209,3,38.9999982147218,2|2|2|2,0:0|0:0|0:0|0:0,0:0:0:0:
76,172,76433,6,0,P|150:204|272:120,1,233.999989288331,4|0,0:0|0:0,0:0:0:0:
336,32,77322,1,2,0:0:0:0:
330,54,77433,1,2,0:0:0:0:
332,80,77544,1,0,0:0:0:0:
342,104,77655,1,0,0:0:0:0:
357,125,77767,2,0,L|365:172,3,38.9999982147218,2|2|2|2,0:0|0:0|0:0|0:0,0:0:0:0:
356,200,78211,6,0,P|319:271|261:297,1,116.999994644165,10|0,0:0|0:0,0:0:0:0:
254,305,78656,2,0,P|196:297|153:273,1,77.9999964294435,8|0,0:0|0:0,0:0:0:0:
88,156,79099,1,2,0:0:0:0:
112,154,79210,1,0,0:0:0:0:
136,162,79322,1,0,0:0:0:0:
158,177,79433,1,0,0:0:0:0:
174,198,79545,2,0,L|217:217,3,38.9999982147218,2|2|2|2,0:0|0:0|0:0|0:0,0:0:0:0:
248,228,79989,6,0,P|306:173|317:110,1,116.999994644165,10|0,0:0|0:0,0:0:0:0:
322,101,80434,2,0,P|299:47|265:12,1,77.9999964294435,8|0,0:0|0:0,0:0:0:0:
116,88,80877,1,10,0:0:0:0:
114,112,80988,1,0,0:0:0:0:
122,136,81100,1,0,0:0:0:0:
137,158,81211,1,0,0:0:0:0:
158,174,81323,2,0,L|177:217,3,38.9999982147218,8|0|0|0,0:0|0:0|0:0|0:0,0:0:0:0:
184,248,81766,6,0,P|103:242|56:200,1,116.999994644165,10|0,0:0|0:0,2:2:0:0:
46,195,82211,2,0,P|29:139|33:90,1,77.9999964294435,0|0,0:0|0:0,0:0:0:0:
160,44,82655,2,0,L|152:82,3,38.9999982147218,2|2|2|2,0:0|0:0|0:0|0:0,0:0:0:0:
236,104,83099,2,0,L|243:142,3,38.9999982147218,2|2|2|2,0:0|0:0|0:0|0:0,0:0:0:0:
352,124,83544,6,0,L|313:131,3,25.9999988098145,8|0|0|0,0:0|0:0|0:0|0:0,0:0:0:0:
256,216,83988,2,0,L|294:223,3,25.9999988098145,8|0|0|0,0:0|0:0|0:0|0:0,0:0:0:0:
408,204,84433,2,0,L|369:211,3,25.9999988098145,8|0|0|0,0:0|0:0|0:0|0:0,0:0:0:0:
312,296,84877,2,0,L|350:303,3,25.9999988098145,8|0|0|0,0:0|0:0|0:0|0:0,0:0:0:0:
192,340,85322,6,0,L|200:376,3,20,4|0|0|0,0:0|0:0|0:0|0:0,0:0:0:0:
172,236,85766,2,0,P|164:316|176:344,1,90,2|0,0:0|0:0,0:0:0:0:
192,340,86210,6,0,P|186:294|192:258,1,60
276,216,86655,2,0,P|288:295|307:319,1,90,2|0,0:0|0:0,0:0:0:0:
322,311,87099,6,0,P|304:268|301:231,1,60
400,168,87544,2,0,P|387:247|368:271,1,90,2|0,0:0|0:0,0:0:0:0:
353,263,87988,6,0,P|370:220|373:183,1,60
304,140,88433,2,0,P|270:213|246:231,1,90,2|0,0:0|0:0,0:0:0:0:
234,219,88877,6,0,P|261:182|274:147,1,60
220,80,89322,2,0,P|169:142|140:153,1,90,2|0,0:0|0:0,0:0:0:0:
131,138,89766,6,0,P|167:110|188:79,1,60
160,0,90211,2,0,P|94:46|64:50,1,90,2|0,0:0|0:0,0:0:0:0:
52,60,90655,6,0,P|22:105|13:157,2,107.999996704102,8|8|8,0:0|0:0|0:0,0:0:0:0:
140,60,91544,2,0,P|165:85|185:114,1,71.9999978027344,2|0,2:1|2:0,2:0:0:0:
204,208,91988,1,2,0:1:0:0:
204,208,92210,1,0,0:0:0:0:
84,144,92433,6,0,B|122:140|122:140|136:142|136:142|151:137|151:137|190:132,1,107.999996704102,10|0,0:0|0:0,0:0:0:0:
227,135,92877,2,0,P|267:153|296:180,1,71.9999978027344,2|0,0:0|0:0,0:0:0:0:
300,344,93322,1,10,0:1:0:0:
216,352,93544,2,0,L|189:383,3,23.9999992675781,2|0|0|10,0:0|0:0|0:0|0:0,0:0:0:0:
208,268,93988,1,0,0:0:0:0:
380,248,94211,6,0,P|375:212|362:179,1,71.9999978027344,10|0,0:0|0:0,0:0:0:0:
464,296,94655,2,0,P|472:261|470:225,1,71.9999978027344,10|2,0:0|0:0,0:0:0:0:
320,140,95099,1,10,0:1:0:0:
328,228,95322,2,0,L|299:261,3,23.9999992675781,2|0|0|10,0:0|0:0|0:0|0:0,0:0:0:0:
416,220,95767,1,0,0:0:0:0:
392,48,95988,6,0,B|407:82|407:82|409:96|409:96|419:109|419:109|436:145,1,107.999996704102,10|0,0:0|0:0,0:0:0:0:
452,180,96433,2,0,P|456:223|447:262,1,71.9999978027344,8|0,0:0|0:0,0:0:0:0:
280,252,96877,1,10,0:1:0:0:
284,164,97099,1,8,0:0:0:0:
372,168,97322,1,2,0:1:0:0:
368,256,97544,2,0,L|366:300,3,23.9999992675781,2|0|0|10,0:0|0:0|0:0|0:0,0:0:0:0:
196,160,97988,5,2,0:0:0:0:
284,164,98211,1,10,0:0:0:0:
280,252,98434,1,0,0:0:0:0:
104,336,98655,5,10,0:1:0:0:
108,248,98876,1,0,0:0:0:0:
196,252,99099,1,10,0:1:0:0:
192,340,99322,1,0,0:0:0:0:
364,344,99544,5,10,0:0:0:0:
368,256,99767,1,2,0:0:0:0:
280,252,99988,1,10,0:0:0:0:
276,340,100211,1,2,0:0:0:0:
448,344,100433,5,10,0:1:0:0:
452,256,100655,2,0,L|454:212,3,23.9999992675781,2|0|0|0,0:0|0:0|0:0|0:0,0:0:0:0:
368,256,101099,1,0,0:0:0:0:
376,80,101322,6,0,P|388:121|388:161,1,71.9999978027344,10|0,0:0|0:0,0:0:0:0:
436,0,101766,2,0,P|462:34|475:72,1,71.9999978027344,8|0,0:0|0:0,0:0:0:0:
284,88,102211,2,0,P|287:52|301:19,1,71.9999978027344,10|0,0:1|0:0,0:0:0:0:
428,136,102655,1,10,0:1:0:0:
344,148,102877,1,0,0:0:0:0:
176,172,103099,5,8,0:0:0:0:
164,88,103322,1,8,0:0:0:0:
248,76,103544,1,8,0:0:0:0:
260,160,103766,1,8,0:0:0:0:
92,184,103988,5,2,0:1:0:0:
80,100,104211,1,8,0:0:0:0:
164,88,104433,1,2,0:1:0:0:
176,172,104655,1,8,0:0:0:0:
92,184,104877,5,6,0:1:0:0:
112,24,105211,1,12,0:1:0:0:
240,121,105544,1,12,0:1:0:0:
147,109,105766,6,0,B|165:85|165:85|170:74|170:74|178:67|178:67|199:41,1,83.9999974365235,6|0,0:1|0:0,0:0:0:0:
288,48,106099,1,0,0:0:0:0:
288,48,106211,2,0,B|307:72|307:72|315:79|315:79|321:90|321:90|339:114,1,83.9999974365235,4|4,0:1|0:1,0:0:0:0:
172,228,106655,5,8,0:0:0:0:
164,128,106877,1,0,0:0:0:0:
264,120,107099,1,10,0:0:0:0:
272,220,107322,1,2,0:0:0:0:
72,236,107544,2,0,B|75:191|75:191|80:173|80:173|78:158|78:158|80:111,1,125.999996154785,10|0,0:1|0:0,0:0:0:0:
72,68,107988,2,0,P|95:95|141:125,1,83.9999974365235,8|0,0:0|0:0,0:0:0:0:
336,144,108433,5,10,0:0:0:0:
328,44,108656,1,0,0:0:0:0:
228,52,108878,1,10,0:0:0:0:
236,152,109100,1,10,0:0:0:0:
436,140,109322,2,0,B|432:95|432:95|427:77|427:77|429:62|429:62|427:15,1,125.999996154785,10|0,0:1|0:0,0:0:0:0:
396,44,109766,2,0,P|360:66|321:80,1,83.9999974365235,8|0,0:0|0:0,0:0:0:0:
136,48,110211,2,0,P|200:48|257:109,1,125.999996154785,10|0,0:0|0:0,0:0:0:0:
264,124,110655,2,0,P|266:168|231:226,1,83.9999974365235,8|0,0:0|0:0,0:0:0:0:
368,60,111099,6,0,P|366:104|401:162,1,83.9999974365235,10|0,0:1|0:0,0:0:0:0:
288,4,111544,2,0,P|271:44|284:111,1,83.9999974365235,8|0,0:0|0:0,0:0:0:0:
448,184,111988,1,10,0:0:0:0:
348,176,112211,1,2,0:0:0:0:
340,276,112433,1,10,0:0:0:0:
440,284,112655,1,2,0:0:0:0:
456,84,112877,2,0,B|397:79|397:79|373:82|373:82|353:76|353:76|290:69,1,167.999994873047,10|8,0:1|0:0,0:0:0:0:
196,184,113544,5,0,0:0:0:0:
196,184,113655,1,0,0:0:0:0:
196,184,113766,2,0,B|242:177|242:177|257:173|257:173|275:175|275:175|319:171,1,125.999996154785,10|0,0:0|0:0,0:0:0:0:
356,192,114211,2,0,P|378:229|375:297,1,83.9999974365235,8|0,0:0|0:0,0:0:0:0:
232,352,114655,2,0,P|229:307|265:250,1,83.9999974365235,10|0,0:1|0:0,0:0:0:0:
251,264,114988,1,0,0:0:0:0:
257,259,115099,1,10,0:1:0:0:
316,324,115322,1,0,0:0:0:0:
116,336,115544,5,10,0:0:0:0:
120,236,115766,1,2,0:0:0:0:
220,240,115988,1,10,0:0:0:0:
216,340,116211,1,10,0:0:0:0:
16,336,116433,2,0,B|8:290|8:290|4:275|4:275|7:257|7:257|3:213,1,125.999996154785,10|0,0:1|0:0,0:0:0:0:
44,224,116877,2,0,P|85:219|121:197,1,83.9999974365235,8|0,0:1|0:0,0:0:0:0:
235,40,117322,2,0,P|171:40|114:101,1,125.999996154785,10|0,0:0|0:0,0:0:0:0:
107,116,117766,2,0,P|105:160|140:218,1,83.9999974365235,8|0,0:0|0:0,0:0:0:0:
220,200,118211,5,10,0:1:0:0:
120,208,118433,1,0,0:0:0:0:
104,8,118655,1,10,0:0:0:0:
204,0,118877,1,2,0:0:0:0:
212,100,119099,2,0,B|173:103|173:103|155:109|155:109|137:106|137:106|103:110|103:110|70:111|-15:161|14:261|68:290,1,335.999989746094,6|8,0:0|0:1,0:0:0:0:
376,288,120433,2,0,B|380:256|380:256|383:246|383:246|381:234|381:234|383:205,1,83.9999974365235,10|0,0:0|0:0,0:0:0:0:
180,192,120877,5,12,0:0:0:0:
175,292,121099,1,0,0:0:0:0:
275,296,121322,1,8,0:0:0:0:
280,196,121544,1,0,0:0:0:0:
80,188,121766,2,0,B|83:232|83:232|88:250|88:250|86:265|86:265|88:313,1,125.999996154785,10|0,0:1|0:0,0:0:0:0:
124,336,122211,2,0,P|127:294|148:258,1,83.9999974365235,8|0,0:0|0:0,0:0:0:0:
348,232,122655,5,10,0:0:0:0:
343,332,122877,1,0,0:0:0:0:
243,328,123100,1,10,0:0:0:0:
248,229,123322,1,10,0:0:0:0:
448,236,123544,2,0,B|451:280|451:280|456:298|456:298|454:313|454:313|456:361,1,125.999996154785,10|0,0:1|0:0,0:0:0:0:
420,380,123988,2,0,P|392:348|354:332,1,83.9999974365235,8|0,0:0|0:0,0:0:0:0:
168,368,124433,2,0,P|232:368|289:307,1,125.999996154785,10|0,0:0|0:0,0:0:0:0:
296,292,124877,2,0,P|298:248|263:190,1,83.9999974365235,8|0,0:0|0:0,0:0:0:0:
132,200,125322,2,0,P|106:237|109:304,1,83.9999974365235,10|0,0:1|0:0,0:0:0:0:
104,285,125655,1,0,0:0:0:0:
107,293,125766,1,10,0:1:0:0:
204,268,125988,1,0,0:0:0:0:
172,68,126211,5,10,0:0:0:0:
72,84,126433,1,2,0:0:0:0:
88,184,126655,1,10,0:0:0:0:
188,168,126877,1,2,0:0:0:0:
388,140,127099,2,0,B|331:123|331:123|309:112|309:112|288:110|288:110|227:94,1,167.999994873047,10|8,0:0|0:0,0:0:0:0:
164,228,127766,5,0,0:0:0:0:
164,228,127877,1,0,0:0:0:0:
164,228,127988,2,0,B|206:215|206:215|222:207|222:207|237:206|237:206|283:194,1,125.999996154785,10|0,0:1|0:0,0:0:0:0:
324,204,128433,2,0,P|367:217|407:271,1,83.9999974365235,8|0,0:0|0:0,0:0:0:0:
240,280,128877,2,0,P|226:237|244:171,1,83.9999974365235,10|0,0:1|0:0,0:0:0:0:
285,126,129210,1,0,0:0:0:0:
285,126,129322,2,0,P|327:111|393:129,1,83.9999974365235,8|0,0:1|0:0,0:0:0:0:
396,316,129766,5,10,0:0:0:0:
412,216,129988,1,2,0:0:0:0:
512,232,130211,1,10,0:1:0:0:
496,332,130433,1,2,0:0:0:0:
296,300,130655,2,0,B|306:256|306:256|313:240|313:240|314:225|314:225|323:178,1,125.999996154785,10|0,0:1|0:0,0:0:0:0:
352,148,131099,2,0,P|309:162|243:144,1,83.9999974365235,8|0,0:0|0:0,0:0:0:0:
88,136,131544,2,0,P|152:136|209:197,1,125.999996154785,10|0,0:0|0:0,0:0:0:0:
216,212,131988,2,0,P|218:256|183:314,1,83.9999974365235,8|0,0:0|0:0,0:0:0:0:
112,340,132433,5,6,0:1:0:0:
132,240,132655,1,0,0:0:0:0:
332,272,132877,1,6,0:0:0:0:
312,372,133099,1,2,0:0:0:0:
212,364,133322,2,0,B|219:319|219:319|225:303|225:303|226:288|226:288|232:240,2,125.999996154785,6|12|12,0:1|0:1|0:1,0:0:0:0:
308,192,134211,2,0,B|314:239|314:239|314:254|314:254|320:270|320:270|328:315,2,125.999996154785,6|4|4,0:1|0:1|0:1,0:0:0:0:
344,44,135099,5,8,0:0:0:0:
339,84,135211,1,0,0:0:0:0:
335,124,135322,1,2,0:0:0:0:
295,120,135433,1,0,0:0:0:0:
255,116,135544,1,8,0:0:0:0:
264,32,135766,1,2,0:0:0:0:
432,52,135988,6,0,B|427:109|427:109|428:128|428:128|422:148|422:148|415:203,1,144,10|0,0:0|0:0,0:0:0:0:
432,240,136433,2,0,P|395:218|336:212,1,96,8|8,0:0|0:0,0:0:0:0:
184,232,136877,5,8,0:0:0:0:
189,272,136989,1,0,0:0:0:0:
193,312,137100,1,2,0:0:0:0:
233,308,137211,1,0,0:0:0:0:
273,304,137322,1,8,0:0:0:0:
264,220,137544,1,2,0:0:0:0:
96,240,137766,2,0,B|101:297|101:297|100:316|100:316|106:336|106:336|113:391,1,144,10|0,0:0|0:0,0:0:0:0:
64,384,138211,2,0,P|35:353|20:296,1,96,8|8,0:0|0:0,0:0:0:0:
188,235,138655,6,0,P|147:247|92:238,1,96,10|0,0:0|0:0,0:0:0:0:
24,188,138988,1,0,0:0:0:0:
24,188,139099,2,0,P|4:150|4:94,1,96,8|8,0:0|0:0,0:0:0:0:
180,108,139544,6,0,P|170:162|162:182,2,48
92,112,139988,2,0,P|84:57|86:36,2,48
252,68,140433,5,8,0:0:0:0:
255,108,140545,1,0,0:0:0:0:
259,148,140656,1,2,0:0:0:0:
219,152,140767,1,0,0:0:0:0:
180,156,140878,1,8,0:0:0:0:
171,72,141100,1,2,0:0:0:0:
336,60,141322,2,0,B|339:106|339:106|344:127|344:127|342:145|342:145|344:203,1,144,10|0,0:0|0:0,0:0:0:0:
344,203,141766,5,8,0:0:0:0:
232,244,141988,1,2,0:0:0:0:
212,257,142099,1,2,0:0:0:0:
196,275,142211,2,0,P|176:318|178:366,1,96,10|0,0:0|0:0,0:0:0:0:
274,323,142544,5,0,0:0:0:0:
274,323,142655,2,0,P|239:289|194:274,1,96,8|8,0:0|0:0,0:0:0:0:
148,144,143099,2,0,P|189:156|244:147,1,96,10|0,0:0|0:0,0:0:0:0:
312,97,143432,1,0,0:0:0:0:
312,97,143543,2,0,P|332:59|332:3,1,96,8|8,0:0|0:0,0:0:0:0:
152,92,143988,5,8,0:0:0:0:
149,132,144100,1,0,0:0:0:0:
145,172,144211,1,2,0:0:0:0:
185,176,144322,1,0,0:0:0:0:
224,180,144433,1,8,0:0:0:0:
233,96,144655,1,2,0:0:0:0:
68,84,144877,2,0,B|65:130|65:130|60:151|60:151|62:169|62:169|60:227,1,144,10|0,0:0|0:0,0:0:0:0:
32,268,145322,2,0,P|71:241|118:233,1,96,8|2,0:0|0:0,0:0:0:0:
268,328,145766,2,0,P|230:307|197:262,1,96,10|0,0:0|0:0,0:0:0:0:
185,178,146099,1,0,0:0:0:0:
185,178,146210,2,0,P|197:136|237:97,1,96,8|8,0:0|0:0,0:0:0:0:
392,144,146655,5,8,0:0:0:0:
352,147,146767,1,0,0:0:0:0:
312,151,146878,1,2,0:0:0:0:
308,111,146989,1,0,0:0:0:0:
304,72,147100,1,8,0:0:0:0:
388,63,147322,1,2,0:0:0:0:
400,228,147544,2,0,B|354:231|354:231|333:236|333:236|315:234|315:234|257:236,1,144,10|0,0:0|0:0,0:0:0:0:
224,200,147988,2,0,P|192:235|178:281,1,96,2|2,0:0|0:0,0:0:0:0:
248,368,148433,1,2,0:0:0:0:
248,368,148877,5,10,0:0:0:0:
193,293,149099,1,0,0:0:0:0:
99,288,149322,5,8,0:0:0:0:
138,284,149433,1,0,0:0:0:0:
178,280,149544,1,2,0:0:0:0:
174,240,149655,1,0,0:0:0:0:
171,200,149767,1,8,0:0:0:0:
90,204,149989,1,2,0:0:0:0:
104,376,150211,2,0,B|161:370|161:370|179:372|179:372|200:365|200:365|246:360,1,144,10|0,0:0|0:0,0:0:0:0:
292,380,150655,2,0,P|260:345|246:299,1,96,8|8,0:0|0:0,0:0:0:0:
260,132,151099,5,8,0:0:0:0:
299,136,151211,1,0,0:0:0:0:
339,140,151321,1,2,0:0:0:0:
335,180,151432,1,0,0:0:0:0:
332,220,151544,1,8,0:0:0:0:
251,216,151766,1,2,0:0:0:0:
265,44,151988,2,0,B|322:49|322:49|340:47|340:47|361:54|361:54|407:59,1,144,10|0,0:0|0:0,0:0:0:0:
456,68,152433,2,0,P|427:106|419:153,1,96,8|8,0:0|0:0,0:0:0:0:
504,308,152877,6,0,P|486:268|444:232,1,96,10|0,0:0|0:0,0:0:0:0:
364,216,153210,1,0,0:0:0:0:
364,216,153321,2,0,P|322:225|279:261,1,96,8|8,0:0|0:0,0:0:0:0:
292,384,153766,2,0,P|282:330|274:310,2,48
203,291,154211,2,0,P|197:314|195:338,2,48
369,329,154655,5,8,0:0:0:0:
365,290,154766,1,0,0:0:0:0:
361,250,154877,1,2,0:0:0:0:
321,254,154988,1,0,0:0:0:0:
281,257,155100,1,8,0:0:0:0:
285,338,155322,1,2,0:0:0:0:
452,320,155544,2,0,B|446:274|446:274|440:253|440:253|441:235|441:235|436:177,1,144,10|0,0:0|0:0,0:0:0:0:
436,177,155988,5,10,0:0:0:0:
312,136,156210,1,10,0:0:0:0:
301,115,156321,1,2,0:0:0:0:
295,92,156433,2,0,P|297:43|320:1,1,96,10|0,0:0|0:0,0:0:0:0:
386,70,156766,5,0,0:0:0:0:
386,70,156877,2,0,P|342:90|296:90,1,96,8|8,0:0|0:0,0:0:0:0:
184,160,157322,2,0,P|232:160|274:181,1,96,10|0,0:0|0:0,0:0:0:0:
325,250,157655,1,0,0:0:0:0:
326,251,157766,2,0,P|335:297|322:343,1,96,8|8,0:0|0:0,0:0:0:0:
148,324,158211,5,8,0:0:0:0:
152,285,158322,1,0,0:0:0:0:
156,245,158433,1,2,0:0:0:0:
196,249,158544,1,0,0:0:0:0:
236,252,158656,1,8,0:0:0:0:
232,333,158878,1,2,0:0:0:0:
65,315,159100,2,0,B|71:269|71:269|77:248|77:248|76:230|76:230|81:172,1,144,10|0,0:0|0:0,0:0:0:0:
60,132,159544,2,0,P|105:145|152:135,1,96,8|8,0:0|0:0,0:0:0:0:
308,52,159988,2,0,P|268:70|232:112,1,96,10|0,0:0|0:0,0:0:0:0:
216,192,160321,1,0,0:0:0:0:
216,192,160432,2,0,P|225:234|261:277,1,96,8|8,0:0|0:0,0:0:0:0:
416,312,160877,5,8,0:0:0:0:
414,272,160988,1,0,0:0:0:0:
412,232,161099,1,0,0:0:0:0:
371,234,161210,1,0,0:0:0:0:
331,235,161322,1,10,0:0:0:0:
331,316,161544,1,2,0:0:0:0:
499,307,161766,2,0,B|495:260|495:260|490:239|490:239|492:221|492:221|490:163,2,144,10|4|8,0:0|0:0|0:0,0:0:0:0:
409,192,162655,6,0,B|407:250|407:250|409:268|409:268|404:289|404:289|400:336,2,144,14|4|4,0:0|0:0|0:0,0:0:0:0:
312,124,163544,6,0,B|313:167|313:167|312:181|312:181|315:196|315:196|318:232,1,107.999996704102,2|0,0:0|0:0,0:0:0:0:
200,272,164211,6,0,L|192:264|229:266,2,23.9999992675781
200,272,164433,2,0,B|203:236|203:236|206:220|206:220|205:207|205:207|206:163,1,107.999996704102,8|0,0:0|0:0,0:0:0:0:
100,68,165099,6,0,L|62:70,1,35.9999989013672
104,72,165321,2,0,B|105:115|105:115|104:129|104:129|107:144|107:144|110:180,1,107.999996704102,2|0,0:0|0:0,0:0:0:0:
16,304,165988,5,0,0:0:0:0:
16,304,166211,2,0,B|17:260|17:260|16:246|16:246|19:231|19:231|22:195,1,107.999996704102,8|0,0:0|0:0,0:0:0:0:
20,160,166655,1,0,0:0:0:0:
200,80,166877,6,0,L|192:72|190:109,2,23.9999992675781
200,80,167099,6,0,B|156:81|156:81|142:80|142:80|127:83|127:83|91:86,1,107.999996704102,2|0,0:0|0:0,0:0:0:0:
312,192,167766,5,0,0:0:0:0:
312,192,167988,2,0,B|355:193|355:193|369:192|369:192|384:195|384:195|420:198,1,107.999996704102,8|0,0:0|0:0,0:0:0:0:
444,224,168433,2,0,P|437:188|442:153,1,71.9999978027344,8|0,0:0|0:0,0:0:0:0:
488,84,168877,5,10,0:0:0:0:
352,152,169211,1,2,0:0:0:0:
361,0,169544,1,0,0:0:0:0:
400,78,169766,5,10,0:0:0:0:
