osu file format v14

[General]
AudioFilename: audio.mp3
AudioLeadIn: 0
PreviewTime: 170751
Countdown: 1
SampleSet: Soft
StackLeniency: 0.7
Mode: 0
LetterboxInBreaks: 0
WidescreenStoryboard: 0

[Editor]
Bookmarks: 250,12020,25571,40682,44170,46888,49984,70471,85578,89052,91790,94860,114992,127369,136669,139773,152158,158350,167649,191233,193955,197440,200159,206366
DistanceSpacing: 1.2
BeatDivisor: 4
GridSize: 16
TimelineZoom: 1.36

[Metadata]
Title:Marionetki
TitleUnicode:Марионетки
Artist:Korol' i Shut
ArtistUnicode:Король и Шут
Creator:tilk1233
Version:Puppeteer
Source:
Tags:rock russian punk русский панк рок михаил горшенёв продавец кошмаров king and the clown jester киш
BeatmapID:1546350
BeatmapSetID:732950

[Difficulty]
HPDrainRate:6
CircleSize:4
OverallDifficulty:8.5
ApproachRate:9.2
SliderMultiplier:2
SliderTickRate:1

[Events]
//Background and Video events
0,0,"kukla.jpg",0,0
//Break Periods
//Storyboard Layer 0 (Background)
//Storyboard Layer 1 (Fail)
//Storyboard Layer 2 (Pass)
//Storyboard Layer 3 (Foreground)
//Storyboard Layer 4 (Overlay)
//Storyboard Sound Samples

[TimingPoints]
250,342.857142857142,4,2,3,20,1,0
421,379.746835443038,4,2,3,30,1,0
800,400.667779632721,4,2,3,30,1,0
1200,397.350993377483,4,2,3,30,1,0
1398,387.096774193547,4,2,3,30,1,0
1398,-125,4,2,3,30,0,0
1688,-125,4,2,3,5,0,0
1784,342.857142857142,4,2,3,25,1,0
1784,-125,4,2,3,25,0,0
1994,384.615384615385,4,2,3,30,1,0
1994,-100,4,2,3,30,0,0
2570,-125,4,2,3,40,0,0
2763,375,4,2,3,30,1,0
2763,-125,4,2,3,30,0,0
2950,-125,4,2,3,20,0,0
3325,-100,4,2,2,40,0,0
3513,392.156862745098,4,2,2,30,1,0
3709,-100,4,2,3,35,0,0
4101,-125,4,2,3,30,0,0
4297,382.165605095542,4,2,3,30,1,0
4297,-125,4,2,3,30,0,0
4488,377.358490566038,4,2,3,30,1,0
4488,-125,4,2,3,30,0,0
4865,392.156862745097,4,2,3,20,1,0
5061,394.736842105263,4,2,3,40,1,0
5061,-111.111111111111,4,2,3,40,0,0
5357,-111.111111111111,4,2,3,5,0,0
5455,-111.111111111111,4,2,3,25,0,0
5850,379.746835443038,4,2,3,40,1,0
6039,-111.111111111111,4,2,3,40,0,0
6229,390.879478827362,4,2,3,40,1,0
6229,-111.111111111111,4,2,3,40,0,0
6326,-111.111111111111,4,2,3,5,0,0
6424,-125,4,2,2,40,0,0
7010,-125,4,2,3,35,0,0
7401,342.857142857143,4,2,3,40,1,0
7766,410.958904109589,4,2,3,40,1,0
8176,387.096774193549,4,2,3,40,1,0
8176,-125,4,2,2,40,0,0
8563,-125,4,2,3,30,0,0
9724,372.670807453417,4,2,3,40,1,0
9724,-125,4,2,3,40,0,0
10096,-125,4,2,3,30,0,0
10469,397.350993377483,4,2,3,40,1,0
10667,-111.111111111111,4,2,3,40,0,0
10969,-111.111111111111,4,2,3,5,0,0
11065,382.165605095541,4,2,3,40,1,0
11065,-111.111111111111,4,2,3,40,0,0
11447,-111.111111111111,4,2,3,25,0,0
12020,377.358490566038,4,3,3,80,1,0
12020,-90.9090909090909,4,3,3,80,0,0
12397,400,4,3,3,80,1,0
12797,392.156862745099,4,3,3,80,1,0
12797,-83.3333333333333,4,3,3,80,0,0
13581,384.615384615386,4,3,3,80,1,0
13581,-83.3333333333333,4,3,3,80,0,0
14734,382.165605095542,4,3,3,80,1,0
14734,-83.3333333333333,4,3,3,80,0,0
15498,389.61038961039,4,3,3,80,1,0
15498,-83.3333333333333,4,3,3,80,0,0
16666,394.08866995074,4,3,3,80,1,0
16666,-83.3333333333333,4,3,3,80,0,0
17454,389.61038961039,4,3,3,80,1,0
17454,-83.3333333333333,4,3,3,80,0,0
18233,368.098159509203,4,3,3,80,1,0
18233,-83.3333333333333,4,3,3,80,0,0
18601,392.156862745098,4,3,3,80,1,0
18601,-83.3333333333333,4,3,3,80,0,0
18993,387.096774193549,4,3,3,80,1,0
18993,-83.3333333333333,4,3,3,80,0,0
20154,394.736842105264,4,3,3,80,1,0
20154,-83.3333333333333,4,3,3,80,0,0
20548,389.61038961039,4,3,3,80,1,0
20548,-83.3333333333333,4,3,3,80,0,0
21327,384.615384615385,4,3,3,80,1,0
21327,-83.3333333333333,4,3,3,80,0,0
22096,392.156862745098,4,3,3,80,1,0
22096,-83.3333333333333,4,3,3,80,0,0
22488,383.386581469648,4,3,3,80,1,0
22488,-83.3333333333333,4,3,3,80,0,0
23638,388.349514563108,4,2,3,85,1,0
23638,-83.3333333333333,4,2,3,85,0,0
23832,-83.3333333333333,4,3,3,85,0,0
24803,363.636363636364,4,3,3,85,1,0
24803,-83.3333333333333,4,3,3,85,0,0
25166,405.405405405406,4,2,2,85,1,0
25166,-83.3333333333333,4,2,2,85,0,0
25368,-83.3333333333333,4,3,3,80,0,0
25571,-125,4,3,3,70,0,0
25976,377.358490566038,4,3,3,70,1,0
25976,-125,4,3,3,70,0,0
26353,400,4,3,3,70,1,0
26353,-125,4,3,3,70,0,0
26753,384.615384615385,4,3,3,70,1,0
26753,-125,4,3,3,70,0,0
27906,402.68456375839,4,3,3,70,1,0
28308,375,4,3,3,70,1,0
28308,-125,4,3,3,70,0,0
28964,-125,4,3,3,5,0,0
29058,-125,4,3,3,70,0,0
29433,397.350993377484,4,3,3,70,1,0
29433,-125,4,3,3,70,0,0
29830,-125,4,3,3,70,0,0
30227,382.165605095542,4,3,3,70,1,0
30418,-125,4,3,3,70,0,0
30991,394.736842105264,4,3,3,70,1,0
30991,-125,4,3,3,70,0,0
31287,-125,4,3,3,5,0,0
31385,387.096774193549,4,3,3,70,1,0
31385,-100,4,3,3,70,0,0
31772,-125,4,3,3,70,0,0
32062,-125,4,3,3,5,0,0
32159,375,4,3,3,70,1,0
32159,-125,4,3,3,70,0,0
32440,-125,4,3,3,5,0,0
32534,-125,4,3,3,70,0,0
32909,402.68456375839,4,3,3,70,1,0
32909,-125,4,3,3,70,0,0
33311,393.44262295082,4,3,3,70,1,0
33507,-125,4,3,3,70,0,0
34491,368.098159509203,4,3,3,70,1,0
34491,-111.111111111111,4,3,3,70,0,0
34859,402.684563758389,4,3,3,70,1,0
34859,-125,4,3,3,70,0,0
35261,372.670807453416,4,3,3,70,1,0
35261,-125,4,3,3,70,0,0
35633,402.684563758389,4,3,3,70,1,0
36035,377.358490566038,4,3,3,70,1,0
36035,-125,4,3,3,70,0,0
36412,384.615384615385,4,3,3,70,1,0
37181,396.039603960396,4,3,3,70,1,0
37379,379.746835443038,4,3,3,70,1,0
37568,393.44262295082,4,2,2,85,1,0
37568,-100,4,2,2,85,0,0
37764,-100,4,3,3,70,0,0
37961,-111.111111111111,4,3,3,70,0,0
38354,376.175548589342,4,3,3,70,1,0
38354,-111.111111111111,4,3,3,70,0,0
38730,394.736842105264,4,3,3,70,1,0
38730,-111.111111111111,4,3,3,70,0,0
39124,394.736842105264,4,3,3,70,1,0
39124,-111.111111111111,4,3,3,70,0,0
39913,384.615384615385,4,3,3,70,1,0
39913,-111.111111111111,4,3,3,70,0,0
40682,392.156862745098,4,3,3,75,1,0
40682,-100,4,3,3,75,0,0
41373,-100,4,3,3,5,0,0
41466,370.370370370371,4,3,3,75,1,0
41466,-142.857142857143,4,3,3,75,0,0
41743,-142.857142857143,4,3,3,5,0,0
41836,394.736842105264,4,3,3,75,1,0
41836,-90.9090909090909,4,3,3,75,0,0
42132,-90.9090909090909,4,3,3,5,0,0
42230,385.852090032155,4,3,3,75,1,0
42230,-100,4,3,3,75,0,0
43773,397.350993377484,4,3,3,70,1,0
43773,-90.9090909090909,4,3,3,70,0,0
44170,379.746835443038,4,3,3,70,1,0
44170,-111.111111111111,4,3,3,70,0,0
44929,393.44262295082,4,3,3,70,1,0
44929,-111.111111111111,4,3,3,70,0,0
45715,379.746835443038,4,3,3,70,1,0
45715,-111.111111111111,4,3,3,70,0,0
46094,397.350993377484,4,3,3,70,1,0
46094,-111.111111111111,4,3,3,70,0,0
46888,391.517128874389,4,2,3,75,1,0
46888,-90.9090909090909,4,2,3,75,0,0
47083,-90.9090909090909,4,3,3,75,0,0
47671,380.952380952381,4,1,2,75,1,0
47671,-90.9090909090909,4,1,2,75,0,0
47861,-90.9090909090909,4,3,3,75,0,0
48432,400,4,3,3,75,1,0
48432,-90.9090909090909,4,3,3,75,0,0
48832,375,4,3,3,75,1,0
48832,-90.9090909090909,4,3,3,75,0,0
49113,-90.9090909090909,4,3,3,5,0,0
49207,-90.9090909090909,4,1,2,75,0,0
49394,-90.9090909090909,4,3,3,75,0,0
49582,402.68456375839,4,1,2,75,1,0
49582,-90.9090909090909,4,1,2,75,0,0
49783,-90.9090909090909,4,3,3,75,0,0
49984,390.879478827362,4,3,3,80,1,1
49984,-83.3333333333333,4,3,3,80,0,1
50765,370.370370370371,4,3,3,80,1,1
50765,-83.3333333333333,4,3,3,80,0,1
51135,382.165605095542,4,3,3,80,1,1
51135,-83.3333333333333,4,3,3,80,0,1
51899,387.096774193549,4,3,3,80,1,1
51899,-83.3333333333333,4,3,3,80,0,1
52673,397.350993377484,4,3,3,80,1,1
52673,-83.3333333333333,4,3,3,80,0,1
53070,379.746835443038,4,3,3,80,1,1
53070,-83.3333333333333,4,3,3,80,0,1
53734,-83.3333333333333,4,3,3,5,0,1
53829,387.096774193549,4,3,3,80,1,1
53829,-83.3333333333333,4,3,3,80,0,1
54119,-83.3333333333333,4,3,3,5,0,1
54216,-83.3333333333333,4,3,3,80,0,1
54603,379.746835443038,4,3,3,80,1,1
54603,-83.3333333333333,4,3,3,80,0,1
54982,389.61038961039,4,3,3,80,1,1
54982,-83.3333333333333,4,3,3,80,0,1
56150,382.165605095542,4,3,3,80,1,1
56150,-83.3333333333333,4,3,3,80,0,1
56532,392.156862745098,4,3,3,80,1,1
57316,384.615384615385,4,3,3,80,1,1
57316,-83.3333333333333,4,3,3,80,0,1
57700,387.096774193549,4,3,3,80,1,1
57700,-83.3333333333333,4,3,3,80,0,1
58474,379.746835443038,4,3,3,80,1,1
58853,389.61038961039,4,3,3,80,1,1
58853,-83.3333333333333,4,3,3,80,0,1
59632,-76.9230769230769,4,3,3,80,0,1
60021,382.165605095542,4,3,3,80,1,1
60021,-62.5,4,3,3,80,0,1
60307,-62.5,4,3,3,5,0,1
60403,397.350993377483,4,3,3,80,1,1
60403,-83.3333333333333,4,3,3,80,0,1
60800,-83.3333333333333,4,2,3,85,0,1
60999,-83.3333333333333,4,3,3,85,0,1
61197,382.165605095542,4,3,3,85,1,1
61961,394.736842105264,4,3,3,85,1,1
62355,383.386581469649,4,2,3,80,1,1
62355,-74.0740740740741,4,2,3,80,0,1
62546,-83.3333333333333,4,3,3,80,0,1
63505,392.156862745098,4,3,3,80,1,1
63701,-68.9655172413793,4,3,3,80,0,1
63897,384.615384615385,4,3,3,80,1,1
63897,-68.9655172413793,4,3,3,80,0,1
64281,-83.3333333333333,4,3,3,80,0,1
64568,-83.3333333333333,4,3,3,5,0,1
64666,388.349514563107,4,3,3,80,1,1
64666,-83.3333333333333,4,3,3,80,0,1
65442,394.736842105264,4,3,3,90,1,1
66034,387.096774193549,4,3,3,90,1,1
66614,372.670807453417,4,3,3,90,1,1
66986,393.44262295082,4,3,3,80,1,1
66986,-90.9090909090909,4,3,3,80,0,1
67772,379.746835443038,4,3,3,80,1,1
67772,-90.9090909090909,4,3,3,80,0,1
68151,389.61038961039,4,3,3,80,1,1
68151,-90.9090909090909,4,3,3,80,0,1
68930,382.165605095542,4,3,3,80,1,1
68930,-90.9090909090909,4,3,3,80,0,1
70076,395.387149917629,4,2,2,85,1,0
70076,-100,4,2,2,85,0,0
70273,-100,4,3,3,70,0,0
70471,-125,4,3,3,70,0,0
70767,-125,4,3,3,5,0,0
70866,372.670807453417,4,3,3,70,1,0
70866,-125,4,3,3,70,0,0
71238,392.156862745098,4,3,3,70,1,0
71238,-100,4,3,3,70,0,0
71532,-125,4,3,3,70,0,0
72022,379.746835443038,4,3,3,70,1,0
72022,-125,4,3,3,70,0,0
72401,394.736842105264,4,3,3,70,1,0
72401,-125,4,3,3,70,0,0
73190,389.61038961039,4,3,3,70,1,0
73190,-125,4,3,3,70,0,0
73969,382.165605095542,4,3,3,70,1,0
73969,-125,4,3,3,70,0,0
74637,-125,4,3,3,5,0,0
74733,384.615384615385,4,3,3,70,1,0
74733,-100,4,3,3,70,0,0
75117,-125,4,3,3,70,0,0
75886,402.68456375839,4,3,3,70,1,0
76288,392.156862745098,4,3,3,70,1,0
76288,-100,4,3,3,70,0,0
76680,-125,4,3,3,70,0,0
77072,365.853658536586,4,3,3,70,1,0
77072,-125,4,3,3,70,0,0
77437,388.349514563107,4,3,3,70,1,0
77437,-125,4,3,3,70,0,0
77728,-125,4,3,3,5,0,0
77825,-125,4,3,3,70,0,0
78213,394.736842105264,4,3,3,70,1,0
78213,-125,4,3,3,70,0,0
79002,384.615384615384,4,3,3,70,1,0
79002,-125,4,3,3,70,0,0
79386,394.736842105263,4,3,3,70,1,0
79386,-125,4,3,3,70,0,0
80175,368.098159509202,4,3,3,70,1,0
80175,-125,4,3,3,70,0,0
80543,390.243902439025,4,3,3,70,1,0
80931,-125,4,3,3,70,0,0
81713,379.746835443038,4,3,3,70,1,0
82282,363.636363636364,4,3,3,70,1,0
82463,408.163265306122,4,2,2,70,1,0
82463,-100,4,2,2,70,0,0
82667,-100,4,3,3,70,0,0
82871,380.348652931854,4,3,3,70,1,0
82871,-111.111111111111,4,3,3,70,0,0
83631,392.798690671031,4,3,3,70,1,0
83827,-111.111111111111,4,3,3,70,0,0
84809,377.358490566038,4,3,3,70,1,0
85186,392.156862745098,4,3,3,70,1,0
85578,-100,4,3,3,75,0,0
85970,400,4,3,3,75,1,0
85970,-100,4,3,3,75,0,0
86270,-100,4,3,3,5,0,0
86370,372.670807453416,4,3,3,75,1,0
86370,-142.857142857143,4,3,3,75,0,0
86649,-142.857142857143,4,3,3,5,0,0
86742,388.349514563107,4,3,3,75,1,0
86742,-90.9090909090909,4,3,3,75,0,0
87033,-90.9090909090909,4,3,3,5,0,0
87130,-100,4,3,3,75,0,0
87518,385.852090032154,4,3,3,75,1,0
87518,-100,4,3,3,75,0,0
88675,377.358490566037,4,3,3,70,1,0
88675,-90.9090909090909,4,3,3,70,0,0
89052,388.349514563106,4,3,3,70,1,0
89052,-111.111111111111,4,3,3,70,0,0
90217,389.610389610389,4,3,3,70,1,0
90217,-111.111111111111,4,3,3,70,0,0
90996,397.350993377483,4,3,3,70,1,0
90996,-111.111111111111,4,3,3,70,0,0
91790,389.610389610389,4,2,3,75,1,0
91790,-90.9090909090909,4,2,3,75,0,0
91984,-90.9090909090909,4,3,3,75,0,0
92569,383.386581469648,4,1,2,75,1,0
92569,-90.9090909090909,4,1,2,75,0,0
92760,-90.9090909090909,4,3,3,75,0,0
93335,377.358490566038,4,3,3,75,1,0
93335,-90.9090909090909,4,3,3,75,0,0
94089,385.852090032154,4,1,2,75,1,0
94089,-90.9090909090909,4,1,2,75,0,0
94281,-90.9090909090909,4,3,3,75,0,0
94474,-90.9090909090909,4,1,2,75,0,0
94667,-90.9090909090909,4,3,3,75,0,0
94860,394.736842105263,4,3,3,80,1,1
94860,-83.3333333333333,4,3,3,80,0,1
95649,384.615384615384,4,3,3,80,1,1
96418,-83.3333333333333,4,3,3,80,0,1
96802,389.610389610389,4,3,3,80,1,1
97191,385.852090032154,4,3,3,80,1,1
97191,-83.3333333333333,4,3,3,80,0,1
97962,392.156862745098,4,3,3,80,1,1
97962,-83.3333333333333,4,3,3,80,0,1
98648,-83.3333333333333,4,3,3,5,0,1
98746,379.746835443038,4,3,3,80,1,1
98746,-83.3333333333333,4,3,3,80,0,1
99505,400,4,3,3,80,1,1
99905,384.615384615384,4,3,3,80,1,1
100289,379.746835443038,4,3,3,80,1,1
100289,-83.3333333333333,4,3,3,80,0,1
101048,400,4,3,3,80,1,1
101048,-83.3333333333333,4,3,3,80,0,1
101448,384.615384615384,4,3,3,80,1,1
102217,389.610389610389,4,3,3,80,1,1
102217,-83.3333333333333,4,3,3,80,0,1
102606,-83.3333333333333,4,3,3,80,0,1
103385,382.165605095541,4,3,3,80,1,1
103767,397.350993377483,4,3,3,80,1,1
103767,-83.3333333333333,4,3,3,80,0,1
104164,384.615384615384,4,3,3,80,1,1
104164,-83.3333333333333,4,3,3,80,0,1
104548,-76.9230769230769,4,3,3,80,0,1
104933,-62.5,4,3,3,80,0,1
105221,-83.3333333333333,4,3,3,5,0,1
105317,382.165605095541,4,3,3,80,1,1
105317,-83.3333333333333,4,3,3,80,0,1
105699,412.371134020618,4,2,3,85,1,1
105699,-83.3333333333333,4,2,3,85,0,1
105905,-83.3333333333333,4,3,3,85,0,1
106111,377.358490566038,4,3,3,85,1,1
106111,-83.3333333333333,4,3,3,85,0,1
107243,395.387149917628,4,2,3,80,1,1
107243,-74.0740740740741,4,2,3,80,0,1
107440,-83.3333333333333,4,3,3,80,0,1
107638,390.879478827361,4,3,3,80,1,1
107638,-83.3333333333333,4,3,3,80,0,1
108419,385.852090032154,4,3,3,80,1,1
108611,-74.0740740740741,4,3,3,80,0,1
109190,-83.3333333333333,4,3,3,80,0,1
109480,-83.3333333333333,4,3,3,5,0,1
109576,387.096774193548,4,3,3,80,1,1
109576,-83.3333333333333,4,3,3,80,0,1
110350,379.746835443037,4,3,3,90,1,1
110919,384.615384615384,4,3,3,90,1,1
111495,377.358490566038,4,3,3,90,1,1
111872,402.684563758389,4,3,3,80,1,1
111872,-90.9090909090909,4,3,3,80,0,1
112677,375,4,3,3,80,1,1
112677,-90.9090909090909,4,3,3,80,0,1
113052,394.736842105263,4,3,3,80,1,1
113052,-90.9090909090909,4,3,3,80,0,1
113841,379.746835443037,4,3,3,80,1,1
114220,370.37037037037,4,3,3,80,1,1
114590,402.684563758389,4,3,3,80,1,1
114992,-100,4,3,3,80,0,0
115194,-100,4,3,3,70,0,0
115395,377.358490566038,4,3,3,70,1,0
115678,-100,4,3,3,5,0,0
115772,387.096774193548,4,3,3,70,1,0
115772,-100,4,3,3,70,0,0
116449,-100,4,3,3,5,0,0
116546,384.615384615384,4,3,3,70,1,0
116546,-100,4,3,3,70,0,0
116930,389.610389610389,4,3,3,70,1,0
117222,-100,4,3,3,5,0,0
117319,-100,4,3,3,70,0,0
117709,397.350993377483,4,3,3,70,1,0
118007,-100,4,3,3,5,0,0
118106,379.746835443038,4,3,3,70,1,0
118106,-100,4,3,3,70,0,0
118768,-100,4,3,3,5,0,0
118865,384.615384615384,4,3,3,70,1,0
118865,-100,4,3,3,70,0,0
119249,392.156862745098,4,3,3,70,1,0
119543,-100,4,3,3,5,0,0
119641,389.610389610389,4,3,3,70,1,0
119641,-100,4,3,3,70,0,0
120322,-100,4,3,3,5,0,0
120420,384.615384615384,4,3,3,70,1,0
120420,-100,4,3,3,70,0,0
121093,-100,4,2,3,5,0,0
121189,397.350993377483,4,3,3,70,1,0
121189,-100,4,3,3,70,0,0
121586,384.615384615384,4,3,3,70,1,0
121874,-100,4,3,3,5,0,0
121970,-100,4,3,3,70,0,0
122355,392.156862745098,4,3,3,70,1,0
122649,-100,4,3,3,5,0,0
122747,389.610389610389,4,3,3,70,1,0
122747,-100,4,3,3,70,0,0
123428,-100,4,3,3,5,0,0
123526,384.615384615384,4,3,3,70,1,0
123526,-100,4,3,3,70,0,0
123910,394.736842105263,4,3,3,70,1,0
124206,-100,4,3,3,5,0,0
124304,387.096774193548,4,3,3,70,1,0
124304,-100,4,3,3,70,0,0
124983,-100,4,3,3,5,0,0
125078,377.358490566037,4,3,3,70,1,0
125078,-100,4,3,3,70,0,0
125455,382.165605095541,4,3,3,70,1,0
125741,-100,4,3,3,5,0,0
125837,-90.9090909090909,4,3,3,80,0,0
126219,384.615384615384,4,3,3,80,1,0
126219,-90.9090909090909,4,3,3,80,0,0
126507,-90.9090909090909,4,3,3,5,0,0
126603,352.941176470588,4,3,3,80,1,0
126603,-90.9090909090909,4,3,3,80,0,0
126955,408.163265306122,4,3,3,80,1,0
126955,-90.9090909090909,4,3,3,80,0,0
127363,397.350993377483,4,2,3,90,1,0
127363,-80,4,2,3,90,0,0
127561,-80,4,3,3,90,0,0
128952,377.358490566037,4,3,3,90,1,0
128952,-80,4,3,3,90,0,0
129329,389.610389610389,4,3,3,90,1,0
129329,-80,4,3,3,90,0,0
129718,384.615384615384,4,3,3,90,1,0
129718,-80,4,3,3,90,0,0
130487,389.610389610389,4,3,3,90,1,0
130487,-80,4,3,3,90,0,0
131266,377.358490566037,4,3,3,90,1,0
131266,-80,4,3,3,90,0,0
131643,387.096774193548,4,3,3,90,1,0
131643,-80,4,3,3,90,0,0
132030,384.615384615384,4,3,3,90,1,0
132030,-80,4,3,3,90,0,0
132799,382.165605095541,4,3,3,90,1,0
132799,-80,4,3,3,90,0,0
133563,392.156862745098,4,3,3,90,1,0
133563,-80,4,3,3,90,0,0
134347,387.096774193548,4,3,3,90,1,0
134347,-80,4,3,3,90,0,0
135121,379.746835443038,4,3,3,90,1,0
135121,-80,4,3,3,90,0,0
135500,400,4,3,3,90,1,0
135500,-80,4,3,3,90,0,0
135900,384.615384615384,4,3,3,90,1,0
135900,-80,4,3,3,90,0,0
136669,394.736842105262,4,3,3,70,1,0
136669,-90.9090909090909,4,3,3,70,0,0
137458,375,4,3,3,75,1,0
137458,-90.9090909090909,4,3,3,75,0,0
137833,400,4,3,3,75,1,0
138233,368.098159509202,4,3,3,80,1,0
138233,-90.9090909090909,4,3,3,80,0,0
138601,396.694214876033,4,3,3,80,1,0
138997,384.615384615384,4,3,3,85,1,0
138997,-90.9090909090909,4,3,3,85,0,0
139381,392.156862745098,4,3,3,85,1,0
139773,-100,4,2,3,90,0,0
139969,-100,4,3,3,90,0,0
140557,363.636363636363,4,3,3,90,1,0
140557,-100,4,3,3,90,0,0
141324,394.736842105263,4,1,2,90,1,0
141324,-100,4,1,2,90,0,0
142113,352.941176470588,4,3,3,90,1,0
142113,-100,4,3,3,90,0,0
142465,375,4,3,3,90,1,0
142465,-100,4,3,3,90,0,0
142850,384.615384615384,4,1,2,90,1,0
142850,-100,4,1,2,90,0,0
143234,402.684563758389,4,1,2,80,1,0
143636,363.636363636363,4,3,3,90,1,0
143636,-100,4,3,3,90,0,0
144390,392.156862745097,4,1,2,90,1,0
144390,-100,4,1,2,90,0,0
144783,413.793103448275,4,1,2,90,1,0
145196,359.281437125748,4,3,3,90,1,0
145196,-100,4,3,3,90,0,0
145940,392.156862745098,4,1,2,90,1,0
145940,-100,4,1,2,90,0,0
146735,368.098159509201,4,3,3,90,1,0
146735,-100,4,3,3,90,0,0
147495,392.156862745097,4,1,2,90,1,0
147495,-100,4,1,2,90,0,0
147886,405.405405405405,4,1,2,90,1,0
148291,363.636363636364,4,3,3,90,1,0
148291,-100,4,3,3,90,0,0
149047,387.096774193548,4,1,2,90,1,0
149047,-100,4,1,2,90,0,0
149434,413.793103448275,4,1,2,90,1,0
149848,363.636363636364,4,3,3,90,1,0
149848,-100,4,3,3,90,0,0
150598,397.350993377483,4,1,2,90,1,0
150598,-100,4,1,2,90,0,0
151392,363.636363636364,4,3,3,90,1,0
151392,-100,4,3,3,90,0,0
152158,413.793103448275,4,2,3,80,1,0
152158,-250,4,2,3,80,0,0
152261,-250,4,3,3,65,0,0
152571,378.548895899054,4,3,3,65,1,0
153607,-250,4,3,3,5,0,0
153706,389.61038961039,4,3,3,65,1,0
153706,-250,4,3,3,65,0,0
154485,394.736842105263,4,3,3,65,1,0
154879,390.879478827362,4,3,3,65,1,0
155172,-250,4,3,3,5,0,0
155269,-250,4,3,3,65,0,0
155660,375,4,3,3,65,1,0
156035,370.37037037037,4,3,3,65,1,0
156035,-250,4,3,3,65,0,0
156405,399.999999999998,4,3,3,65,1,0
156804,402.684563758389,4,3,3,65,1,0
156804,-250,4,3,3,65,0,0
157206,384.615384615385,4,3,3,65,1,0
157206,-250,4,3,3,65,0,0
157782,-142.857142857143,4,3,3,65,0,0
157975,375,4,3,3,65,1,0
158350,394.736842105263,4,3,3,65,1,0
158350,-142.857142857143,4,3,3,65,0,0
159040,-142.857142857143,4,3,3,5,0,0
159139,387.096774193548,4,3,3,65,1,0
159139,-142.857142857143,4,3,3,65,0,0
159526,392.156862745098,4,3,3,65,1,0
159526,-142.857142857143,4,3,3,65,0,0
160310,379.746835443038,4,3,3,65,1,0
160310,-142.857142857143,4,3,3,65,0,0
160689,382.165605095541,4,3,3,65,1,0
161453,390.879478827361,4,3,3,65,1,0
161453,-142.857142857143,4,3,3,65,0,0
162625,384.615384615384,4,3,3,65,1,0
163009,379.746835443038,4,3,3,65,1,0
163009,-142.857142857143,4,3,3,65,0,0
163388,389.610389610389,4,3,3,65,1,0
163388,-142.857142857143,4,3,3,65,0,0
163777,385.852090032154,4,3,3,65,1,0
163777,-142.857142857143,4,3,3,65,0,0
164548,384.615384615384,4,3,3,65,1,0
164548,-142.857142857143,4,3,3,65,0,0
165317,389.610389610389,4,3,3,65,1,0
165317,-142.857142857143,4,3,3,65,0,0
166096,390.879478827361,4,3,3,65,1,0
166096,-142.857142857143,4,3,3,65,0,0
166877,372.670807453416,4,3,3,65,1,0
167249,400,4,3,3,65,1,0
167649,392.156862745098,4,2,3,75,1,0
167649,-90.9090909090909,4,2,3,75,0,0
167845,-90.9090909090909,4,3,3,75,0,0
168335,-90.9090909090909,4,3,3,5,0,0
168433,384.615384615385,4,1,2,75,1,0
168433,-90.9090909090909,4,1,2,75,0,0
168721,-90.9090909090909,4,3,3,5,0,0
168817,386.473429951691,4,3,3,75,1,0
168817,-90.9090909090909,4,3,3,75,0,0
169203,377.358490566037,4,3,3,75,1,0
169203,-90.9090909090909,4,3,3,75,0,0
169863,-90.9090909090909,4,3,3,5,0,0
169957,397.350993377483,4,1,2,75,1,0
169957,-90.9090909090909,4,1,2,75,0,0
170155,-90.9090909090909,4,3,3,75,0,0
170354,-90.9090909090909,4,1,2,75,0,0
170553,-90.9090909090909,4,3,3,75,0,0
170751,368.098159509202,4,3,3,80,1,1
170751,-83.3333333333333,4,3,3,80,0,1
171119,392.156862745098,4,3,3,80,1,1
171903,384.615384615384,4,3,3,80,1,1
171903,-83.3333333333333,4,3,3,80,0,1
172672,388.349514563106,4,3,3,80,1,1
172672,-83.3333333333333,4,3,3,80,0,1
173060,390.879478827362,4,3,3,80,1,1
173841,361.44578313253,4,3,3,80,1,1
173841,-83.3333333333333,4,3,3,80,0,1
174202,400,4,3,3,80,1,1
174202,-83.3333333333333,4,3,3,80,0,1
174602,-83.3333333333333,4,3,3,80,0,1
175002,384.615384615384,4,3,3,80,1,1
175386,372.670807453416,4,3,3,80,1,1
175386,-83.3333333333333,4,3,3,80,0,1
175758,389.610389610389,4,3,3,80,1,1
175758,-83.3333333333333,4,3,3,80,0,1
176537,394.736842105263,4,3,3,80,1,1
176537,-83.3333333333333,4,3,3,80,0,1
176931,383.386581469648,4,3,3,80,1,1
176931,-83.3333333333333,4,3,3,80,0,1
177697,388.349514563106,4,3,3,80,1,1
177697,-83.3333333333333,4,3,3,80,0,1
178473,382.165605095541,4,3,3,80,1,1
178473,-83.3333333333333,4,3,3,80,0,1
178855,389.610389610389,4,3,3,80,1,1
178855,-83.3333333333333,4,3,3,80,0,1
180023,377.358490566037,4,3,3,80,1,1
180023,-83.3333333333333,4,3,3,80,0,1
180400,405.405405405405,4,3,3,80,1,1
180805,370.37037037037,4,3,3,80,1,1
180805,-62.5,4,3,3,80,0,1
181078,-83.3333333333333,4,3,3,5,0,1
181175,387.096774193548,4,3,3,80,1,1
181175,-83.3333333333333,4,3,3,80,0,1
181562,-83.3333333333333,4,2,3,85,0,1
181755,-83.3333333333333,4,3,3,85,0,1
181949,392.156862745097,4,3,3,85,1,1
182341,383.386581469648,4,3,3,85,1,1
183107,397.350993377483,4,2,3,80,1,1
183107,-74.0740740740741,4,2,3,80,0,1
183305,-83.3333333333333,4,3,3,80,0,1
183504,390.879478827361,4,3,3,80,1,1
183504,-83.3333333333333,4,3,3,80,0,1
184481,-80,4,3,3,80,0,1
184676,379.746835443038,4,3,3,80,1,1
184676,-80,4,3,3,80,0,1
185055,405.405405405405,4,3,3,80,1,1
185055,-83.3333333333333,4,3,3,80,0,1
185359,-83.3333333333333,4,3,3,5,0,1
185460,379.746835443038,4,3,3,80,1,1
185460,-83.3333333333333,4,3,3,80,0,1
185839,389.610389610389,4,3,3,80,1,1
185839,-83.3333333333333,4,3,3,80,0,1
186228,379.746835443038,4,3,3,90,1,1
186228,-83.3333333333333,4,3,3,90,0,1
186797,394.736842105263,4,3,3,90,1,1
187389,379.746835443037,4,3,3,90,1,1
187768,389.610389610389,4,3,3,80,1,1
187768,-83.3333333333333,4,3,3,80,0,1
188547,379.746835443038,4,3,3,80,1,1
188547,-83.3333333333333,4,3,3,80,0,1
188926,394.736842105263,4,3,3,80,1,1
188926,-83.3333333333333,4,3,3,80,0,1
189320,388.349514563106,4,3,3,80,1,1
189320,-83.3333333333333,4,3,3,80,0,1
190096,372.670807453416,4,3,3,80,1,1
190096,-83.3333333333333,4,3,3,80,0,1
190841,392.156862745098,4,2,3,85,1,0
190841,-83.3333333333333,4,2,3,85,0,0
191037,-83.3333333333333,4,3,3,80,0,0
191233,383.386581469648,4,3,3,80,1,0
191999,428.571428571428,4,3,3,80,1,0
192420,397.350993377483,4,2,3,85,1,0
192420,-83.3333333333333,4,2,3,85,0,0
192618,-83.3333333333333,4,3,3,80,0,0
192816,365.853658536585,4,3,3,80,1,0
193547,408.163265306122,4,3,3,80,1,0
193955,387.096774193548,4,3,3,80,1,1
193955,-83.3333333333333,4,3,3,80,0,1
194342,402.684563758389,4,3,3,80,1,1
194342,-83.3333333333333,4,3,3,80,0,1
194644,-83.3333333333333,4,3,3,5,0,1
194744,382.165605095541,4,3,3,80,1,1
194744,-83.3333333333333,4,3,3,80,0,1
195508,389.610389610389,4,3,3,80,1,1
195508,-83.3333333333333,4,3,3,80,0,1
196287,382.165605095541,4,3,3,80,1,1
197051,389.610389610389,4,2,3,85,1,0
197051,-83.3333333333333,4,2,3,85,0,0
197245,-83.3333333333333,4,3,3,80,0,0
197440,387.096774193548,4,3,3,80,1,0
198214,384.615384615384,4,3,3,80,1,0
198598,397.350993377483,4,2,3,85,1,0
198598,-83.3333333333333,4,2,3,85,0,0
198796,-83.3333333333333,4,3,3,80,0,0
198995,379.746835443038,4,3,3,80,1,0
199754,405.405405405405,4,3,3,80,1,0
200159,388.349514563106,4,3,3,80,1,1
200159,-83.3333333333333,4,3,3,80,0,1
200935,377.358490566038,4,3,3,80,1,1
200935,-83.3333333333333,4,3,3,80,0,1
201218,-83.3333333333333,4,3,3,5,0,1
201312,387.096774193548,4,3,3,80,1,1
201312,-83.3333333333333,4,3,3,80,0,1
202086,392.156862745098,4,3,3,80,1,1
202478,379.746835443037,4,3,3,80,1,1
203237,397.350993377483,4,2,3,80,1,1
203237,-74.0740740740741,4,2,3,80,0,1
203435,-83.3333333333333,4,3,3,80,0,1
203634,386.47342995169,4,3,3,80,1,1
203634,-83.3333333333333,4,3,3,80,0,1
204600,-80,4,3,3,80,0,1
204793,394.736842105263,4,3,3,80,1,1
204793,-80,4,3,3,80,0,1
205187,-83.3333333333333,4,3,3,80,0,1
205483,-83.3333333333333,4,3,3,5,0,1
205582,384.615384615384,4,3,3,80,1,1
205582,-83.3333333333333,4,3,3,80,0,1
205966,400,4,3,3,80,1,1
205966,-83.3333333333333,4,3,3,80,0,1
206366,465.116279069766,4,3,3,70,1,0
206366,-117.647058823529,4,3,3,70,0,0
206831,512.820512820513,4,3,3,70,1,0
207087,-142.857142857143,4,3,3,70,0,0
207343,555.555555555555,4,3,3,70,1,0
207898,697.67441860465,4,3,3,70,1,0
208421,-142.857142857143,4,3,3,5,0,0
208595,697.67441860465,4,2,3,70,1,0
208595,-250,4,2,3,70,0,0
215921,-250,4,2,3,5,0,0

[Colours]
Combo1 : 213,43,213
Combo2 : 114,226,226
Combo3 : 159,100,219
Combo4 : 48,128,207

[HitObjects]
100,28,250,5,0,0:0:0:0:
100,28,335,1,0,0:0:0:0:
100,28,421,2,0,L|108:141,1,100,2|2,0:0|0:0,0:0:0:0:
114,227,800,1,2,0:0:0:0:
194,168,1000,1,2,0:0:0:0:
194,168,1200,1,0,0:0:0:0:
272,230,1398,2,0,P|333:241|400:221,1,120
424,202,1784,5,2,0:0:0:0:
354,130,1994,2,0,P|346:72|354:26,1,100,2|2,0:0|0:0,0:0:0:0:
438,82,2378,1,2,0:0:0:0:
424,202,2570,2,0,P|361:223|279:188,1,158,2|0,0:0|0:0,0:0:0:0:
38,341,3325,5,2,0:0:0:0:
38,341,3419,1,2,0:0:0:0:
38,341,3513,2,0,P|91:323|151:335,1,100,2|2,0:0|0:0,0:0:0:0:
230,356,3905,1,2,0:0:0:0:
278,284,4101,2,0,L|333:282,2,40,2|0|0,0:0|0:0|0:0,0:0:0:0:
195,251,4488,2,0,P|171:193|183:122,1,120
192,97,4865,1,0,0:0:0:0:
312,194,5061,6,0,P|378:164|385:87,1,134.999995880127,2|0,0:0|0:0,0:0:0:0:
378,64,5455,2,0,P|431:73|485:59,1,89.9999972534181
504,42,5751,1,0,0:0:0:0:
504,42,5850,1,2,0:0:0:0:
391,107,6039,2,0,L|383:253,1,135.999995880127,2|0,0:0|0:0,0:0:0:0:
386,290,6424,5,2,0:0:0:0:
386,290,6522,1,2,0:0:0:0:
386,290,6619,2,0,P|304:312|216:280,2,160,2|2|0,0:0|0:0|0:0,0:0:0:0:
475,223,7572,1,2,0:0:0:0:
411,133,7766,1,2,0:0:0:0:
301,164,7971,1,2,0:0:0:0:
196,294,8176,6,0,P|164:217|173:135,1,160,2|0,0:0|0:0,0:0:0:0:
207,9,8950,1,0,0:0:0:0:
207,9,9143,2,0,B|231:35|287:14|287:14|351:-8|385:27,1,160
502,40,9724,6,0,P|521:125|497:198,2,160,2|0|0,0:0|0:0|0:0,0:0:0:0:
416,116,10667,2,0,B|390:140|348:119|348:119|311:99|278:120,1,134.999995880127,2|0,0:0|0:0,0:0:0:0:
255,133,11065,2,0,P|155:151|117:61,1,179.999994506836,2|0,0:0|0:0,0:0:0:0:
192,85,11638,2,0,L|159:200,1,89.9999972534181
316,273,12020,5,8,0:0:0:0:
255,133,12208,1,0,0:0:0:0:
140,312,12397,1,8,0:0:0:0:
404,347,12597,5,2,0:0:0:0:
404,347,12697,1,2,0:0:0:0:
404,347,12797,6,0,B|417:293|417:293|410:208,1,119.999996337891,4|0,2:0|0:0,0:0:0:0:
387,1,13189,1,8,0:0:0:0:
255,133,13385,1,0,0:0:0:0:
458,149,13581,1,0,0:0:0:0:
288,36,13773,1,0,0:0:0:0:
146,199,13965,2,0,P|82:202|23:174,1,119.999996337891,8|0,0:0|0:0,0:0:0:0:
255,133,14350,6,0,B|275:163|275:163|273:254,1,119.999996337891,2|0,0:0|0:0,0:0:0:0:
65,342,14734,1,8,0:0:0:0:
101,124,14925,1,0,0:0:0:0:
273,246,15116,2,0,B|310:239|310:239|333:258|333:258|394:255,1,119.999996337891
264,35,15498,2,0,B|227:28|227:28|204:47|204:47|143:44,1,119.999996337891,8|0,0:0|0:0,0:0:0:0:
385,255,15887,6,0,B|405:194|405:194|404:129,1,119.999996337891,4|0,2:0|0:0,2:0:0:0:
312,325,16277,2,0,P|376:355|434:343,1,119.999996337891,8|0,0:0|0:0,0:0:0:0:
290,163,16666,1,0,0:0:0:0:
158,320,16863,1,0,0:0:0:0:
25,139,17060,2,0,P|77:112|160:121,1,119.999996337891,8|0,0:0|0:0,0:0:0:0:
402,189,17454,6,0,P|342:189|289:162,1,119.999996337891,4|0,0:0|0:0,0:0:0:0:
157,17,17843,1,8,0:0:0:0:
370,94,18038,1,0,0:0:0:0:
146,226,18233,2,0,B|146:188|146:188|154:167|154:167|137:134|137:134|137:86,1,119.999996337891
402,189,18601,2,0,B|402:211|402:211|419:244|419:244|411:265|411:265|411:303,1,119.999996337891,8|0,0:0|0:0,0:0:0:0:
94,347,18993,6,0,B|59:302|59:302|52:236,1,119.999996337891,4|0,2:0|0:0,0:0:0:0:
48,11,19380,1,8,0:0:0:0:
221,118,19573,1,0,0:0:0:0:
52,239,19767,1,0,0:0:0:0:
141,55,19960,1,0,0:0:0:0:
313,227,20154,2,0,L|441:233,1,119.999996337891,8|0,0:0|0:0,0:0:0:0:
189,346,20548,6,0,B|172:307|172:307|181:215,1,119.999996337891,2|0,0:0|0:0,0:0:0:0:
260,15,20937,1,8,0:0:0:0:
101,143,21132,1,0,0:0:0:0:
316,228,21327,2,0,B|345:239|345:239|364:194|360:151,1,119.999996337891
145,67,21711,2,0,B|116:56|116:56|97:101|101:144,1,119.999996337891,8|0,0:0|0:0,0:0:0:0:
333,347,22096,6,0,B|393:330|393:330|434:285,1,119.999996337891,4|0,2:0|0:0,0:0:0:0:
247,168,22488,1,8,0:0:0:0:
105,317,22679,1,0,0:0:0:0:
266,191,22871,2,0,L|406:185,1,119.999996337891
230,356,23254,2,0,L|110:350,1,119.999996337891,8|0,0:0|0:0,0:0:0:0:
57,126,23638,6,0,B|115:113|115:113|174:124,1,119.999996337891,4|0,0:0|0:0,0:0:0:0:
359,315,24026,1,8,0:0:0:0:
110,350,24220,1,0,0:0:0:0:
249,156,24414,1,0,0:0:0:0:
255,384,24608,1,0,0:0:0:0:
121,192,24803,1,8,0:0:0:0:
359,315,24984,5,8,0:0:0:0:
411,325,25075,1,8,0:0:0:0:
459,299,25166,6,0,B|480:251|469:202|469:202|433:226,1,119.999996337891,4|0,0:0|0:0,0:0:0:0:
359,315,25571,6,0,P|342:273|344:226,1,80,8|0,0:0|0:0,0:0:0:0:
265,180,25976,2,0,P|249:219|215:249,1,80
192,130,26353,2,0,P|222:101|266:88,1,80,8|2,0:0|0:0,0:0:0:0:
298,88,26653,1,2,0:0:0:0:
298,88,26753,2,0,P|340:128|337:239,1,160,0|8,0:0|0:0,0:0:0:0:
268,325,27329,6,0,L|175:323,1,80
96,292,27714,1,0,0:0:0:0:
176,213,27906,1,8,0:0:0:0:
55,139,28107,5,2,0:0:0:0:
55,139,28208,1,2,0:0:0:0:
55,139,28308,2,0,L|156:129,1,80
250,163,28683,6,0,P|264:227|231:288,1,120,8|0,0:0|0:0,0:0:0:0:
219,307,29058,2,0,P|264:303|319:321,1,80
395,365,29433,2,0,P|386:325|391:286,1,80,8|2,0:0|0:0,0:0:0:0:
409,250,29731,1,2,0:0:0:0:
409,250,29830,2,0,P|436:199|404:90,1,160,0|8,0:0|0:0,0:0:0:0:
335,22,30418,5,2,0:0:0:0:
335,22,30513,1,2,0:0:0:0:
335,22,30609,2,0,L|243:17,1,80
161,80,30991,2,0,P|226:66|289:98,1,120,8|0,0:0|0:0,0:0:0:0:
325,143,31385,6,0,B|336:189|336:189|324:258,1,100
249,322,31772,6,0,P|203:339|108:300,1,120,8|0,0:0|0:0,0:0:0:0:
106,295,32159,2,0,P|122:230|106:149,1,120
88,148,32534,2,0,P|130:148|176:123,1,80,8|2,0:0|0:0,0:0:0:0:
195,107,32815,1,2,0:0:0:0:
195,107,32909,2,0,P|280:87|364:127,1,160,0|8,0:0|0:0,0:0:0:0:
430,188,33507,5,2,0:0:0:0:
430,188,33606,1,2,0:0:0:0:
430,188,33704,1,0,0:0:0:0:
378,276,33901,1,0,0:0:0:0:
287,189,34097,2,0,L|196:185,1,80,8|0,0:0|0:0,0:0:0:0:
86,267,34491,6,0,L|181:263,1,89.9999972534181
21,322,34859,6,0,P|4:278|13:221,1,80,8|0,0:0|0:0,0:0:0:0:
52,161,35261,2,0,P|103:150|133:152,1,80
244,197,35633,1,8,0:0:0:0:
175,263,35834,1,2,0:0:0:0:
175,263,35935,1,2,0:0:0:0:
175,263,36035,2,0,P|242:286|330:246,1,160,0|8,0:0|0:0,0:0:0:0:
390,166,36604,5,2,0:0:0:0:
390,166,36700,1,2,0:0:0:0:
390,166,36796,1,0,0:0:0:0:
304,62,36988,1,0,0:0:0:0:
206,173,37181,1,8,0:0:0:0:
124,46,37379,1,8,0:0:0:0:
85,33,37473,1,8,0:0:0:0:
45,33,37568,6,0,B|14:73|14:73|1:128,1,100,4|0,0:0|0:0,0:0:0:0:
86,213,37961,5,8,0:0:0:0:
12,292,38158,1,2,0:0:0:0:
12,292,38256,1,2,0:0:0:0:
12,292,38354,2,0,P|103:245|194:268,1,179.999994506836,0|8,0:0|0:0,0:0:0:0:
261,313,38927,5,0,0:0:0:0:
347,248,39124,1,0,0:0:0:0:
422,325,39321,1,0,0:0:0:0:
441,200,39518,1,8,0:0:0:0:
347,248,39716,2,0,P|336:197|358:136,1,89.9999972534181
391,63,40105,1,0,0:0:0:0:
272,18,40297,2,0,P|224:13|180:21,1,89.9999972534181,8|0,0:0|0:0,0:0:0:0:
5,193,40682,5,2,0:0:0:0:
107,42,40878,1,0,0:0:0:0:
32,226,41074,2,0,B|87:225|87:225|184:178,1,150,8|0,0:0|0:0,0:0:0:0:
239,147,41466,6,0,B|253:168|247:202|247:202|270:214|284:249,1,104.999996795654,2|0,0:0|0:0,0:0:0:0:
322,301,41836,6,0,P|377:316|452:242,1,165.000005035401,8|0,0:0|0:0,0:0:0:0:
462,176,42230,5,2,0:0:0:0:
306,107,42422,1,0,0:0:0:0:
484,86,42615,1,8,0:0:0:0:
383,223,42808,2,0,P|330:234|272:219,1,100
146,156,43194,1,2,0:0:0:0:
28,277,43387,1,8,0:0:0:0:
188,384,43580,1,2,0:0:0:0:
188,384,43676,1,2,0:0:0:0:
188,384,43773,6,0,B|203:327|203:327|201:264,1,110.000003356934
278,176,44170,6,0,P|329:168|382:179,1,89.9999972534181,8|2,0:0|0:0,0:0:0:0:
405,196,44454,1,2,0:0:0:0:
405,196,44549,2,0,P|436:278|346:332,1,179.999994506836,0|8,0:0|0:0,0:0:0:0:
275,293,45125,5,2,0:0:0:0:
275,293,45224,1,2,0:0:0:0:
275,293,45322,1,0,0:0:0:0:
192,362,45519,1,0,0:0:0:0:
82,299,45715,1,8,0:0:0:0:
160,224,45904,2,0,P|170:167|161:125,1,89.9999972534181
84,63,46292,1,0,0:0:0:0:
6,171,46491,2,0,P|57:183|104:169,1,89.9999972534181,8|0,0:0|0:0,0:0:0:0:
275,76,46888,5,4,0:0:0:0:
188,230,47083,1,0,0:0:0:0:
199,61,47279,1,0,0:0:0:0:
286,215,47475,1,0,0:0:0:0:
109,127,47671,6,0,L|87:5,1,110.000003356934,8|0,0:0|0:0,0:0:0:0:
286,215,48051,2,0,L|266:323,1,110.000003356934,2|0,0:0|0:0,0:0:0:0:
377,176,48432,5,0,0:0:0:0:
202,193,48632,1,0,0:0:0:0:
371,273,48832,2,0,P|446:247|463:141,1,165.000005035401
457,94,49207,5,8,0:0:0:0:
497,341,49394,1,0,0:0:0:0:
282,94,49582,5,8,0:0:0:0:
160,347,49783,1,0,0:0:0:0:
160,347,49884,1,2,0:0:0:0:
160,347,49984,6,0,B|98:361|98:361|26:332,1,119.999996337891,4|0,2:0|0:0,0:0:0:0:
162,103,50374,2,0,L|306:91,1,119.999996337891,8|0,0:0|0:0,0:0:0:0:
404,273,50765,1,0,0:0:0:0:
231,141,50950,1,0,0:0:0:0:
101,362,51135,1,8,0:0:0:0:
263,220,51326,1,0,0:0:0:0:
493,374,51517,6,0,B|509:333|509:333|514:229,1,119.999996337891,2|0,0:0|0:0,0:0:0:0:
336,54,51899,2,0,P|274:34|208:34,1,119.999996337891,8|0,0:0|0:0,0:0:0:0:
183,45,52189,1,0,0:0:0:0:
183,45,52286,2,0,P|236:80|263:143,1,119.999996337891
74,339,52673,1,8,0:0:0:0:
166,137,52871,1,0,0:0:0:0:
358,355,53070,6,0,B|390:361|390:361|487:343,1,119.999996337891,2|0,0:0|0:0,0:0:0:0:
310,112,53449,2,0,B|221:134|265:198|169:227,1,179.999994506836,8|0,0:0|0:0,0:0:0:0:
107,252,53829,2,0,P|190:245|260:336,1,179.999994506836
281,383,54216,1,8,0:0:0:0:
24,313,54409,1,0,0:0:0:0:
24,313,54506,1,0,0:0:0:0:
24,313,54603,6,0,B|11:266|11:266|19:177,1,119.999996337891,2|0,0:0|0:0,0:0:0:0:
196,2,54982,1,8,0:0:0:0:
255,222,55176,1,0,0:0:0:0:
109,75,55371,1,0,0:0:0:0:
325,3,55566,1,0,0:0:0:0:
137,202,55761,2,0,L|14:194,1,119.999996337891,8|0,0:0|0:0,0:0:0:0:
325,295,56150,6,0,B|354:252|346:196|346:196|374:229,1,119.999996337891,4|0,2:0|0:0,0:0:0:0:
512,369,56532,1,8,0:0:0:0:
458,176,56728,1,0,0:0:0:0:
255,222,56924,1,0,0:0:0:0:
507,288,57120,1,0,0:0:0:0:
298,88,57316,2,0,L|149:80,1,119.999996337891,8|0,0:0|0:0,0:0:0:0:
0,305,57700,6,0,B|33:291|33:291|149:297,1,119.999996337891,2|0,0:0|0:0,0:0:0:0:
374,228,58087,2,0,L|225:220,1,119.999996337891,8|0,0:0|0:0,0:0:0:0:
67,384,58474,1,0,0:0:0:0:
152,167,58663,1,0,0:0:0:0:
313,381,58853,2,0,L|462:373,1,119.999996337891,8|0,0:0|0:0,0:0:0:0:
512,92,59242,6,0,B|479:78|479:78|394:82,1,119.999996337891,2|0,0:0|0:0,0:0:0:0:
225,280,59632,2,0,B|226:302|226:302|288:317|327:270,1,129.999994049073,8|0,0:0|0:0,0:0:0:0:
259,36,60021,2,0,B|223:21|223:21|185:39|185:39|98:4|39:76,1,240
0,136,60403,1,8,0:0:0:0:
289,178,60601,1,0,0:0:0:0:
8,384,60800,6,0,B|-1:324|-1:324|16:244,1,119.999996337891,4|0,0:0|0:0,0:0:0:0:
156,1,61197,1,8,0:0:0:0:
213,253,61388,1,0,0:0:0:0:
306,5,61579,1,0,0:0:0:0:
249,257,61770,1,0,0:0:0:0:
438,73,61961,1,8,0:0:0:0:
512,358,62158,1,0,0:0:0:0:
512,358,62257,1,2,0:0:0:0:
512,358,62355,6,0,B|470:354|441:323|441:323|418:340|383:337,1,135.000000514984,4|0,0:0|0:0,0:0:0:0:
151,366,62738,2,0,P|202:308|216:247,1,119.999996337891,8|0,0:0|0:0,0:0:0:0:
251,64,63121,1,0,0:0:0:0:
78,247,63313,1,2,0:0:0:0:
319,278,63505,1,8,0:0:0:0:
95,70,63701,6,0,B|70:25|16:27|16:27|63:108|-9:141|63:229,1,288.000008850098,2|0,0:0|0:0,0:0:0:0:
283,249,64281,2,0,P|234:193|129:202,1,179.999994506836,8|0,0:0|0:0,0:0:0:0:
78,247,64666,1,0,0:0:0:0:
218,145,64860,1,0,0:0:0:0:
316,349,65054,2,0,P|364:313|380:250,1,119.999996337891,8|0,0:0|0:0,0:0:0:0:
246,24,65442,5,8,0:0:0:0:
117,255,65639,1,0,0:0:0:0:
336,278,65836,1,0,0:0:0:0:
111,35,66034,5,8,0:0:0:0:
229,296,66227,1,0,0:0:0:0:
379,90,66421,1,0,0:0:0:0:
60,159,66614,5,8,0:0:0:0:
411,193,66800,1,0,0:0:0:0:
152,352,66986,6,0,B|127:292|149:242|149:242|184:207|184:207|195:174|188:142,1,220.000006713867,4|8,2:0|0:0,0:0:0:0:
229,296,67576,1,0,0:0:0:0:
229,296,67772,2,0,P|290:304|345:282,1,110.000003356934
313,103,68151,2,0,P|284:149|279:203,1,110.000003356934,8|0,0:0|0:0,0:0:0:0:
419,79,68540,6,0,P|353:13|228:35,1,220.000006713867,4|8,2:0|0:0,0:0:0:0:
131,109,69121,1,0,0:0:0:0:
131,109,69312,2,0,L|124:228,1,110.000003356934
247,362,69694,1,8,0:0:0:0:
430,226,69885,5,8,0:0:0:0:
434,177,69980,1,8,0:0:0:0:
439,127,70076,6,0,B|444:46|444:46|406:73,1,100,4|0,0:0|0:0,0:0:0:0:
335,119,70471,6,0,P|277:137|195:103,1,120,8|0,0:0|0:0,0:0:0:0:
188,98,70866,2,0,P|146:89|93:101,1,80
2,186,71238,6,0,B|55:174|55:174|107:184,1,100,8|2,0:0|0:0,0:0:0:0:
140,204,71532,1,2,0:0:0:0:
140,204,71630,5,0,0:0:0:0:
254,146,71826,1,0,0:0:0:0:
323,272,72022,1,8,0:0:0:0:
409,178,72211,2,0,L|415:78,1,80
307,26,72598,1,0,0:0:0:0:
219,140,72795,2,0,L|116:143,1,80,8|2,0:0|0:0,0:0:0:0:
104,162,73091,1,2,0:0:0:0:
104,162,73190,6,0,P|97:207|109:253,1,80
162,335,73579,6,0,P|212:343|259:328,1,80,8|0,0:0|0:0,0:0:0:0:
289,253,73969,2,0,P|239:245|192:260,1,80
328,328,74351,2,0,P|364:286|358:201,1,120,8|0,0:0|0:0,0:0:0:0:
331,156,74733,6,0,B|320:106|320:106|336:47,1,100
448,3,75117,5,8,0:0:0:0:
408,108,75309,1,0,0:0:0:0:
498,187,75502,1,0,0:0:0:0:
384,226,75694,1,0,0:0:0:0:
471,319,75886,1,8,0:0:0:0:
317,384,76087,1,2,0:0:0:0:
317,384,76188,1,2,0:0:0:0:
317,384,76288,6,0,B|285:336|285:336|281:290,1,100
347,203,76680,6,0,P|351:151|337:108,1,80,8|0,0:0|0:0,0:0:0:0:
263,72,77072,2,0,P|255:111|260:150,1,80
175,223,77437,2,0,P|134:199|41:218,1,120,8|0,0:0|0:0,0:0:0:0:
26,228,77825,6,0,L|19:136,1,80
70,30,78213,1,8,0:0:0:0:
153,105,78410,2,0,L|243:103,1,80
332,154,78805,1,0,0:0:0:0:
250,252,79002,2,0,L|166:246,1,80,8|2,0:0|0:0,0:0:0:0:
130,252,79290,1,2,0:0:0:0:
130,252,79386,6,0,P|163:297|171:339,1,80
276,369,79780,6,0,P|309:347|362:341,1,80,8|0,0:0|0:0,0:0:0:0:
438,354,80175,2,0,L|427:178,1,160,0|8,0:0|0:0,0:0:0:0:
352,137,80738,1,2,0:0:0:0:
352,137,80835,1,2,0:0:0:0:
352,137,80933,6,0,L|253:134,1,80
191,187,81323,2,0,P|184:229|195:271,1,80,8|0,0:0|0:0,0:0:0:0:
238,349,81713,1,0,0:0:0:0:
310,237,81902,1,0,0:0:0:0:
420,358,82092,1,8,0:0:0:0:
490,192,82282,1,8,0:0:0:0:
497,152,82372,1,8,0:0:0:0:
490,113,82463,6,0,B|451:85|451:85|390:78,1,100,4|0,0:0|0:0,0:0:0:0:
287,124,82871,6,0,P|236:132|189:118,1,89.9999972534181,8|2,0:0|0:0,0:0:0:0:
164,101,83156,1,2,0:0:0:0:
164,101,83251,2,0,P|118:72|76:176,1,179.999994506836,0|8,0:0|0:0,0:0:0:0:
112,251,83827,5,0,0:0:0:0:
34,339,84023,1,0,0:0:0:0:
22,227,84220,1,0,0:0:0:0:
127,350,84416,1,8,0:0:0:0:
193,274,84612,2,0,L|198:168,1,89.9999972534181
154,87,84997,1,0,0:0:0:0:
108,213,85186,1,8,0:0:0:0:
296,66,85382,5,2,0:0:0:0:
296,66,85480,1,2,0:0:0:0:
296,66,85578,5,2,0:0:0:0:
447,146,85774,1,0,0:0:0:0:
342,333,85970,2,0,P|320:253|368:194,1,150,8|0,0:0|0:0,0:0:0:0:
391,271,86370,6,0,B|348:257|348:257|266:268,1,104.999996795654,2|0,0:0|0:0,0:0:0:0:
216,280,86742,6,0,B|130:266|163:193|87:176,1,165.000005035401,8|0,0:0|0:0,0:0:0:0:
23,150,87130,5,2,0:0:0:0:
172,68,87324,1,0,0:0:0:0:
225,248,87518,1,8,0:0:0:0:
347,132,87710,2,0,P|398:123|456:135,1,100
384,275,88096,1,2,0:0:0:0:
248,149,88289,1,8,0:0:0:0:
86,293,88482,1,2,0:0:0:0:
86,293,88579,1,2,0:0:0:0:
86,293,88675,6,0,B|75:233|75:233|78:177,1,110.000003356934
129,68,89052,6,0,P|181:56|223:62,1,89.9999972534181,8|0,0:0|0:0,0:0:0:0:
323,111,89440,2,0,P|412:132|496:89,1,179.999994506836,0|8,0:0|0:0,0:0:0:0:
479,231,90022,5,2,0:0:0:0:
479,231,90119,1,2,0:0:0:0:
479,231,90217,2,0,P|426:218|372:223,1,89.9999972534181
283,285,90606,1,8,0:0:0:0:
375,341,90801,2,0,B|424:260|329:240|405:140,1,181.999994506836
355,45,91393,2,0,P|306:32|260:39,1,89.9999972534181,8|0,0:0|0:0,0:0:0:0:
128,164,91790,5,4,0:0:0:0:
305,209,91984,1,0,0:0:0:0:
177,339,92179,2,0,P|119:353|60:333,1,110.000003356934
305,209,92569,6,0,L|299:343,1,110.000003356934,8|0,0:0|0:0,0:0:0:0:
128,164,92952,2,0,L|123:54,1,110.000003356934,2|0,0:0|0:0,0:0:0:0:
266,114,93335,5,0,0:0:0:0:
161,267,93523,1,0,0:0:0:0:
18,151,93712,2,0,P|4:92|17:36,1,110.000003356934
161,267,94089,5,8,0:0:0:0:
392,96,94281,1,0,0:0:0:0:
291,353,94474,5,8,0:0:0:0:
306,85,94667,1,0,0:0:0:0:
306,85,94764,1,2,0:0:0:0:
306,85,94860,6,0,B|246:67|246:67|171:69,1,119.999996337891,4|0,2:0|0:0,0:0:0:0:
16,269,95254,2,0,P|60:246|135:246,1,119.999996337891,8|0,0:0|0:0,0:0:0:0:
164,263,95550,1,0,0:0:0:0:
164,263,95649,1,0,0:0:0:0:
44,112,95841,1,0,0:0:0:0:
96,360,96033,1,8,0:0:0:0:
239,162,96225,1,0,0:0:0:0:
475,377,96418,6,0,B|493:346|493:346|502:238,1,119.999996337891,2|0,0:0|0:0,0:0:0:0:
387,24,96802,1,8,0:0:0:0:
281,239,96996,1,0,0:0:0:0:
308,0,97191,1,0,0:0:0:0:
415,215,97383,1,0,0:0:0:0:
219,37,97576,2,0,L|80:26,1,119.999996337891,8|0,0:0|0:0,0:0:0:0:
415,215,97962,6,0,B|438:172|430:122|430:122|396:157,1,119.999996337891,4|0,2:0|0:0,0:0:0:0:
229,329,98354,2,0,B|173:363|91:318|91:318|142:277,1,179.999994506836,8|0,0:0|0:0,0:0:0:0:
175,243,98746,2,0,P|241:231|305:262,1,119.999996337891
489,384,99125,1,8,0:0:0:0:
328,162,99315,1,0,0:0:0:0:
328,162,99410,1,0,0:0:0:0:
328,162,99505,5,2,0:0:0:0:
481,5,99705,1,0,0:0:0:0:
512,270,99905,1,8,0:0:0:0:
384,61,100097,1,0,0:0:0:0:
242,257,100289,2,0,L|88:250,1,119.999996337891
0,23,100668,2,0,L|154:16,1,119.999996337891,8|0,0:0|0:0,0:0:0:0:
163,25,100953,1,2,0:0:0:0:
163,25,101048,6,0,B|185:80|185:80|169:144,1,119.999996337891,4|0,2:0|0:0,0:0:0:0:
21,357,101448,1,8,0:0:0:0:
88,131,101640,1,0,0:0:0:0:
218,331,101832,1,0,0:0:0:0:
4,211,102024,1,0,0:0:0:0:
261,114,102217,2,0,L|400:106,1,119.999996337891,8|0,0:0|0:0,0:0:0:0:
389,370,102606,6,0,B|357:336|357:336|333:256,1,119.999996337891,2|0,0:0|0:0,0:0:0:0:
481,30,102996,2,0,P|492:93|476:158,1,119.999996337891,8|0,0:0|0:0,0:0:0:0:
456,182,103288,1,0,0:0:0:0:
456,182,103385,1,0,0:0:0:0:
293,34,103576,1,0,0:0:0:0:
157,222,103767,2,0,L|27:216,1,119.999996337891,8|0,0:0|0:0,0:0:0:0:
320,0,104164,6,0,B|336:59|336:59|330:139,1,119.999996337891,4|0,2:0|0:0,0:0:0:0:
164,326,104548,2,0,B|139:278|157:223|157:223|195:260,1,129.999994049073,8|0,0:0|0:0,0:0:0:0:
214,262,104837,1,0,0:0:0:0:
214,262,104933,2,0,B|257:283|292:251|292:251|323:277|323:277|330:238|330:238|366:229|377:182,1,240
397,110,105317,1,8,0:0:0:0:
488,366,105508,1,0,0:0:0:0:
250,85,105699,6,0,B|198:70|198:70|127:70,1,119.999996337891,4|0,0:0|0:0,0:0:0:0:
96,79,106008,1,0,0:0:0:0:
96,79,106111,1,8,0:0:0:0:
180,335,106299,1,0,0:0:0:0:
365,77,106488,1,0,0:0:0:0:
167,304,106677,1,0,0:0:0:0:
378,108,106865,2,0,P|439:107|499:151,1,119.999996337891,8|0,0:0|0:0,0:0:0:0:
504,176,107148,1,2,0:0:0:0:
504,176,107243,6,0,B|476:203|476:203|445:195|445:195|412:218|360:200,1,135.000000514984,4|0,0:0|0:0,0:0:0:0:
186,42,107638,2,0,P|242:24|308:46,1,119.999996337891,8|0,0:0|0:0,0:0:0:0:
383,206,108028,1,0,0:0:0:0:
186,42,108224,1,2,0:0:0:0:
408,44,108419,1,8,0:0:0:0:
273,269,108611,6,0,B|131:259|210:133|60:110,1,270.000001029968,2|0,0:0|0:0,0:0:0:0:
15,368,109190,2,0,P|77:376|88:262,1,179.999994506836,8|0,0:0|0:0,0:0:0:0:
66,218,109576,1,0,0:0:0:0:
210,377,109769,1,0,0:0:0:0:
350,156,109963,2,0,L|482:138,1,119.999996337891,8|0,0:0|0:0,0:0:0:0:
243,291,110350,5,8,0:0:0:0:
184,13,110539,1,0,0:0:0:0:
81,201,110729,1,0,0:0:0:0:
399,241,110919,5,8,0:0:0:0:
268,0,111111,1,0,0:0:0:0:
61,72,111303,1,0,0:0:0:0:
243,291,111495,5,8,0:0:0:0:
438,104,111683,1,0,0:0:0:0:
161,9,111872,6,0,B|172:36|151:71|151:71|162:103|162:103|120:151|152:221,1,220.000006713867,4|8,2:0|0:0,0:0:0:0:
271,338,112476,1,0,0:0:0:0:
271,338,112677,2,0,P|291:280|281:225,1,110.000003356934
116,328,113052,1,8,0:0:0:0:
88,129,113249,1,2,0:0:0:0:
88,129,113348,1,2,0:0:0:0:
88,129,113446,6,0,B|145:134|189:91|189:91|203:147|274:166,1,220.000006713867,4|8,2:0|0:0,0:0:0:0:
389,96,114030,1,0,0:0:0:0:
205,15,114220,1,0,0:0:0:0:
205,15,114405,1,0,0:0:0:0:
130,228,114590,1,8,0:0:0:0:
294,66,114791,5,0,0:0:0:0:
347,62,114892,1,2,0:0:0:0:
389,96,114992,6,0,B|402:124|402:124|401:200,1,100,4|0,2:0|0:0,0:0:0:0:
305,347,115395,2,0,B|238:390|220:313|137:359,1,150,8|0,0:0|0:0,0:0:0:0:
116,370,115772,1,0,0:0:0:0:
264,279,115965,1,0,0:0:0:0:
108,180,116159,2,0,B|104:147|104:147|152:87|95:19,1,150,8|0,0:0|0:0,0:0:0:0:
50,91,116546,6,0,B|74:81|74:81|165:93,1,100,2|0,0:0|0:0,0:0:0:0:
287,193,116930,2,0,B|317:213|339:189|339:189|319:141|339:97,1,150,8|0,0:0|0:0,0:0:0:0:
361,55,117319,1,0,0:0:0:0:
491,148,117514,1,0,0:0:0:0:
360,271,117709,2,0,P|311:280|218:235,1,150,8|0,0:0|0:0,0:0:0:0:
172,181,118106,6,0,L|175:65,1,100,2|0,0:0|0:0,0:0:0:0:
13,161,118485,2,0,L|20:310,1,150,8|0,0:0|0:0,0:0:0:0:
27,360,118865,1,0,0:0:0:0:
146,252,119057,1,0,0:0:0:0:
288,361,119249,2,0,P|369:371|438:328,1,150,8|0,0:0|0:0,0:0:0:0:
476,279,119641,6,0,L|481:170,1,100,2|0,0:0|0:0,0:0:0:0:
365,40,120030,2,0,B|300:23|300:23|184:46,1,150,8|0,0:0|0:0,0:0:0:0:
172,59,120420,1,0,0:0:0:0:
300,153,120612,1,0,0:0:0:0:
141,251,120804,2,0,B|104:251|104:251|51:220|53:156,1,150,8|0,0:0|0:0,0:0:0:0:
137,169,121189,6,0,B|184:169|184:169|247:222,1,100,4|0,2:0|0:0,0:0:0:0:
360,321,121586,2,0,B|393:340|393:340|425:295|403:231,1,150,8|0,0:0|0:0,0:0:0:0:
377,189,121970,1,0,0:0:0:0:
262,301,122162,1,0,0:0:0:0:
137,169,122355,2,0,B|143:59|143:59|179:95,1,150,8|0,0:0|0:0,0:0:0:0:
223,141,122747,6,0,B|253:152|253:152|320:137,1,100,2|0,0:0|0:0,0:0:0:0:
192,8,123136,2,0,P|113:-6|73:49,1,150,8|0,0:0|0:0,0:0:0:0:
55,89,123526,1,0,0:0:0:0:
151,215,123718,1,0,0:0:0:0:
267,77,123910,2,0,B|323:62|323:62|417:100,1,150,8|0,0:0|0:0,0:0:0:0:
468,146,124304,6,0,L|459:252,1,100,2|0,0:0|0:0,0:0:0:0:
316,355,124691,2,0,L|149:340,1,150,8|0,0:0|0:0,0:0:0:0:
116,337,125078,1,0,0:0:0:0:
247,246,125266,1,0,0:0:0:0:
98,143,125455,2,0,P|157:112|246:122,1,150,8|0,0:0|0:0,0:0:0:0:
298,167,125837,6,0,B|327:181|327:181|408:171,1,110.000003356934,2|0,0:0|0:0,0:0:0:0:
494,8,126219,2,0,P|410:-15|311:14,1,165.000005035401,8|0,0:0|0:0,0:0:0:0:
275,48,126603,1,0,0:0:0:0:
403,173,126779,1,0,0:0:0:0:
188,126,126955,1,8,0:0:0:0:
316,251,127159,1,0,0:0:0:0:
96,352,127363,6,0,B|84:286|84:286|97:222,1,125,4|0,0:0|0:0,0:0:0:0:
201,20,127760,1,8,0:0:0:0:
311,212,127959,2,0,B|356:212|356:212|395:230|395:230|441:230,1,125
311,47,128356,1,0,0:0:0:0:
182,265,128555,2,0,B|178:306|178:306|200:347|200:347|196:399,1,125,8|0,0:0|0:0,0:0:0:0:
76,145,128952,6,0,B|104:120|104:120|199:109,1,125,2|0,0:0|0:0,0:0:0:0:
428,214,129329,1,8,0:0:0:0:
254,348,129523,2,0,L|107:340,1,125
272,183,129910,1,0,0:0:0:0:
445,362,130102,2,0,B|470:378|470:378|477:268,1,125,8|0,0:0|0:0,0:0:0:0:
344,77,130487,6,0,B|309:59|309:59|211:52,1,125,2|0,0:0|0:0,0:0:0:0:
100,256,130876,1,8,0:0:0:0:
291,163,131071,2,0,L|429:159,1,125
301,339,131454,1,0,0:0:0:0:
166,142,131643,2,0,L|28:138,1,125,8|0,0:0|0:0,0:0:0:0:
160,377,132030,6,0,B|195:351|195:351|232:263,1,125,2|0,0:0|0:0,0:0:0:0:
301,23,132414,1,8,0:0:0:0:
88,143,132606,1,0,0:0:0:0:
310,226,132799,1,0,0:0:0:0:
165,38,132990,1,0,0:0:0:0:
45,272,133181,2,0,B|16:289|16:289|27:183,1,125,8|0,0:0|0:0,0:0:0:0:
187,20,133563,6,0,B|225:11|225:11|332:21,1,125,2|0,0:0|0:0,0:0:0:0:
480,186,133955,1,8,0:0:0:0:
281,263,134151,2,0,B|285:214|285:214|272:173|272:173|277:118,1,125
425,291,134540,1,0,0:0:0:0:
202,373,134734,2,0,L|75:362,1,125,8|0,0:0|0:0,0:0:0:0:
13,112,135121,6,0,B|50:97|50:97|144:97,1,125,2|0,0:0|0:0,0:0:0:0:
345,216,135500,1,8,0:0:0:0:
181,350,135700,2,0,B|80:350|80:350|110:325,1,125
257,192,136092,1,0,0:0:0:0:
424,367,136284,2,0,B|444:381|444:381|458:272,1,125,8|0,0:0|0:0,0:0:0:0:
305,64,136669,5,2,0:0:0:0:
159,262,136866,1,0,0:0:0:0:
173,51,137063,5,8,0:0:0:0:
332,277,137261,1,0,0:0:0:0:
319,45,137458,5,0,0:0:0:0:
144,280,137645,1,0,0:0:0:0:
159,32,137833,5,8,0:0:0:0:
348,296,138033,1,0,0:0:0:0:
375,44,138233,5,2,0:0:0:0:
415,367,138417,1,0,0:0:0:0:
343,48,138601,1,8,0:0:0:0:
385,367,138799,1,0,0:0:0:0:
146,31,138997,5,0,0:0:0:0:
102,368,139189,1,0,0:0:0:0:
178,35,139381,1,8,0:0:0:0:
132,368,139577,1,0,0:0:0:0:
62,189,139773,6,0,B|46:146|64:107|64:107|88:129,1,100,4|0,0:0|0:0,0:0:0:0:
256,312,140165,1,0,0:0:0:0:
450,189,140557,5,0,0:0:0:0:
457,139,140647,1,0,0:0:0:0:
442,92,140738,1,0,0:0:0:0:
406,58,140829,1,0,0:0:0:0:
359,46,140920,1,0,0:0:0:0:
311,58,141011,1,0,0:0:0:0:
274,92,141102,1,0,0:0:0:0:
260,139,141193,1,0,0:0:0:0:
269,187,141324,5,2,0:0:0:0:
450,189,141521,1,2,0:0:0:0:
269,375,141718,1,2,0:0:0:0:
358,139,142113,5,0,0:0:0:0:
319,107,142201,1,0,0:0:0:0:
271,94,142289,1,0,0:0:0:0:
222,102,142377,1,0,0:0:0:0:
180,130,142465,2,0,L|151:181,1,50
209,290,142652,2,0,L|233:246,1,50
273,179,142850,5,2,0:0:0:0:
425,296,143042,1,2,0:0:0:0:
473,32,143234,1,2,0:0:0:0:
512,243,143636,5,0,0:0:0:0:
472,211,143726,1,0,0:0:0:0:
424,199,143817,1,0,0:0:0:0:
375,207,143908,1,0,0:0:0:0:
335,234,143999,1,0,0:0:0:0:
317,279,144090,1,0,0:0:0:0:
341,321,144181,1,0,0:0:0:0:
389,328,144272,1,0,0:0:0:0:
425,296,144390,5,2,0:0:0:0:
269,187,144586,1,2,0:0:0:0:
74,343,144783,1,2,0:0:0:0:
21,134,145196,5,0,0:0:0:0:
21,134,145285,1,0,0:0:0:0:
21,134,145375,2,0,P|22:99|26:73,1,50
149,6,145555,2,0,P|151:30|151:55,1,50
244,174,145734,2,0,P|243:148|245:123,1,50
269,51,145940,5,2,0:0:0:0:
336,227,146136,1,2,0:0:0:0:
48,146,146332,1,2,0:0:0:0:
314,309,146735,5,0,0:0:0:0:
360,310,146827,1,0,0:0:0:0:
403,286,146919,1,0,0:0:0:0:
421,239,147011,1,0,0:0:0:0:
410,192,147103,1,0,0:0:0:0:
394,146,147195,1,0,0:0:0:0:
418,104,147287,1,0,0:0:0:0:
465,93,147379,1,0,0:0:0:0:
504,123,147495,5,2,0:0:0:0:
336,227,147691,1,2,0:0:0:0:
172,9,147886,1,2,0:0:0:0:
34,243,148291,6,0,L|26:311,1,50
139,189,148472,2,0,L|133:139,1,50
231,265,148654,2,0,L|225:314,1,50
336,227,148836,2,0,L|330:177,1,50
321,99,149047,5,2,0:0:0:0:
448,286,149240,1,2,0:0:0:0:
144,366,149434,1,2,0:0:0:0:
89,101,149848,5,0,0:0:0:0:
120,62,149938,1,0,0:0:0:0:
166,44,150029,2,0,P|197:35|228:34,1,50
277,138,150211,2,0,P|252:135|228:127,1,50
331,47,150393,2,0,P|354:39|379:36,1,50
451,66,150598,5,2,0:0:0:0:
325,219,150796,1,2,0:0:0:0:
89,101,150995,1,2,0:0:0:0:
302,304,151392,5,0,3:0:0:0:
349,317,151482,1,0,3:0:0:0:
396,309,151573,1,0,3:0:0:0:
436,280,151664,1,0,3:0:0:0:
457,238,151755,1,0,3:0:0:0:
455,194,151846,1,0,3:0:0:0:
435,159,151937,2,0,P|404:163|377:180,1,50,2|2,3:0|3:0,3:0:0:0:
325,219,152158,6,0,B|294:209|246:224|246:224|239:186|256:154|256:154|220:149|187:174|187:174|170:144|138:133,1,281,4|0,0:0|0:0,0:0:0:0:
103,116,153706,6,0,B|114:151|87:192|87:192|132:207|143:243|143:243|113:266|66:266|66:266|95:279|116:308,1,301,4|0,3:0|0:0,0:0:0:0:
163,320,155269,6,0,B|253:315,1,80,4|0,3:0|0:0,0:0:0:0:
309,213,156035,2,0,L|313:163,2,40
383,339,156804,5,4,3:0:0:0:
457,259,157206,2,0,L|513:257,2,40
374,177,157782,6,0,B|361:146|361:146|362:101,1,69.9999978637696,2|0,0:0|0:0,0:0:0:0:
372,30,158162,1,0,0:0:0:0:
283,172,158350,5,2,0:0:0:0:
186,309,158744,2,0,P|129:324|76:306,1,104.999996795654
53,285,159139,2,0,L|59:131,1,139.999995727539
186,35,159918,6,0,P|226:30|270:37,1,69.9999978637696
324,81,160310,2,0,L|318:159,2,69.9999978637696
393,34,160880,1,0,0:0:0:0:
451,94,161071,1,0,0:0:0:0:
353,230,161453,6,0,B|325:238|325:238|267:229,1,69.9999978637696,2|0,0:0|0:0,0:0:0:0:
186,207,161843,2,0,B|214:199|214:199|272:208,1,69.9999978637696
118,307,162234,2,0,B|104:273|104:273|113:247|113:247|97:210|115:168,1,139.999995727539,2|0,0:0|0:0,0:0:0:0:
222,45,163009,6,0,P|226:86|212:133,1,69.9999978637696,2|0,0:0|0:0,0:0:0:0:
268,183,163388,1,0,0:0:0:0:
323,120,163582,2,0,P|356:114|394:123,1,69.9999978637696
464,163,163969,2,0,B|472:196|472:196|470:231,2,69.9999978637696,2|0|0,0:0|0:0|0:0,0:0:0:0:
323,120,164548,5,2,0:0:0:0:
268,183,164740,1,0,0:0:0:0:
220,113,164932,2,0,P|180:104|142:110,1,69.9999978637696
84,157,165317,2,0,L|76:300,1,139.999995727539
140,350,165901,1,0,0:0:0:0:
186,280,166096,6,0,P|221:273|262:281,1,69.9999978637696
333,308,166486,1,0,0:0:0:0:
333,308,166682,2,0,L|345:220,1,69.9999978637696
353,155,167063,1,0,0:0:0:0:
364,72,167249,1,0,0:0:0:0:
75,274,167649,5,4,0:0:0:0:
162,134,167845,1,0,0:0:0:0:
249,274,168041,2,0,B|331:306|331:231|422:273,1,165.000005035401
376,341,168433,6,0,P|363:245|388:173,1,165.000005035401,8|0,0:0|0:0,0:0:0:0:
424,114,168817,2,0,P|374:83|321:82,1,110.000003356934,2|0,0:0|0:0,0:0:0:0:
146,207,169203,5,0,0:0:0:0:
249,98,169391,1,0,0:0:0:0:
249,98,169486,1,0,0:0:0:0:
249,98,169580,2,0,P|181:42|109:55,1,165.000005035401
49,105,169957,5,8,0:0:0:0:
255,279,170155,1,0,0:0:0:0:
110,54,170354,5,8,0:0:0:0:
6,307,170553,1,0,0:0:0:0:
323,359,170751,6,0,B|343:298|343:298|339:236,1,119.999996337891,4|0,2:0|0:0,0:0:0:0:
174,3,171119,1,8,0:0:0:0:
85,238,171315,1,0,0:0:0:0:
85,238,171413,1,0,0:0:0:0:
85,238,171511,1,0,0:0:0:0:
264,61,171707,1,0,0:0:0:0:
423,286,171903,1,8,0:0:0:0:
264,89,172095,1,0,0:0:0:0:
81,313,172287,6,0,B|58:287|58:287|53:183,1,119.999996337891,2|0,0:0|0:0,0:0:0:0:
294,64,172672,2,0,L|283:197,1,119.999996337891,8|0,0:0|0:0,0:0:0:0:
143,382,173060,1,0,0:0:0:0:
349,236,173255,1,0,0:0:0:0:
121,150,173450,1,8,0:0:0:0:
319,360,173646,1,0,0:0:0:0:
319,360,173744,1,0,0:0:0:0:
319,360,173841,6,0,L|451:358,1,119.999996337891,2|0,0:0|0:0,0:0:0:0:
296,103,174202,2,0,B|258:104|228:133|228:133|220:102|202:72,1,119.999996337891,8|0,0:0|0:0,0:0:0:0:
186,69,174502,1,0,0:0:0:0:
186,69,174602,2,0,B|136:52|87:67|87:67|119:83,1,119.999996337891
327,232,175002,1,8,0:0:0:0:
77,158,175194,1,0,0:0:0:0:
77,158,175290,1,0,0:0:0:0:
77,158,175386,5,2,0:0:0:0:
277,372,175572,1,0,0:0:0:0:
172,132,175758,1,8,0:0:0:0:
20,366,175952,1,0,0:0:0:0:
252,183,176147,2,0,P|315:173|389:182,1,119.999996337891
154,355,176537,2,0,P|113:305|84:236,1,119.999996337891,8|0,0:0|0:0,0:0:0:0:
76,217,176833,1,0,0:0:0:0:
76,217,176931,6,0,B|75:147|75:147|99:80,1,119.999996337891,4|0,2:0|0:0,0:0:0:0:
347,4,177314,2,0,L|362:123,1,119.999996337891,8|0,0:0|0:0,0:0:0:0:
406,357,177697,1,0,0:0:0:0:
467,130,177891,1,0,0:0:0:0:
280,310,178085,2,0,L|141:302,1,119.999996337891,8|0,0:0|0:0,0:0:0:0:
17,59,178473,6,0,B|55:50|55:50|157:65,1,119.999996337891,2|0,0:0|0:0,0:0:0:0:
44,307,178855,2,0,L|27:183,1,119.999996337891,8|0,0:0|0:0,0:0:0:0:
201,8,179244,1,0,0:0:0:0:
295,221,179439,1,0,0:0:0:0:
135,61,179634,1,8,0:0:0:0:
440,4,179829,1,0,0:0:0:0:
440,4,179926,1,2,0:0:0:0:
440,4,180023,6,0,B|452:55|452:55|453:134,1,119.999996337891,4|0,2:0|0:0,0:0:0:0:
349,378,180400,1,8,0:0:0:0:
203,176,180602,1,0,0:0:0:0:
203,176,180704,1,0,0:0:0:0:
203,176,180805,2,0,B|163:158|163:158|128:176|128:176|76:154|36:180|36:180|49:215|95:231,1,240
146,252,181175,1,8,0:0:0:0:
309,7,181368,1,0,0:0:0:0:
483,285,181562,6,0,B|493:331|469:379|469:379|446:354,1,119.999996337891,4|0,2:0|0:0,0:0:0:0:
424,338,181852,1,0,0:0:0:0:
424,338,181949,1,8,0:0:0:0:
480,56,182145,1,0,0:0:0:0:
270,245,182341,1,0,0:0:0:0:
416,3,182532,1,0,0:0:0:0:
483,285,182724,1,8,0:0:0:0:
254,47,182916,1,0,0:0:0:0:
254,47,183011,1,2,0:0:0:0:
254,47,183107,6,0,B|215:53|215:53|183:33|183:33|142:28|104:54,1,135.000000514984,4|0,2:0|0:0,0:0:0:0:
82,306,183504,2,0,P|145:300|192:250,1,119.999996337891,8|0,0:0|0:0,0:0:0:0:
254,47,183894,1,0,0:0:0:0:
100,220,184090,1,2,0:0:0:0:
333,263,184285,1,8,0:0:0:0:
101,133,184481,6,0,P|25:182|102:309,1,246,2|0,3:0|3:0,3:0:0:0:
277,164,185055,2,0,B|313:93|273:22|273:22|241:62,1,179.999994506836,8|0,0:0|0:0,0:0:0:0:
206,104,185460,1,0,0:0:0:0:
362,265,185649,1,0,0:0:0:0:
494,52,185839,2,0,P|438:22|372:31,1,119.999996337891,8|0,0:0|0:0,0:0:0:0:
342,290,186228,5,8,0:0:0:0:
263,64,186417,1,0,0:0:0:0:
48,110,186607,1,0,0:0:0:0:
342,290,186797,5,8,0:0:0:0:
292,27,186994,1,0,0:0:0:0:
61,69,187191,1,0,0:0:0:0:
342,290,187389,5,8,0:0:0:0:
337,26,187578,1,0,0:0:0:0:
36,143,187768,6,0,B|-12:232|40:312|40:312|116:260,1,239.999992675781,4|8,2:0|0:0,0:0:0:0:
257,187,188352,1,0,0:0:0:0:
257,187,188547,2,0,P|318:175|389:194,1,119.999996337891
217,301,188926,1,8,0:0:0:0:
193,90,189123,1,2,0:0:0:0:
193,90,189222,1,2,0:0:0:0:
193,90,189320,6,0,B|227:62|227:62|275:89|275:89|343:50|421:95,1,239.999992675781,4|8,2:0|0:0,0:0:0:0:
506,165,189902,1,0,0:0:0:0:
425,306,190096,1,0,0:0:0:0:
345,172,190282,1,0,0:0:0:0:
208,336,190468,1,8,0:0:0:0:
49,157,190655,5,8,0:0:0:0:
43,97,190748,1,8,0:0:0:0:
38,37,190841,5,4,0:0:0:0:
118,198,191037,1,0,0:0:0:0:
45,362,191233,1,0,0:0:0:0:
474,37,192420,5,4,0:0:0:0:
394,198,192618,1,0,0:0:0:0:
467,362,192816,1,0,0:0:0:0:
394,198,193955,6,0,B|350:181|350:181|265:174,1,119.999996337891,2|0,0:0|0:0,0:0:0:0:
33,224,194342,2,0,P|106:204|169:287,1,179.999994506836,8|0,0:0|0:0,0:0:0:0:
192,347,194744,2,0,P|194:279|215:230,1,119.999996337891
327,37,195126,1,8,0:0:0:0:
462,265,195317,1,0,0:0:0:0:
462,265,195412,1,0,0:0:0:0:
462,265,195508,6,0,B|427:286|427:286|332:274,1,119.999996337891,2|0,0:0|0:0,0:0:0:0:
87,227,195897,1,8,0:0:0:0:
296,129,196092,1,0,0:0:0:0:
52,143,196287,1,0,0:0:0:0:
261,241,196478,1,0,0:0:0:0:
104,51,196669,1,8,0:0:0:0:
28,294,196860,5,0,0:0:0:0:
83,313,196955,1,2,0:0:0:0:
141,299,197051,5,4,0:0:0:0:
338,210,197245,1,0,0:0:0:0:
510,340,197440,1,0,0:0:0:0:
371,85,198598,5,4,0:0:0:0:
174,174,198796,1,0,0:0:0:0:
2,44,198995,1,0,0:0:0:0:
174,174,200159,6,0,B|178:212|178:212|162:302,1,119.999996337891,2|0,0:0|0:0,0:0:0:0:
100,88,200547,2,0,P|177:58|230:75,1,119.999996337891,8|0,0:0|0:0,0:0:0:0:
401,254,200935,2,0,B|327:289|257:246|257:246|293:209,1,179.999994506836
327,167,201312,1,8,0:0:0:0:
468,372,201505,1,0,0:0:0:0:
179,384,201699,6,0,B|169:344|169:344|175:252,1,119.999996337891,2|0,0:0|0:0,0:0:0:0:
257,23,202086,1,8,0:0:0:0:
314,270,202282,1,0,0:0:0:0:
112,134,202478,1,0,0:0:0:0:
330,244,202667,1,0,0:0:0:0:
445,12,202857,1,8,0:0:0:0:
218,157,203047,1,2,0:0:0:0:
218,157,203142,1,2,0:0:0:0:
218,157,203237,6,0,B|206:212|206:212|221:261|221:261|243:235,1,135.000000514984,4|0,0:0|0:0,0:0:0:0:
305,38,203634,2,0,L|172:24,1,119.999996337891,8|0,0:0|0:0,0:0:0:0:
6,132,204020,1,0,0:0:0:0:
226,68,204213,1,2,0:0:0:0:
159,284,204406,1,8,0:0:0:0:
387,97,204600,6,0,B|435:57|435:57|407:262,1,252,2|0,0:0|0:0,0:0:0:0:
194,321,205187,2,0,L|216:133,1,179.999994506836,8|0,0:0|0:0,0:0:0:0:
226,68,205582,1,0,0:0:0:0:
401,138,205774,1,0,0:0:0:0:
313,330,205966,2,0,L|180:319,1,119.999996337891,8|0,0:0|0:0,0:0:0:0:
30,171,206366,6,0,L|22:72,2,85.0000016212464,8|0|0,0:0|0:0|0:0,0:0:0:0:
193,320,207087,6,0,P|194:278|202:231,1,69.9999978637696,8|0,0:0|0:0,0:0:0:0:
265,169,207620,1,0,0:0:0:0:
323,363,207898,6,0,P|392:333|404:233,1,150,8|0,0:0|0:0,0:0:0:0:
410,225,208595,6,0,B|309:138|332:20|332:20|282:97|282:97|228:8|228:8|174:96|174:96|123:20|123:20|141:138|37:211,1,840,4|0,0:0|0:0,0:0:0:0:
