osu file format v14

[General]
AudioFilename: audio.mp3
AudioLeadIn: 0
PreviewTime: 170751
Countdown: 1
SampleSet: Drum
StackLeniency: 0.7
Mode: 0
LetterboxInBreaks: 0
WidescreenStoryboard: 1

[Editor]
Bookmarks: 421,12797,25571,40682,44170,46888,49984,70471,85578,89052,91790,94860,114992,127369,136669,139773,152158,158350,167649,190841,193955,197051,200159,206366
DistanceSpacing: 1.2
BeatDivisor: 4
GridSize: 16
TimelineZoom: 1.5

[Metadata]
Title:Marionetki
TitleUnicode:Марионетки
Artist:Korol' i Shut
ArtistUnicode:Король и Шут
Creator:tilk1233
Version:Normal
Source:
Tags:rock russian punk русский панк рок михаил горшенёв продавец кошмаров king and the clown jester киш
BeatmapID:1691903
BeatmapSetID:732950

[Difficulty]
HPDrainRate:4
CircleSize:3.5
OverallDifficulty:5
ApproachRate:5
SliderMultiplier:1
SliderTickRate:1

[Events]
//Background and Video events
0,0,"kukla.jpg",0,0
//Break Periods
2,115192,126163
2,158550,166449
//Storyboard Layer 0 (Background)
//Storyboard Layer 1 (Fail)
//Storyboard Layer 2 (Pass)
//Storyboard Layer 3 (Foreground)
//Storyboard Layer 4 (Overlay)
//Storyboard Sound Samples

[TimingPoints]
250,342.857142857142,4,2,3,20,1,0
421,379.746835443038,4,2,3,30,1,0
800,400.667779632721,4,2,3,30,1,0
1200,397.350993377483,4,2,3,30,1,0
1398,387.096774193547,4,2,3,30,1,0
1784,342.857142857142,4,2,3,25,1,0
1994,384.615384615385,4,2,3,30,1,0
1994,-100,4,2,3,30,0,0
2570,-100,4,2,3,40,0,0
2763,375,4,2,3,30,1,0
2950,-100,4,2,3,20,0,0
3513,392.156862745098,4,2,2,30,1,0
3513,-100,4,2,3,35,0,0
4101,-100,4,2,3,30,0,0
4297,382.165605095542,4,2,3,30,1,0
4488,377.358490566038,4,2,3,30,1,0
4865,392.156862745097,4,2,3,20,1,0
5061,394.736842105263,4,2,3,40,1,0
5061,-100,4,2,3,40,0,0
5455,-100,4,2,3,25,0,0
5850,379.746835443038,4,2,3,40,1,0
6039,-100,4,2,3,40,0,0
6229,390.879478827362,4,2,3,40,1,0
6424,-100,4,2,2,40,0,0
7010,-100,4,2,3,35,0,0
7401,342.857142857143,4,2,3,40,1,0
7766,410.958904109589,4,2,3,40,1,0
8176,387.096774193549,4,2,3,40,1,0
8176,-100,4,2,2,40,0,0
8563,-100,4,2,3,30,0,0
9724,372.670807453417,4,2,3,40,1,0
9724,-100,4,2,3,40,0,0
10096,-100,4,2,3,30,0,0
10469,397.350993377483,4,2,3,40,1,0
10667,-100,4,2,3,40,0,0
11065,382.165605095541,4,2,3,40,1,0
12020,377.358490566038,4,3,3,80,1,0
12020,-100,4,3,3,80,0,0
12397,400,4,3,3,80,1,0
12797,392.156862745099,4,3,3,80,1,0
12797,-100,4,3,3,80,0,0
13581,384.615384615386,4,3,3,80,1,0
14734,382.165605095542,4,3,3,80,1,0
15498,389.61038961039,4,3,3,80,1,0
16666,394.08866995074,4,3,3,80,1,0
17454,389.61038961039,4,3,3,80,1,0
18233,368.098159509203,4,3,3,80,1,0
18601,392.156862745098,4,3,3,80,1,0
18993,387.096774193549,4,3,3,80,1,0
18993,-100,4,3,3,80,0,0
20154,394.736842105264,4,3,3,80,1,0
20548,389.61038961039,4,3,3,80,1,0
21327,384.615384615385,4,3,3,80,1,0
22096,392.156862745098,4,3,3,80,1,0
22488,383.386581469648,4,3,3,80,1,0
23638,388.349514563108,4,2,3,85,1,0
23638,-100,4,3,3,85,0,0
24803,363.636363636364,4,3,3,85,1,0
25166,405.405405405406,4,2,2,85,1,0
25166,-100,4,2,2,85,0,0
25571,-100,4,3,3,70,0,0
25976,377.358490566038,4,3,3,70,1,0
26353,400,4,3,3,70,1,0
26753,384.615384615385,4,3,3,70,1,0
26753,-100,4,3,3,70,0,0
27906,402.68456375839,4,3,3,70,1,0
28308,375,4,3,3,70,1,0
29433,397.350993377484,4,3,3,70,1,0
29830,-100,4,3,3,70,0,0
30227,382.165605095542,4,3,3,70,1,0
30991,394.736842105264,4,3,3,70,1,0
31385,387.096774193549,4,3,3,70,1,0
32159,375,4,3,3,70,1,0
32909,402.68456375839,4,3,3,70,1,0
33311,393.44262295082,4,3,3,70,1,0
34491,368.098159509203,4,3,3,70,1,0
34859,402.684563758389,4,3,3,70,1,0
35261,372.670807453416,4,3,3,70,1,0
35633,402.684563758389,4,3,3,70,1,0
36035,377.358490566038,4,3,3,70,1,0
36035,-100,4,3,3,70,0,0
36412,384.615384615385,4,3,3,70,1,0
37181,396.039603960396,4,3,3,70,1,0
37379,379.746835443038,4,3,3,70,1,0
37568,393.44262295082,4,2,2,85,1,0
37568,-100,4,2,2,85,0,0
37961,-100,4,3,3,70,0,0
38354,376.175548589342,4,3,3,70,1,0
38730,394.736842105264,4,3,3,70,1,0
39124,394.736842105264,4,3,3,70,1,0
39913,384.615384615385,4,3,3,70,1,0
40682,392.156862745098,4,3,3,75,1,0
40682,-100,4,3,3,75,0,0
41466,370.370370370371,4,3,3,75,1,0
41836,394.736842105264,4,3,3,75,1,0
42230,385.852090032155,4,3,3,75,1,0
43773,397.350993377484,4,3,3,70,1,0
43773,-100,4,3,3,70,0,0
44170,379.746835443038,4,3,3,70,1,0
44929,393.44262295082,4,3,3,70,1,0
45715,379.746835443038,4,3,3,70,1,0
46094,397.350993377484,4,3,3,70,1,0
46888,391.517128874389,4,2,3,75,1,0
46888,-100,4,2,3,75,0,0
47279,-100,4,3,3,75,0,0
47671,380.952380952381,4,1,2,75,1,0
47671,-100,4,1,2,75,0,0
48051,-100,4,3,3,75,0,0
48432,400,4,3,3,75,1,0
48432,-100,4,3,3,75,0,0
48832,375,4,3,3,75,1,0
49207,-100,4,1,2,75,0,0
49582,402.68456375839,4,1,2,75,1,0
49984,390.879478827362,4,3,3,80,1,1
49984,-100,4,3,3,80,0,1
50765,370.370370370371,4,3,3,80,1,1
51135,382.165605095542,4,3,3,80,1,1
51899,387.096774193549,4,3,3,80,1,1
52673,397.350993377484,4,3,3,80,1,1
53070,379.746835443038,4,3,3,80,1,1
53070,-100,4,3,3,80,0,1
53829,387.096774193549,4,3,3,80,1,1
54603,379.746835443038,4,3,3,80,1,1
54982,389.61038961039,4,3,3,80,1,1
56150,382.165605095542,4,3,3,80,1,1
56150,-100,4,3,3,80,0,1
56532,392.156862745098,4,3,3,80,1,1
57316,384.615384615385,4,3,3,80,1,1
57700,387.096774193549,4,3,3,80,1,1
58474,379.746835443038,4,3,3,80,1,1
58853,389.61038961039,4,3,3,80,1,1
59242,-100,4,3,3,80,0,1
60021,382.165605095542,4,3,3,80,1,1
60403,397.350993377483,4,3,3,80,1,1
60800,-100,4,2,3,85,0,1
61197,382.165605095542,4,3,3,85,1,1
61961,394.736842105264,4,3,3,85,1,1
62355,383.386581469649,4,2,3,80,1,1
62355,-100,4,3,3,80,0,1
63505,392.156862745098,4,3,3,80,1,1
63897,384.615384615385,4,3,3,80,1,1
64666,388.349514563107,4,3,3,80,1,1
65442,394.736842105264,4,3,3,90,1,1
65442,-100,4,3,3,90,0,1
66034,387.096774193549,4,3,3,90,1,1
66034,-100,4,3,3,90,0,1
66614,372.670807453417,4,3,3,90,1,1
66614,-100,4,3,3,90,0,1
66986,393.44262295082,4,3,3,80,1,1
66986,-100,4,3,3,80,0,1
67772,379.746835443038,4,3,3,80,1,1
68151,389.61038961039,4,3,3,80,1,1
68930,382.165605095542,4,3,3,80,1,1
70076,395.387149917629,4,2,2,85,1,0
70076,-100,4,2,2,85,0,0
70471,-100,4,3,3,70,0,0
70866,372.670807453417,4,3,3,70,1,0
71238,392.156862745098,4,3,3,70,1,0
72022,379.746835443038,4,3,3,70,1,0
72401,394.736842105264,4,3,3,70,1,0
73190,389.61038961039,4,3,3,70,1,0
73969,382.165605095542,4,3,3,70,1,0
74733,384.615384615385,4,3,3,70,1,0
74733,-100,4,3,3,70,0,0
75886,402.68456375839,4,3,3,70,1,0
76288,392.156862745098,4,3,3,70,1,0
77072,365.853658536586,4,3,3,70,1,0
77437,388.349514563107,4,3,3,70,1,0
78213,394.736842105264,4,3,3,70,1,0
79002,384.615384615384,4,3,3,70,1,0
79386,394.736842105263,4,3,3,70,1,0
80175,368.098159509202,4,3,3,70,1,0
80543,390.243902439025,4,3,3,70,1,0
80933,-100,4,3,3,70,0,0
81713,379.746835443038,4,3,3,70,1,0
81713,-100,4,3,3,70,0,0
82282,363.636363636364,4,3,3,70,1,0
82463,408.163265306122,4,2,2,70,1,0
82463,-100,4,2,2,70,0,0
82871,380.348652931854,4,3,3,70,1,0
82871,-100,4,3,3,70,0,0
83631,392.798690671031,4,3,3,70,1,0
84809,377.358490566038,4,3,3,70,1,0
85186,392.156862745098,4,3,3,70,1,0
85578,-100,4,3,3,75,0,0
85970,400,4,3,3,75,1,0
86370,372.670807453416,4,3,3,75,1,0
86742,388.349514563107,4,3,3,75,1,0
87518,385.852090032154,4,3,3,75,1,0
88675,377.358490566037,4,3,3,70,1,0
88675,-100,4,3,3,70,0,0
89052,388.349514563106,4,3,3,70,1,0
90217,389.610389610389,4,3,3,70,1,0
90996,397.350993377483,4,3,3,70,1,0
91790,389.610389610389,4,2,3,75,1,0
91790,-100,4,2,3,75,0,0
92179,-100,4,3,3,75,0,0
92569,383.386581469648,4,1,2,75,1,0
92569,-100,4,1,2,75,0,0
92952,-100,4,3,3,75,0,0
93335,377.358490566038,4,3,3,75,1,0
93335,-100,4,3,3,75,0,0
94089,385.852090032154,4,1,2,75,1,0
94089,-100,4,1,2,75,0,0
94860,394.736842105263,4,3,3,80,1,1
94860,-100,4,3,3,80,0,1
95649,384.615384615384,4,3,3,80,1,1
96418,-100,4,3,3,80,0,1
96802,389.610389610389,4,3,3,80,1,1
97191,385.852090032154,4,3,3,80,1,1
97962,392.156862745098,4,3,3,80,1,1
97962,-100,4,3,3,80,0,1
98746,379.746835443038,4,3,3,80,1,1
99505,400,4,3,3,80,1,1
99905,384.615384615384,4,3,3,80,1,1
100289,379.746835443038,4,3,3,80,1,1
101048,400,4,3,3,80,1,1
101448,384.615384615384,4,3,3,80,1,1
102217,389.610389610389,4,3,3,80,1,1
102606,-100,4,3,3,80,0,1
103385,382.165605095541,4,3,3,80,1,1
103767,397.350993377483,4,3,3,80,1,1
104164,384.615384615384,4,3,3,80,1,1
104164,-100,4,3,3,80,0,1
105317,382.165605095541,4,3,3,80,1,1
105699,412.371134020618,4,2,3,85,1,1
105699,-100,4,2,3,85,0,1
105905,-100,4,3,3,85,0,1
106111,377.358490566038,4,3,3,85,1,1
107243,395.387149917628,4,2,3,80,1,1
107243,-100,4,2,3,80,0,1
107638,390.879478827361,4,3,3,80,1,1
108419,385.852090032154,4,3,3,80,1,1
109576,387.096774193548,4,3,3,80,1,1
110350,379.746835443037,4,3,3,90,1,1
110350,-100,4,3,3,90,0,1
110919,384.615384615384,4,3,3,90,1,1
111495,377.358490566038,4,3,3,90,1,1
111872,402.684563758389,4,3,3,80,1,1
111872,-100,4,3,3,80,0,1
112677,375,4,3,3,80,1,1
113052,394.736842105263,4,3,3,80,1,1
113841,379.746835443037,4,3,3,80,1,1
114220,370.37037037037,4,3,3,80,1,1
114590,402.684563758389,4,3,3,80,1,1
114992,-100,4,2,3,80,0,0
115395,377.358490566038,4,3,3,70,1,0
115772,387.096774193548,4,3,3,70,1,0
116546,384.615384615384,4,3,3,70,1,0
116930,389.610389610389,4,3,3,70,1,0
117709,397.350993377483,4,3,3,70,1,0
118106,379.746835443038,4,3,3,70,1,0
118865,384.615384615384,4,3,3,70,1,0
119249,392.156862745098,4,3,3,70,1,0
119641,389.610389610389,4,3,3,70,1,0
120420,384.615384615384,4,3,3,70,1,0
121189,397.350993377483,4,3,3,70,1,0
121586,384.615384615384,4,3,3,70,1,0
122355,392.156862745098,4,3,3,70,1,0
122747,389.610389610389,4,3,3,70,1,0
123526,384.615384615384,4,3,3,70,1,0
123910,394.736842105263,4,3,3,70,1,0
124304,387.096774193548,4,3,3,70,1,0
125078,377.358490566037,4,3,3,70,1,0
125455,382.165605095541,4,3,3,70,1,0
126219,384.615384615384,4,3,3,80,1,0
126603,352.941176470588,4,3,3,80,1,0
126955,408.163265306122,4,3,3,80,1,0
127363,397.350993377483,4,2,3,90,1,0
127363,-100,4,2,3,90,0,0
127760,-100,4,3,3,90,0,0
128952,377.358490566037,4,3,3,90,1,0
129329,389.610389610389,4,3,3,90,1,0
129718,384.615384615384,4,3,3,90,1,0
130487,389.610389610389,4,3,3,90,1,0
131266,377.358490566037,4,3,3,90,1,0
131643,387.096774193548,4,3,3,90,1,0
132030,384.615384615384,4,3,3,90,1,0
132799,382.165605095541,4,3,3,90,1,0
133563,392.156862745098,4,3,3,90,1,0
134347,387.096774193548,4,3,3,90,1,0
135121,379.746835443038,4,3,3,90,1,0
135500,400,4,3,3,90,1,0
135900,384.615384615384,4,3,3,90,1,0
136669,394.736842105262,4,3,3,70,1,0
136669,-100,4,3,3,70,0,0
137458,375,4,3,3,75,1,0
137458,-100,4,3,3,75,0,0
137833,400,4,3,3,75,1,0
138233,368.098159509202,4,3,3,80,1,0
138233,-100,4,3,3,80,0,0
138601,396.694214876033,4,3,3,80,1,0
138997,384.615384615384,4,3,3,85,1,0
138997,-100,4,3,3,85,0,0
139381,392.156862745098,4,3,3,85,1,0
139773,-100,4,2,3,90,0,0
139969,-100,4,3,3,90,0,0
140557,363.636363636363,4,3,3,90,1,0
140557,-100,4,3,3,90,0,0
141324,394.736842105263,4,1,2,90,1,0
141324,-100,4,1,2,90,0,0
142113,352.941176470588,4,3,3,90,1,0
142113,-100,4,3,3,90,0,0
142465,375,4,3,3,90,1,0
142850,384.615384615384,4,1,2,90,1,0
142850,-100,4,1,2,90,0,0
143234,402.684563758389,4,1,2,80,1,0
143636,363.636363636363,4,3,3,90,1,0
143636,-100,4,3,3,90,0,0
144390,392.156862745097,4,1,2,90,1,0
144390,-100,4,1,2,90,0,0
144783,413.793103448275,4,1,2,90,1,0
145196,359.281437125748,4,3,3,90,1,0
145196,-100,4,3,3,90,0,0
145940,392.156862745098,4,1,2,90,1,0
145940,-100,4,1,2,90,0,0
146735,368.098159509201,4,3,3,90,1,0
146735,-100,4,3,3,90,0,0
147495,392.156862745097,4,1,2,90,1,0
147495,-100,4,1,2,90,0,0
147886,405.405405405405,4,1,2,90,1,0
148291,363.636363636364,4,3,3,90,1,0
148291,-100,4,3,3,90,0,0
149047,387.096774193548,4,1,2,90,1,0
149047,-100,4,1,2,90,0,0
149434,413.793103448275,4,1,2,90,1,0
149848,363.636363636364,4,3,3,90,1,0
149848,-100,4,3,3,90,0,0
150598,397.350993377483,4,1,2,90,1,0
150598,-100,4,1,2,90,0,0
151392,363.636363636364,4,3,3,90,1,0
151392,-100,4,3,3,90,0,0
152158,413.793103448275,4,2,3,80,1,0
152158,-100,4,2,3,80,0,0
152571,378.548895899054,4,3,3,65,1,0
152571,-100,4,3,3,65,0,0
153706,389.61038961039,4,3,3,65,1,0
154485,394.736842105263,4,3,3,65,1,0
154879,390.879478827362,4,3,3,65,1,0
155660,375,4,3,3,65,1,0
156035,370.37037037037,4,3,3,65,1,0
156405,399.999999999998,4,3,3,65,1,0
156804,402.684563758389,4,3,3,65,1,0
157206,384.615384615385,4,3,3,65,1,0
157975,375,4,3,3,65,1,0
158350,394.736842105263,4,3,3,65,1,0
159139,387.096774193548,4,3,3,65,1,0
159526,392.156862745098,4,3,3,65,1,0
160310,379.746835443038,4,3,3,65,1,0
160689,382.165605095541,4,3,3,65,1,0
161453,390.879478827361,4,3,3,65,1,0
162625,384.615384615384,4,3,3,65,1,0
163009,379.746835443038,4,3,3,65,1,0
163388,389.610389610389,4,3,3,65,1,0
163777,385.852090032154,4,3,3,65,1,0
164548,384.615384615384,4,3,3,65,1,0
165317,389.610389610389,4,3,3,65,1,0
166096,390.879478827361,4,3,3,65,1,0
166877,372.670807453416,4,3,3,65,1,0
167249,400,4,3,3,65,1,0
167649,392.156862745098,4,2,3,75,1,0
167649,-100,4,2,3,75,0,0
168041,-100,4,3,3,75,0,0
168433,384.615384615385,4,1,2,75,1,0
168433,-100,4,1,2,75,0,0
168817,386.473429951691,4,3,3,75,1,0
168817,-100,4,3,3,75,0,0
169203,377.358490566037,4,3,3,75,1,0
169203,-100,4,3,3,75,0,0
169957,397.350993377483,4,1,2,75,1,0
169957,-100,4,1,2,75,0,0
170751,368.098159509202,4,3,3,80,1,1
170751,-100,4,3,3,80,0,1
171119,392.156862745098,4,3,3,80,1,1
171903,384.615384615384,4,3,3,80,1,1
172672,388.349514563106,4,3,3,80,1,1
173060,390.879478827362,4,3,3,80,1,1
173841,361.44578313253,4,3,3,80,1,1
173841,-100,4,3,3,80,0,1
174202,400,4,3,3,80,1,1
175002,384.615384615384,4,3,3,80,1,1
175386,372.670807453416,4,3,3,80,1,1
175386,-100,4,3,3,80,0,1
175758,389.610389610389,4,3,3,80,1,1
176537,394.736842105263,4,3,3,80,1,1
176931,383.386581469648,4,3,3,80,1,1
176931,-100,4,3,3,80,0,1
177697,388.349514563106,4,3,3,80,1,1
178473,382.165605095541,4,3,3,80,1,1
178855,389.610389610389,4,3,3,80,1,1
180023,377.358490566037,4,3,3,80,1,1
180023,-100,4,3,3,80,0,1
180400,405.405405405405,4,3,3,80,1,1
180805,370.37037037037,4,3,3,80,1,1
181175,387.096774193548,4,3,3,80,1,1
181562,-100,4,2,3,85,0,1
181755,-100,4,3,3,85,0,1
181949,392.156862745097,4,3,3,85,1,1
182341,383.386581469648,4,3,3,85,1,1
183107,397.350993377483,4,2,3,80,1,1
183107,-100,4,2,3,80,0,1
183504,390.879478827361,4,3,3,80,1,1
184676,379.746835443038,4,3,3,80,1,1
184676,-100,4,3,3,80,0,1
185055,405.405405405405,4,3,3,80,1,1
185460,379.746835443038,4,3,3,80,1,1
185839,389.610389610389,4,3,3,80,1,1
186228,379.746835443038,4,3,3,90,1,1
186228,-100,4,3,3,90,0,1
186797,394.736842105263,4,3,3,90,1,1
187389,379.746835443037,4,3,3,90,1,1
187768,389.610389610389,4,3,3,80,1,1
187768,-100,4,3,3,80,0,1
188547,379.746835443038,4,3,3,80,1,1
188926,394.736842105263,4,3,3,80,1,1
189320,388.349514563106,4,3,3,80,1,1
189320,-100,4,3,3,80,0,1
190096,372.670807453416,4,3,3,80,1,1
190841,392.156862745098,4,2,3,85,1,0
190841,-100,4,2,3,85,0,0
191037,-100,4,3,3,80,0,0
191233,383.386581469648,4,3,3,80,1,0
191999,428.571428571428,4,3,3,80,1,0
192420,397.350993377483,4,2,3,85,1,0
192420,-100,4,2,3,85,0,0
192618,-100,4,3,3,80,0,0
192816,365.853658536585,4,3,3,80,1,0
193547,408.163265306122,4,3,3,80,1,0
193955,387.096774193548,4,3,3,80,1,1
193955,-100,4,3,3,80,0,1
194342,402.684563758389,4,3,3,80,1,1
194744,382.165605095541,4,3,3,80,1,1
195508,389.610389610389,4,3,3,80,1,1
196287,382.165605095541,4,3,3,80,1,1
197051,389.610389610389,4,2,3,85,1,0
197051,-100,4,2,3,85,0,0
197245,-100,4,3,3,80,0,0
197440,387.096774193548,4,3,3,80,1,0
198214,384.615384615384,4,3,3,80,1,0
198598,397.350993377483,4,2,3,85,1,0
198598,-100,4,2,3,85,0,0
198796,-100,4,3,3,80,0,0
198995,379.746835443038,4,3,3,80,1,0
199754,405.405405405405,4,3,3,80,1,0
200159,388.349514563106,4,3,3,80,1,1
200159,-100,4,3,3,80,0,1
200935,377.358490566038,4,3,3,80,1,1
201312,387.096774193548,4,3,3,80,1,1
202086,392.156862745098,4,3,3,80,1,1
202478,379.746835443037,4,3,3,80,1,1
203237,397.350993377483,4,2,3,80,1,1
203237,-100,4,2,3,80,0,1
203634,386.47342995169,4,3,3,80,1,1
204793,394.736842105263,4,3,3,80,1,1
205582,384.615384615384,4,3,3,80,1,1
205966,400,4,3,3,80,1,1
206366,465.116279069766,4,3,3,70,1,0
206831,512.820512820513,4,3,3,70,1,0
207343,555.555555555555,4,3,3,70,1,0
207898,697.67441860465,4,3,3,70,1,0
208595,697.67441860465,4,2,3,70,1,0
208595,-100,4,2,3,70,0,0
208944,-100,4,3,3,15,0,0
215921,-100,4,2,3,5,0,0

[Colours]
Combo1 : 213,43,213
Combo2 : 114,226,226
Combo3 : 159,100,219
Combo4 : 48,128,207

[HitObjects]
46,100,421,6,0,L|40:32,2,50,2|2|2,0:0|0:0|0:0,0:0:0:0:
69,144,1000,2,0,P|98:146|138:138,1,50,2|0,0:0|0:0,0:0:0:0:
167,131,1398,1,0,0:0:0:0:
293,42,1994,6,0,P|319:39|351:41,1,50,2|2,0:0|0:0,0:0:0:0:
380,72,2378,1,2,0:0:0:0:
408,113,2570,2,0,L|395:227,1,99,2|0,0:0|0:0,0:0:0:0:
302,329,3513,6,0,L|235:329,1,50,2|2,0:0|0:0,0:0:0:0:
213,296,3905,2,0,P|206:270|205:241,1,50,2|2,0:0|0:0,0:0:0:0:
214,196,4297,1,0,0:0:0:0:
84,51,5061,5,2,0:0:0:0:
45,143,5455,2,0,L|50:258,1,100,0|2,0:0|0:0,0:0:0:0:
77,284,6039,1,2,0:0:0:0:
135,202,6424,6,0,P|196:171|275:201,1,150,2|2,0:0|0:0,0:0:0:0:
315,299,7401,2,0,P|344:296|381:300,1,50,0|2,0:0|0:0,0:0:0:0:
400,327,7766,2,0,P|430:323|466:308,1,50,2|2,0:0|0:0,0:0:0:0:
472,269,8176,6,0,B|488:218|488:218|485:160,1,100,2|0,0:0|0:0,0:0:0:0:
430,95,8950,1,0,0:0:0:0:
430,95,9143,2,0,P|377:86|319:96,1,100
280,99,9724,6,0,L|164:85,2,100,2|0|0,0:0|0:0|0:0,0:0:0:0:
293,147,10667,1,2,0:0:0:0:
303,250,11065,2,0,P|255:241|198:258,1,100,2|0,0:0|0:0,0:0:0:0:
165,282,11638,1,0,0:0:0:0:
73,326,12020,6,0,L|64:260,1,50,8|0,0:0|0:0,0:0:0:0:
63,226,12397,1,8,0:0:0:0:
140,156,12797,6,0,P|191:142|241:150,1,100,4|8,2:0|0:0,0:0:0:0:
281,172,13385,1,0,0:0:0:0:
309,213,13581,2,0,L|309:277,2,50,0|0|8,0:0|0:0|0:0,0:0:0:0:
375,138,14350,6,0,P|405:134|436:138,1,50,2|0,0:0|0:0,0:0:0:0:
465,159,14734,2,0,L|475:43,2,100,8|0|8,0:0|0:0|0:0,0:0:0:0:
453,258,15887,5,4,2:0:0:0:
374,319,16277,1,8,0:0:0:0:
295,258,16666,2,0,L|290:197,2,50,0|0|8,0:0|0:0|0:0,0:0:0:0:
226,330,17454,6,0,P|200:332|172:329,1,50,4|0,0:0|0:0,0:0:0:0:
128,313,17843,1,8,0:0:0:0:
83,223,18233,2,0,L|90:165,1,50
125,139,18601,1,8,0:0:0:0:
195,70,18993,6,0,L|306:63,1,100,4|8,2:0|0:0,0:0:0:0:
336,90,19573,1,0,0:0:0:0:
378,117,19767,2,0,L|437:118,2,50,0|0|8,0:0|0:0|0:0,0:0:0:0:
307,189,20548,6,0,L|248:190,1,50,2|0,0:0|0:0,0:0:0:0:
216,214,20937,2,0,P|266:238|300:293,1,100,8|0,0:0|0:0,0:0:0:0:
271,370,21711,1,8,0:0:0:0:
179,337,22096,5,4,2:0:0:0:
113,266,22488,1,8,0:0:0:0:
35,330,22871,2,0,L|27:388,2,50,0|0|8,0:0|0:0|0:0,0:0:0:0:
113,266,23638,6,0,B|118:230|118:230|105:154,1,100,4|8,2:0|0:0,0:0:0:0:
76,72,24414,1,0,0:0:0:0:
172,25,24803,2,0,L|234:22,1,50,8|8,0:0|0:0,0:0:0:0:
260,45,25166,1,4,0:0:0:0:
210,131,25571,6,0,P|220:162|283:194,1,100,8|0,0:0|0:0,0:0:0:0:
368,186,26353,1,8,0:0:0:0:
415,95,26753,2,0,P|446:90|488:144,1,100,0|8,0:0|0:0,0:0:0:0:
461,230,27522,2,0,L|480:284,2,50,2|2|8,0:0|0:0|0:0,0:0:0:0:
368,186,28308,1,0,0:0:0:0:
293,252,28683,6,0,P|241:260|192:247,2,100,8|0|8,0:0|0:0|0:0,0:0:0:0:
368,186,29830,1,0,0:0:0:0:
293,120,30227,1,8,0:0:0:0:
218,54,30609,2,0,L|219:-3,2,50,0|0|8,0:0|0:0|0:0,0:0:0:0:
143,120,31385,1,0,0:0:0:0:
68,186,31772,5,8,0:0:0:0:
143,252,32159,1,0,0:0:0:0:
68,318,32534,1,8,0:0:0:0:
143,384,32909,2,0,L|261:367,1,100,0|8,0:0|0:0,0:0:0:0:
306,293,33704,2,0,L|310:228,2,50,2|2|8,0:0|0:0|0:0,0:0:0:0:
376,363,34491,1,0,0:0:0:0:
459,307,34859,6,0,L|467:188,1,100,8|0,0:0|0:0,0:0:0:0:
434,111,35633,1,8,0:0:0:0:
364,182,36035,2,0,P|310:190|257:171,1,100,0|8,0:0|0:0,0:0:0:0:
190,112,36796,2,0,L|196:41,2,50,0|0|8,0:0|0:0|0:0,0:0:0:0:
113,177,37568,1,4,0:0:0:0:
39,109,37961,5,8,0:0:0:0:
84,19,38354,2,0,L|191:12,1,100,0|8,0:0|0:0,0:0:0:0:
251,85,39124,2,0,L|246:152,2,50,0|0|8,0:0|0:0|0:0,0:0:0:0:
285,48,39716,2,0,P|336:41|396:60,1,99
418,84,40297,1,8,0:0:0:0:
358,160,40682,6,0,L|366:220,1,50,2|0,0:0|0:0,0:0:0:0:
390,249,41074,1,8,0:0:0:0:
359,344,41466,2,0,P|307:356|259:339,1,100,2|8,0:0|0:0,0:0:0:0:
196,264,42230,6,0,L|199:214,2,50,2|0|8,0:0|0:0|0:0,0:0:0:0:
163,302,42808,2,0,B|119:324|119:324|60:314,1,100,0|2,0:0|0:0,0:0:0:0:
24,292,43387,1,8,0:0:0:0:
91,218,43773,1,2,0:0:0:0:
19,141,44170,5,8,0:0:0:0:
65,52,44549,2,0,P|112:43|175:49,1,100,0|8,0:0|0:0,0:0:0:0:
245,104,45322,2,0,L|242:162,2,50,0|0|8,0:0|0:0|0:0,0:0:0:0:
271,62,45904,2,0,L|374:53,1,102
422,55,46491,1,8,0:0:0:0:
455,143,46888,6,0,B|460:184|460:184|445:249,1,100,4|0,0:0|0:0,0:0:0:0:
387,316,47671,1,8,0:0:0:0:
295,349,48051,1,2,0:0:0:0:
226,275,48432,6,0,P|175:260|120:269,1,100
40,311,49207,1,8,0:0:0:0:
122,366,49582,1,8,0:0:0:0:
129,265,49984,5,4,2:0:0:0:
62,190,50374,2,0,L|56:134,1,50,8|0,0:0|0:0,0:0:0:0:
87,101,50765,2,0,L|93:45,2,50,0|0|8,0:0|0:0|0:0,0:0:0:0:
164,164,51517,5,2,0:0:0:0:
246,107,51899,2,0,L|258:-1,2,100,8|0|8,0:0|0:0|0:0,0:0:0:0:
306,186,53070,5,2,0:0:0:0:
388,129,53449,1,8,0:0:0:0:
358,33,53829,2,0,P|413:16|476:29,1,100,0|8,0:0|0:0,0:0:0:0:
500,109,54603,5,2,0:0:0:0:
444,192,54982,2,0,L|450:247,1,50,8|0,0:0|0:0,0:0:0:0:
479,281,55371,2,0,L|473:330,1,50
465,380,55761,1,8,0:0:0:0:
384,321,56150,5,4,2:0:0:0:
302,378,56532,2,0,L|242:371,1,50,8|0,0:0|0:0,0:0:0:0:
212,341,56924,2,0,P|211:315|220:282,2,50,0|0|8,0:0|0:0|0:0,0:0:0:0:
116,371,57700,5,2,0:0:0:0:
83,276,58087,2,0,P|80:250|84:222,1,50,8|0,0:0|0:0,0:0:0:0:
116,189,58474,2,0,P|119:163|115:135,2,50,0|0|8,0:0|0:0|0:0,0:0:0:0:
19,164,59242,5,2,0:0:0:0:
48,68,59632,1,8,0:0:0:0:
142,34,60021,2,0,P|194:30|254:48,1,100,0|8,0:0|0:0,0:0:0:0:
314,113,60800,5,4,2:0:0:0:
355,204,61197,1,8,0:0:0:0:
401,222,61388,1,0,0:0:0:0:
447,204,61579,2,0,L|454:148,2,50,0|0|8,0:0|0:0|0:0,0:0:0:0:
497,289,62355,5,4,2:0:0:0:
444,375,62738,2,0,B|394:363|394:363|343:362,1,100,8|0,0:0|0:0,0:0:0:0:
297,349,63313,2,0,L|291:288,1,50,2|8,0:0|0:0,0:0:0:0:
264,257,63701,6,0,B|222:239|222:239|152:239,1,99,2|0,0:0|0:0,0:0:0:0:
117,242,64281,1,8,0:0:0:0:
42,308,64666,2,0,L|39:357,2,50,0|0|8,0:0|0:0|0:0,0:0:0:0:
117,242,65442,6,0,L|125:142,1,100,8|0,0:0|0:0,0:0:0:0:
151,99,66034,2,0,P|203:84|252:88,1,100,8|0,0:0|0:0,0:0:0:0:
289,114,66614,2,0,L|292:163,1,50,8|0,0:0|0:0,0:0:0:0:
298,213,66986,5,4,2:0:0:0:
387,167,67379,1,8,0:0:0:0:
468,225,67772,2,0,L|475:279,2,50,0|0|8,0:0|0:0|0:0,0:0:0:0:
504,132,68540,5,4,2:0:0:0:
468,38,68930,1,8,0:0:0:0:
373,71,69312,2,0,L|366:21,2,50,0|0|8,0:0|0:0|0:0,0:0:0:0:
368,170,70076,1,4,0:0:0:0:
279,123,70471,5,8,0:0:0:0:
185,158,70866,2,0,P|172:116|181:49,1,100,0|8,0:0|0:0,0:0:0:0:
81,31,71630,2,0,P|75:56|58:83,1,50
21,103,72022,1,8,0:0:0:0:
52,197,72401,2,0,L|108:197,2,50,2|2|8,0:0|0:0|0:0,0:0:0:0:
21,292,73190,1,2,0:0:0:0:
102,349,73579,6,0,L|203:343,1,100,8|0,0:0|0:0,0:0:0:0:
280,281,74351,1,8,0:0:0:0:
364,334,74733,2,0,L|363:392,2,50,0|0|8,0:0|0:0|0:0,0:0:0:0:
460,306,75502,2,0,P|459:276|451:251,1,50
419,220,75886,2,0,P|420:190|428:165,1,50,8|0,0:0|0:0,0:0:0:0:
467,143,76288,1,2,0:0:0:0:
432,50,76680,5,8,0:0:0:0:
347,103,77072,1,0,0:0:0:0:
262,50,77437,1,8,0:0:0:0:
193,122,77825,2,0,L|133:122,1,50
92,122,78213,1,8,0:0:0:0:
20,52,78607,2,0,L|24:-3,2,50,2|2|8,0:0|0:0|0:0,0:0:0:0:
92,122,79386,5,2,0:0:0:0:
43,209,79780,1,8,0:0:0:0:
127,262,80175,2,0,P|168:225|183:168,1,100,0|8,0:0|0:0,0:0:0:0:
271,137,80933,2,0,P|263:185|279:232,1,100,0|8,0:0|0:0,0:0:0:0:
358,292,81713,2,0,L|416:289,1,50
458,286,82092,1,8,0:0:0:0:
413,201,82463,1,4,0:0:0:0:
480,127,82871,5,8,0:0:0:0:
480,26,83251,2,0,P|427:20|372:31,1,100,0|8,0:0|0:0,0:0:0:0:
292,73,84023,2,0,L|272:22,2,50,0|0|8,0:0|0:0|0:0,0:0:0:0:
320,114,84612,2,0,P|357:110|413:145,1,98
435,179,85186,1,8,0:0:0:0:
363,245,85578,6,0,L|355:306,1,50,2|0,0:0|0:0,0:0:0:0:
326,329,85970,1,8,0:0:0:0:
230,298,86370,2,0,B|191:288|191:288|118:303,1,100,2|8,0:0|0:0,0:0:0:0:
48,251,87130,6,0,L|0:260,2,50,2|0|8,0:0|0:0|0:0,0:0:0:0:
69,206,87710,2,0,B|70:170|70:170|60:141|60:141|62:99,1,100,0|2,0:0|0:0,0:0:0:0:
64,57,88289,1,8,0:0:0:0:
150,111,88675,1,2,0:0:0:0:
213,37,89052,5,8,0:0:0:0:
280,110,89440,2,0,P|312:71|322:12,1,100,0|8,0:0|0:0,0:0:0:0:
422,30,90217,2,0,L|480:22,2,50,0|0|8,0:0|0:0|0:0,0:0:0:0:
402,76,90801,2,0,P|404:125|429:168,1,101
464,205,91393,1,8,0:0:0:0:
452,306,91790,6,0,B|418:289|418:289|351:307,1,100,4|0,0:0|0:0,0:0:0:0:
287,378,92569,1,8,0:0:0:0:
239,290,92952,1,2,0:0:0:0:
164,358,93335,6,0,P|124:371|54:348,1,100
2,287,94089,1,8,0:0:0:0:
62,207,94474,1,8,0:0:0:0:
5,127,94860,5,4,2:0:0:0:
46,36,95254,2,0,P|100:19|154:32,1,100,8|0,0:0|0:0,0:0:0:0:
223,84,96033,1,8,0:0:0:0:
300,20,96418,5,2,0:0:0:0:
370,88,96802,1,8,0:0:0:0:
466,58,97191,2,0,L|479:6,2,50,0|0|8,0:0|0:0|0:0,0:0:0:0:
512,146,97962,5,4,2:0:0:0:
468,236,98354,1,8,0:0:0:0:
397,157,98746,2,0,P|352:166|335:224,1,100,0|8,0:0|0:0,0:0:0:0:
317,309,99505,6,0,P|289:311|250:304,1,50,2|0,0:0|0:0,0:0:0:0:
238,268,99905,2,0,P|213:263|188:263,1,50,8|0,0:0|0:0,0:0:0:0:
143,281,100289,1,0,0:0:0:0:
59,339,100668,1,8,0:0:0:0:
30,241,101048,5,4,2:0:0:0:
103,178,101448,2,0,P|106:148|102:114,1,50,8|0,0:0|0:0,0:0:0:0:
81,85,101832,2,0,P|56:84|31:86,2,50,0|0|8,0:0|0:0|0:0,0:0:0:0:
162,26,102606,5,2,0:0:0:0:
233,95,102996,1,8,0:0:0:0:
311,34,103385,2,0,P|335:32|360:33,2,50,0|0|8,0:0|0:0|0:0,0:0:0:0:
341,129,104164,5,4,2:0:0:0:
431,85,104548,1,8,0:0:0:0:
489,165,104933,2,0,L|476:280,1,100,0|8,0:0|0:0,0:0:0:0:
405,322,105699,5,4,0:0:0:0:
359,300,105905,2,0,P|346:274|342:245,1,50,0|8,0:0|0:0,0:0:0:0:
315,211,106299,2,0,P|293:202|260:199,1,50,0|0,3:0|3:0,3:0:0:0:
168,213,106865,1,8,0:0:0:0:
129,304,107243,5,4,2:0:0:0:
48,247,107638,2,0,L|43:131,1,100,8|0,0:0|0:0,0:0:0:0:
61,100,108224,2,0,L|84:44,1,50,2|8,0:0|0:0,0:0:0:0:
122,27,108611,6,0,B|162:11|162:11|234:11,1,100,2|0,0:0|0:0,0:0:0:0:
259,40,109190,1,8,0:0:0:0:
187,110,109576,2,0,L|182:170,2,50,0|0|8,0:0|0:0|0:0,0:0:0:0:
259,40,110350,6,0,P|314:36|366:58,1,100,8|0,0:0|0:0,0:0:0:0:
392,85,110919,2,0,L|403:206,1,100,8|0,0:0|0:0,0:0:0:0:
377,229,111495,2,0,L|328:234,1,50,8|0,0:0|0:0,0:0:0:0:
278,246,111872,5,4,2:0:0:0:
206,316,112274,1,8,0:0:0:0:
136,233,112677,2,0,P|103:231|72:235,1,50
42,212,113052,2,0,P|35:187|35:152,1,50,8|0,0:0|0:0,0:0:0:0:
52,116,113446,6,0,P|97:97|164:104,1,100,4|8,2:0|0:0,0:0:0:0:
227,153,114220,1,0,0:0:0:0:
295,84,114590,2,0,L|354:81,1,50,8|0,0:0|0:0,0:0:0:0:
391,78,114992,5,4,0:0:0:0:
463,307,127363,6,0,B|411:291|411:291|348:306,1,100,4|8,0:0|0:0,0:0:0:0:
323,322,127959,1,0,0:0:0:0:
240,264,128356,2,0,L|242:207,2,50,0|8|0,0:0|0:0|0:0,0:0:0:0:
202,297,128952,6,0,P|150:308|93:293,1,100,2|8,0:0|0:0,0:0:0:0:
66,266,129523,1,0,0:0:0:0:
117,180,129910,2,0,P|144:176|173:180,2,50,0|8|0,0:0|0:0|0:0,0:0:0:0:
68,166,130487,6,0,B|58:109|58:109|68:58,1,100,2|8,0:0|0:0,0:0:0:0:
95,26,131071,1,0,0:0:0:0:
171,92,131454,1,0,0:0:0:0:
171,92,131643,2,0,L|226:89,1,50,8|0,0:0|0:0,0:0:0:0:
271,85,132030,5,2,0:0:0:0:
343,16,132414,1,8,0:0:0:0:
384,43,132606,1,0,0:0:0:0:
431,26,132799,2,0,L|496:20,2,50,0|0|8,0:0|0:0|0:0,0:0:0:0:
470,115,133563,6,0,L|464:227,1,100,2|8,0:0|0:0,0:0:0:0:
451,261,134151,1,0,0:0:0:0:
376,327,134540,2,0,L|382:391,2,50,0|8|0,0:0|0:0|0:0,0:0:0:0:
338,294,135121,6,0,B|296:279|296:279|236:287,1,100,2|8,0:0|0:0,0:0:0:0:
194,306,135700,1,0,0:0:0:0:
101,268,136092,2,0,L|51:275,2,50,0|8|0,0:0|0:0|0:0,0:0:0:0:
128,225,136669,5,4,3:0:0:0:
128,125,137063,1,8,0:0:0:0:
215,77,137458,1,0,3:0:0:0:
302,125,137833,1,8,0:0:0:0:
302,224,138233,6,0,B|355:214|355:214|412:232,1,100,2|8,0:0|0:0,0:0:0:0:
400,327,138997,2,0,B|347:337|347:337|290:319,1,100,0|8,0:0|0:0,0:0:0:0:
217,271,139773,6,0,L|162:271,1,50,4|0,0:0|0:0,0:0:0:0:
116,271,140165,1,0,0:0:0:0:
65,187,140557,1,0,0:0:0:0:
116,101,140920,1,0,0:0:0:0:
167,187,141324,6,0,L|220:187,1,50,2|2,0:0|0:0,0:0:0:0:
267,187,141718,1,2,0:0:0:0:
323,104,142113,1,0,0:0:0:0:
379,187,142465,1,0,0:0:0:0:
323,270,142850,6,0,L|322:327,2,50,2|2|2,0:0|0:0|0:0,0:0:0:0:
379,187,143636,1,0,0:0:0:0:
323,104,143999,1,0,0:0:0:0:
267,187,144390,6,0,L|217:187,1,50,2|2,0:0|0:0,0:0:0:0:
166,187,144783,1,2,0:0:0:0:
106,267,145196,1,0,0:0:0:0:
166,346,145555,1,0,0:0:0:0:
226,267,145940,6,0,L|282:268,1,50,2|2,0:0|0:0,0:0:0:0:
326,267,146332,1,2,0:0:0:0:
425,267,146735,1,0,0:0:0:0:
482,185,147103,1,0,0:0:0:0:
425,103,147495,6,0,L|426:46,2,50,2|2|2,0:0|0:0|0:0,0:0:0:0:
367,185,148291,1,0,0:0:0:0:
308,103,148654,1,0,0:0:0:0:
249,185,149047,6,0,L|184:185,1,50,2|2,0:0|0:0,0:0:0:0:
148,185,149434,1,2,0:0:0:0:
77,113,149848,1,0,0:0:0:0:
148,43,150211,1,0,0:0:0:0:
247,43,150598,6,0,L|312:43,1,50,2|2,0:0|0:0,0:0:0:0:
348,43,150995,1,2,0:0:0:0:
419,113,151392,1,0,0:0:0:0:
348,183,151755,1,0,0:0:0:0:
419,253,152158,5,4,0:0:0:0:
256,192,152571,12,2,158350,0:0:0:0:
78,350,167649,6,0,L|84:237,1,100,4|0,0:0|0:0,0:0:0:0:
137,165,168433,1,8,0:0:0:0:
204,238,168817,1,2,0:0:0:0:
271,165,169203,6,0,P|325:156|379:169,1,100
458,209,169957,1,8,0:0:0:0:
495,116,170354,1,8,0:0:0:0:
458,23,170751,5,4,2:0:0:0:
377,81,171119,2,0,P|328:71|270:81,2,100,8|0|8,0:0|0:0|0:0,0:0:0:0:
330,169,172287,5,2,0:0:0:0:
377,256,172672,1,8,0:0:0:0:
311,331,173060,2,0,L|312:385,2,50,0|0|8,0:0|0:0|0:0,0:0:0:0:
244,256,173841,5,2,0:0:0:0:
163,314,174202,2,0,P|114:324|66:315,2,100,8|0|8,0:0|0:0|0:0,0:0:0:0:
244,256,175386,6,0,L|247:190,1,50,2|0,0:0|0:0,0:0:0:0:
211,169,175758,2,0,L|208:119,1,50,8|0,0:0|0:0,0:0:0:0:
208,68,176147,1,0,0:0:0:0:
123,15,176537,1,8,0:0:0:0:
38,68,176931,5,4,2:0:0:0:
87,155,177314,2,0,L|84:207,1,50,8|0,0:0|0:0,0:0:0:0:
50,242,177697,2,0,P|26:246|0:243,2,50,0|0|8,0:0|0:0|0:0,0:0:0:0:
114,318,178473,5,2,0:0:0:0:
185,247,178855,2,0,P|215:243|241:247,1,50,8|0,0:0|0:0,0:0:0:0:
269,281,179244,2,0,L|264:347,2,50,0|0|8,0:0|0:0|0:0,0:0:0:0:
319,194,180023,5,4,2:0:0:0:
398,255,180400,1,8,0:0:0:0:
477,194,180805,2,0,P|488:134|476:79,1,100,0|8,0:0|0:0,0:0:0:0:
410,25,181562,5,4,0:0:0:0:
372,58,181755,2,0,P|342:60|318:58,1,50,0|8,0:0|0:0,0:0:0:0:
287,21,182145,2,0,P|262:16|237:19,1,50
165,87,182724,1,8,0:0:0:0:
88,33,183107,5,4,2:0:0:0:
48,116,183504,2,0,L|53:232,1,100,8|0,0:0|0:0,0:0:0:0:
98,238,184090,2,0,P|128:243|159:238,1,50,2|8,0:0|0:0,0:0:0:0:
195,228,184481,6,0,L|206:338,1,98,2|0,0:0|0:0,0:0:0:0:
224,373,185055,1,8,0:0:0:0:
306,316,185460,2,0,L|351:343,2,50,0|0|8,0:0|0:0|0:0,0:0:0:0:
310,216,186228,6,0,P|292:169|264:128,1,100,8|0,0:0|0:0,0:0:0:0:
224,98,186797,2,0,P|216:137|170:201,1,100,8|0,0:0|0:0,0:0:0:0:
148,221,187389,2,0,L|93:216,1,50,8|0,0:0|0:0,0:0:0:0:
48,214,187768,5,4,2:0:0:0:
3,124,188157,1,8,0:0:0:0:
79,60,188547,2,0,L|76:2,2,50,0|0|8,0:0|0:0|0:0,0:0:0:0:
157,121,189320,6,0,L|264:115,1,100,4|8,2:0|0:0,0:0:0:0:
356,112,190096,1,0,0:0:0:0:
456,109,190468,1,8,0:0:0:0:
411,198,190841,6,0,L|415:262,1,50,4|0,0:0|0:0,0:0:0:0:
416,297,191233,1,0,0:0:0:0:
101,186,192420,6,0,L|97:122,1,50,4|0,0:0|0:0,0:0:0:0:
96,87,192816,1,0,0:0:0:0:
372,332,193955,5,2,0:0:0:0:
426,248,194342,2,0,L|434:177,1,50,8|0,0:0|0:0,0:0:0:0:
417,150,194744,2,0,P|363:132|312:141,1,100,0|8,0:0|0:0,0:0:0:0:
229,177,195508,5,2,0:0:0:0:
151,113,195897,2,0,P|124:110|93:113,1,50,8|0,0:0|0:0,0:0:0:0:
56,133,196287,2,0,P|45:161|42:202,1,50
40,230,196669,1,8,0:0:0:0:
90,315,197051,6,0,L|144:309,1,50,4|0,0:0|0:0,0:0:0:0:
189,304,197440,1,0,0:0:0:0:
422,315,198598,6,0,L|367:309,1,50,4|0,0:0|0:0,0:0:0:0:
323,304,198995,1,0,0:0:0:0:
181,107,200159,5,2,0:0:0:0:
89,65,200547,1,8,0:0:0:0:
31,146,200935,2,0,P|25:201|43:262,1,100,0|8,0:0|0:0,0:0:0:0:
88,328,201699,5,2,0:0:0:0:
155,254,202086,1,8,0:0:0:0:
202,237,202282,1,0,0:0:0:0:
247,256,202478,2,0,L|244:319,2,50,0|0|8,0:0|0:0|0:0,0:0:0:0:
256,156,203237,5,4,2:0:0:0:
338,99,203634,2,0,P|389:90|446:104,1,100,8|0,0:0|0:0,0:0:0:0:
473,132,204213,2,0,L|468:196,1,50,2|8,0:0|0:0,0:0:0:0:
457,230,204600,6,0,B|413:246|413:246|360:236,1,101,2|0,0:0|0:0,0:0:0:0:
311,225,205187,1,8,0:0:0:0:
230,284,205582,2,0,L|231:346,2,50,0|0|8,0:0|0:0|0:0,0:0:0:0:
152,229,206366,6,8,L|163:68,1,155
275,31,207898,2,0,L|388:26,1,100,8|4,0:0|0:0,0:0:0:0:
256,192,208944,12,0,215921,0:0:0:0:
