osu file format v14

[General]
AudioFilename: audio.mp3
AudioLeadIn: 0
PreviewTime: 170751
Countdown: 1
SampleSet: Drum
StackLeniency: 0.7
Mode: 0
LetterboxInBreaks: 0
WidescreenStoryboard: 1

[Editor]
Bookmarks: 250,12797,25571,40682,44170,46888,49984,70471,85578,89052,91790,94860,114992,127363,136669,139773,152158,158350,167649,190841,193955,197051,200159,206366
DistanceSpacing: 1.2
BeatDivisor: 4
GridSize: 16
TimelineZoom: 1.2

[Metadata]
Title:Marionetki
TitleUnicode:Марионетки
Artist:Korol' i Shut
ArtistUnicode:Король и Шут
Creator:tilk1233
Version:Insane
Source:
Tags:rock russian punk русский панк рок михаил горшенёв продавец кошмаров king and the clown jester киш
BeatmapID:1654261
BeatmapSetID:732950

[Difficulty]
HPDrainRate:6
CircleSize:4
OverallDifficulty:8
ApproachRate:9
SliderMultiplier:1.8
SliderTickRate:1

[Events]
//Background and Video events
0,0,"kukla.jpg",0,0
//Break Periods
2,158550,167049
//Storyboard Layer 0 (Background)
//Storyboard Layer 1 (Fail)
//Storyboard Layer 2 (Pass)
//Storyboard Layer 3 (Foreground)
//Storyboard Layer 4 (Overlay)
//Storyboard Sound Samples

[TimingPoints]
250,342.857142857142,4,2,3,20,1,0
421,379.746835443038,4,2,3,30,1,0
800,400.667779632721,4,2,3,30,1,0
1200,397.350993377483,4,2,3,30,1,0
1398,387.096774193547,4,2,3,30,1,0
1398,-125,4,2,3,30,0,0
1784,342.857142857142,4,2,3,25,1,0
1994,384.615384615385,4,2,3,30,1,0
1994,-100,4,2,3,30,0,0
2570,-125,4,2,3,40,0,0
2763,375,4,2,3,30,1,0
2763,-125,4,2,3,30,0,0
2950,-125,4,2,3,20,0,0
3325,-100,4,2,2,40,0,0
3513,392.156862745098,4,2,2,30,1,0
3709,-100,4,2,3,35,0,0
4101,-125,4,2,3,30,0,0
4297,382.165605095542,4,2,3,30,1,0
4297,-125,4,2,3,30,0,0
4488,377.358490566038,4,2,3,30,1,0
4865,392.156862745097,4,2,3,20,1,0
5061,394.736842105263,4,2,3,40,1,0
5061,-111.111111111111,4,2,3,40,0,0
5357,-111.111111111111,4,2,3,5,0,0
5455,-111.111111111111,4,2,3,25,0,0
5850,379.746835443038,4,2,3,40,1,0
6039,-111.111111111111,4,2,3,40,0,0
6229,390.879478827362,4,2,3,40,1,0
6229,-111.111111111111,4,2,3,40,0,0
6326,-111.111111111111,4,2,3,5,0,0
6424,-125,4,2,2,40,0,0
7010,-125,4,2,3,35,0,0
7401,342.857142857143,4,2,3,40,1,0
7766,410.958904109589,4,2,3,40,1,0
8176,387.096774193549,4,2,3,40,1,0
8176,-125,4,2,2,40,0,0
8563,-125,4,2,3,30,0,0
9724,372.670807453417,4,2,3,40,1,0
9724,-125,4,2,3,40,0,0
10096,-125,4,2,3,30,0,0
10469,397.350993377483,4,2,3,40,1,0
10667,-111.111111111111,4,2,3,40,0,0
10965,-111.111111111111,4,2,3,5,0,0
11065,382.165605095541,4,2,3,40,1,0
11065,-111.111111111111,4,2,3,40,0,0
11447,-111.111111111111,4,2,3,25,0,0
12020,377.358490566038,4,3,3,80,1,0
12020,-90.9090909090909,4,3,3,80,0,0
12397,400,4,3,3,80,1,0
12797,392.156862745099,4,3,3,80,1,0
12797,-83.3333333333333,4,3,3,80,0,0
13581,384.615384615386,4,3,3,80,1,0
13581,-83.3333333333333,4,3,3,80,0,0
14734,382.165605095542,4,3,3,80,1,0
14734,-83.3333333333333,4,3,3,80,0,0
15498,389.61038961039,4,3,3,80,1,0
15498,-83.3333333333333,4,3,3,80,0,0
16666,394.08866995074,4,3,3,80,1,0
16666,-83.3333333333333,4,3,3,80,0,0
17454,389.61038961039,4,3,3,80,1,0
17454,-83.3333333333333,4,3,3,80,0,0
18233,368.098159509203,4,3,3,80,1,0
18233,-83.3333333333333,4,3,3,80,0,0
18601,392.156862745098,4,3,3,80,1,0
18601,-83.3333333333333,4,3,3,80,0,0
18993,387.096774193549,4,3,3,80,1,0
18993,-83.3333333333333,4,3,3,80,0,0
20154,394.736842105264,4,3,3,80,1,0
20154,-83.3333333333333,4,3,3,80,0,0
20548,389.61038961039,4,3,3,80,1,0
20548,-83.3333333333333,4,3,3,80,0,0
21327,384.615384615385,4,3,3,80,1,0
21327,-83.3333333333333,4,3,3,80,0,0
22096,392.156862745098,4,3,3,80,1,0
22096,-83.3333333333333,4,3,3,80,0,0
22488,383.386581469648,4,3,3,80,1,0
22488,-83.3333333333333,4,3,3,80,0,0
23638,388.349514563108,4,2,3,85,1,0
23638,-83.3333333333333,4,2,3,85,0,0
23832,-83.3333333333333,4,3,3,85,0,0
24803,363.636363636364,4,3,3,85,1,0
25166,405.405405405406,4,2,2,85,1,0
25166,-83.3333333333333,4,2,2,85,0,0
25368,-83.3333333333333,4,3,3,80,0,0
25571,-125,4,3,3,70,0,0
25976,377.358490566038,4,3,3,70,1,0
25976,-125,4,3,3,70,0,0
26353,400,4,3,3,70,1,0
26353,-125,4,3,3,70,0,0
26653,-125,4,3,3,5,0,0
26753,384.615384615385,4,3,3,70,1,0
26753,-125,4,3,3,70,0,0
27906,402.68456375839,4,3,3,70,1,0
27906,-125,4,3,3,70,0,0
28308,375,4,3,3,70,1,0
28308,-125,4,3,3,70,0,0
28964,-125,4,3,3,5,0,0
29058,-125,4,3,3,70,0,0
29433,397.350993377484,4,3,3,70,1,0
29830,-125,4,3,3,70,0,0
30227,382.165605095542,4,3,3,70,1,0
30227,-125,4,3,3,70,0,0
30991,394.736842105264,4,3,3,70,1,0
30991,-125,4,3,3,70,0,0
31288,-125,4,3,3,5,0,0
31385,387.096774193549,4,3,3,70,1,0
31385,-100,4,3,3,70,0,0
31772,-125,4,3,3,70,0,0
32159,375,4,3,3,70,1,0
32159,-125,4,3,3,70,0,0
32909,402.68456375839,4,3,3,70,1,0
32909,-125,4,3,3,70,0,0
33311,393.44262295082,4,3,3,70,1,0
33311,-125,4,3,3,70,0,0
34491,368.098159509203,4,3,3,70,1,0
34491,-111.111111111111,4,3,3,70,0,0
34859,402.684563758389,4,3,3,70,1,0
34859,-125,4,3,3,70,0,0
35261,372.670807453416,4,3,3,70,1,0
35261,-125,4,3,3,70,0,0
35633,402.684563758389,4,3,3,70,1,0
35633,-125,4,3,3,70,0,0
36035,377.358490566038,4,3,3,70,1,0
36035,-125,4,3,3,70,0,0
36412,384.615384615385,4,3,3,70,1,0
36412,-125,4,3,3,70,0,0
37181,396.039603960396,4,3,3,70,1,0
37379,379.746835443038,4,3,3,70,1,0
37568,393.44262295082,4,2,2,85,1,0
37568,-100,4,2,2,85,0,0
37764,-100,4,3,3,70,0,0
37961,-111.111111111111,4,3,3,70,0,0
38354,376.175548589342,4,3,3,70,1,0
38354,-111.111111111111,4,3,3,70,0,0
38730,394.736842105264,4,3,3,70,1,0
39124,394.736842105264,4,3,3,70,1,0
39124,-111.111111111111,4,3,3,70,0,0
39913,384.615384615385,4,3,3,70,1,0
39913,-111.111111111111,4,3,3,70,0,0
40682,392.156862745098,4,3,3,75,1,0
40682,-100,4,3,3,75,0,0
41368,-100,4,3,3,5,0,0
41466,370.370370370371,4,3,3,75,1,0
41466,-142.857142857143,4,3,3,75,0,0
41836,394.736842105264,4,3,3,75,1,0
42230,385.852090032155,4,3,3,75,1,0
42230,-100,4,3,3,75,0,0
43773,397.350993377484,4,3,3,70,1,0
43773,-90.9090909090909,4,3,3,70,0,0
44170,379.746835443038,4,3,3,70,1,0
44170,-111.111111111111,4,3,3,70,0,0
44454,-111.111111111111,4,3,3,5,0,0
44549,-111.111111111111,4,3,3,70,0,0
44929,393.44262295082,4,3,3,70,1,0
44929,-111.111111111111,4,3,3,70,0,0
45715,379.746835443038,4,3,3,70,1,0
45715,-111.111111111111,4,3,3,70,0,0
46094,397.350993377484,4,3,3,70,1,0
46094,-111.111111111111,4,3,3,70,0,0
46888,391.517128874389,4,2,3,75,1,0
46888,-90.9090909090909,4,2,3,75,0,0
47083,-90.9090909090909,4,3,3,75,0,0
47671,380.952380952381,4,1,2,75,1,0
47671,-90.9090909090909,4,1,2,75,0,0
47861,-90.9090909090909,4,3,3,75,0,0
48432,400,4,3,3,75,1,0
48432,-90.9090909090909,4,3,3,75,0,0
48832,375,4,3,3,75,1,0
48832,-90.9090909090909,4,3,3,75,0,0
49113,-90.9090909090909,4,3,3,5,0,0
49207,-90.9090909090909,4,1,2,75,0,0
49394,-90.9090909090909,4,3,3,75,0,0
49582,402.68456375839,4,1,2,75,1,0
49582,-90.9090909090909,4,1,2,75,0,0
49783,-90.9090909090909,4,3,3,75,0,0
49984,390.879478827362,4,3,3,80,1,1
49984,-83.3333333333333,4,3,3,80,0,1
50765,370.370370370371,4,3,3,80,1,1
51135,382.165605095542,4,3,3,80,1,1
51135,-83.3333333333333,4,3,3,80,0,1
51899,387.096774193549,4,3,3,80,1,1
51899,-83.3333333333333,4,3,3,80,0,1
52673,397.350993377484,4,3,3,80,1,1
53070,379.746835443038,4,3,3,80,1,1
53070,-83.3333333333333,4,3,3,80,0,1
53734,-83.3333333333333,4,3,3,5,0,1
53829,387.096774193549,4,3,3,80,1,1
53829,-83.3333333333333,4,3,3,80,0,1
54119,-83.3333333333333,4,3,3,5,0,1
54216,-83.3333333333333,4,3,3,80,0,1
54603,379.746835443038,4,3,3,80,1,1
54603,-83.3333333333333,4,3,3,80,0,1
54982,389.61038961039,4,3,3,80,1,1
54982,-83.3333333333333,4,3,3,80,0,1
56150,382.165605095542,4,3,3,80,1,1
56150,-83.3333333333333,4,3,3,80,0,1
56532,392.156862745098,4,3,3,80,1,1
56532,-83.3333333333333,4,3,3,80,0,1
57316,384.615384615385,4,3,3,80,1,1
57700,387.096774193549,4,3,3,80,1,1
57700,-83.3333333333333,4,3,3,80,0,1
58474,379.746835443038,4,3,3,80,1,1
58474,-83.3333333333333,4,3,3,80,0,1
58853,389.61038961039,4,3,3,80,1,1
58853,-83.3333333333333,4,3,3,80,0,1
59632,-76.9230769230769,4,3,3,80,0,1
60021,382.165605095542,4,3,3,80,1,1
60021,-71.4285714285714,4,3,3,80,0,1
60403,397.350993377483,4,3,3,80,1,1
60403,-83.3333333333333,4,3,3,80,0,1
60800,-83.3333333333333,4,2,3,85,0,1
60999,-83.3333333333333,4,3,3,85,0,1
61197,382.165605095542,4,3,3,85,1,1
61961,394.736842105264,4,3,3,85,1,1
62355,383.386581469649,4,2,3,80,1,1
62355,-74.0740740740741,4,2,3,80,0,1
62546,-83.3333333333333,4,3,3,80,0,1
63505,392.156862745098,4,3,3,80,1,1
63701,-71.4285714285714,4,3,3,80,0,1
63897,384.615384615385,4,3,3,80,1,1
63897,-71.4285714285714,4,3,3,80,0,1
64089,-83.3333333333333,4,3,3,80,0,1
64666,388.349514563107,4,3,3,80,1,1
64666,-83.3333333333333,4,3,3,80,0,1
65442,394.736842105264,4,3,3,90,1,1
65442,-83.3333333333333,4,3,3,90,0,1
66034,387.096774193549,4,3,3,90,1,1
66034,-83.3333333333333,4,3,3,90,0,1
66614,372.670807453417,4,3,3,90,1,1
66986,393.44262295082,4,3,3,80,1,1
66986,-90.9090909090909,4,3,3,80,0,1
67772,379.746835443038,4,3,3,80,1,1
67772,-90.9090909090909,4,3,3,80,0,1
68151,389.61038961039,4,3,3,80,1,1
68151,-90.9090909090909,4,3,3,80,0,1
68930,382.165605095542,4,3,3,80,1,1
68930,-90.9090909090909,4,3,3,80,0,1
69694,-90.9090909090909,4,3,3,80,0,1
70076,395.387149917629,4,2,2,85,1,0
70076,-100,4,2,2,85,0,0
70273,-100,4,3,3,70,0,0
70471,-125,4,3,3,70,0,0
70767,-125,4,3,3,5,0,0
70866,372.670807453417,4,3,3,70,1,0
70866,-125,4,3,3,70,0,0
71238,392.156862745098,4,3,3,70,1,0
71238,-100,4,3,3,70,0,0
71630,-125,4,3,3,70,0,0
72022,379.746835443038,4,3,3,70,1,0
72022,-125,4,3,3,70,0,0
72401,394.736842105264,4,3,3,70,1,0
72401,-125,4,3,3,70,0,0
73190,389.61038961039,4,3,3,70,1,0
73190,-125,4,3,3,70,0,0
73969,382.165605095542,4,3,3,70,1,0
73969,-125,4,3,3,70,0,0
74637,-125,4,3,3,5,0,0
74733,384.615384615385,4,3,3,70,1,0
74733,-100,4,3,3,70,0,0
75117,-125,4,3,3,70,0,0
75886,402.68456375839,4,3,3,70,1,0
75886,-125,4,3,3,70,0,0
76288,392.156862745098,4,3,3,70,1,0
76288,-100,4,3,3,70,0,0
76680,-125,4,3,3,70,0,0
77072,365.853658536586,4,3,3,70,1,0
77072,-125,4,3,3,70,0,0
77437,388.349514563107,4,3,3,70,1,0
77437,-125,4,3,3,70,0,0
77728,-125,4,3,3,5,0,0
77825,-125,4,3,3,70,0,0
78213,394.736842105264,4,3,3,70,1,0
78213,-125,4,3,3,70,0,0
79002,384.615384615384,4,3,3,70,1,0
79002,-125,4,3,3,70,0,0
79386,394.736842105263,4,3,3,70,1,0
79386,-125,4,3,3,70,0,0
80076,-125,4,3,3,5,0,0
80175,368.098159509202,4,3,3,70,1,0
80175,-125,4,3,3,70,0,0
80543,390.243902439025,4,3,3,70,1,0
80933,-125,4,3,3,70,0,0
81713,379.746835443038,4,3,3,70,1,0
81713,-125,4,3,3,70,0,0
82282,363.636363636364,4,3,3,70,1,0
82463,408.163265306122,4,2,2,70,1,0
82463,-100,4,2,2,70,0,0
82667,-100,4,3,3,70,0,0
82871,380.348652931854,4,3,3,70,1,0
82871,-111.111111111111,4,3,3,70,0,0
83156,-111.111111111111,4,3,3,5,0,0
83251,-111.111111111111,4,3,3,70,0,0
83631,392.798690671031,4,3,3,70,1,0
83631,-111.111111111111,4,3,3,70,0,0
84809,377.358490566038,4,3,3,70,1,0
84809,-111.111111111111,4,3,3,70,0,0
85186,392.156862745098,4,3,3,70,1,0
85578,-100,4,3,3,75,0,0
85970,400,4,3,3,75,1,0
85970,-100,4,3,3,75,0,0
86270,-100,4,3,3,5,0,0
86370,372.670807453416,4,3,3,75,1,0
86370,-142.857142857143,4,3,3,75,0,0
86742,388.349514563107,4,3,3,75,1,0
87130,-100,4,3,3,75,0,0
87518,385.852090032154,4,3,3,75,1,0
87518,-100,4,3,3,75,0,0
88675,377.358490566037,4,3,3,70,1,0
88675,-90.9090909090909,4,3,3,70,0,0
89052,388.349514563106,4,3,3,70,1,0
89052,-111.111111111111,4,3,3,70,0,0
90217,389.610389610389,4,3,3,70,1,0
90217,-111.111111111111,4,3,3,70,0,0
90996,397.350993377483,4,3,3,70,1,0
90996,-111.111111111111,4,3,3,70,0,0
91790,389.610389610389,4,2,3,75,1,0
91790,-90.9090909090909,4,2,3,75,0,0
91984,-90.9090909090909,4,3,3,75,0,0
92569,383.386581469648,4,1,2,75,1,0
92569,-90.9090909090909,4,1,2,75,0,0
92760,-90.9090909090909,4,3,3,75,0,0
93335,377.358490566038,4,3,3,75,1,0
93335,-90.9090909090909,4,3,3,75,0,0
94089,385.852090032154,4,1,2,75,1,0
94089,-90.9090909090909,4,1,2,75,0,0
94281,-90.9090909090909,4,3,3,75,0,0
94474,-90.9090909090909,4,1,2,75,0,0
94667,-90.9090909090909,4,3,3,75,0,0
94860,394.736842105263,4,3,3,80,1,1
94860,-83.3333333333333,4,3,3,80,0,1
95649,384.615384615384,4,3,3,80,1,1
95649,-83.3333333333333,4,3,3,80,0,1
96418,-83.3333333333333,4,3,3,80,0,1
96802,389.610389610389,4,3,3,80,1,1
96802,-83.3333333333333,4,3,3,80,0,1
97191,385.852090032154,4,3,3,80,1,1
97962,392.156862745098,4,3,3,80,1,1
97962,-83.3333333333333,4,3,3,80,0,1
98648,-83.3333333333333,4,3,3,5,0,1
98746,379.746835443038,4,3,3,80,1,1
98746,-83.3333333333333,4,3,3,80,0,1
99505,400,4,3,3,80,1,1
99905,384.615384615384,4,3,3,80,1,1
100289,379.746835443038,4,3,3,80,1,1
100289,-83.3333333333333,4,3,3,80,0,1
101048,400,4,3,3,80,1,1
101048,-83.3333333333333,4,3,3,80,0,1
101448,384.615384615384,4,3,3,80,1,1
101448,-83.3333333333333,4,3,3,80,0,1
102217,389.610389610389,4,3,3,80,1,1
102606,-83.3333333333333,4,3,3,80,0,1
103385,382.165605095541,4,3,3,80,1,1
103767,397.350993377483,4,3,3,80,1,1
104164,384.615384615384,4,3,3,80,1,1
104164,-83.3333333333333,4,3,3,80,0,1
104548,-76.9230769230769,4,3,3,80,0,1
104933,-71.4285714285714,4,3,3,80,0,1
105317,382.165605095541,4,3,3,80,1,1
105317,-83.3333333333333,4,3,3,80,0,1
105699,412.371134020618,4,2,3,85,1,1
105699,-83.3333333333333,4,2,3,85,0,1
105905,-83.3333333333333,4,3,3,85,0,1
106111,377.358490566038,4,3,3,85,1,1
106111,-83.3333333333333,4,3,3,85,0,1
107243,395.387149917628,4,2,3,80,1,1
107243,-74.0740740740741,4,2,3,80,0,1
107440,-83.3333333333333,4,3,3,80,0,1
107638,390.879478827361,4,3,3,80,1,1
107638,-83.3333333333333,4,3,3,80,0,1
108419,385.852090032154,4,3,3,80,1,1
108611,-76.9230769230769,4,3,3,80,0,1
109190,-83.3333333333333,4,3,3,80,0,1
109576,387.096774193548,4,3,3,80,1,1
109576,-83.3333333333333,4,3,3,80,0,1
110350,379.746835443037,4,3,3,90,1,1
110350,-83.3333333333333,4,3,3,90,0,1
110919,384.615384615384,4,3,3,90,1,1
111495,377.358490566038,4,3,3,90,1,1
111872,402.684563758389,4,3,3,80,1,1
111872,-90.9090909090909,4,3,3,80,0,1
112677,375,4,3,3,80,1,1
112677,-90.9090909090909,4,3,3,80,0,1
113052,394.736842105263,4,3,3,80,1,1
113052,-90.9090909090909,4,3,3,80,0,1
113841,379.746835443037,4,3,3,80,1,1
114220,370.37037037037,4,3,3,80,1,1
114590,402.684563758389,4,3,3,80,1,1
114992,-100,4,3,3,80,0,0
115194,-100,4,3,3,70,0,0
115395,377.358490566038,4,3,3,70,1,0
115772,387.096774193548,4,3,3,70,1,0
116449,-100,4,3,3,5,0,0
116546,384.615384615384,4,3,3,70,1,0
116546,-100,4,3,3,70,0,0
116930,389.610389610389,4,3,3,70,1,0
117709,397.350993377483,4,3,3,70,1,0
118011,-100,4,3,3,5,0,0
118106,379.746835443038,4,3,3,70,1,0
118106,-100,4,3,3,70,0,0
118865,384.615384615384,4,3,3,70,1,0
119249,392.156862745098,4,3,3,70,1,0
119543,-100,4,3,3,5,0,0
119641,389.610389610389,4,3,3,70,1,0
119641,-100,4,3,3,70,0,0
120420,384.615384615384,4,3,3,70,1,0
121089,-100,4,3,3,5,0,0
121189,397.350993377483,4,3,3,70,1,0
121189,-100,4,3,3,70,0,0
121586,384.615384615384,4,3,3,70,1,0
122355,392.156862745098,4,3,3,70,1,0
122649,-100,4,3,3,5,0,0
122747,389.610389610389,4,3,3,70,1,0
122747,-100,4,3,3,70,0,0
123526,384.615384615384,4,3,3,70,1,0
123910,394.736842105263,4,3,3,70,1,0
124206,-100,4,3,3,5,0,0
124304,387.096774193548,4,3,3,70,1,0
124304,-100,4,3,3,70,0,0
125078,377.358490566037,4,3,3,70,1,0
125455,382.165605095541,4,3,3,70,1,0
125741,-100,4,3,3,5,0,0
125837,-90.9090909090909,4,3,3,80,0,0
126219,384.615384615384,4,3,3,80,1,0
126219,-90.9090909090909,4,3,3,80,0,0
126603,352.941176470588,4,3,3,80,1,0
126955,408.163265306122,4,3,3,80,1,0
127363,397.350993377483,4,2,3,90,1,0
127363,-80,4,2,3,90,0,0
127561,-80,4,3,3,90,0,0
128952,377.358490566037,4,3,3,90,1,0
128952,-80,4,3,3,90,0,0
129329,389.610389610389,4,3,3,90,1,0
129329,-80,4,3,3,90,0,0
129718,384.615384615384,4,3,3,90,1,0
129718,-80,4,3,3,90,0,0
130487,389.610389610389,4,3,3,90,1,0
130487,-80,4,3,3,90,0,0
131266,377.358490566037,4,3,3,90,1,0
131643,387.096774193548,4,3,3,90,1,0
131643,-80,4,3,3,90,0,0
132030,384.615384615384,4,3,3,90,1,0
132030,-80,4,3,3,90,0,0
132799,382.165605095541,4,3,3,90,1,0
132799,-80,4,3,3,90,0,0
133563,392.156862745098,4,3,3,90,1,0
133563,-80,4,3,3,90,0,0
134347,387.096774193548,4,3,3,90,1,0
134347,-80,4,3,3,90,0,0
135121,379.746835443038,4,3,3,90,1,0
135121,-80,4,3,3,90,0,0
135500,400,4,3,3,90,1,0
135500,-80,4,3,3,90,0,0
135900,384.615384615384,4,3,3,90,1,0
135900,-80,4,3,3,90,0,0
136669,394.736842105262,4,3,3,70,1,0
136669,-90.9090909090909,4,3,3,70,0,0
137458,375,4,3,3,75,1,0
137458,-90.9090909090909,4,3,3,75,0,0
137833,400,4,3,3,75,1,0
137833,-90.9090909090909,4,3,3,75,0,0
138233,368.098159509202,4,3,3,80,1,0
138233,-90.9090909090909,4,3,3,80,0,0
138601,396.694214876033,4,3,3,80,1,0
138601,-90.9090909090909,4,3,3,80,0,0
138997,384.615384615384,4,3,3,85,1,0
138997,-90.9090909090909,4,3,3,85,0,0
139381,392.156862745098,4,3,3,85,1,0
139381,-90.9090909090909,4,3,3,85,0,0
139773,-100,4,2,3,90,0,0
139969,-100,4,3,3,90,0,0
140557,363.636363636363,4,3,3,90,1,0
140557,-100,4,3,3,90,0,0
141324,394.736842105263,4,1,2,90,1,0
141324,-100,4,1,2,90,0,0
142113,352.941176470588,4,3,3,90,1,0
142113,-100,4,3,3,90,0,0
142465,375,4,3,3,90,1,0
142465,-100,4,3,3,90,0,0
142850,384.615384615384,4,1,2,90,1,0
142850,-100,4,1,2,90,0,0
143234,402.684563758389,4,1,2,80,1,0
143636,363.636363636363,4,3,3,90,1,0
143636,-100,4,3,3,90,0,0
144390,392.156862745097,4,1,2,90,1,0
144390,-100,4,1,2,90,0,0
144783,413.793103448275,4,1,2,90,1,0
145196,359.281437125748,4,3,3,90,1,0
145196,-100,4,3,3,90,0,0
145940,392.156862745098,4,1,2,90,1,0
145940,-100,4,1,2,90,0,0
146735,368.098159509201,4,3,3,90,1,0
146735,-100,4,3,3,90,0,0
147495,392.156862745097,4,1,2,90,1,0
147495,-100,4,1,2,90,0,0
147886,405.405405405405,4,1,2,90,1,0
148291,363.636363636364,4,3,3,90,1,0
148291,-100,4,3,3,90,0,0
149047,387.096774193548,4,1,2,90,1,0
149047,-100,4,1,2,90,0,0
149434,413.793103448275,4,1,2,90,1,0
149848,363.636363636364,4,3,3,90,1,0
149848,-100,4,3,3,90,0,0
150598,397.350993377483,4,1,2,90,1,0
150598,-100,4,1,2,90,0,0
151392,363.636363636364,4,3,3,90,1,0
151392,-100,4,3,3,90,0,0
152158,413.793103448275,4,2,3,80,1,0
152158,-250,4,2,3,80,0,0
152364,-250,4,3,3,65,0,0
152571,378.548895899054,4,3,3,65,1,0
153706,389.61038961039,4,3,3,65,1,0
154485,394.736842105263,4,3,3,65,1,0
154879,390.879478827362,4,3,3,65,1,0
155660,375,4,3,3,65,1,0
156035,370.37037037037,4,3,3,65,1,0
156405,399.999999999998,4,3,3,65,1,0
156804,402.684563758389,4,3,3,65,1,0
157206,384.615384615385,4,3,3,65,1,0
157975,375,4,3,3,65,1,0
158350,394.736842105263,4,3,3,65,1,0
159139,387.096774193548,4,3,3,65,1,0
159526,392.156862745098,4,3,3,65,1,0
160310,379.746835443038,4,3,3,65,1,0
160689,382.165605095541,4,3,3,65,1,0
161453,390.879478827361,4,3,3,65,1,0
162625,384.615384615384,4,3,3,65,1,0
163009,379.746835443038,4,3,3,65,1,0
163388,389.610389610389,4,3,3,65,1,0
163777,385.852090032154,4,3,3,65,1,0
164548,384.615384615384,4,3,3,65,1,0
165317,389.610389610389,4,3,3,65,1,0
166096,390.879478827361,4,3,3,65,1,0
166877,372.670807453416,4,3,3,65,1,0
167249,400,4,3,3,65,1,0
167649,392.156862745098,4,2,3,75,1,0
167649,-90.9090909090909,4,2,3,75,0,0
167845,-90.9090909090909,4,3,3,75,0,0
168335,-90.9090909090909,4,3,3,5,0,0
168433,384.615384615385,4,1,2,75,1,0
168433,-90.9090909090909,4,1,2,75,0,0
168721,-90.9090909090909,4,3,3,5,0,0
168817,386.473429951691,4,3,3,75,1,0
168817,-90.9090909090909,4,3,3,75,0,0
169203,377.358490566037,4,3,3,75,1,0
169203,-90.9090909090909,4,3,3,75,0,0
169863,-90.9090909090909,4,3,3,5,0,0
169957,397.350993377483,4,1,2,75,1,0
169957,-90.9090909090909,4,1,2,75,0,0
170155,-90.9090909090909,4,3,3,75,0,0
170354,-90.9090909090909,4,1,2,75,0,0
170553,-90.9090909090909,4,3,3,75,0,0
170751,368.098159509202,4,3,3,80,1,1
170751,-83.3333333333333,4,3,3,80,0,1
171119,392.156862745098,4,3,3,80,1,1
171119,-83.3333333333333,4,3,3,80,0,1
171903,384.615384615384,4,3,3,80,1,1
171903,-83.3333333333333,4,3,3,80,0,1
172672,388.349514563106,4,3,3,80,1,1
172672,-83.3333333333333,4,3,3,80,0,1
173060,390.879478827362,4,3,3,80,1,1
173841,361.44578313253,4,3,3,80,1,1
173841,-83.3333333333333,4,3,3,80,0,1
174202,400,4,3,3,80,1,1
174202,-83.3333333333333,4,3,3,80,0,1
175002,384.615384615384,4,3,3,80,1,1
175386,372.670807453416,4,3,3,80,1,1
175386,-83.3333333333333,4,3,3,80,0,1
175758,389.610389610389,4,3,3,80,1,1
175758,-83.3333333333333,4,3,3,80,0,1
176537,394.736842105263,4,3,3,80,1,1
176537,-83.3333333333333,4,3,3,80,0,1
176931,383.386581469648,4,3,3,80,1,1
176931,-83.3333333333333,4,3,3,80,0,1
177697,388.349514563106,4,3,3,80,1,1
178473,382.165605095541,4,3,3,80,1,1
178473,-83.3333333333333,4,3,3,80,0,1
178855,389.610389610389,4,3,3,80,1,1
178855,-83.3333333333333,4,3,3,80,0,1
180023,377.358490566037,4,3,3,80,1,1
180023,-83.3333333333333,4,3,3,80,0,1
180400,405.405405405405,4,3,3,80,1,1
180400,-76.9230769230769,4,3,3,80,0,1
180805,370.37037037037,4,3,3,80,1,1
180805,-71.4285714285714,4,3,3,80,0,1
181175,387.096774193548,4,3,3,80,1,1
181175,-83.3333333333333,4,3,3,80,0,1
181562,-83.3333333333333,4,2,3,85,0,1
181755,-83.3333333333333,4,3,3,85,0,1
181949,392.156862745097,4,3,3,85,1,1
182341,383.386581469648,4,3,3,85,1,1
182341,-83.3333333333333,4,3,3,85,0,1
183107,397.350993377483,4,2,3,80,1,1
183107,-74.0740740740741,4,2,3,80,0,1
183305,-83.3333333333333,4,3,3,80,0,1
183504,390.879478827361,4,3,3,80,1,1
183504,-83.3333333333333,4,3,3,80,0,1
184481,-80,4,3,3,80,0,1
184676,379.746835443038,4,3,3,80,1,1
184676,-80,4,3,3,80,0,1
185055,405.405405405405,4,3,3,80,1,1
185055,-83.3333333333333,4,3,3,80,0,1
185460,379.746835443038,4,3,3,80,1,1
185839,389.610389610389,4,3,3,80,1,1
185839,-83.3333333333333,4,3,3,80,0,1
186228,379.746835443038,4,3,3,90,1,1
186228,-83.3333333333333,4,3,3,90,0,1
186797,394.736842105263,4,3,3,90,1,1
187389,379.746835443037,4,3,3,90,1,1
187768,389.610389610389,4,3,3,80,1,1
187768,-83.3333333333333,4,3,3,80,0,1
188547,379.746835443038,4,3,3,80,1,1
188547,-83.3333333333333,4,3,3,80,0,1
188926,394.736842105263,4,3,3,80,1,1
188926,-83.3333333333333,4,3,3,80,0,1
189320,388.349514563106,4,3,3,80,1,1
189320,-83.3333333333333,4,3,3,80,0,1
190096,372.670807453416,4,3,3,80,1,1
190096,-83.3333333333333,4,3,3,80,0,1
190841,392.156862745098,4,2,3,85,1,0
190841,-83.3333333333333,4,2,3,85,0,0
191037,-83.3333333333333,4,3,3,80,0,0
191233,383.386581469648,4,3,3,80,1,0
191999,428.571428571428,4,3,3,80,1,0
192420,397.350993377483,4,2,3,85,1,0
192420,-83.3333333333333,4,2,3,85,0,0
192618,-83.3333333333333,4,3,3,80,0,0
192816,365.853658536585,4,3,3,80,1,0
193547,408.163265306122,4,3,3,80,1,0
193955,387.096774193548,4,3,3,80,1,1
193955,-83.3333333333333,4,3,3,80,0,1
194342,402.684563758389,4,3,3,80,1,1
194342,-83.3333333333333,4,3,3,80,0,1
194744,382.165605095541,4,3,3,80,1,1
194744,-83.3333333333333,4,3,3,80,0,1
195508,389.610389610389,4,3,3,80,1,1
195508,-83.3333333333333,4,3,3,80,0,1
196287,382.165605095541,4,3,3,80,1,1
196287,-83.3333333333333,4,3,3,80,0,1
197051,389.610389610389,4,2,3,85,1,0
197051,-83.3333333333333,4,2,3,85,0,0
197245,-83.3333333333333,4,3,3,80,0,0
197440,387.096774193548,4,3,3,80,1,0
198214,384.615384615384,4,3,3,80,1,0
198598,397.350993377483,4,2,3,85,1,0
198598,-83.3333333333333,4,2,3,85,0,0
198796,-83.3333333333333,4,3,3,80,0,0
198995,379.746835443038,4,3,3,80,1,0
199754,405.405405405405,4,3,3,80,1,0
200159,388.349514563106,4,3,3,80,1,1
200159,-83.3333333333333,4,3,3,80,0,1
200935,377.358490566038,4,3,3,80,1,1
200935,-83.3333333333333,4,3,3,80,0,1
201312,387.096774193548,4,3,3,80,1,1
202086,392.156862745098,4,3,3,80,1,1
202478,379.746835443037,4,3,3,80,1,1
202478,-83.3333333333333,4,3,3,80,0,1
203237,397.350993377483,4,2,3,80,1,1
203237,-74.0740740740741,4,2,3,80,0,1
203435,-83.3333333333333,4,3,3,80,0,1
203634,386.47342995169,4,3,3,80,1,1
203634,-83.3333333333333,4,3,3,80,0,1
204600,-80,4,3,3,80,0,1
204793,394.736842105263,4,3,3,80,1,1
204793,-80,4,3,3,80,0,1
205582,384.615384615384,4,3,3,80,1,1
205966,400,4,3,3,80,1,1
205966,-83.3333333333333,4,3,3,80,0,1
206366,465.116279069766,4,3,3,70,1,0
206366,-117.647058823529,4,3,3,70,0,0
206831,512.820512820513,4,3,3,70,1,0
207087,-142.857142857143,4,3,3,70,0,0
207343,555.555555555555,4,3,3,70,1,0
207898,697.67441860465,4,3,3,70,1,0
208595,697.67441860465,4,2,3,70,1,0
208595,-250,4,2,3,70,0,0
208770,-250,4,2,3,15,0,0
215921,-250,4,2,3,5,0,0

[Colours]
Combo1 : 213,43,213
Combo2 : 114,226,226
Combo3 : 159,100,219
Combo4 : 48,128,207

[HitObjects]
402,343,250,5,0,0:0:0:0:
402,343,335,1,0,0:0:0:0:
402,343,421,2,0,L|389:235,1,90,2|2,0:0|0:0,0:0:0:0:
334,183,800,1,2,0:0:0:0:
277,253,1000,1,2,0:0:0:0:
277,253,1200,1,0,0:0:0:0:
220,183,1398,2,0,P|152:168|74:184,1,144,0|2,0:0|0:0,0:0:0:0:
35,265,1994,6,0,L|45:365,1,90,2|2,0:0|0:0,0:0:0:0:
125,316,2378,1,2,0:0:0:0:
204,348,2570,2,0,P|282:362|356:340,1,143,2|0,0:0|0:0,0:0:0:0:
273,180,3325,5,2,0:0:0:0:
273,180,3419,1,2,0:0:0:0:
273,180,3513,2,0,L|268:290,1,90,2|2,0:0|0:0,0:0:0:0:
335,330,3905,1,2,0:0:0:0:
409,279,4101,2,0,L|414:122,1,142,2|0,0:0|0:0,0:0:0:0:
174,120,5061,6,0,L|181:257,1,121.499996292114,2|0,0:0|0:0,0:0:0:0:
191,280,5455,2,0,P|236:270|276:273,1,80.9999975280763
308,287,5751,1,0,0:0:0:0:
308,287,5850,1,2,0:0:0:0:
234,366,6039,2,0,P|173:372|107:323,1,122.499996292114,2|0,0:0|0:0,0:0:0:0:
97,311,6424,5,2,0:0:0:0:
97,311,6522,1,2,0:0:0:0:
97,311,6619,2,0,L|106:139,2,144,2|2|0,0:0|0:0|0:0,0:0:0:0:
179,370,7572,1,2,0:0:0:0:
266,309,7766,1,2,0:0:0:0:
353,370,7971,1,2,0:0:0:0:
327,216,8176,6,0,P|252:202|187:229,1,144,2|0,0:0|0:0,0:0:0:0:
52,186,8950,1,0,0:0:0:0:
52,186,9143,2,0,P|29:118|46:49,1,144
164,121,9724,6,0,B|197:134|239:115|239:115|285:96|318:120,2,144,2|0|0,0:0|0:0|0:0,0:0:0:0:
192,43,10667,2,0,L|209:186,1,121.499996292114,2|0,0:0|0:0,0:0:0:0:
218,202,11065,2,0,P|304:219|374:177,1,161.999995056153,2|0,0:0|0:0,0:0:0:0:
417,121,11638,2,0,P|460:115|510:124,1,80.9999975280763
397,261,12020,5,8,0:0:0:0:
286,142,12208,1,0,0:0:0:0:
260,328,12397,1,8,0:0:0:0:
475,326,12597,5,2,0:0:0:0:
475,326,12697,1,2,0:0:0:0:
475,326,12797,6,0,B|490:267|490:267|478:207,1,107.999996704102,4|0,2:0|0:0,0:0:0:0:
394,46,13189,1,8,0:0:0:0:
267,165,13385,1,0,0:0:0:0:
361,32,13581,1,0,0:0:0:0:
406,197,13773,1,0,0:0:0:0:
256,62,13965,2,0,P|199:42|141:51,1,107.999996704102,8|0,0:0|0:0,0:0:0:0:
144,234,14350,6,0,B|168:217|168:217|178:132,1,107.999996704102,2|0,0:0|0:0,0:0:0:0:
43,17,14734,1,8,0:0:0:0:
8,190,14925,1,0,0:0:0:0:
153,47,15116,2,0,B|193:47|193:47|221:62|221:62|286:62,1,107.999996704102
368,205,15498,2,0,B|331:205|331:205|303:190|303:190|263:190,1,107.999996704102,8|0,0:0|0:0,0:0:0:0:
466,268,15887,6,0,B|479:211|479:211|467:137,1,107.999996704102,4|0,2:0|0:0,0:0:0:0:
381,308,16277,2,0,P|424:354|468:367,1,107.999996704102,8|0,0:0|0:0,0:0:0:0:
368,205,16666,1,0,0:0:0:0:
248,316,16863,1,0,0:0:0:0:
182,133,17060,2,0,L|192:13,1,107.999996704102,8|0,0:0|0:0,0:0:0:0:
109,196,17454,6,0,P|150:224|229:227,1,107.999996704102,4|0,0:0|0:0,0:0:0:0:
396,201,17843,1,8,0:0:0:0:
284,78,18038,1,0,0:0:0:0:
207,231,18233,2,0,B|200:273|200:273|205:308|205:308|200:349,1,107.999996704102
374,224,18601,2,0,B|377:194|377:194|372:159|372:159|381:117,1,107.999996704102,8|0,0:0|0:0,0:0:0:0:
459,331,18993,6,0,B|411:357|411:357|347:352,1,107.999996704102,4|0,2:0|0:0,0:0:0:0:
207,231,19380,1,8,0:0:0:0:
307,86,19573,1,0,0:0:0:0:
391,247,19767,1,0,0:0:0:0:
281,107,19960,1,0,0:0:0:0:
260,301,20154,2,0,P|205:317|133:276,1,107.999996704102,8|0,0:0|0:0,0:0:0:0:
391,247,20548,6,0,L|397:372,1,107.999996704102,2|0,0:0|0:0,0:0:0:0:
499,213,20937,1,8,0:0:0:0:
322,160,21132,1,0,0:0:0:0:
480,86,21327,2,0,B|484:-2|484:-2|448:23,1,107.999996704102
322,160,21711,2,0,B|318:72|318:72|334:83,1,107.999996704102,8|0,0:0|0:0,0:0:0:0:
441,271,22096,6,0,B|387:283|387:283|322:270,1,107.999996704102,4|0,2:0|0:0,0:0:0:0:
144,231,22488,1,8,0:0:0:0:
281,339,22679,1,0,0:0:0:0:
237,183,22871,1,0,0:0:0:0:
151,342,23063,1,0,0:0:0:0:
323,244,23254,2,0,P|335:182|325:127,1,107.999996704102,8|0,0:0|0:0,0:0:0:0:
127,55,23638,6,0,B|102:99|102:99|103:159,1,107.999996704102,4|0,2:0|3:0,2:0:0:0:
151,342,24026,1,8,0:0:0:0:
323,244,24220,1,0,0:0:0:0:
185,161,24414,1,0,0:0:0:0:
262,337,24608,1,0,0:0:0:0:
417,232,24803,1,8,0:0:0:0:
258,96,24984,1,8,0:0:0:0:
258,96,25075,1,8,0:0:0:0:
258,96,25166,6,0,B|200:80|200:80|149:87,1,107.999996704102,4|0,0:0|0:0,0:0:0:0:
283,180,25571,6,0,P|317:161|338:122,1,72,8|0,0:0|0:0,0:0:0:0:
416,163,25976,2,0,P|409:201|419:235,1,72
354,311,26353,2,0,P|303:300|248:319,1,108,8|0,0:0|0:0,0:0:0:0:
216,343,26753,2,0,P|234:288|207:185,1,144,0|8,0:0|0:0,0:0:0:0:
143,163,27329,6,0,L|59:160,1,72
10,98,27714,1,0,0:0:0:0:
95,44,27906,2,0,L|179:41,1,72,8|2,0:0|0:0,0:0:0:0:
206,58,28208,5,2,0:0:0:0:
206,58,28308,2,0,P|218:92|217:132,1,72
264,217,28683,6,0,P|322:230|391:190,1,108,8|0,0:0|0:0,0:0:0:0:
400,187,29058,2,0,L|406:100,1,72
353,28,29433,1,8,0:0:0:0:
293,90,29631,1,2,0:0:0:0:
293,90,29731,1,2,0:0:0:0:
293,90,29830,2,0,P|219:104|146:84,1,144,0|8,0:0|0:0,0:0:0:0:
91,155,30418,5,2,0:0:0:0:
91,155,30513,1,2,0:0:0:0:
91,155,30609,2,0,L|83:247,1,72
135,314,30991,2,0,L|261:321,1,108,8|0,0:0|0:0,0:0:0:0:
280,310,31385,6,0,B|292:262|292:262|289:205,1,90
245,135,31772,6,0,P|287:124|329:125,1,72,8|0,0:0|0:0,0:0:0:0:
296,37,32159,2,0,P|261:27|225:25,1,72
130,85,32534,2,0,P|148:115|159:149,1,72,8|2,3:0|0:0,0:0:0:0:
167,195,32815,1,2,0:0:0:0:
167,195,32909,2,0,P|91:212|23:170,1,144,0|8,0:0|0:0,0:0:0:0:
19,98,33507,5,2,0:0:0:0:
19,98,33606,1,2,0:0:0:0:
19,98,33704,2,0,L|27:9,1,72
122,52,34097,2,0,L|128:123,1,72,8|0,0:0|0:0,0:0:0:0:
203,212,34491,6,0,L|302:211,1,80.9999975280763
376,252,34859,6,0,P|329:247|287:266,1,72,8|0,0:0|0:0,0:0:0:0:
347,330,35261,2,0,P|382:336|417:327,1,72
494,261,35633,2,0,L|492:172,1,72,8|2,0:0|0:0,0:0:0:0:
473,149,35935,1,2,0:0:0:0:
473,149,36035,2,0,P|404:116|319:136,1,144,0|8,0:0|0:0,0:0:0:0:
272,179,36604,5,2,0:0:0:0:
272,179,36700,1,2,0:0:0:0:
272,179,36796,1,0,0:0:0:0:
199,90,36988,2,0,B|109:86,1,72,0|8,0:0|0:0,0:0:0:0:
33,174,37379,1,8,0:0:0:0:
33,174,37473,1,8,0:0:0:0:
33,174,37568,6,0,B|79:176|79:176|116:201,1,90,4|0,0:0|0:0,0:0:0:0:
198,277,37961,6,0,P|244:285|292:273,1,80.9999975280763,8|2,0:0|0:0,0:0:0:0:
316,255,38256,1,2,0:0:0:0:
316,255,38354,2,0,P|338:159|325:86,1,161.999995056153,0|8,0:0|0:0,0:0:0:0:
264,24,38927,5,0,0:0:0:0:
206,101,39124,1,0,0:0:0:0:
206,101,39321,2,0,P|163:109|113:100,1,80.9999975280763,0|8,0:0|0:0,0:0:0:0:
35,140,39716,2,0,P|78:132|128:141,1,80.9999975280763
200,182,40105,1,0,0:0:0:0:
121,257,40297,2,0,L|20:258,1,80.9999975280763,8|0,0:0|0:0,0:0:0:0:
179,366,40682,5,2,0:0:0:0:
243,261,40878,1,0,0:0:0:0:
370,373,41074,2,0,P|398:308|375:226,1,135,8|0,0:0|0:0,0:0:0:0:
366,210,41466,6,0,B|374:166|374:166|364:126|364:126|374:75,1,125.999996154785,2|8,0:0|0:0,0:0:0:0:
243,261,42230,6,0,P|195:267|143:251,1,90,2|0,0:0|0:0,0:0:0:0:
35,175,42615,1,8,0:0:0:0:
127,102,42808,2,0,P|174:91|227:103,1,90
329,205,43194,2,0,B|312:177|312:177|312:100,1,90,2|8,0:0|0:0,0:0:0:0:
429,37,43580,1,2,0:0:0:0:
429,37,43676,1,2,0:0:0:0:
429,37,43773,6,0,B|449:66|449:66|457:141,1,99.0000030212403
436,239,44170,6,0,P|379:255|304:233,1,121.499996292114,8|0,0:0|0:0,0:0:0:0:
286,217,44549,2,0,P|241:199|181:291,1,161.999995056153,0|8,0:0|0:0,0:0:0:0:
236,349,45125,5,2,0:0:0:0:
236,349,45224,1,2,0:0:0:0:
236,349,45322,2,0,P|281:353|319:342,1,80.9999975280763
402,270,45715,1,8,0:0:0:0:
346,189,45904,2,0,P|301:179|260:185,1,80.9999975280763
179,226,46292,1,0,0:0:0:0:
120,129,46491,2,0,L|124:33,1,80.9999975280763,8|0,0:0|0:0,0:0:0:0:
12,215,46888,5,4,0:0:0:0:
12,215,47083,1,0,0:0:0:0:
77,351,47279,1,0,0:0:0:0:
76,351,47475,1,0,0:0:0:0:
241,231,47671,6,0,L|256:123,1,99.0000030212403,8|0,0:0|0:0,0:0:0:0:
148,156,48051,2,0,L|134:254,1,99.0000030212403,2|0,0:0|0:0,0:0:0:0:
246,341,48432,5,0,0:0:0:0:
337,282,48632,1,0,0:0:0:0:
428,341,48832,2,0,P|442:273|403:197,1,148.50000453186
379,175,49207,5,8,0:0:0:0:
154,189,49394,1,0,0:0:0:0:
337,282,49582,5,8,0:0:0:0:
255,98,49783,1,0,0:0:0:0:
255,98,49884,1,2,0:0:0:0:
255,98,49984,6,0,B|212:82|212:82|139:75,1,107.999996704102,4|0,2:0|0:0,0:0:0:0:
91,261,50374,2,0,P|147:281|202:274,1,107.999996704102,8|0,0:0|0:0,0:0:0:0:
338,161,50765,1,0,0:0:0:0:
154,189,50950,1,0,0:0:0:0:
371,241,51135,1,8,0:0:0:0:
255,98,51326,1,0,0:0:0:0:
91,264,51517,6,0,B|69:235|69:235|63:147,1,107.999996704102,2|0,0:0|0:0,0:0:0:0:
194,18,51899,2,0,P|255:4|308:11,1,107.999996704102,8|0,0:0|0:0,0:0:0:0:
275,191,52286,2,0,P|215:172|172:140,1,107.999996704102
407,147,52673,1,8,0:0:0:0:
326,309,52871,1,0,0:0:0:0:
178,146,53070,6,0,B|147:128|147:128|57:127,1,107.999996704102,2|0,0:0|0:0,0:0:0:0:
40,332,53449,2,0,B|93:302|115:230|115:230|149:278,1,161.999995056153,8|8,0:0|0:0,3:0:0:0:
171,282,53829,2,0,B|263:280|238:207|330:211,1,161.999995056153
356,216,54216,1,8,0:0:0:0:
178,146,54409,1,0,0:0:0:0:
326,309,54603,6,0,B|361:315|361:315|435:294,1,107.999996704102,2|0,0:0|0:0,0:0:0:0:
489,76,54982,1,8,0:0:0:0:
356,216,55176,1,0,0:0:0:0:
411,19,55371,1,0,0:0:0:0:
512,206,55566,1,0,0:0:0:0:
325,41,55761,2,0,P|268:28|209:43,1,107.999996704102,8|0,0:0|0:0,0:0:0:0:
191,61,56053,1,2,0:0:0:0:
191,61,56150,6,0,B|149:74|102:60|102:60|121:93,1,107.999996704102,4|0,2:0|0:0,0:0:0:0:
272,227,56532,2,0,P|281:174|271:121,1,107.999996704102,8|0,0:0|0:0,0:0:0:0:
103,60,56924,1,0,0:0:0:0:
23,225,57120,1,0,0:0:0:0:
191,61,57316,1,8,0:0:0:0:
272,227,57508,1,0,0:0:0:0:
418,65,57700,6,0,B|440:46|440:46|436:132,1,107.999996704102,2|0,0:0|0:0,0:0:0:0:
367,329,58087,2,0,L|357:209,1,107.999996704102,8|0,0:0|0:0,0:0:0:0:
199,87,58474,2,0,L|190:194,1,107.999996704102
50,354,58853,2,0,L|41:246,1,107.999996704102,8|0,0:0|0:0,0:0:0:0:
61,36,59242,6,0,B|96:19|96:19|183:13,1,107.999996704102,2|0,0:0|0:0,0:0:0:0:
343,133,59632,2,0,P|309:142|330:89,1,116.999994644165,8|0,0:0|0:0,0:0:0:0:
204,327,60021,2,0,B|153:255|210:149|210:149|219:183|248:211,1,251.999992309571,0|8,0:0|0:0,0:0:0:0:
396,345,60601,1,0,0:0:0:0:
512,131,60800,6,0,B|467:103|467:103|405:95,1,107.999996704102,4|0,2:0|0:0,0:0:0:0:
210,149,61197,1,8,0:0:0:0:
438,185,61388,1,0,0:0:0:0:
280,85,61579,1,0,0:0:0:0:
402,269,61770,1,0,0:0:0:0:
356,50,61961,1,8,0:0:0:0:
237,248,62158,1,0,0:0:0:0:
237,248,62257,1,2,0:0:0:0:
237,248,62355,6,0,B|207:238|207:238|179:241|179:241|145:233|126:197,1,121.500000463486,4|0,2:0|0:0,0:0:0:0:
35,40,62738,2,0,P|94:43|135:82,1,107.999996704102,8|0,0:0|0:0,0:0:0:0:
54,227,63121,1,0,3:0:0:0:
221,135,63313,1,2,3:0:0:0:
291,303,63505,1,8,3:0:0:0:
453,151,63701,6,0,B|499:103|499:103|478:296,1,249.999992309571,2|0,0:0|0:0,0:0:0:0:
327,178,64281,2,0,P|274:167|208:182,1,107.999996704102,8|0,0:0|0:0,0:0:0:0:
100,283,64666,1,0,0:0:0:0:
281,328,64860,1,0,0:0:0:0:
124,197,65054,2,0,P|121:144|139:78,1,107.999996704102,8|0,0:0|0:0,0:0:0:0:
326,12,65442,5,8,0:0:0:0:
264,201,65639,1,0,0:0:0:0:
264,201,65836,1,0,0:0:0:0:
424,53,66034,5,8,0:0:0:0:
478,283,66227,1,0,0:0:0:0:
478,283,66421,1,0,0:0:0:0:
346,140,66614,5,8,0:0:0:0:
222,290,66800,1,0,0:0:0:0:
163,80,66986,6,0,B|194:50|194:50|228:68|228:68|279:15|346:36,1,198.000006042481,4|8,2:0|0:0,0:0:0:0:
312,120,67576,1,0,0:0:0:0:
312,120,67772,2,0,L|298:219,1,99.0000030212403
414,266,68151,2,0,L|428:167,1,99.0000030212403,8|0,0:0|0:0,0:0:0:0:
362,339,68540,6,0,B|320:358|275:335|275:335|259:352|259:352|209:326|156:353,1,198.000006042481,4|8,2:0|0:0,0:0:0:0:
82,374,69121,1,0,0:0:0:0:
82,374,69312,2,0,P|105:322|106:266,1,99.0000030212403
49,124,69694,1,8,0:0:0:0:
19,289,69885,1,8,0:0:0:0:
19,289,69980,1,8,0:0:0:0:
19,289,70076,6,0,B|68:278|68:278|124:281,1,90,4|0,0:0|0:0,0:0:0:0:
194,332,70471,6,0,P|207:286|191:222,1,108,8|0,0:0|0:0,0:0:0:0:
174,198,70866,2,0,P|168:152|179:110,1,72
226,54,71238,6,0,L|337:51,1,90,8|2,0:0|0:0,0:0:0:0:
353,76,71532,1,2,0:0:0:0:
353,76,71630,6,0,P|362:115|355:158,1,72
313,236,72022,1,8,0:0:0:0:
250,176,72211,2,0,L|156:172,1,72
101,213,72598,1,0,0:0:0:0:
138,306,72795,2,0,L|232:302,1,72,8|2,0:0|0:0,0:0:0:0:
247,320,73091,1,2,0:0:0:0:
247,320,73190,6,0,P|264:288|275:254,1,72
368,215,73579,6,0,P|362:262|369:292,1,72,8|0,0:0|0:0,0:0:0:0:
447,254,73969,2,0,P|453:207|446:177,1,72
402,109,74351,2,0,P|340:96|275:115,1,108,8|0,0:0|0:0,0:0:0:0:
261,122,74733,6,0,B|212:126|212:126|168:118,1,90
76,84,75117,5,8,0:0:0:0:
76,84,75309,1,0,0:0:0:0:
17,147,75502,2,0,L|21:234,1,72
91,290,75886,2,0,L|181:285,1,72,8|2,0:0|0:0,0:0:0:0:
204,274,76188,1,2,0:0:0:0:
204,274,76288,6,0,P|217:223|212:173,1,90
253,92,76680,6,0,P|293:86|340:96,1,72,8|0,0:0|0:0,0:0:0:0:
403,124,77072,2,0,P|363:118|316:128,1,72
391,204,77437,2,0,P|446:197|482:147,1,108,8|0,0:0|0:0,0:0:0:0:
489,116,77825,6,0,L|483:35,1,72
391,3,78213,1,8,0:0:0:0:
342,74,78410,2,0,L|255:74,1,72
190,108,78805,1,0,0:0:0:0:
262,177,79002,2,0,L|255:264,1,72,8|2,0:0|0:0,0:0:0:0:
242,293,79290,1,2,0:0:0:0:
242,293,79386,6,0,P|201:300|157:291,1,72,2|0,0:0|0:0,0:0:0:0:
77,259,79780,6,0,P|65:198|83:145,1,108,8|0,0:0|0:0,0:0:0:0:
106,123,80175,2,0,L|255:113,1,144,0|8,0:0|0:0,0:0:0:0:
327,150,80738,1,2,0:0:0:0:
327,150,80835,1,2,0:0:0:0:
327,150,80933,6,0,L|321:223,1,72
413,262,81323,2,0,L|418:190,1,72,8|0,0:0|0:0,0:0:0:0:
427,104,81713,1,0,0:0:0:0:
344,36,81902,2,0,B|300:34|300:34|252:48,1,72,0|8,0:0|0:0,0:0:0:0:
164,113,82282,1,8,0:0:0:0:
164,113,82372,1,8,0:0:0:0:
164,113,82463,6,0,B|116:114|116:114|68:97,1,90,4|0,0:0|0:0,0:0:0:0:
21,199,82871,6,0,P|69:183|146:235,1,121.499996292114,8|0,0:0|0:0,0:0:0:0:
162,247,83251,2,0,P|246:272|328:217,1,161.999995056153,0|8,0:0|0:0,0:0:0:0:
377,171,83827,5,0,0:0:0:0:
459,223,84023,2,0,P|472:175|463:130,1,80.9999975280763
394,58,84416,1,8,0:0:0:0:
394,58,84612,2,0,B|316:87|310:24|217:69,1,158.999995056153
159,136,85186,1,8,0:0:0:0:
283,159,85382,5,2,0:0:0:0:
283,159,85480,1,2,0:0:0:0:
283,159,85578,1,2,0:0:0:0:
214,56,85774,1,0,0:0:0:0:
130,158,85970,2,8,P|78:167|15:90,1,135,8|8,3:0|3:0,3:0:0:0:
16,72,86370,6,0,B|48:46|48:46|136:39,1,125.999996154785,2|8,3:0|0:0,0:0:0:0:
134,255,87130,6,0,P|87:248|34:266,1,90,2|0,0:0|0:0,0:0:0:0:
113,344,87518,1,8,0:0:0:0:
202,303,87710,2,0,P|212:255|203:207,1,90
132,124,88096,2,0,B|160:139|160:139|237:135,1,90,2|8,3:0|3:0,3:0:0:0:
291,40,88482,1,2,0:0:0:0:
291,40,88579,1,2,0:0:0:0:
291,40,88675,6,0,B|258:24|258:24|186:25,1,99.0000030212403
132,124,89052,6,0,L|123:218,1,80.9999975280763,8|0,0:0|0:0,0:0:0:0:
170,288,89440,2,0,L|348:282,1,161.999995056153,0|8,0:0|0:0,0:0:0:0:
415,240,90022,5,2,0:0:0:0:
415,240,90119,1,2,0:0:0:0:
415,240,90217,2,0,P|425:192|417:153,1,80.9999975280763
354,68,90606,1,8,0:0:0:0:
282,144,90801,2,0,B|202:172|203:98|101:132,1,163.999995056153
32,175,91393,2,0,P|23:118|32:87,1,80.9999975280763,8|0,0:0|0:0,0:0:0:0:
200,267,91790,5,4,0:0:0:0:
200,267,91984,1,0,0:0:0:0:
91,349,92179,2,0,P|35:342|-2:315,1,99.0000030212403
137,200,92569,6,0,B|160:183|160:183|242:183,1,99.0000030212403,8|0,0:0|0:0,0:0:0:0:
68,261,92952,2,0,P|52:201|67:147,1,99.0000030212403,2|0,0:0|0:0,0:0:0:0:
155,65,93335,5,0,0:0:0:0:
230,183,93523,1,0,0:0:0:0:
320,60,93712,2,0,P|372:53|446:61,1,99.0000030212403
503,241,94089,5,8,0:0:0:0:
297,137,94281,1,0,0:0:0:0:
320,317,94474,5,8,0:0:0:0:
485,157,94667,1,0,0:0:0:0:
485,157,94764,1,2,0:0:0:0:
485,157,94860,6,0,B|491:100|491:100|484:35,1,107.999996704102,4|0,2:0|0:0,0:0:0:0:
344,220,95254,2,0,P|284:228|234:208,1,107.999996704102,8|0,0:0|0:0,0:0:0:0:
207,188,95550,1,0,0:0:0:0:
207,188,95649,2,0,P|156:171|103:180,1,107.999996704102
0,368,96033,1,8,0:0:0:0:
71,202,96225,1,0,0:0:0:0:
246,358,96418,6,0,B|277:368|277:368|365:359,1,107.999996704102,2|0,0:0|0:0,0:0:0:0:
461,199,96802,2,0,L|468:85,1,107.999996704102,8|0,0:0|0:0,0:0:0:0:
311,204,97191,1,0,0:0:0:0:
480,313,97383,1,0,0:0:0:0:
369,132,97576,1,8,0:0:0:0:
279,290,97769,1,0,0:0:0:0:
137,114,97962,6,0,B|125:79|137:26|137:26|119:34,1,107.999996704102,4|0,2:0|0:0,0:0:0:0:
0,214,98354,2,0,P|60:199|160:236,1,161.999995056153,8|0,0:0|0:0,0:0:0:0:
175,267,98746,2,0,P|152:310|99:279,1,107.999996704102
243,128,99125,1,8,0:0:0:0:
369,257,99315,1,0,0:0:0:0:
430,57,99505,5,2,0:0:0:0:
285,197,99705,1,0,0:0:0:0:
511,244,99905,1,8,0:0:0:0:
347,117,100097,1,0,0:0:0:0:
228,288,100289,2,0,P|175:299|114:284,1,107.999996704102
241,117,100668,2,0,P|294:106|355:121,1,107.999996704102,8|0,0:0|0:0,0:0:0:0:
147,195,101048,6,0,B|129:143|129:143|133:82,1,107.999996704102,4|0,2:0|0:0,0:0:0:0:
325,15,101448,2,0,L|457:13,1,107.999996704102,8|0,0:0|0:0,0:0:0:0:
510,192,101832,1,0,0:0:0:0:
299,142,102024,1,0,0:0:0:0:
489,66,102217,1,8,0:0:0:0:
366,248,102411,1,0,0:0:0:0:
250,61,102606,6,0,B|218:44|218:44|129:40,1,107.999996704102,2|0,3:0|0:0,0:0:0:0:
0,190,102996,2,0,P|47:155|106:157,1,107.999996704102,8|0,0:0|0:0,0:0:0:0:
235,289,103385,1,0,0:0:0:0:
117,144,103576,1,0,0:0:0:0:
337,157,103767,1,8,0:0:0:0:
156,258,103965,1,0,0:0:0:0:
279,76,104164,6,0,B|335:70|335:70|401:83,1,107.999996704102,4|0,2:0|0:0,0:0:0:0:
504,263,104548,2,0,B|471:274|455:300|455:300|422:306|386:282,1,116.999994644165,8|0,0:0|0:0,0:0:0:0:
237,152,104933,2,0,B|221:182|221:182|229:211|229:211|212:237|212:237|230:283|275:307|319:288|342:238,1,251.999992309571,0|8,0:0|0:0,0:0:0:0:
279,76,105508,1,0,0:0:0:0:
135,231,105699,6,0,B|83:249|46:226|46:226|75:194,1,107.999996704102,4|0,2:0|0:0,0:0:0:0:
201,32,106111,1,8,0:0:0:0:
274,223,106299,1,0,0:0:0:0:
95,122,106488,1,0,0:0:0:0:
111,326,106677,1,0,0:0:0:0:
236,141,106865,2,0,P|299:137|343:169,1,107.999996704102,8|0,0:0|0:0,0:0:0:0:
366,193,107148,1,2,0:0:0:0:
366,193,107243,6,0,B|360:148|360:148|372:126|372:126|366:93|366:93|372:45,1,121.500000463486,4|0,2:0|0:0,0:0:0:0:
422,262,107638,2,0,P|365:278|299:252,1,107.999996704102,8|0,0:0|0:0,0:0:0:0:
210,152,108028,1,0,0:0:0:0:
117,297,108224,2,0,B|164:294|164:294|186:281|186:281|220:279,1,107.999996704102,2|8,0:0|0:0,0:0:0:0:
54,369,108611,6,0,B|3:290|59:222|59:222|43:171|70:122,1,233.999989288331,2|0,0:0|0:0,0:0:0:0:
209,24,109190,2,0,P|284:23|382:126,1,215.999993408203,8|0,0:0|0:0,0:0:0:0:
413,276,109769,1,0,0:0:0:0:
268,156,109963,2,0,P|209:141|149:153,1,107.999996704102,8|0,0:0|0:0,0:0:0:0:
18,299,110350,5,8,0:0:0:0:
208,233,110539,1,0,0:0:0:0:
208,233,110729,1,0,0:0:0:0:
9,155,110919,5,8,0:0:0:0:
171,337,111111,1,0,0:0:0:0:
171,337,111303,1,0,0:0:0:0:
259,139,111495,5,8,0:0:0:0:
384,283,111683,1,0,0:0:0:0:
343,82,111872,6,0,P|249:48|160:99,1,198.000006042481,4|8,2:0|0:0,0:0:0:0:
116,175,112476,1,0,0:0:0:0:
116,175,112677,2,0,P|67:184|18:177,1,99.0000030212403
125,64,113052,1,8,0:0:0:0:
210,222,113249,1,2,0:0:0:0:
210,222,113348,1,2,0:0:0:0:
210,222,113446,6,0,B|260:212|292:168|292:168|289:224|333:265,1,198.000006042481,4|8,2:0|0:0,0:0:0:0:
410,314,114030,1,0,0:0:0:0:
410,314,114220,2,0,P|423:264|421:220,1,90
276,320,114590,1,8,0:0:0:0:
209,134,114791,5,0,0:0:0:0:
209,134,114892,1,2,0:0:0:0:
209,134,114992,6,0,B|164:130|164:130|101:147,1,90,4|0,2:0|0:0,0:0:0:0:
242,221,115395,2,0,P|285:177|266:62,1,180,8|0,0:0|0:0,0:0:0:0:
149,33,115965,1,0,0:0:0:0:
86,163,116159,2,8,L|96:322,1,135,8|0,0:0|0:0,0:0:0:0:
120,334,116546,6,0,P|168:343|216:325,1,90,2|0,0:0|0:0,0:0:0:0:
312,232,116930,2,0,P|407:208|487:242,1,180,8|0,0:0|0:0,0:0:0:0:
395,330,117514,1,0,0:0:0:0:
355,191,117709,2,0,B|355:140|355:140|370:99|370:99|370:44,1,135,8|0,0:0|0:0,0:0:0:0:
339,25,118106,6,0,P|293:12|240:17,1,90,2|0,0:0|0:0,0:0:0:0:
178,139,118485,2,0,P|224:198|274:123,1,180,8|0,0:0|0:0,0:0:0:0:
181,55,119057,1,0,0:0:0:0:
103,175,119249,2,0,P|138:241|212:275,1,135,8|0,0:0|0:0,0:0:0:0:
190,316,119641,6,0,P|144:308|95:316,1,90,2|0,0:0|0:0,0:0:0:0:
6,205,120030,2,0,P|29:102|12:29,1,180,8|0,0:0|0:0,0:0:0:0:
70,142,120612,1,0,0:0:0:0:
186,57,120804,2,0,B|219:45|219:45|240:54|240:54|280:38|322:59,1,135,8|0,0:0|0:0,0:0:0:0:
352,80,121189,6,0,B|366:113|366:113|355:193,1,90,4|0,2:0|0:0,0:0:0:0:
444,282,121586,2,0,L|467:103,1,180,8|0,0:0|0:0,0:0:0:0:
358,166,122162,1,0,0:0:0:0:
277,46,122355,2,0,B|257:16|257:16|246:130,1,135,8|0,0:0|0:0,0:0:0:0:
241,159,122747,6,0,P|191:146|148:154,1,90,2|0,0:0|0:0,0:0:0:0:
129,294,123136,2,0,B|175:273|190:224|190:224|191:275|244:313,1,180,8|0,3:0|3:0,3:0:0:0:
324,375,123718,1,0,0:0:0:0:
409,258,123910,2,0,B|413:197|413:197|408:186|408:186|415:177|415:177|421:102,1,135,8|0,0:0|0:0,0:0:0:0:
391,91,124304,6,0,L|292:76,1,90,2|0,0:0|0:0,0:0:0:0:
172,140,124691,2,0,B|201:167|230:139|230:139|203:80|226:28,1,180,8|0,0:0|0:0,0:0:0:0:
111,78,125266,1,0,0:0:0:0:
138,219,125455,2,0,P|212:232|279:208,1,135,8|0,0:0|0:0,0:0:0:0:
306,183,125837,6,0,P|357:174|422:192,1,99.0000030212403,2|0,0:0|0:0,0:0:0:0:
323,331,126219,2,0,B|290:354|290:354|254:328|254:328|198:362|139:326,1,198.000006042481,8|0,0:0|0:0,0:0:0:0:
48,217,126779,1,0,0:0:0:0:
215,217,126955,1,8,0:0:0:0:
84,288,127159,1,0,0:0:0:0:
64,95,127363,6,0,B|114:69|114:69|179:69,1,112.5,4|0,0:0|0:0,0:0:0:0:
315,171,127760,1,8,0:0:0:0:
427,61,127959,2,0,B|454:43|454:43|451:141,1,112.5
447,280,128356,1,0,0:0:0:0:
315,171,128555,2,0,B|279:171|279:171|244:153|244:153|204:153,1,112.5,8|0,0:0|0:0,0:0:0:0:
75,288,128952,6,0,B|104:305|104:305|194:301,1,112.5,2|0,3:0|3:0,3:0:0:0:
366,280,129329,1,8,0:0:0:0:
225,208,129523,2,0,P|224:143|250:97,1,112.5
390,40,129910,1,0,0:0:0:0:
485,191,130102,2,0,B|485:232|485:232|475:263|475:263|475:301,1,112.5,8|0,3:0|3:0,3:0:0:0:
289,383,130487,6,0,L|289:231,1,112.5,2|0,0:0|0:0,0:0:0:0:
289,90,130876,1,8,0:0:0:0:
164,187,131071,2,0,B|81:187|81:187|104:158,1,112.5
208,50,131454,1,0,0:0:0:0:
366,132,131643,2,0,B|449:132|449:132|426:103,1,112.5,8|0,0:0|0:0,0:0:0:0:
208,50,132030,6,0,B|191:81|191:81|195:172,1,112.5,2|0,0:0|0:0,0:0:0:0:
266,339,132414,1,8,0:0:0:0:
338,187,132606,1,0,0:0:0:0:
164,241,132799,1,0,0:0:0:0:
343,293,132990,1,0,0:0:0:0:
190,157,133181,2,0,P|187:101|208:50,1,112.5,8|0,0:0|0:0,0:0:0:0:
392,121,133563,6,0,B|410:151|410:151|410:238,1,112.5,2|0,0:0|0:0,0:0:0:0:
313,380,133955,1,8,0:0:0:0:
199,269,134151,2,0,L|190:157,1,112.5
94,31,134540,1,0,0:0:0:0:
7,188,134734,2,0,L|16:300,1,112.5,8|0,0:0|0:0,0:0:0:0:
197,358,135121,6,0,B|238:354|238:354|298:297,1,112.5,2|0,0:0|0:0,0:0:0:0:
411,170,135500,1,8,0:0:0:0:
262,69,135700,2,0,B|224:58|224:58|191:73|191:73|126:73,1,112.5
39,181,136092,1,0,0:0:0:0:
202,256,136284,2,0,B|234:227|234:227|234:145,1,112.5,8|0,0:0|0:0,0:0:0:0:
39,181,136669,6,0,B|28:235|28:235|37:309,1,99.0000030212403,2|0,0:0|0:0,0:0:0:0:
138,185,137063,2,0,B|131:141|131:141|107:92,1,99.0000030212403,8|0,0:0|0:0,0:0:0:0:
195,12,137458,2,0,B|201:55|201:55|225:104,1,99.0000030212403
363,125,137833,2,0,B|356:81|356:81|332:32,1,99.0000030212403,8|0,0:0|0:0,0:0:0:0:
256,193,138233,5,2,0:0:0:0:
434,223,138417,1,0,0:0:0:0:
272,96,138601,2,0,P|219:103|177:142,1,99.0000030212403,8|0,0:0|0:0,0:0:0:0:
62,251,138997,1,0,0:0:0:0:
92,77,139189,1,0,0:0:0:0:
256,193,139381,2,0,L|252:307,1,99.0000030212403,8|0,0:0|0:0,0:0:0:0:
487,283,139773,6,0,B|497:232|497:232|490:184,1,90,4|0,0:0|0:0,0:0:0:0:
461,62,140165,1,0,0:0:0:0:
328,139,140557,5,0,0:0:0:0:
300,120,140647,1,0,0:0:0:0:
267,111,140738,1,0,0:0:0:0:
234,112,140829,1,0,0:0:0:0:
202,124,140920,2,0,L|191:187,3,45
181,211,141324,5,2,0:0:0:0:
111,106,141521,1,2,0:0:0:0:
0,231,141718,1,2,0:0:0:0:
196,77,142113,5,0,0:0:0:0:
192,110,142201,1,0,0:0:0:0:
188,144,142289,1,0,0:0:0:0:
185,177,142377,1,0,0:0:0:0:
181,211,142465,2,0,L|174:272,3,45
196,296,142850,5,2,0:0:0:0:
313,226,143042,1,2,0:0:0:0:
431,350,143234,1,2,0:0:0:0:
290,146,143636,5,0,0:0:0:0:
291,126,143726,1,0,0:0:0:0:
295,108,143817,1,0,0:0:0:0:
303,90,143908,1,0,0:0:0:0:
314,74,143999,1,0,0:0:0:0:
327,60,144090,1,0,0:0:0:0:
343,49,144181,1,0,0:0:0:0:
360,40,144272,1,0,0:0:0:0:
383,34,144390,6,0,B|403:65|403:65|418:128,1,90,2|2,0:0|0:0,0:0:0:0:
448,265,144783,1,2,0:0:0:0:
270,157,145196,5,0,0:0:0:0:
252,149,145285,1,0,0:0:0:0:
233,144,145375,1,0,0:0:0:0:
214,142,145465,1,0,0:0:0:0:
195,144,145555,1,0,0:0:0:0:
176,148,145645,1,0,0:0:0:0:
158,156,145734,1,0,0:0:0:0:
142,166,145824,1,0,0:0:0:0:
126,181,145940,6,0,B|128:280,1,90,2|2,0:0|0:0,0:0:0:0:
250,383,146332,1,2,0:0:0:0:
364,204,146735,6,0,L|370:139,3,45
339,127,147103,2,0,L|334:82,3,45
311,42,147495,5,2,0:0:0:0:
241,154,147691,1,2,0:0:0:0:
445,149,147886,1,2,0:0:0:0:
270,246,148291,6,0,L|225:250,3,45
181,267,148654,2,0,L|127:262,3,45
97,242,149047,5,2,0:0:0:0:
190,159,149240,1,2,0:0:0:0:
227,347,149434,1,2,0:0:0:0:
308,168,149848,5,0,3:0:0:0:
324,157,149938,1,0,3:0:0:0:
342,149,150029,1,0,3:0:0:0:
360,144,150120,1,0,3:0:0:0:
380,143,150211,1,0,3:0:0:0:
399,144,150302,1,0,3:0:0:0:
418,149,150393,1,0,3:0:0:0:
435,156,150484,1,0,3:0:0:0:
450,167,150598,6,0,L|441:264,1,90,2|2,0:0|0:0,0:0:0:0:
326,361,150995,1,2,0:0:0:0:
209,200,151392,5,0,3:0:0:0:
178,186,151482,1,0,3:0:0:0:
144,183,151573,1,0,3:0:0:0:
111,189,151664,1,0,3:0:0:0:
82,207,151755,2,0,L|58:244,1,45,0|0,3:0|3:0,3:0:0:0:
47,330,151937,2,0,L|71:292,1,45,2|2,3:0|3:0,3:0:0:0:
146,262,152158,5,4,0:0:0:0:
256,192,152364,12,2,158350,0:0:0:0:
404,79,167649,5,4,0:0:0:0:
323,191,167845,1,0,0:0:0:0:
242,79,168041,2,0,P|164:63|68:97,1,148.50000453186
63,106,168433,6,0,B|44:159|44:159|61:253,1,148.50000453186,8|0,0:0|0:0,0:0:0:0:
72,292,168817,2,0,P|123:304|177:298,1,99.0000030212403,2|0,0:0|0:0,0:0:0:0:
293,239,169203,5,0,0:0:0:0:
398,329,169391,1,0,0:0:0:0:
387,193,169580,2,0,P|337:144|236:151,1,148.50000453186
221,157,169957,5,8,0:0:0:0:
79,0,170155,1,0,0:0:0:0:
71,204,170354,5,8,0:0:0:0:
213,47,170553,1,0,0:0:0:0:
293,239,170751,6,0,B|345:229|345:229|390:195,1,107.999996704102,4|0,2:0|0:0,0:0:0:0:
297,0,171119,1,8,0:0:0:0:
175,151,171315,1,0,0:0:0:0:
175,151,171413,1,0,0:0:0:0:
175,151,171511,2,0,L|64:144,1,107.999996704102
198,287,171903,1,8,0:0:0:0:
303,151,172095,1,0,0:0:0:0:
489,308,172287,6,0,B|507:282|507:282|513:198,1,107.999996704102,2|0,0:0|0:0,0:0:0:0:
380,40,172672,2,0,P|327:23|254:28,1,107.999996704102,8|0,0:0|0:0,0:0:0:0:
129,137,173060,1,0,0:0:0:0:
313,101,173255,1,0,0:0:0:0:
114,42,173450,1,8,0:0:0:0:
149,232,173646,1,0,0:0:0:0:
313,101,173841,6,0,B|345:100|345:100|428:148,1,107.999996704102,2|0,0:0|0:0,0:0:0:0:
445,333,174202,2,0,P|389:315|350:274,1,107.999996704102,8|0,3:0|3:0,3:0:0:0:
327,246,174502,1,0,0:0:0:0:
327,246,174602,2,0,B|312:303|263:320|263:320|266:241|195:207,1,215.999993408203,0|8,0:0|0:0,0:0:0:0:
67,143,175194,1,0,0:0:0:0:
164,305,175386,5,2,0:0:0:0:
144,101,175572,1,0,0:0:0:0:
0,270,175758,1,8,0:0:0:0:
185,178,175952,1,0,0:0:0:0:
301,338,176147,2,0,L|423:342,1,107.999996704102
292,174,176537,2,0,L|170:178,1,107.999996704102,8|0,0:0|0:0,0:0:0:0:
150,197,176833,1,2,0:0:0:0:
150,197,176931,6,0,B|126:245|149:286|149:286|171:262,1,107.999996704102,4|0,2:0|0:0,0:0:0:0:
314,146,177314,2,0,P|370:134|428:152,1,107.999996704102,8|0,0:0|0:0,0:0:0:0:
506,283,177697,1,0,0:0:0:0:
308,231,177891,1,0,0:0:0:0:
509,174,178085,1,8,0:0:0:0:
389,325,178279,1,0,0:0:0:0:
281,147,178473,6,0,B|247:138|247:138|147:137,1,107.999996704102,2|0,0:0|0:0,0:0:0:0:
0,255,178855,2,0,L|116:236,1,107.999996704102,8|0,0:0|0:0,0:0:0:0:
189,62,179244,2,0,L|77:49,1,107.999996704102
223,225,179634,1,8,0:0:0:0:
345,74,179829,1,0,0:0:0:0:
345,74,179926,1,0,0:0:0:0:
345,74,180023,6,0,B|390:62|390:62|468:67,1,107.999996704102,4|0,2:0|0:0,0:0:0:0:
373,234,180400,2,0,B|343:251|316:250|316:250|308:213|332:178,1,116.999994644165,8|0,0:0|0:0,0:0:0:0:
497,354,180805,2,0,B|457:337|457:337|427:357|427:357|400:317|400:317|335:356|274:326,1,251.999992309571,0|8,0:0|0:0,0:0:0:0:
170,180,181368,1,0,0:0:0:0:
19,352,181562,6,0,B|9:308|9:308|16:234,1,107.999996704102,4|0,2:0|0:0,0:0:0:0:
177,79,181949,1,8,0:0:0:0:
287,258,182145,1,0,0:0:0:0:
209,66,182341,1,0,0:0:0:0:
99,245,182532,1,0,0:0:0:0:
284,115,182724,2,0,L|406:108,1,107.999996704102,8|0,0:0|0:0,0:0:0:0:
431,123,183011,1,0,0:0:0:0:
431,123,183107,6,0,B|436:163|436:163|446:186|446:186|440:212|440:212|445:264,1,121.500000463486,4|0,2:0|0:0,0:0:0:0:
314,358,183504,2,0,L|200:351,1,107.999996704102,8|0,0:0|0:0,0:0:0:0:
99,245,183894,1,0,0:0:0:0:
245,135,184090,2,0,B|254:168|254:168|246:194|246:194|248:243,1,107.999996704102,2|8,0:0|0:0,0:0:0:0:
93,355,184481,6,0,B|71:291|98:245|98:245|76:228|76:228|105:188|91:138,1,222,3|0,0:0|0:0,0:0:0:0:
168,302,185055,2,0,B|276:323|243:212|356:208,1,215.999993408203,8|0,0:0|0:0,0:0:0:0:
303,349,185649,1,0,0:0:0:0:
182,223,185839,2,0,P|170:164|180:99,1,107.999996704102,8|0,0:0|0:0,0:0:0:0:
369,21,186228,5,8,3:0:0:0:
454,203,186417,1,0,3:0:0:0:
454,203,186607,1,0,3:0:0:0:
278,84,186797,5,8,0:0:0:0:
209,317,186994,1,0,0:0:0:0:
209,317,187191,1,0,0:0:0:0:
66,158,187389,5,8,0:0:0:0:
108,348,187578,1,0,0:0:0:0:
178,140,187768,6,0,P|260:83|363:123,1,215.999993408203,4|8,2:0|0:0,0:0:0:0:
400,209,188352,1,0,0:0:0:0:
400,209,188547,2,0,L|391:335,1,107.999996704102
512,198,188926,1,8,0:0:0:0:
321,142,189123,1,2,0:0:0:0:
321,142,189222,5,2,0:0:0:0:
321,142,189320,2,0,B|212:147|240:239|133:236,1,215.999993408203,4|8,2:0|0:0,0:0:0:0:
56,177,189902,1,0,3:0:0:0:
56,177,190096,2,0,L|63:63,1,107.999996704102,0|0,3:0|3:0,3:0:0:0:
185,234,190468,1,8,0:0:0:0:
318,62,190655,1,8,0:0:0:0:
318,62,190748,1,8,0:0:0:0:
318,62,190841,5,4,0:0:0:0:
413,268,191037,1,0,0:0:0:0:
167,209,191233,1,0,0:0:0:0:
194,62,192420,5,4,0:0:0:0:
99,268,192618,1,0,0:0:0:0:
345,209,192816,1,0,0:0:0:0:
367,301,193955,6,0,B|376:268|376:268|374:180,1,107.999996704102,2|0,0:0|0:0,0:0:0:0:
235,57,194342,2,0,L|223:180,1,107.999996704102,8|0,0:0|0:0,0:0:0:0:
88,220,194744,2,0,L|77:112,1,107.999996704102
15,297,195126,1,8,0:0:0:0:
162,205,195317,1,0,0:0:0:0:
271,379,195508,6,0,B|311:377|311:377|367:334,1,107.999996704102,2|0,0:0|0:0,0:0:0:0:
417,135,195897,1,8,0:0:0:0:
485,317,196092,1,0,0:0:0:0:
344,182,196287,1,0,0:0:0:0:
250,352,196478,1,0,0:0:0:0:
129,178,196669,2,0,L|128:63,1,107.999996704102,8|0,0:0|0:0,0:0:0:0:
154,48,196955,1,2,0:0:0:0:
154,48,197051,5,4,0:0:0:0:
344,182,197245,1,0,0:0:0:0:
135,271,197440,1,0,0:0:0:0:
358,48,198598,5,4,0:0:0:0:
168,182,198796,1,0,0:0:0:0:
377,271,198995,1,0,0:0:0:0:
301,55,200159,6,0,B|306:91|306:91|295:177,1,107.999996704102,2|0,0:0|0:0,0:0:0:0:
171,310,200547,2,0,L|50:305,1,107.999996704102,8|0,0:0|0:0,0:0:0:0:
230,217,200935,2,0,B|290:256|279:347|279:347|342:279,1,215.999993408203,0|8,0:0|0:0,0:0:0:0:
438,153,201505,1,0,0:0:0:0:
512,359,201699,5,2,0:0:0:0:
422,185,201892,1,0,0:0:0:0:
280,347,202086,1,8,0:0:0:0:
334,160,202282,1,0,0:0:0:0:
419,335,202478,1,0,0:0:0:0:
272,207,202667,1,0,0:0:0:0:
182,382,202857,2,0,P|125:383|82:338,1,107.999996704102,8|0,0:0|0:0,0:0:0:0:
67,317,203142,1,2,0:0:0:0:
67,317,203237,6,0,B|65:266|65:266|82:235|82:235|83:175,1,121.500000463486,4|0,2:0|0:0,0:0:0:0:
160,39,203634,2,0,P|165:94|195:150,1,107.999996704102,8|0,0:0|0:0,0:0:0:0:
302,247,204020,1,0,0:0:0:0:
246,72,204213,1,2,0:0:0:0:
162,219,204406,1,8,0:0:0:0:
336,97,204600,6,0,B|373:67|442:79|444:153|444:153|423:183|439:235,1,227,2|0,0:0|0:0,0:0:0:0:
355,370,205187,2,0,P|347:313|320:259,1,112.5,8|0,0:0|0:0,0:0:0:0:
228,355,205582,1,0,0:0:0:0:
155,254,205774,1,0,0:0:0:0:
23,343,205966,2,0,P|8:284|18:227,1,107.999996704102,8|0,0:0|0:0,0:0:0:0:
112,88,206366,6,0,L|201:79,2,76.5000014591217,8|0|0,0:0|0:0|0:0,0:0:0:0:
286,222,207087,6,0,L|294:151,1,62.9999980773926,8|0,0:0|0:0,0:0:0:0:
306,66,207620,1,0,0:0:0:0:
432,225,207898,5,8,0:0:0:0:
256,192,208595,5,4,0:0:0:0:
256,192,208770,12,0,215921,0:0:0:0:
