osu file format v14

[General]
AudioFilename: audio.mp3
AudioLeadIn: 0
PreviewTime: 170751
Countdown: 1
SampleSet: Soft
StackLeniency: 0.7
Mode: 0
LetterboxInBreaks: 0
WidescreenStoryboard: 1

[Editor]
Bookmarks: 250,12797,25571,40682,44170,46888,49984,70471,85578,89052,91790,94860,114992,127363,139773,152158,158350,167649,190841,193955,197051,200159,206366
DistanceSpacing: 1.2
BeatDivisor: 4
GridSize: 16
TimelineZoom: 1.3

[Metadata]
Title:Marionetki
TitleUnicode:Марионетки
Artist:Korol' i Shut
ArtistUnicode:Король и Шут
Creator:tilk1233
Version:Hard
Source:
Tags:rock russian punk русский панк рок михаил горшенёв продавец кошмаров king and the clown jester киш
BeatmapID:1676227
BeatmapSetID:732950

[Difficulty]
HPDrainRate:5
CircleSize:3.8
OverallDifficulty:7
ApproachRate:8
SliderMultiplier:1.4
SliderTickRate:1

[Events]
//Background and Video events
0,0,"kukla.jpg",0,0
//Break Periods
2,115192,126613
2,158550,166899
//Storyboard Layer 0 (Background)
//Storyboard Layer 1 (Fail)
//Storyboard Layer 2 (Pass)
//Storyboard Layer 3 (Foreground)
//Storyboard Layer 4 (Overlay)
//Storyboard Sound Samples

[TimingPoints]
250,342.857142857142,4,2,3,20,1,0
421,379.746835443038,4,2,3,30,1,0
800,400.667779632721,4,2,3,30,1,0
1200,397.350993377483,4,2,3,30,1,0
1398,387.096774193547,4,2,3,30,1,0
1784,342.857142857142,4,2,3,25,1,0
1994,384.615384615385,4,2,3,30,1,0
2570,-100,4,2,3,20,0,0
2763,375,4,2,3,30,1,0
3325,-100,4,2,2,40,0,0
3513,392.156862745098,4,2,2,30,1,0
3709,-100,4,2,3,35,0,0
4101,-100,4,2,3,30,0,0
4297,382.165605095542,4,2,3,30,1,0
4488,377.358490566038,4,2,3,30,1,0
4865,392.156862745097,4,2,3,20,1,0
5061,394.736842105263,4,2,3,40,1,0
5061,-100,4,2,3,40,0,0
5455,-100,4,2,3,25,0,0
5850,379.746835443038,4,2,3,40,1,0
6039,-100,4,2,3,40,0,0
6229,390.879478827362,4,2,3,40,1,0
6424,-100,4,2,2,40,0,0
7010,-100,4,2,3,35,0,0
7401,342.857142857143,4,2,3,40,1,0
7766,410.958904109589,4,2,3,40,1,0
8176,387.096774193549,4,2,3,40,1,0
8176,-100,4,2,2,40,0,0
8563,-100,4,2,3,30,0,0
9724,372.670807453417,4,2,3,40,1,0
9724,-100,4,2,3,40,0,0
10096,-100,4,2,3,30,0,0
10469,397.350993377483,4,2,3,40,1,0
10667,-100,4,2,3,40,0,0
11065,382.165605095541,4,2,3,40,1,0
11447,-100,4,2,3,25,0,0
12020,377.358490566038,4,3,3,80,1,0
12020,-90.9090909090909,4,3,3,80,0,0
12397,400,4,3,3,80,1,0
12397,-90.9090909090909,4,3,3,80,0,0
12797,392.156862745099,4,3,3,80,1,0
12797,-83.3333333333333,4,3,3,80,0,0
13581,384.615384615386,4,3,3,80,1,0
13581,-83.3333333333333,4,3,3,80,0,0
14734,382.165605095542,4,3,3,80,1,0
14734,-83.3333333333333,4,3,3,80,0,0
15498,389.61038961039,4,3,3,80,1,0
15498,-83.3333333333333,4,3,3,80,0,0
16666,394.08866995074,4,3,3,80,1,0
16666,-83.3333333333333,4,3,3,80,0,0
17454,389.61038961039,4,3,3,80,1,0
17454,-83.3333333333333,4,3,3,80,0,0
18233,368.098159509203,4,3,3,80,1,0
18233,-83.3333333333333,4,3,3,80,0,0
18601,392.156862745098,4,3,3,80,1,0
18601,-83.3333333333333,4,3,3,80,0,0
18993,387.096774193549,4,3,3,80,1,0
18993,-83.3333333333333,4,3,3,80,0,0
20154,394.736842105264,4,3,3,80,1,0
20154,-83.3333333333333,4,3,3,80,0,0
20548,389.61038961039,4,3,3,80,1,0
20548,-83.3333333333333,4,3,3,80,0,0
21327,384.615384615385,4,3,3,80,1,0
21327,-83.3333333333333,4,3,3,80,0,0
22096,392.156862745098,4,3,3,80,1,0
22096,-83.3333333333333,4,3,3,80,0,0
22488,383.386581469648,4,3,3,80,1,0
22488,-83.3333333333333,4,3,3,80,0,0
23638,388.349514563108,4,2,3,85,1,0
23638,-83.3333333333333,4,2,3,85,0,0
23832,-83.3333333333333,4,3,3,85,0,0
24803,363.636363636364,4,3,3,85,1,0
24803,-83.3333333333333,4,3,3,85,0,0
25166,405.405405405406,4,2,2,85,1,0
25166,-100,4,2,2,85,0,0
25368,-100,4,3,3,70,0,0
25976,377.358490566038,4,3,3,70,1,0
26353,400,4,3,3,70,1,0
26753,384.615384615385,4,3,3,70,1,0
27906,402.68456375839,4,3,3,70,1,0
28308,375,4,3,3,70,1,0
29433,397.350993377484,4,3,3,70,1,0
30227,382.165605095542,4,3,3,70,1,0
30991,394.736842105264,4,3,3,70,1,0
31385,387.096774193549,4,3,3,70,1,0
32159,375,4,3,3,70,1,0
32909,402.68456375839,4,3,3,70,1,0
33311,393.44262295082,4,3,3,70,1,0
34491,368.098159509203,4,3,3,70,1,0
34859,402.684563758389,4,3,3,70,1,0
35261,372.670807453416,4,3,3,70,1,0
35633,402.684563758389,4,3,3,70,1,0
36035,377.358490566038,4,3,3,70,1,0
36412,384.615384615385,4,3,3,70,1,0
37181,396.039603960396,4,3,3,70,1,0
37379,379.746835443038,4,3,3,70,1,0
37568,393.44262295082,4,2,2,85,1,0
37568,-100,4,2,2,85,0,0
37764,-100,4,3,3,70,0,0
38354,376.175548589342,4,3,3,70,1,0
38730,394.736842105264,4,3,3,70,1,0
39124,394.736842105264,4,3,3,70,1,0
39913,384.615384615385,4,3,3,70,1,0
40682,392.156862745098,4,3,3,75,1,0
40682,-100,4,3,3,75,0,0
41466,370.370370370371,4,3,3,75,1,0
41836,394.736842105264,4,3,3,75,1,0
42230,385.852090032155,4,3,3,75,1,0
43773,397.350993377484,4,3,3,70,1,0
43773,-100,4,3,3,70,0,0
44170,379.746835443038,4,3,3,70,1,0
44929,393.44262295082,4,3,3,70,1,0
45715,379.746835443038,4,3,3,70,1,0
46094,397.350993377484,4,3,3,70,1,0
46888,391.517128874389,4,2,3,75,1,0
46888,-90.9090909090909,4,2,3,75,0,0
47083,-90.9090909090909,4,3,3,75,0,0
47671,380.952380952381,4,1,2,75,1,0
47671,-90.9090909090909,4,1,2,75,0,0
47861,-90.9090909090909,4,3,3,75,0,0
48432,400,4,3,3,75,1,0
48432,-90.9090909090909,4,3,3,75,0,0
48832,375,4,3,3,75,1,0
48832,-90.9090909090909,4,3,3,75,0,0
49207,-90.9090909090909,4,1,2,75,0,0
49394,-90.9090909090909,4,3,3,75,0,0
49582,402.68456375839,4,1,2,75,1,0
49582,-90.9090909090909,4,1,2,75,0,0
49783,-90.9090909090909,4,3,3,75,0,0
49984,390.879478827362,4,3,3,80,1,1
49984,-83.3333333333333,4,3,3,80,0,1
50765,370.370370370371,4,3,3,80,1,1
51135,382.165605095542,4,3,3,80,1,1
51135,-83.3333333333333,4,3,3,80,0,1
51899,387.096774193549,4,3,3,80,1,1
51899,-83.3333333333333,4,3,3,80,0,1
52673,397.350993377484,4,3,3,80,1,1
52673,-83.3333333333333,4,3,3,80,0,1
53070,379.746835443038,4,3,3,80,1,1
53070,-83.3333333333333,4,3,3,80,0,1
53829,387.096774193549,4,3,3,80,1,1
53829,-83.3333333333333,4,3,3,80,0,1
54603,379.746835443038,4,3,3,80,1,1
54603,-83.3333333333333,4,3,3,80,0,1
54982,389.61038961039,4,3,3,80,1,1
54982,-83.3333333333333,4,3,3,80,0,1
56150,382.165605095542,4,3,3,80,1,1
56150,-83.3333333333333,4,3,3,80,0,1
56532,392.156862745098,4,3,3,80,1,1
56532,-83.3333333333333,4,3,3,80,0,1
57316,384.615384615385,4,3,3,80,1,1
57316,-83.3333333333333,4,3,3,80,0,1
57700,387.096774193549,4,3,3,80,1,1
57700,-83.3333333333333,4,3,3,80,0,1
58474,379.746835443038,4,3,3,80,1,1
58853,389.61038961039,4,3,3,80,1,1
58853,-83.3333333333333,4,3,3,80,0,1
59242,-83.3333333333333,4,3,3,80,0,1
60021,382.165605095542,4,3,3,80,1,1
60021,-83.3333333333333,4,3,3,80,0,1
60403,397.350993377483,4,3,3,80,1,1
60800,-83.3333333333333,4,2,3,85,0,1
60999,-83.3333333333333,4,3,3,85,0,1
61197,382.165605095542,4,3,3,85,1,1
61961,394.736842105264,4,3,3,85,1,1
61961,-83.3333333333333,4,3,3,85,0,1
62355,383.386581469649,4,2,3,80,1,1
62355,-83.3333333333333,4,2,3,80,0,1
62546,-83.3333333333333,4,3,3,80,0,1
63505,392.156862745098,4,3,3,80,1,1
63701,-83.3333333333333,4,3,3,80,0,1
63897,384.615384615385,4,3,3,80,1,1
63897,-83.3333333333333,4,3,3,80,0,1
64666,388.349514563107,4,3,3,80,1,1
64666,-83.3333333333333,4,3,3,80,0,1
65442,394.736842105264,4,3,3,90,1,1
65442,-83.3333333333333,4,3,3,90,0,1
66034,387.096774193549,4,3,3,90,1,1
66034,-83.3333333333333,4,3,3,90,0,1
66614,372.670807453417,4,3,3,90,1,1
66986,393.44262295082,4,3,3,80,1,1
66986,-90.9090909090909,4,3,3,80,0,1
67772,379.746835443038,4,3,3,80,1,1
67772,-90.9090909090909,4,3,3,80,0,1
68151,389.61038961039,4,3,3,80,1,1
68540,-90.9090909090909,4,3,3,80,0,1
68930,382.165605095542,4,3,3,80,1,1
68930,-90.9090909090909,4,3,3,80,0,1
69694,-90.9090909090909,4,3,3,80,0,1
70076,395.387149917629,4,2,2,85,1,0
70076,-100,4,2,2,85,0,0
70273,-100,4,3,3,70,0,0
70866,372.670807453417,4,3,3,70,1,0
71238,392.156862745098,4,3,3,70,1,0
72022,379.746835443038,4,3,3,70,1,0
72401,394.736842105264,4,3,3,70,1,0
73190,389.61038961039,4,3,3,70,1,0
73969,382.165605095542,4,3,3,70,1,0
74733,384.615384615385,4,3,3,70,1,0
75886,402.68456375839,4,3,3,70,1,0
76288,392.156862745098,4,3,3,70,1,0
77072,365.853658536586,4,3,3,70,1,0
77437,388.349514563107,4,3,3,70,1,0
78213,394.736842105264,4,3,3,70,1,0
79002,384.615384615384,4,3,3,70,1,0
79386,394.736842105263,4,3,3,70,1,0
80175,368.098159509202,4,3,3,70,1,0
80543,390.243902439025,4,3,3,70,1,0
81713,379.746835443038,4,3,3,70,1,0
82282,363.636363636364,4,3,3,70,1,0
82463,408.163265306122,4,2,2,70,1,0
82463,-100,4,2,2,70,0,0
82667,-100,4,3,3,70,0,0
82871,380.348652931854,4,3,3,70,1,0
83631,392.798690671031,4,3,3,70,1,0
84809,377.358490566038,4,3,3,70,1,0
85186,392.156862745098,4,3,3,70,1,0
85382,-100,4,3,3,75,0,0
85970,400,4,3,3,75,1,0
86370,372.670807453416,4,3,3,75,1,0
86742,388.349514563107,4,3,3,75,1,0
87518,385.852090032154,4,3,3,75,1,0
88675,377.358490566037,4,3,3,70,1,0
88675,-100,4,3,3,70,0,0
89052,388.349514563106,4,3,3,70,1,0
90217,389.610389610389,4,3,3,70,1,0
90996,397.350993377483,4,3,3,70,1,0
91790,389.610389610389,4,2,3,75,1,0
91790,-90.9090909090909,4,2,3,75,0,0
91984,-90.9090909090909,4,3,3,75,0,0
92569,383.386581469648,4,1,2,75,1,0
92569,-90.9090909090909,4,1,2,75,0,0
92760,-90.9090909090909,4,3,3,75,0,0
93335,377.358490566038,4,3,3,75,1,0
93335,-90.9090909090909,4,3,3,75,0,0
94089,385.852090032154,4,1,2,75,1,0
94089,-90.9090909090909,4,1,2,75,0,0
94281,-90.9090909090909,4,3,3,75,0,0
94474,-90.9090909090909,4,1,2,75,0,0
94667,-90.9090909090909,4,3,3,75,0,0
94860,394.736842105263,4,3,3,80,1,1
94860,-83.3333333333333,4,3,3,80,0,1
95649,384.615384615384,4,3,3,80,1,1
95649,-83.3333333333333,4,3,3,80,0,1
96418,-83.3333333333333,4,3,3,80,0,1
96802,389.610389610389,4,3,3,80,1,1
96802,-83.3333333333333,4,3,3,80,0,1
97191,385.852090032154,4,3,3,80,1,1
97191,-83.3333333333333,4,3,3,80,0,1
97962,392.156862745098,4,3,3,80,1,1
97962,-83.3333333333333,4,3,3,80,0,1
98746,379.746835443038,4,3,3,80,1,1
98746,-83.3333333333333,4,3,3,80,0,1
99505,400,4,3,3,80,1,1
99505,-83.3333333333333,4,3,3,80,0,1
99905,384.615384615384,4,3,3,80,1,1
100289,379.746835443038,4,3,3,80,1,1
100289,-83.3333333333333,4,3,3,80,0,1
101048,400,4,3,3,80,1,1
101048,-83.3333333333333,4,3,3,80,0,1
101448,384.615384615384,4,3,3,80,1,1
101448,-83.3333333333333,4,3,3,80,0,1
102217,389.610389610389,4,3,3,80,1,1
102217,-83.3333333333333,4,3,3,80,0,1
102606,-83.3333333333333,4,3,3,80,0,1
103385,382.165605095541,4,3,3,80,1,1
103767,397.350993377483,4,3,3,80,1,1
103767,-83.3333333333333,4,3,3,80,0,1
104164,384.615384615384,4,3,3,80,1,1
104164,-83.3333333333333,4,3,3,80,0,1
105317,382.165605095541,4,3,3,80,1,1
105699,412.371134020618,4,2,3,85,1,1
105699,-83.3333333333333,4,2,3,85,0,1
105905,-83.3333333333333,4,3,3,85,0,1
106111,377.358490566038,4,3,3,85,1,1
106111,-83.3333333333333,4,3,3,85,0,1
107243,395.387149917628,4,2,3,80,1,1
107243,-83.3333333333333,4,2,3,80,0,1
107440,-83.3333333333333,4,3,3,80,0,1
107638,390.879478827361,4,3,3,80,1,1
107638,-83.3333333333333,4,3,3,80,0,1
108419,385.852090032154,4,3,3,80,1,1
108419,-83.3333333333333,4,3,3,80,0,1
109576,387.096774193548,4,3,3,80,1,1
109576,-83.3333333333333,4,3,3,80,0,1
110350,379.746835443037,4,3,3,90,1,1
110350,-83.3333333333333,4,3,3,90,0,1
110919,384.615384615384,4,3,3,90,1,1
110919,-83.3333333333333,4,3,3,90,0,1
111495,377.358490566038,4,3,3,90,1,1
111872,402.684563758389,4,3,3,80,1,1
111872,-90.9090909090909,4,3,3,80,0,1
112677,375,4,3,3,80,1,1
112677,-90.9090909090909,4,3,3,80,0,1
113052,394.736842105263,4,3,3,80,1,1
113052,-90.9090909090909,4,3,3,80,0,1
113841,379.746835443037,4,3,3,80,1,1
114220,370.37037037037,4,3,3,80,1,1
114590,402.684563758389,4,3,3,80,1,1
114992,-100,4,2,3,80,0,0
115395,377.358490566038,4,3,3,70,1,0
115772,387.096774193548,4,3,3,70,1,0
116546,384.615384615384,4,3,3,70,1,0
116930,389.610389610389,4,3,3,70,1,0
117709,397.350993377483,4,3,3,70,1,0
118106,379.746835443038,4,3,3,70,1,0
118865,384.615384615384,4,3,3,70,1,0
119249,392.156862745098,4,3,3,70,1,0
119641,389.610389610389,4,3,3,70,1,0
120420,384.615384615384,4,3,3,70,1,0
121189,397.350993377483,4,3,3,70,1,0
121586,384.615384615384,4,3,3,70,1,0
122355,392.156862745098,4,3,3,70,1,0
122747,389.610389610389,4,3,3,70,1,0
123526,384.615384615384,4,3,3,70,1,0
123910,394.736842105263,4,3,3,70,1,0
124304,387.096774193548,4,3,3,70,1,0
125078,377.358490566037,4,3,3,70,1,0
125455,382.165605095541,4,3,3,70,1,0
126219,384.615384615384,4,3,3,80,1,0
126603,352.941176470588,4,3,3,80,1,0
126955,408.163265306122,4,3,3,80,1,0
127363,397.350993377483,4,2,3,90,1,0
127363,-80,4,2,3,90,0,0
127561,-80,4,3,3,90,0,0
128952,377.358490566037,4,3,3,90,1,0
128952,-80,4,3,3,90,0,0
129329,389.610389610389,4,3,3,90,1,0
129329,-80,4,3,3,90,0,0
129718,384.615384615384,4,3,3,90,1,0
129718,-80,4,3,3,90,0,0
130487,389.610389610389,4,3,3,90,1,0
130487,-80,4,3,3,90,0,0
131266,377.358490566037,4,3,3,90,1,0
131643,387.096774193548,4,3,3,90,1,0
131643,-80,4,3,3,90,0,0
132030,384.615384615384,4,3,3,90,1,0
132030,-80,4,3,3,90,0,0
132799,382.165605095541,4,3,3,90,1,0
132799,-80,4,3,3,90,0,0
133563,392.156862745098,4,3,3,90,1,0
133563,-80,4,3,3,90,0,0
134347,387.096774193548,4,3,3,90,1,0
134347,-80,4,3,3,90,0,0
135121,379.746835443038,4,3,3,90,1,0
135121,-80,4,3,3,90,0,0
135500,400,4,3,3,90,1,0
135500,-80,4,3,3,90,0,0
135900,384.615384615384,4,3,3,90,1,0
135900,-80,4,3,3,90,0,0
136669,394.736842105262,4,3,3,70,1,0
136669,-90.9090909090909,4,3,3,70,0,0
137458,375,4,3,3,75,1,0
137458,-90.9090909090909,4,3,3,75,0,0
137833,400,4,3,3,75,1,0
137833,-90.9090909090909,4,3,3,75,0,0
138233,368.098159509202,4,3,3,80,1,0
138233,-90.9090909090909,4,3,3,80,0,0
138601,396.694214876033,4,3,3,80,1,0
138601,-90.9090909090909,4,3,3,80,0,0
138997,384.615384615384,4,3,3,85,1,0
138997,-90.9090909090909,4,3,3,85,0,0
139381,392.156862745098,4,3,3,85,1,0
139381,-90.9090909090909,4,3,3,85,0,0
139773,-100,4,2,3,90,0,0
139969,-100,4,3,3,90,0,0
140557,363.636363636363,4,3,3,90,1,0
140557,-100,4,3,3,90,0,0
141324,394.736842105263,4,1,2,90,1,0
141324,-100,4,1,2,90,0,0
142113,352.941176470588,4,3,3,90,1,0
142113,-100,4,3,3,90,0,0
142465,375,4,3,3,90,1,0
142465,-100,4,3,3,90,0,0
142850,384.615384615384,4,1,2,90,1,0
142850,-100,4,1,2,90,0,0
143234,402.684563758389,4,1,2,80,1,0
143636,363.636363636363,4,3,3,90,1,0
143636,-100,4,3,3,90,0,0
144390,392.156862745097,4,1,2,90,1,0
144390,-100,4,1,2,90,0,0
144783,413.793103448275,4,1,2,90,1,0
145196,359.281437125748,4,3,3,90,1,0
145196,-100,4,3,3,90,0,0
145940,392.156862745098,4,1,2,90,1,0
145940,-100,4,1,2,90,0,0
146735,368.098159509201,4,3,3,90,1,0
146735,-100,4,3,3,90,0,0
147495,392.156862745097,4,1,2,90,1,0
147495,-100,4,1,2,90,0,0
147886,405.405405405405,4,1,2,90,1,0
148291,363.636363636364,4,3,3,90,1,0
148291,-100,4,3,3,90,0,0
149047,387.096774193548,4,1,2,90,1,0
149047,-100,4,1,2,90,0,0
149434,413.793103448275,4,1,2,90,1,0
149848,363.636363636364,4,3,3,90,1,0
149848,-100,4,3,3,90,0,0
150598,397.350993377483,4,1,2,90,1,0
150598,-100,4,1,2,90,0,0
151392,363.636363636364,4,3,3,90,1,0
151392,-100,4,3,3,90,0,0
152158,413.793103448275,4,2,3,80,1,0
152158,-200,4,2,3,80,0,0
152364,-200,4,3,3,65,0,0
152571,378.548895899054,4,3,3,65,1,0
153706,389.61038961039,4,3,3,65,1,0
154485,394.736842105263,4,3,3,65,1,0
154879,390.879478827362,4,3,3,65,1,0
155660,375,4,3,3,65,1,0
156035,370.37037037037,4,3,3,65,1,0
156405,399.999999999998,4,3,3,65,1,0
156804,402.684563758389,4,3,3,65,1,0
157206,384.615384615385,4,3,3,65,1,0
157975,375,4,3,3,65,1,0
158350,394.736842105263,4,3,3,65,1,0
159139,387.096774193548,4,3,3,65,1,0
159526,392.156862745098,4,3,3,65,1,0
160310,379.746835443038,4,3,3,65,1,0
160689,382.165605095541,4,3,3,65,1,0
161453,390.879478827361,4,3,3,65,1,0
162625,384.615384615384,4,3,3,65,1,0
163009,379.746835443038,4,3,3,65,1,0
163388,389.610389610389,4,3,3,65,1,0
163777,385.852090032154,4,3,3,65,1,0
164548,384.615384615384,4,3,3,65,1,0
165317,389.610389610389,4,3,3,65,1,0
166096,390.879478827361,4,3,3,65,1,0
166877,372.670807453416,4,3,3,65,1,0
167249,400,4,3,3,65,1,0
167649,392.156862745098,4,2,3,75,1,0
167649,-90.9090909090909,4,2,3,75,0,0
167845,-90.9090909090909,4,3,3,75,0,0
168433,384.615384615385,4,1,2,75,1,0
168433,-90.9090909090909,4,1,2,75,0,0
168625,-90.9090909090909,4,3,3,75,0,0
168817,386.473429951691,4,3,3,75,1,0
168817,-90.9090909090909,4,3,3,75,0,0
169203,377.358490566037,4,3,3,75,1,0
169203,-90.9090909090909,4,3,3,75,0,0
169957,397.350993377483,4,1,2,75,1,0
169957,-90.9090909090909,4,1,2,75,0,0
170155,-90.9090909090909,4,3,3,75,0,0
170354,-90.9090909090909,4,1,2,75,0,0
170553,-90.9090909090909,4,3,3,75,0,0
170751,368.098159509202,4,3,3,80,1,1
170751,-83.3333333333333,4,3,3,80,0,1
171119,392.156862745098,4,3,3,80,1,1
171903,384.615384615384,4,3,3,80,1,1
171903,-83.3333333333333,4,3,3,80,0,1
172672,388.349514563106,4,3,3,80,1,1
172672,-83.3333333333333,4,3,3,80,0,1
173060,390.879478827362,4,3,3,80,1,1
173060,-83.3333333333333,4,3,3,80,0,1
173841,361.44578313253,4,3,3,80,1,1
173841,-83.3333333333333,4,3,3,80,0,1
174202,400,4,3,3,80,1,1
174202,-83.3333333333333,4,3,3,80,0,1
175002,384.615384615384,4,3,3,80,1,1
175002,-83.3333333333333,4,3,3,80,0,1
175386,372.670807453416,4,3,3,80,1,1
175386,-83.3333333333333,4,3,3,80,0,1
175758,389.610389610389,4,3,3,80,1,1
175758,-83.3333333333333,4,3,3,80,0,1
176537,394.736842105263,4,3,3,80,1,1
176537,-83.3333333333333,4,3,3,80,0,1
176931,383.386581469648,4,3,3,80,1,1
176931,-83.3333333333333,4,3,3,80,0,1
177697,388.349514563106,4,3,3,80,1,1
177697,-83.3333333333333,4,3,3,80,0,1
178473,382.165605095541,4,3,3,80,1,1
178473,-83.3333333333333,4,3,3,80,0,1
178855,389.610389610389,4,3,3,80,1,1
178855,-83.3333333333333,4,3,3,80,0,1
180023,377.358490566037,4,3,3,80,1,1
180023,-83.3333333333333,4,3,3,80,0,1
180400,405.405405405405,4,3,3,80,1,1
180400,-83.3333333333333,4,3,3,80,0,1
180805,370.37037037037,4,3,3,80,1,1
180805,-83.3333333333333,4,3,3,80,0,1
181175,387.096774193548,4,3,3,80,1,1
181562,-83.3333333333333,4,2,3,85,0,1
181755,-83.3333333333333,4,3,3,85,0,1
181949,392.156862745097,4,3,3,85,1,1
182341,383.386581469648,4,3,3,85,1,1
182341,-83.3333333333333,4,3,3,85,0,1
183107,397.350993377483,4,2,3,80,1,1
183107,-83.3333333333333,4,2,3,80,0,1
183305,-83.3333333333333,4,3,3,80,0,1
183504,390.879478827361,4,3,3,80,1,1
183504,-83.3333333333333,4,3,3,80,0,1
184676,379.746835443038,4,3,3,80,1,1
184676,-83.3333333333333,4,3,3,80,0,1
185055,405.405405405405,4,3,3,80,1,1
185055,-83.3333333333333,4,3,3,80,0,1
185460,379.746835443038,4,3,3,80,1,1
185839,389.610389610389,4,3,3,80,1,1
185839,-83.3333333333333,4,3,3,80,0,1
186228,379.746835443038,4,3,3,90,1,1
186228,-83.3333333333333,4,3,3,90,0,1
186797,394.736842105263,4,3,3,90,1,1
186797,-83.3333333333333,4,3,3,90,0,1
187389,379.746835443037,4,3,3,90,1,1
187768,389.610389610389,4,3,3,80,1,1
187768,-83.3333333333333,4,3,3,80,0,1
188547,379.746835443038,4,3,3,80,1,1
188547,-83.3333333333333,4,3,3,80,0,1
188926,394.736842105263,4,3,3,80,1,1
188926,-83.3333333333333,4,3,3,80,0,1
189320,388.349514563106,4,3,3,80,1,1
189320,-83.3333333333333,4,3,3,80,0,1
190096,372.670807453416,4,3,3,80,1,1
190096,-83.3333333333333,4,3,3,80,0,1
190841,392.156862745098,4,2,3,85,1,0
190841,-83.3333333333333,4,2,3,85,0,0
191037,-83.3333333333333,4,3,3,80,0,0
191233,383.386581469648,4,3,3,80,1,0
191999,428.571428571428,4,3,3,80,1,0
192420,397.350993377483,4,2,3,85,1,0
192420,-83.3333333333333,4,2,3,85,0,0
192618,-83.3333333333333,4,3,3,80,0,0
192816,365.853658536585,4,3,3,80,1,0
193547,408.163265306122,4,3,3,80,1,0
193955,387.096774193548,4,3,3,80,1,1
193955,-83.3333333333333,4,3,3,80,0,1
194342,402.684563758389,4,3,3,80,1,1
194342,-83.3333333333333,4,3,3,80,0,1
194744,382.165605095541,4,3,3,80,1,1
194744,-83.3333333333333,4,3,3,80,0,1
195508,389.610389610389,4,3,3,80,1,1
195508,-83.3333333333333,4,3,3,80,0,1
196287,382.165605095541,4,3,3,80,1,1
196287,-83.3333333333333,4,3,3,80,0,1
197051,389.610389610389,4,2,3,85,1,0
197051,-83.3333333333333,4,2,3,85,0,0
197245,-83.3333333333333,4,3,3,80,0,0
197440,387.096774193548,4,3,3,80,1,0
198214,384.615384615384,4,3,3,80,1,0
198598,397.350993377483,4,2,3,85,1,0
198598,-83.3333333333333,4,2,3,85,0,0
198796,-83.3333333333333,4,3,3,80,0,0
198995,379.746835443038,4,3,3,80,1,0
199754,405.405405405405,4,3,3,80,1,0
200159,388.349514563106,4,3,3,80,1,1
200159,-83.3333333333333,4,3,3,80,0,1
200935,377.358490566038,4,3,3,80,1,1
200935,-83.3333333333333,4,3,3,80,0,1
201312,387.096774193548,4,3,3,80,1,1
201312,-83.3333333333333,4,3,3,80,0,1
202086,392.156862745098,4,3,3,80,1,1
202478,379.746835443037,4,3,3,80,1,1
202478,-83.3333333333333,4,3,3,80,0,1
203237,397.350993377483,4,2,3,80,1,1
203237,-83.3333333333333,4,2,3,80,0,1
203435,-83.3333333333333,4,3,3,80,0,1
203634,386.47342995169,4,3,3,80,1,1
203634,-83.3333333333333,4,3,3,80,0,1
204793,394.736842105263,4,3,3,80,1,1
204793,-83.3333333333333,4,3,3,80,0,1
205582,384.615384615384,4,3,3,80,1,1
205966,400,4,3,3,80,1,1
205966,-83.3333333333333,4,3,3,80,0,1
206366,465.116279069766,4,3,3,70,1,0
206366,-142.857142857143,4,3,3,70,0,0
206831,512.820512820513,4,3,3,70,1,0
207087,-142.857142857143,4,3,3,70,0,0
207343,555.555555555555,4,3,3,70,1,0
207343,-142.857142857143,4,3,3,70,0,0
207898,697.67441860465,4,3,3,70,1,0
208595,697.67441860465,4,2,3,70,1,0
208595,-100,4,2,3,70,0,0
208770,-100,4,2,3,15,0,0
215921,-100,4,2,3,5,0,0

[Colours]
Combo1 : 213,43,213
Combo2 : 114,226,226
Combo3 : 159,100,219
Combo4 : 48,128,207

[HitObjects]
450,39,250,5,0,0:0:0:0:
450,39,335,1,0,0:0:0:0:
450,39,421,2,0,L|441:130,1,70,2|2,0:0|0:0,0:0:0:0:
397,179,800,1,2,0:0:0:0:
340,117,1000,2,0,P|267:99|194:118,1,139,2|0,0:0|0:0,0:0:0:0:
66,209,1785,5,2,0:0:0:0:
66,209,1994,2,0,L|71:278,1,70,2|2,0:0|0:0,0:0:0:0:
133,335,2378,1,2,0:0:0:0:
156,254,2570,2,0,L|145:106,1,138,2|0,0:0|0:0,0:0:0:0:
291,197,3325,5,2,0:0:0:0:
291,197,3419,1,2,0:0:0:0:
291,197,3513,2,0,L|296:266,1,70,2|2,0:0|0:0,0:0:0:0:
305,350,3905,1,2,0:0:0:0:
376,306,4101,2,0,B|424:293|466:320|466:320|476:289|463:254,1,138,2|0,0:0|0:0,0:0:0:0:
466,26,5061,6,0,P|411:45|317:10,1,140,2|0,0:0|0:0,0:0:0:0:
271,80,5653,1,0,0:0:0:0:
271,80,5751,1,0,0:0:0:0:
271,80,5850,1,2,0:0:0:0:
316,151,6039,1,2,0:0:0:0:
154,275,6424,5,2,0:0:0:0:
154,275,6522,1,2,0:0:0:0:
154,275,6619,2,0,B|96:306|69:247|-5:299,2,140,2|2|0,0:0|0:0|0:0,0:0:0:0:
223,227,7572,1,2,0:0:0:0:
287,172,7766,1,2,0:0:0:0:
351,117,7971,1,2,0:0:0:0:
412,207,8176,6,0,L|402:359,1,140,2|0,0:0|0:0,0:0:0:0:
223,227,8950,1,0,0:0:0:0:
223,227,9143,2,0,B|239:274|226:329|226:329|189:315,1,140
130,271,9724,6,0,L|135:111,2,140,2|0|0,0:0|0:0|0:0,0:0:0:0:
78,344,10667,1,2,0:0:0:0:
36,199,11065,2,0,L|49:49,1,140,2|0,0:0|0:0,0:0:0:0:
118,15,11638,2,0,P|155:7|201:12,1,70
257,56,12020,6,0,L|167:68,1,77.0000023498536,8|0,0:0|0:0,0:0:0:0:
183,158,12397,2,0,L|259:147,1,77.0000023498536,8|2,0:0|0:0,0:0:0:0:
305,159,12697,1,2,0:0:0:0:
305,159,12797,6,0,L|297:253,1,83.9999974365235,4|0,2:0|0:0,0:0:0:0:
250,322,13189,1,8,0:0:0:0:
187,253,13385,2,0,P|143:244|97:253,1,83.9999974365235
26,299,13773,1,0,0:0:0:0:
1,210,13965,2,0,L|3:115,1,83.9999974365235,8|0,0:0|0:0,0:0:0:0:
38,40,14350,6,0,B|67:24|67:24|137:24,1,83.9999974365235,2|0,0:0|0:0,0:0:0:0:
210,25,14734,1,8,0:0:0:0:
163,104,14925,1,0,0:0:0:0:
235,162,15116,2,0,L|322:162,1,83.9999974365235
401,119,15498,2,0,L|317:119,1,83.9999974365235,8|0,0:0|0:0,0:0:0:0:
469,72,15887,6,0,P|483:121|472:168,1,83.9999974365235,4|0,2:0|0:0,0:0:0:0:
421,225,16277,2,0,L|337:225,1,83.9999974365235,8|0,0:0|0:0,0:0:0:0:
244,225,16666,1,0,0:0:0:0:
288,144,16863,1,0,0:0:0:0:
337,225,17060,2,0,L|336:329,1,83.9999974365235,8|0,0:0|0:0,0:0:0:0:
274,378,17454,6,0,B|229:378|229:378|174:357,1,83.9999974365235,4|0,0:0|0:0,0:0:0:0:
113,316,17843,1,8,0:0:0:0:
187,261,18038,1,0,0:0:0:0:
113,206,18233,2,0,P|104:158|112:117,1,83.9999974365235
192,81,18601,2,0,P|197:122|188:163,1,83.9999974365235,8|0,0:0|0:0,0:0:0:0:
123,41,18993,6,0,L|228:34,1,83.9999974365235,4|0,2:0|0:0,0:0:0:0:
299,29,19380,1,8,0:0:0:0:
345,108,19573,2,0,B|337:207,1,83.9999974365235
329,283,19960,1,0,0:0:0:0:
408,236,20154,2,0,P|452:229|497:240,1,83.9999974365235,8|0,0:0|0:0,0:0:0:0:
490,329,20548,6,0,P|448:336|407:327,1,83.9999974365235,2|0,0:0|0:0,0:0:0:0:
329,283,20937,1,8,0:0:0:0:
329,283,21132,1,0,0:0:0:0:
247,326,21327,2,0,B|228:293|228:293|228:231,1,83.9999974365235
144,206,21711,2,0,B|144:251|144:251|125:284,1,83.9999974365235,8|0,0:0|0:0,0:0:0:0:
31,211,22096,6,0,L|31:123,1,83.9999974365235,4|0,2:0|0:0,0:0:0:0:
68,42,22488,1,8,0:0:0:0:
133,107,22679,2,0,P|183:116|224:103,1,83.9999974365235
279,42,23063,1,0,0:0:0:0:
345,105,23254,2,0,L|338:202,1,83.9999974365235,8|0,0:0|0:0,0:0:0:0:
289,291,23638,6,0,L|192:293,1,83.9999974365235,4|0,0:0|0:0,0:0:0:0:
112,302,24026,1,8,0:0:0:0:
167,375,24220,1,0,0:0:0:0:
205,292,24414,1,0,0:0:0:0:
150,219,24608,1,0,0:0:0:0:
205,146,24803,2,0,L|288:144,1,83.9999974365235,8|8,0:0|0:0,0:0:0:0:
333,157,25075,1,8,0:0:0:0:
333,157,25166,6,0,L|328:244,1,70,4|0,0:0|0:0,0:0:0:0:
384,285,25571,6,0,P|450:282|455:213,1,140,8|0,3:0|3:0,3:0:0:0:
339,115,26353,1,8,0:0:0:0:
213,234,26753,2,0,B|143:240|154:183|78:183,1,140,0|8,0:0|0:0,0:0:0:0:
20,334,27522,6,0,P|62:327|100:333,1,70
164,367,27906,1,8,0:0:0:0:
234,322,28107,2,0,L|239:280,2,35,2|2|0,0:0|0:0|0:0,0:0:0:0:
321,178,28683,6,0,P|252:153|167:171,2,140,8|0|8,0:0|0:0|0:0,0:0:0:0:
165,239,29830,2,0,L|179:83,1,140,0|8,0:0|0:0,0:0:0:0:
232,35,30418,5,2,0:0:0:0:
232,35,30513,1,2,0:0:0:0:
232,35,30609,2,0,P|272:30|303:35,1,70
343,107,30991,2,0,P|377:111|412:106,1,70,8|0,0:0|0:0,0:0:0:0:
481,58,31385,6,0,B|491:99|491:99|489:140,1,70
455,203,31772,6,0,P|415:195|378:199,1,70,8|0,0:0|0:0,0:0:0:0:
325,260,32159,2,0,P|375:246|446:297,1,140,0|8,0:0|0:0,0:0:0:0:
280,267,32909,6,0,L|274:181,1,70
218,134,33311,1,8,0:0:0:0:
150,184,33507,1,2,0:0:0:0:
150,184,33606,1,2,0:0:0:0:
150,184,33704,2,0,P|111:193|76:188,1,70
11,142,34097,2,0,L|15:54,1,70,8|0,0:0|0:0,0:0:0:0:
119,42,34491,6,0,L|115:111,1,70
150,184,34859,6,0,L|231:182,1,70,8|0,0:0|0:0,0:0:0:0:
284,118,35261,2,0,P|356:102|428:135,1,140,0|8,0:0|0:0,0:0:0:0:
434,302,36035,2,0,B|358:307|371:259|293:267,1,140,0|8,0:0|0:0,0:0:0:0:
236,311,36604,5,2,0:0:0:0:
236,311,36700,1,2,0:0:0:0:
236,311,36796,2,0,L|159:304,1,70
133,227,37181,2,0,L|202:220,1,70,8|8,0:0|0:0,0:0:0:0:
233,192,37473,1,8,0:0:0:0:
233,192,37568,6,0,B|246:149|246:149|240:100,1,70,4|0,0:0|0:0,0:0:0:0:
193,55,37961,6,0,P|153:48|120:51,1,70,8|0,0:0|0:0,0:0:0:0:
54,97,38354,2,0,L|62:257,1,140,0|8,0:0|0:0,0:0:0:0:
211,311,39124,6,0,L|219:213,2,70,0|0|8,0:0|0:0|0:0,0:0:0:0:
273,367,39716,2,0,P|347:382|409:356,1,138
462,297,40297,2,0,L|470:199,1,70,8|0,0:0|0:0,0:0:0:0:
408,140,40682,6,0,B|399:103|399:103|406:71,1,70,2|0,0:0|0:0,0:0:0:0:
321,133,41074,2,0,B|328:164|328:164|319:201,1,70,8|0,0:0|0:0,0:0:0:0:
240,270,41466,2,0,B|188:252|188:252|143:268|143:268|86:250,1,140,2|8,0:0|0:0,0:0:0:0:
17,67,42230,6,0,P|56:58|110:70,1,70,2|0,0:0|0:0,0:0:0:0:
183,99,42615,1,8,0:0:0:0:
117,181,42808,2,0,P|189:204|269:162,1,140,0|2,0:0|0:0,0:0:0:0:
328,116,43387,2,0,P|367:111|421:125,1,70,8|2,0:0|0:0,0:0:0:0:
435,132,43676,1,2,0:0:0:0:
435,132,43773,6,0,L|424:221,1,70
389,277,44170,6,0,P|340:268|302:278,1,70,8|0,0:0|0:0,0:0:0:0:
257,326,44549,2,0,P|270:240|245:171,1,140,0|8,0:0|0:0,0:0:0:0:
86,118,45322,6,0,P|81:77|87:39,2,70,0|0|8,0:0|0:0|0:0,0:0:0:0:
119,195,45904,2,0,P|195:179|277:200,1,143
320,242,46491,2,0,P|323:276|318:311,1,70,8|0,0:0|0:0,0:0:0:0:
445,275,46888,5,4,0:0:0:0:
445,275,47083,1,0,0:0:0:0:
470,186,47279,1,0,0:0:0:0:
470,186,47475,1,0,0:0:0:0:
428,72,47671,6,0,L|322:63,1,77.0000023498536,8|0,0:0|0:0,0:0:0:0:
274,117,48051,2,0,L|350:110,1,77.0000023498536,2|0,0:0|0:0,0:0:0:0:
315,195,48432,5,0,0:0:0:0:
224,212,48632,1,0,0:0:0:0:
177,132,48832,2,0,P|134:123|84:135,1,77.0000023498536
6,196,49207,6,0,B|0:239|0:239|1:281,1,77.0000023498536,8|0,0:0|0:0,0:0:0:0:
99,317,49582,6,0,B|99:283|99:283|93:240,1,77.0000023498536,8|0,0:0|0:0,0:0:0:0:
118,205,49884,1,2,0:0:0:0:
118,205,49984,6,0,P|162:194|206:203,1,83.9999974365235,4|0,2:0|0:0,0:0:0:0:
255,274,50374,2,0,P|296:280|336:269,1,83.9999974365235,8|0,0:0|0:0,0:0:0:0:
413,217,50765,1,0,0:0:0:0:
413,217,50950,1,0,0:0:0:0:
355,145,51135,2,0,L|351:56,1,83.9999974365235,8|0,0:0|0:0,0:0:0:0:
443,46,51517,6,0,L|439:129,1,83.9999974365235,2|0,0:0|0:0,0:0:0:0:
413,217,51899,2,0,P|369:233|317:227,1,83.9999974365235,8|0,0:0|0:0,0:0:0:0:
259,174,52286,1,0,0:0:0:0:
187,231,52479,1,0,0:0:0:0:
115,174,52673,2,0,L|112:69,1,83.9999974365235,8|0,0:0|0:0,0:0:0:0:
26,128,53070,6,0,L|28:211,1,83.9999974365235,2|0,0:0|0:0,0:0:0:0:
92,277,53449,2,0,P|146:283|193:267,1,83.9999974365235,8|0,0:0|0:0,0:0:0:0:
257,247,53829,2,0,B|171:249|200:174|110:173,1,167.999994873047,0|8,0:0|0:0,0:0:0:0:
28,211,54409,1,0,0:0:0:0:
76,106,54603,6,0,B|106:93|106:93|176:90,1,83.9999974365235,2|0,0:0|0:0,0:0:0:0:
242,119,54982,1,8,0:0:0:0:
307,185,55176,1,0,0:0:0:0:
242,250,55371,1,0,0:0:0:0:
177,185,55566,1,0,0:0:0:0:
242,119,55761,2,0,P|281:99|324:96,1,83.9999974365235,8|0,0:0|0:0,0:0:0:0:
443,157,56150,6,0,L|433:251,1,83.9999974365235,4|0,2:0|0:0,0:0:0:0:
379,315,56532,2,0,L|271:312,1,83.9999974365235,8|0,0:0|0:0,0:0:0:0:
202,312,56924,1,0,0:0:0:0:
202,312,57120,1,0,0:0:0:0:
149,235,57316,2,0,L|157:151,1,83.9999974365235,8|0,0:0|0:0,0:0:0:0:
203,70,57700,6,0,B|231:55|231:55|296:55,1,83.9999974365235,2|0,0:0|0:0,0:0:0:0:
357,110,58087,2,0,L|350:202,1,83.9999974365235,8|0,0:0|0:0,0:0:0:0:
344,286,58474,1,0,0:0:0:0:
436,294,58663,1,0,0:0:0:0:
442,202,58853,2,0,L|448:118,1,83.9999974365235,8|0,0:0|0:0,0:0:0:0:
496,39,59242,6,0,P|450:27|400:36,1,83.9999974365235,2|0,0:0|0:0,0:0:0:0:
336,81,59632,2,0,L|326:187,1,83.9999974365235,8|0,0:0|0:0,0:0:0:0:
271,237,60021,2,0,B|233:257|233:257|206:236|206:236|163:258|112:233,1,167.999994873047,0|8,0:0|0:0,0:0:0:0:
38,190,60601,1,0,0:0:0:0:
91,70,60800,6,0,P|133:56|179:61,1,83.9999974365235,4|0,0:0|0:0,0:0:0:0:
257,95,61197,1,8,0:0:0:0:
218,178,61388,1,0,0:0:0:0:
308,160,61579,1,0,0:0:0:0:
332,249,61770,1,0,0:0:0:0:
390,177,61961,2,0,P|388:134|351:84,1,83.9999974365235,8|0,0:0|0:0,0:0:0:0:
343,66,62257,1,2,0:0:0:0:
343,66,62355,6,0,L|444:60,1,83.9999974365235,4|0,0:0|0:0,0:0:0:0:
510,100,62738,2,0,L|493:282,1,167.999994873047,8|0,0:0|0:0,0:0:0:0:
440,347,63313,2,0,B|412:346|412:346|386:353|386:353|353:349,1,83.9999974365235,2|8,0:0|0:0,0:0:0:0:
263,302,63701,6,0,B|247:266|261:231|261:231|250:207|250:207|272:161|256:118,1,166.999994873047,2|0,0:0|0:0,0:0:0:0:
224,55,64281,2,0,P|178:44|135:51,1,83.9999974365235,8|0,0:0|0:0,0:0:0:0:
71,108,64666,1,0,0:0:0:0:
71,108,64860,1,0,0:0:0:0:
151,153,65054,2,0,L|139:267,1,83.9999974365235,8|0,0:0|0:0,0:0:0:0:
233,345,65442,5,8,0:0:0:0:
233,345,65639,2,0,P|276:348|317:341,1,83.9999974365235
429,260,66034,6,0,P|378:267|263:219,1,167.999994873047,8|0,0:0|0:0,0:0:0:0:
192,142,66614,5,8,0:0:0:0:
123,235,66800,1,0,0:0:0:0:
13,137,66986,6,0,P|57:86|143:82,1,154.000004699707,4|8,2:0|0:0,0:0:0:0:
123,235,67772,2,0,P|78:236|45:220,1,77.0000023498536
102,157,68151,1,8,0:0:0:0:
252,228,68540,6,0,B|251:118|251:118|288:155,1,154.000004699707,4|8,2:0|0:0,0:0:0:0:
259,319,69312,2,0,P|297:315|346:327,1,77.0000023498536
399,278,69694,2,8,L|409:186,1,77.0000023498536
391,161,69980,1,8,0:0:0:0:
391,161,70076,6,0,B|352:151|352:151|303:153,1,70,4|0,0:0|0:0,0:0:0:0:
239,166,70471,6,0,P|210:111|248:40,1,140,8|0,0:0|0:0,0:0:0:0:
135,176,71238,2,0,P|151:210|150:251,1,70,8|2,0:0|0:0,0:0:0:0:
144,283,71532,1,2,0:0:0:0:
144,283,71630,6,0,P|182:276|216:281,1,70
284,324,72022,2,0,P|318:327|352:321,1,70,8|0,0:0|0:0,0:0:0:0:
422,273,72401,1,0,0:0:0:0:
362,213,72598,1,0,0:0:0:0:
422,153,72795,2,0,L|426:78,1,70,8|2,0:0|0:0,0:0:0:0:
414,42,73091,1,2,0:0:0:0:
414,42,73190,6,0,L|319:33,1,70
268,71,73579,6,0,L|253:214,1,140,8|0,0:0|0:0,0:0:0:0:
103,286,74351,2,0,L|111:208,1,70,8|2,0:0|0:0,0:0:0:0:
94,176,74637,1,2,0:0:0:0:
94,176,74733,6,0,L|86:98,1,70
40,36,75117,2,0,P|82:24|115:27,1,70,8|0,0:0|0:0,0:0:0:0:
181,66,75502,2,0,L|188:135,1,70
247,195,75886,1,8,0:0:0:0:
302,132,76087,1,2,0:0:0:0:
302,132,76188,1,2,0:0:0:0:
302,132,76288,6,0,P|340:126|375:131,1,70
424,194,76680,6,0,P|450:136|409:56,1,140,8|0,0:0|0:0,0:0:0:0:
342,215,77437,2,0,P|368:258|402:278,1,70,8|2,0:0|0:0,0:0:0:0:
401,307,77728,1,2,0:0:0:0:
401,307,77825,6,0,P|359:302|325:306,1,70
259,348,78213,2,0,P|224:350|189:345,1,70,8|0,0:0|0:0,0:0:0:0:
114,308,78607,1,0,0:0:0:0:
176,251,78805,1,0,0:0:0:0:
114,194,79002,1,8,0:0:0:0:
176,137,79194,5,2,0:0:0:0:
176,137,79290,1,2,0:0:0:0:
176,137,79386,2,0,P|216:131|249:136,1,70
312,170,79780,6,0,P|299:128|299:90,1,70,8|0,0:0|0:0,0:0:0:0:
349,37,80175,2,0,P|405:51|370:122,1,140,0|8,0:0|0:0,0:0:0:0:
332,260,80933,6,0,L|411:258,1,70
482,235,81323,2,0,L|491:147,1,70,8|0,0:0|0:0,0:0:0:0:
421,115,81713,1,0,0:0:0:0:
495,77,81902,1,0,0:0:0:0:
423,33,82092,2,0,L|334:29,1,70,8|8,0:0|0:0,0:0:0:0:
313,42,82372,1,8,0:0:0:0:
313,42,82463,6,0,B|304:85|304:85|311:122,1,70,4|0,0:0|0:0,0:0:0:0:
363,174,82871,6,0,P|320:163|278:166,1,70,8|0,0:0|0:0,0:0:0:0:
317,244,83251,2,0,P|395:252|444:198,1,140,0|8,0:0|0:0,0:0:0:0:
332,341,84023,6,0,P|367:337|416:348,2,70,0|0|8,3:0|3:0|3:0,3:0:0:0:
254,378,84612,2,0,B|183:396|190:315|101:343,1,137
45,363,85186,1,8,0:0:0:0:
70,282,85382,5,2,0:0:0:0:
70,282,85480,1,2,0:0:0:0:
70,282,85578,2,0,L|77:197,1,70,2|0,0:0|0:0,0:0:0:0:
169,165,85970,2,0,L|163:234,1,70,8|0,0:0|0:0,0:0:0:0:
102,117,86370,2,0,P|173:87|242:122,1,140,2|8,0:0|0:0,0:0:0:0:
410,212,87130,6,0,L|415:137,1,70,2|0,0:0|0:0,0:0:0:0:
422,36,87518,1,8,0:0:0:0:
507,96,87710,2,0,L|498:244,1,140,0|2,0:0|0:0,0:0:0:0:
436,320,88289,2,0,L|358:314,1,70,8|2,0:0|0:0,0:0:0:0:
333,340,88579,1,2,0:0:0:0:
333,340,88675,6,0,P|340:296|337:264,1,70
281,209,89052,6,0,L|202:198,1,70,8|0,0:0|0:0,0:0:0:0:
158,264,89440,2,0,L|171:101,1,140,0|8,0:0|0:0,0:0:0:0:
4,89,90217,6,0,L|9:19,2,70,0|0|8,0:0|0:0|0:0,0:0:0:0:
46,161,90801,2,0,B|77:180|121:157|121:157|159:138|196:157,1,141
235,214,91393,2,0,L|240:284,1,70,8|0,0:0|0:0,0:0:0:0:
330,381,91790,5,4,0:0:0:0:
382,305,91984,1,0,0:0:0:0:
330,229,92179,2,0,P|327:178|339:142,1,77.0000023498536
403,71,92569,6,0,L|481:68,1,77.0000023498536,8|0,0:0|0:0,0:0:0:0:
410,156,92952,2,0,L|332:153,1,77.0000023498536,2|0,0:0|0:0,0:0:0:0:
240,151,93335,5,0,0:0:0:0:
165,205,93523,1,0,0:0:0:0:
84,160,93712,2,0,P|75:122|79:78,1,77.0000023498536
167,10,94089,6,0,B|204:2|204:2|251:8,1,77.0000023498536,8|0,0:0|0:0,0:0:0:0:
310,101,94474,6,0,B|273:109|273:109|226:103,1,77.0000023498536,8|0,0:0|0:0,0:0:0:0:
191,122,94764,1,2,0:0:0:0:
191,122,94860,6,0,P|181:172|194:215,1,83.9999974365235,4|0,2:0|0:0,0:0:0:0:
234,283,95254,1,8,0:0:0:0:
273,199,95452,1,0,0:0:0:0:
327,274,95649,1,0,0:0:0:0:
372,194,95841,1,0,0:0:0:0:
424,270,96033,2,0,L|418:375,1,83.9999974365235,8|0,0:0|0:0,0:0:0:0:
504,318,96418,6,0,B|506:275|506:275|499:232,1,83.9999974365235,2|0,0:0|0:0,0:0:0:0:
463,149,96802,2,0,L|353:132,1,83.9999974365235,8|0,0:0|0:0,0:0:0:0:
288,120,97191,1,0,0:0:0:0:
288,120,97383,1,0,0:0:0:0:
215,176,97576,2,0,L|207:277,1,83.9999974365235,8|0,0:0|0:0,0:0:0:0:
111,354,97962,6,0,B|74:364|74:364|20:351,1,83.9999974365235,4|0,2:0|0:0,0:0:0:0:
2,265,98354,2,0,L|7:178,1,83.9999974365235,8|0,0:0|0:0,0:0:0:0:
54,98,98746,2,0,P|95:87|152:95,1,83.9999974365235
190,164,99125,2,0,P|149:175|92:167,1,83.9999974365235,8|0,0:0|0:0,0:0:0:0:
81,276,99505,6,0,B|124:271|124:271|172:283,1,83.9999974365235,2|0,0:0|0:0,0:0:0:0:
245,324,99905,1,8,0:0:0:0:
293,245,100097,1,0,0:0:0:0:
222,185,100289,2,0,L|216:74,1,83.9999974365235
262,20,100668,2,0,L|257:103,1,83.9999974365235,8|0,0:0|0:0,0:0:0:0:
329,220,101048,6,0,B|362:231|362:231|423:221,1,83.9999974365235,4|0,2:0|0:0,0:0:0:0:
487,170,101448,2,0,P|497:123|490:78,1,83.9999974365235,8|0,0:0|0:0,0:0:0:0:
419,31,101832,1,0,0:0:0:0:
358,101,102024,1,0,0:0:0:0:
279,53,102217,2,0,L|186:54,1,83.9999974365235,8|0,0:0|0:0,0:0:0:0:
111,94,102606,6,0,B|102:124|102:124|111:187,1,83.9999974365235,2|0,0:0|0:0,0:0:0:0:
137,264,102996,1,8,0:0:0:0:
137,264,103191,1,0,0:0:0:0:
203,199,103385,1,0,0:0:0:0:
252,276,103576,1,0,0:0:0:0:
322,215,103767,2,0,L|331:111,1,83.9999974365235,8|0,0:0|0:0,0:0:0:0:
436,199,104164,6,0,L|428:282,1,83.9999974365235,4|0,2:0|0:0,0:0:0:0:
375,358,104548,2,0,P|329:365|276:347,1,83.9999974365235,8|0,0:0|0:0,0:0:0:0:
225,293,104933,2,0,P|158:260|49:298,1,167.999994873047,0|8,0:0|0:0,0:0:0:0:
137,343,105508,1,0,0:0:0:0:
202,223,105699,6,0,L|206:134,1,83.9999974365235,4|0,0:0|0:0,0:0:0:0:
255,61,106111,1,8,0:0:0:0:
312,133,106299,1,0,0:0:0:0:
290,43,106488,1,0,0:0:0:0:
347,115,106677,1,0,0:0:0:0:
374,26,106865,2,0,P|421:16|468:23,1,83.9999974365235,8|0,0:0|0:0,0:0:0:0:
497,41,107148,1,2,0:0:0:0:
497,41,107243,6,0,L|490:134,1,83.9999974365235,4|0,0:0|0:0,0:0:0:0:
443,204,107638,2,0,P|396:213|346:196,1,83.9999974365235,8|0,0:0|0:0,0:0:0:0:
278,163,108028,1,0,0:0:0:0:
221,236,108224,2,0,B|198:254|198:254|138:254,1,83.9999974365235,2|8,0:0|0:0,0:0:0:0:
43,213,108611,6,0,B|30:166|30:166|47:137|47:137|23:93|49:37,1,167.999994873047,2|0,0:0|0:0,0:0:0:0:
134,47,109190,2,0,P|141:96|131:140,1,83.9999974365235,8|0,0:0|0:0,0:0:0:0:
157,219,109576,1,0,0:0:0:0:
228,160,109769,1,0,0:0:0:0:
275,239,109963,2,0,P|321:248|371:232,1,83.9999974365235,8|0,0:0|0:0,0:0:0:0:
441,148,110350,5,8,0:0:0:0:
441,148,110539,2,0,L|448:45,1,83.9999974365235
328,0,110919,6,0,L|314:180,1,167.999994873047,8|0,0:0|0:0,0:0:0:0:
304,283,111495,5,8,0:0:0:0:
211,215,111683,1,0,0:0:0:0:
103,306,111872,6,0,P|57:273|118:209,1,154.000004699707,4|8,2:0|0:0,0:0:0:0:
215,335,112677,2,0,P|257:340|296:334,1,77.0000023498536
363,290,113052,2,0,L|374:204,1,77.0000023498536,8|2,0:0|0:0,0:0:0:0:
366,171,113348,1,2,0:0:0:0:
366,171,113446,6,0,P|300:146|202:171,1,154.000004699707,4|8,2:0|0:0,0:0:0:0:
75,249,114220,1,0,0:0:0:0:
190,372,114590,1,8,0:0:0:0:
253,315,114791,5,0,0:0:0:0:
253,315,114892,1,2,0:0:0:0:
253,315,114992,5,4,2:0:0:0:
88,351,127363,6,0,L|81:259,1,87.5,4|0,0:0|0:0,0:0:0:0:
118,174,127760,1,8,0:0:0:0:
185,241,127959,2,0,L|191:328,1,87.5
272,380,128356,1,0,0:0:0:0:
325,299,128555,2,0,P|373:291|420:300,1,87.5,8|0,0:0|0:0,0:0:0:0:
471,372,128952,6,0,P|459:318|465:274,1,87.5,2|0,0:0|0:0,0:0:0:0:
489,193,129329,1,8,0:0:0:0:
461,100,129523,2,0,B|429:89|429:89|361:88,1,87.5
294,141,129910,1,0,0:0:0:0:
217,83,130102,2,0,P|175:73|126:79,1,87.5,8|0,0:0|0:0,0:0:0:0:
46,125,130487,6,0,L|52:236,1,87.5,2|0,0:0|0:0,0:0:0:0:
56,308,130876,1,8,0:0:0:0:
126,241,131071,2,0,B|172:230|172:230|215:238,1,87.5
296,283,131454,1,0,0:0:0:0:
357,208,131643,2,0,L|360:108,1,87.5,8|0,0:0|0:0,0:0:0:0:
452,146,132030,6,0,L|449:233,1,87.5,2|0,0:0|0:0,0:0:0:0:
447,329,132414,1,8,0:0:0:0:
361,285,132606,1,0,0:0:0:0:
275,329,132799,1,0,0:0:0:0:
189,285,132990,1,0,0:0:0:0:
103,329,133181,2,0,P|95:280|107:233,1,87.5,8|0,0:0|0:0,0:0:0:0:
167,172,133563,6,0,B|136:149|136:149|86:149,1,87.5,2|0,0:0|0:0,0:0:0:0:
13,86,133955,1,8,0:0:0:0:
83,19,134151,2,0,L|175:19,1,87.5
257,61,134540,1,0,0:0:0:0:
343,19,134734,2,0,L|430:19,1,87.5,8|0,0:0|0:0,0:0:0:0:
426,115,135121,6,0,L|339:115,1,87.5,2|0,0:0|0:0,0:0:0:0:
256,166,135500,1,8,0:0:0:0:
338,215,135700,2,0,P|348:261|326:322,1,87.5
256,349,136092,1,0,0:0:0:0:
174,300,136284,2,0,P|164:254|186:193,1,87.5,8|0,0:0|0:0,0:0:0:0:
256,166,136669,6,0,P|213:172|172:162,1,77.0000023498536,4|0,0:0|0:0,0:0:0:0:
218,80,137063,2,0,P|261:74|302:84,1,77.0000023498536,8|0,0:0|0:0,0:0:0:0:
368,135,137458,2,0,L|361:230,1,77.0000023498536
306,285,137833,2,0,L|211:278,1,77.0000023498536,8|0,0:0|0:0,0:0:0:0:
123,216,138233,6,0,B|116:179|116:179|120:124,1,77.0000023498536,2|0,0:0|0:0,0:0:0:0:
218,80,138601,2,0,B|220:119|220:119|213:156,1,77.0000023498536,8|0,0:0|0:0,0:0:0:0:
312,216,138997,2,0,B|309:176|309:176|316:139,1,77.0000023498536
416,80,139381,2,0,B|418:119|418:119|411:156,1,77.0000023498536,8|0,0:0|0:0,0:0:0:0:
371,291,139773,6,0,B|401:298|401:298|446:291,1,70,4|0,0:0|0:0,0:0:0:0:
500,234,140165,1,0,0:0:0:0:
312,216,140557,6,0,L|276:209,3,35
235,213,140920,2,0,L|200:219,3,35
159,228,141324,6,0,P|150:192|160:144,1,70,2|2,0:0|0:0,0:0:0:0:
182,80,141718,1,2,0:0:0:0:
341,27,142113,6,0,P|365:26|396:31,3,35
408,53,142465,2,0,L|426:99,3,35
434,125,142850,6,0,L|422:215,1,70,2|2,0:0|0:0,0:0:0:0:
411,277,143234,1,2,0:0:0:0:
263,358,143636,6,0,L|207:353,3,35
188,341,143999,2,0,L|153:299,3,35
148,272,144390,6,0,P|113:258|75:252,1,70,2|2,0:0|0:0,0:0:0:0:
2,282,144782,1,2,0:0:0:0:
96,115,145196,6,0,L|147:105,3,35
172,107,145555,2,0,L|206:113,3,35
246,127,145940,6,0,P|289:131|331:116,1,70,2|2,0:0|0:0,0:0:0:0:
386,80,146332,1,2,0:0:0:0:
496,206,146735,5,0,0:0:0:0:
491,228,146827,1,0,0:0:0:0:
487,251,146919,1,0,0:0:0:0:
482,274,147011,1,0,0:0:0:0:
477,296,147103,2,0,L|469:338,3,35
441,351,147495,6,0,P|403:356|369:348,1,70,2|2,0:0|0:0,0:0:0:0:
295,315,147886,1,2,0:0:0:0:
170,202,148291,5,0,0:0:0:0:
168,180,148381,1,0,0:0:0:0:
167,156,148472,1,0,0:0:0:0:
166,132,148563,1,0,0:0:0:0:
164,110,148654,2,0,L|162:67,3,35
148,35,149047,6,0,P|107:29|64:34,1,70,2|2,0:0|0:0,0:0:0:0:
4,70,149434,1,2,0:0:0:0:
66,250,149848,5,0,0:0:0:0:
89,247,149938,1,0,0:0:0:0:
114,244,150029,1,0,0:0:0:0:
138,241,150120,1,0,0:0:0:0:
162,238,150211,2,0,L|196:234,3,35
233,212,150598,6,0,L|240:125,1,70,2|2,0:0|0:0,0:0:0:0:
280,69,150995,1,2,0:0:0:0:
434,168,151392,6,0,L|442:212,3,35
437,244,151755,2,0,L|431:278,3,35,0|0|2|2,0:0|0:0|0:0|0:0,0:0:0:0:
405,326,152158,5,4,0:0:0:0:
256,192,152364,12,2,158350,0:0:0:0:
25,183,167649,5,4,0:0:0:0:
90,117,167845,1,0,0:0:0:0:
134,198,168041,2,0,L|142:289,1,77.0000023498536
222,364,168433,6,0,L|301:348,1,77.0000023498536,8|0,0:0|0:0,0:0:0:0:
388,334,168817,2,0,L|309:318,1,77.0000023498536,2|0,0:0|0:0,0:0:0:0:
229,277,169203,5,0,0:0:0:0:
291,208,169391,1,0,0:0:0:0:
229,139,169580,2,0,P|227:95|239:50,1,77.0000023498536
342,7,169957,6,0,L|359:109,1,77.0000023498536,8|0,0:0|0:0,0:0:0:0:
437,190,170354,6,0,L|456:115,1,77.0000023498536,8|0,0:0|0:0,0:0:0:0:
483,266,170751,6,0,P|438:276|394:262,1,83.9999974365235,4|0,2:0|0:0,0:0:0:0:
315,235,171119,1,8,0:0:0:0:
315,235,171315,1,0,0:0:0:0:
262,311,171511,1,0,0:0:0:0:
194,248,171707,1,0,0:0:0:0:
127,312,171903,2,0,P|79:320|35:308,1,83.9999974365235,8|0,0:0|0:0,0:0:0:0:
4,229,172287,6,0,L|14:129,1,83.9999974365235,2|0,0:0|0:0,0:0:0:0:
42,57,172672,2,0,L|132:41,1,83.9999974365235,8|0,0:0|0:0,0:0:0:0:
202,92,173060,1,0,0:0:0:0:
270,30,173255,1,0,0:0:0:0:
332,98,173450,2,0,L|327:200,1,83.9999974365235,8|0,0:0|0:0,0:0:0:0:
227,207,173841,6,0,L|222:111,1,83.9999974365235,2|0,0:0|0:0,0:0:0:0:
136,146,174202,2,0,L|132:239,1,83.9999974365235,8|0,0:0|0:0,0:0:0:0:
185,305,174602,2,0,P|228:289|269:290,1,83.9999974365235,0|0,0:0|3:0,0:0:0:0:
347,340,175002,2,0,P|388:339|427:324,1,83.9999974365235,8|0,0:0|3:0,0:0:0:0:
462,234,175386,6,0,B|469:198|469:198|465:145,1,83.9999974365235,2|0,0:0|0:0,0:0:0:0:
412,73,175758,1,8,0:0:0:0:
412,73,175952,1,0,0:0:0:0:
341,132,176147,2,0,P|295:139|253:131,1,83.9999974365235
211,52,176537,2,0,P|257:45|299:53,1,83.9999974365235,8|0,0:0|0:0,0:0:0:0:
148,111,176931,6,0,P|129:69|130:24,1,83.9999974365235,4|0,2:0|0:0,0:0:0:0:
39,55,177314,2,0,P|37:96|19:134,1,83.9999974365235,8|0,0:0|0:0,0:0:0:0:
30,226,177697,1,0,0:0:0:0:
112,184,177891,1,0,0:0:0:0:
164,259,178085,2,0,L|158:350,1,83.9999974365235,8|0,0:0|0:0,0:0:0:0:
247,367,178473,6,0,L|252:283,1,83.9999974365235,2|0,0:0|0:0,0:0:0:0:
300,203,178855,2,0,P|341:196|387:206,1,83.9999974365235,8|0,0:0|0:0,0:0:0:0:
466,242,179244,1,0,0:0:0:0:
390,295,179439,1,0,0:0:0:0:
382,204,179634,2,0,L|385:104,1,83.9999974365235,8|0,0:0|0:0,0:0:0:0:
300,27,180023,6,0,B|251:24|251:24|196:35,1,83.9999974365235,4|0,2:0|0:0,0:0:0:0:
133,71,180400,2,0,L|121:166,1,83.9999974365235,8|0,0:0|0:0,0:0:0:0:
56,219,180805,2,0,P|139:204|229:253,1,167.999994873047,0|8,0:0|0:0,0:0:0:0:
278,302,181368,1,0,0:0:0:0:
388,223,181562,6,0,L|396:133,1,83.9999974365235,4|0,0:0|0:0,0:0:0:0:
349,59,181949,1,8,0:0:0:0:
258,79,182145,1,0,0:0:0:0:
318,148,182341,1,0,0:0:0:0:
349,59,182532,1,0,0:0:0:0:
261,29,182724,2,0,P|211:25|157:35,1,83.9999974365235,8|0,0:0|0:0,0:0:0:0:
137,53,183011,1,2,0:0:0:0:
137,53,183107,6,0,L|126:149,1,83.9999974365235,4|0,0:0|0:0,0:0:0:0:
95,224,183504,2,0,P|137:218|187:232,1,83.9999974365235,8|0,0:0|0:0,0:0:0:0:
257,272,183894,1,0,0:0:0:0:
332,218,184090,2,0,B|332:183|332:183|319:156|319:156|336:122,1,83.9999974365235,2|8,0:0|0:0,0:0:0:0:
398,62,184481,6,0,B|427:43|454:64|454:64|423:115|457:178,1,164.999994873047,2|0,0:0|0:0,0:0:0:0:
511,232,185055,2,0,P|453:224|410:238,1,83.9999974365235,8|0,0:0|0:0,0:0:0:0:
347,272,185460,1,0,0:0:0:0:
396,350,185649,1,0,0:0:0:0:
347,272,185839,2,0,P|301:261|264:264,1,83.9999974365235,8|0,0:0|0:0,0:0:0:0:
131,335,186228,5,8,0:0:0:0:
131,335,186417,2,0,B|115:301|115:301|117:241,1,83.9999974365235
250,183,186797,5,8,0:0:0:0:
250,183,186994,2,0,B|266:217|266:217|264:277,1,83.9999974365235
258,379,187389,5,8,0:0:0:0:
347,272,187578,1,0,0:0:0:0:
459,364,187768,6,0,B|428:289|489:278|454:199,1,167.999994873047,4|8,2:0|0:0,0:0:0:0:
325,68,188547,2,0,P|278:59|237:64,1,83.9999974365235
172,124,188926,2,0,P|130:127|89:118,1,83.9999974365235,8|2,0:0|0:0,0:0:0:0:
48,96,189222,1,2,0:0:0:0:
48,96,189320,6,0,L|29:271,1,167.999994873047,4|8,2:0|0:0,0:0:0:0:
185,363,190096,2,0,L|197:270,1,83.9999974365235
273,230,190468,2,8,L|283:313,1,83.9999974365235
315,347,190748,1,8,0:0:0:0:
315,347,190841,6,0,B|345:354|345:354|406:341,1,83.9999974365235,4|0,0:0|0:0,0:0:0:0:
485,316,191233,1,0,0:0:0:0:
197,37,192420,6,0,B|167:30|167:30|106:43,1,83.9999974365235,4|0,0:0|0:0,0:0:0:0:
27,68,192816,1,0,0:0:0:0:
196,142,193955,6,0,L|286:137,1,83.9999974365235,2|0,0:0|0:0,0:0:0:0:
348,74,194342,2,0,P|390:70|437:88,1,83.9999974365235,8|0,0:0|0:0,0:0:0:0:
505,134,194744,2,0,P|462:130|415:148,1,83.9999974365235
349,198,195126,1,8,0:0:0:0:
420,257,195317,1,0,0:0:0:0:
362,329,195508,6,0,L|260:321,1,83.9999974365235,2|0,0:0|0:0,0:0:0:0:
185,315,195897,1,8,0:0:0:0:
243,244,196092,1,0,0:0:0:0:
185,173,196287,1,0,0:0:0:0:
243,102,196478,1,0,0:0:0:0:
301,173,196669,2,0,P|346:182|387:173,1,83.9999974365235,8|0,0:0|0:0,0:0:0:0:
420,147,196955,1,2,0:0:0:0:
420,147,197051,6,0,L|428:56,1,83.9999974365235,4|0,0:0|0:0,0:0:0:0:
356,3,197440,1,0,0:0:0:0:
92,237,198598,6,0,L|84:328,1,83.9999974365235,4|0,0:0|0:0,0:0:0:0:
156,381,198995,1,0,0:0:0:0:
74,74,200159,6,0,P|119:64|170:73,1,83.9999974365235,2|0,3:0|3:0,3:0:0:0:
233,121,200547,2,0,L|227:219,1,83.9999974365235,8|0,0:0|0:0,0:0:0:0:
183,286,200935,2,0,B|218:317|271:293|271:293|316:271|359:299,1,167.999994873047,0|8,0:0|0:0,0:0:0:0:
420,340,201505,1,0,0:0:0:0:
471,263,201699,6,0,B|478:211|478:211|463:173,1,83.9999974365235,2|0,0:0|0:0,0:0:0:0:
420,101,202086,1,8,0:0:0:0:
367,177,202282,1,0,0:0:0:0:
284,135,202478,1,0,0:0:0:0:
231,211,202667,1,0,0:0:0:0:
156,157,202857,2,0,P|146:109|155:69,1,83.9999974365235,8|0,0:0|0:0,0:0:0:0:
180,37,203142,1,2,0:0:0:0:
180,37,203237,6,0,P|131:46|91:33,1,83.9999974365235,4|0,0:0|0:0,0:0:0:0:
35,105,203634,2,0,P|57:144|52:268,1,167.999994873047,8|0,0:0|0:0,0:0:0:0:
113,334,204213,2,0,B|154:317|154:317|208:328,1,83.9999974365235,2|8,0:0|0:0,0:0:0:0:
294,384,204600,6,0,B|303:333|303:333|285:280|285:280|292:212,1,169.999994873047,2|0,0:0|0:0,0:0:0:0:
333,137,205187,2,0,P|377:128|424:139,1,83.9999974365235,8|0,0:0|0:0,0:0:0:0:
500,171,205582,1,0,0:0:0:0:
484,79,205774,1,0,0:0:0:0:
414,135,205966,2,0,L|402:238,1,83.9999974365235,8|0,0:0|0:0,0:0:0:0:
393,315,206366,6,0,L|413:371,2,48.9999985046387,8|0|0,0:0|0:0|0:0,0:0:0:0:
319,260,207087,6,0,P|293:254|266:253,1,48.9999985046387,8|0,0:0|0:0,0:0:0:0:
195,267,207620,1,0,0:0:0:0:
229,351,207898,5,8,0:0:0:0:
256,192,208595,5,4,0:0:0:0:
256,192,208770,12,0,215921,0:0:0:0:
