osu file format v14

[General]
AudioFilename: audio.mp3
AudioLeadIn: 0
PreviewTime: 44391
Countdown: 0
SampleSet: Normal
StackLeniency: 0.7
Mode: 0
LetterboxInBreaks: 0
WidescreenStoryboard: 0

[Editor]
DistanceSpacing: 1.2
BeatDivisor: 4
GridSize: 8
TimelineZoom: 1

[Metadata]
Title:Narcissistic Cannibal (feat. Skrillex and Kill the Noise)
TitleUnicode:Narcissistic Cannibal (feat. Skrillex and Kill the Noise)
Artist:Korn
ArtistUnicode:Korn
Creator:-Tooru-
Version:Cynical
Source:
Tags:
BeatmapID:1118310
BeatmapSetID:527081

[Difficulty]
HPDrainRate:5.5
CircleSize:4.2
OverallDifficulty:8.7
ApproachRate:9.2
SliderMultiplier:2
SliderTickRate:1

[Events]
//Background and Video events
0,0,"210334038_1280x720.jpg",0,0
//Break Periods
//Storyboard Layer 0 (Background)
//Storyboard Layer 1 (Fail)
//Storyboard Layer 2 (Pass)
//Storyboard Layer 3 (Foreground)
//Storyboard Sound Samples

[TimingPoints]
254,344.827586206897,4,1,0,100,1,0
11284,-200,4,1,0,100,0,0
15422,-117.647058823529,4,1,0,100,0,0
16801,-142.857142857143,4,1,0,100,0,0
20947,-117.647058823529,4,1,0,100,0,0
22318,-71.4285714285714,4,1,0,100,0,0
33357,-100,4,1,0,100,0,0
58185,-83.3333333333333,4,1,0,100,0,1
80254,-71.4285714285714,4,1,0,100,0,1
85771,-100,4,1,0,100,0,0
110598,-83.3333333333333,4,1,0,100,0,1
131288,-200,4,1,0,100,0,0
132667,-71.4285714285714,4,1,0,100,0,0
151978,-117.647058823529,4,1,0,100,0,0
152322,-133.333333333333,4,1,0,100,0,0
152667,-153.846153846154,4,1,0,100,0,0
153012,-200,4,1,0,100,0,0
154736,-83.3333333333333,4,1,0,100,0,1
176805,-71.4285714285714,4,1,0,100,0,1
187840,-100,4,1,0,100,0,0

[HitObjects]
248,80,11288,6,0,L|304:80,1,50
352,192,11633,2,0,P|296:192|288:184,1,50
264,256,11891,1,0,0:0:0:0:
256,272,11978,1,0,0:0:0:0:
152,176,12150,2,0,P|96:176|88:184,1,50
128,256,12495,1,0,0:0:0:0:
128,88,12667,6,0,L|128:32,1,50
8,144,13012,2,0,P|8:200|16:208,1,50
88,176,13271,1,0,0:0:0:0:
104,168,13357,1,0,0:0:0:0:
216,256,13529,2,0,L|256:296,1,50
344,288,13874,1,0,0:0:0:0:
376,160,14047,6,0,P|320:160|312:168,1,50
448,320,14391,2,0,P|448:264|440:256,1,50
360,288,14650,1,0,0:0:0:0:
344,304,14736,1,0,0:0:0:0:
216,256,14909,2,0,L|176:296,1,50
112,352,15254,1,0,0:0:0:0:
32,184,15426,6,0,P|32:128|40:112,1,56.6666677474976
168,160,15641,2,0,P|112:160|104:152,1,56.6666677474976
144,72,15900,2,0,P|200:72|208:80,1,56.6666677474976
272,104,16116,2,0,P|272:192|264:208,1,85.0000016212464
192,152,16460,1,0,0:0:0:0:
352,200,16805,6,0,P|408:144|408:144,1,69.9999978637696
456,232,17150,1,0,0:0:0:0:
504,80,17322,1,0,0:0:0:0:
480,80,17409,1,0,0:0:0:0:
456,88,17495,1,0,0:0:0:0:
320,16,17667,1,0,0:0:0:0:
360,96,17840,2,0,P|288:96|272:88,1,69.9999978637696
128,56,18185,6,0,P|128:128|136:144,1,69.9999978637696
208,96,18529,1,0,0:0:0:0:
32,96,18702,1,0,0:0:0:0:
24,112,18788,1,0,0:0:0:0:
16,128,18874,1,0,0:0:0:0:
208,192,19047,1,0,0:0:0:0:
168,288,19219,2,0,P|240:288|256:280,1,69.9999978637696
384,248,19564,6,0,P|384:320|376:336,1,69.9999978637696
480,280,19909,1,0,0:0:0:0:
352,160,20081,1,0,0:0:0:0:
336,152,20167,1,0,0:0:0:0:
320,144,20254,1,0,0:0:0:0:
480,160,20426,1,0,0:0:0:0:
352,56,20598,2,0,P|280:56|264:64,1,69.9999978637696
184,256,20943,6,0,P|184:304|192:312,1,46.6666652425131
296,256,21173,2,0,P|352:256|360:248,1,56.6666677474976
240,160,21403,2,0,P|184:160|176:168,1,56.6666677474976
96,200,21633,1,0,0:0:0:0:
488,224,22322,6,0,P|488:80|480:72,1,139.999995727539
248,152,22667,1,0,0:0:0:0:
432,152,22840,1,0,0:0:0:0:
184,88,23012,1,0,0:0:0:0:
168,120,23098,1,0,0:0:0:0:
160,152,23185,1,0,0:0:0:0:
168,184,23271,1,0,0:0:0:0:
184,216,23357,2,0,P|312:216|320:208,1,139.999995727539
336,40,23702,5,0,0:0:0:0:
488,224,23874,1,0,0:0:0:0:
96,224,24047,2,0,P|96:80|104:64,1,139.999995727539
240,152,24391,2,0,L|384:152,1,139.999995727539
336,40,24736,1,0,0:0:0:0:
336,240,24909,1,0,0:0:0:0:
96,88,25081,5,0,0:0:0:0:
96,272,25254,1,0,0:0:0:0:
32,24,25426,2,0,P|160:24|168:32,1,139.999995727539
160,336,25771,1,0,0:0:0:0:
128,352,25857,1,0,0:0:0:0:
96,360,25943,1,0,0:0:0:0:
64,352,26029,1,0,0:0:0:0:
32,336,26116,2,0,P|32:192|40:184,1,139.999995727539
96,88,26460,5,0,0:0:0:0:
176,264,26633,1,0,0:0:0:0:
256,32,26805,1,0,0:0:0:0:
336,336,26978,1,0,0:0:0:0:
416,32,27150,1,0,0:0:0:0:
96,184,27322,1,0,0:0:0:0:
416,360,27495,1,0,0:0:0:0:
336,32,27667,1,0,0:0:0:0:
104,264,27840,6,0,P|248:264|256:256,1,139.999995727539
408,192,28185,1,0,0:0:0:0:
176,192,28357,1,0,0:0:0:0:
480,256,28529,1,0,0:0:0:0:
496,224,28616,1,0,0:0:0:0:
504,192,28702,1,0,0:0:0:0:
496,160,28788,1,0,0:0:0:0:
480,128,28874,2,0,P|336:128|328:136,1,139.999995727539
408,352,29219,5,0,0:0:0:0:
408,192,29391,1,0,0:0:0:0:
104,336,29564,2,0,P|104:192|112:184,1,139.999995727539
392,272,29909,2,0,L|248:272,1,139.999995727539
168,272,30254,1,0,0:0:0:0:
480,272,30426,1,0,0:0:0:0:
320,32,30598,5,0,0:0:0:0:
200,192,30771,1,0,0:0:0:0:
432,192,30943,2,0,P|432:48|432:32,1,139.999995727539
280,272,31288,1,0,0:0:0:0:
296,232,31374,1,0,0:0:0:0:
304,192,31460,1,0,0:0:0:0:
296,152,31547,1,0,0:0:0:0:
272,120,31633,2,0,P|120:120|112:128,1,139.999995727539
104,32,31978,5,0,0:0:0:0:
200,192,32150,1,0,0:0:0:0:
296,32,32322,1,0,0:0:0:0:
200,352,32495,1,0,0:0:0:0:
376,88,32667,1,0,0:0:0:0:
104,344,32840,1,0,0:0:0:0:
200,24,33012,1,0,0:0:0:0:
296,360,33185,1,0,0:0:0:0:
400,248,33357,5,0,0:0:0:0:
232,144,33529,1,0,0:0:0:0:
376,144,33702,1,0,0:0:0:0:
216,240,33874,1,0,0:0:0:0:
344,56,34047,2,0,P|240:56|224:64,1,100
376,144,34391,2,0,P|448:72|456:56,1,100
288,184,34736,6,0,L|320:288,1,100
344,360,35081,1,0,0:0:0:0:
392,248,35254,1,0,0:0:0:0:
216,240,35426,2,0,P|0:240|-16:248,1,200
200,56,36116,5,0,0:0:0:0:
16,136,36288,1,0,0:0:0:0:
216,136,36460,1,0,0:0:0:0:
112,288,36633,1,0,0:0:0:0:
112,112,36805,2,0,P|40:40|24:40,1,100
8,240,37150,2,0,P|8:344|16:360,1,100
216,240,37495,6,0,P|216:344|208:360,1,100
16,136,37840,1,0,0:0:0:0:
112,288,38012,1,0,0:0:0:0:
208,136,38185,2,0,P|408:136|424:144,1,200
392,296,38702,1,0,0:0:0:0:
304,200,38874,5,0,0:0:0:0:
288,360,39047,1,0,0:0:0:0:
496,360,39219,1,0,0:0:0:0:
480,200,39391,1,0,0:0:0:0:
368,352,39564,2,0,P|296:280|280:280,1,100
184,320,39909,1,0,0:0:0:0:
256,120,40081,1,0,0:0:0:0:
424,176,40254,6,0,P|424:72|416:64,1,100
168,72,40598,2,0,P|168:176|176:184,1,100
344,120,40943,1,0,0:0:0:0:
200,240,41116,1,0,0:0:0:0:
424,176,41288,2,0,P|424:72|416:64,1,100
168,72,41633,5,0,0:0:0:0:
128,168,41805,1,0,0:0:0:0:
32,72,41978,1,0,0:0:0:0:
200,240,42150,1,0,0:0:0:0:
352,48,42322,2,0,P|456:48|464:56,1,100
408,240,42667,2,0,P|408:136|416:128,1,100
464,336,43012,6,0,P|360:336|352:336,1,100
256,176,43357,1,0,0:0:0:0:
256,336,43529,1,0,0:0:0:0:
176,112,43702,2,0,P|72:112|64:120,1,100
128,256,44047,2,0,L|232:256,1,100
128,176,44391,5,0,0:0:0:0:
40,344,44564,1,0,0:0:0:0:
216,344,44736,1,0,0:0:0:0:
40,256,44909,1,0,0:0:0:0:
224,176,45081,2,0,P|328:176|336:184,1,100
456,224,45426,2,0,P|456:120|448:112,1,100
336,32,45771,5,0,0:0:0:0:
224,180,45943,1,0,0:0:0:0:
112,32,46116,2,0,P|112:136|120:152,1,100
224,280,46460,2,0,L|224:176,1,100
224,16,46805,1,0,0:0:0:0:
400,192,47150,5,0,0:0:0:0:
480,360,47322,1,0,0:0:0:0:
320,192,47495,1,0,0:0:0:0:
360,360,47667,1,0,0:0:0:0:
512,192,47840,2,0,P|512:88|504:72,1,100
248,136,48185,2,0,P|248:240|256:256,1,100
352,80,48529,5,0,0:0:0:0:
160,184,48702,1,0,0:0:0:0:
352,280,48874,2,0,P|424:208|424:200,1,100
272,24,49219,2,0,P|272:128|280:136,1,100
440,32,49564,1,0,0:0:0:0:
104,32,49909,5,0,0:0:0:0:
176,184,50081,1,0,0:0:0:0:
32,80,50254,1,0,0:0:0:0:
128,264,50426,2,0,P|232:264|248:256,1,100
312,144,50771,1,0,0:0:0:0:
488,152,50943,1,0,0:0:0:0:
296,56,51116,2,0,P|224:128|224:136,1,100
312,232,51460,5,0,0:0:0:0:
416,8,51633,2,0,P|488:80|488:88,1,100
488,240,51978,1,0,0:0:0:0:
400,96,52150,1,0,0:0:0:0:
312,232,52322,1,0,0:0:0:0:
224,88,52495,1,0,0:0:0:0:
136,224,52667,5,0,0:0:0:0:
312,128,52840,1,0,0:0:0:0:
136,48,53012,1,0,0:0:0:0:
224,264,53185,1,0,0:0:0:0:
304,48,53357,2,0,P|408:48|424:56,1,100
496,192,53702,1,0,0:0:0:0:
224,152,54047,5,0,0:0:0:0:
120,320,54219,1,0,0:0:0:0:
336,320,54391,2,0,P|336:208|328:200,1,100
56,264,54736,2,0,P|56:376|64:384,1,100
224,152,55081,2,0,L|224:48,1,100
256,192,55426,12,0,57840,0:0:0:0:
384,80,58185,6,0,P|384:320|376:328,1,239.999992675781
256,192,58702,1,0,0:0:0:0:
64,128,58874,2,0,P|64:256|72:264,1,119.999996337891
320,128,59219,2,0,P|320:256|312:264,1,119.999996337891
136,88,59564,1,0,0:0:0:0:
256,248,59736,1,0,0:0:0:0:
72,376,59909,2,0,P|72:248|80:240,1,119.999996337891
368,312,60254,2,0,P|128:312|112:304,1,239.999992675781
200,192,60771,5,0,0:0:0:0:
368,72,60943,2,0,P|128:72|112:80,1,239.999992675781
312,192,61460,1,0,0:0:0:0:
471,95,61633,2,0,P|471:215|463:231,1,119.999996337891
392,360,61978,2,0,P|392:240|400:224,1,119.999996337891
464,296,62322,5,0,0:0:0:0:
296,296,62495,1,0,0:0:0:0:
400,152,62667,1,0,0:0:0:0:
424,368,62840,1,0,0:0:0:0:
280,184,63012,1,0,0:0:0:0:
473,212,63185,1,0,0:0:0:0:
256,368,63357,1,0,0:0:0:0:
328,104,63529,1,0,0:0:0:0:
464,296,63702,6,0,P|344:296|336:288,1,119.999996337891
280,184,64047,2,0,P|160:184|152:192,1,119.999996337891
56,304,64391,2,0,P|56:64|64:56,1,239.999992675781
224,240,64909,1,0,0:0:0:0:
368,96,65081,2,0,P|368:216|360:232,1,119.999996337891
160,160,65426,2,0,P|280:160|296:168,1,119.999996337891
432,312,65771,2,0,P|312:312|296:304,1,119.999996337891
472,80,66116,5,0,0:0:0:0:
368,240,66288,1,0,0:0:0:0:
264,80,66460,2,0,P|24:80|8:88,1,239.999992675781
72,312,66978,1,0,0:0:0:0:
144,136,67150,1,0,0:0:0:0:
216,312,67322,1,0,0:0:0:0:
80,208,67495,2,0,P|200:208|216:200,1,119.999996337891
320,160,67840,5,0,0:0:0:0:
192,56,68012,1,0,0:0:0:0:
216,312,68185,1,0,0:0:0:0:
416,152,68357,1,0,0:0:0:0:
144,136,68529,2,0,P|144:256|152:264,1,119.999996337891
488,216,68874,2,0,P|488:96|480:88,1,119.999996337891
312,32,69219,6,0,L|312:152,1,119.999996337891
416,160,69564,1,0,0:0:0:0:
208,160,69736,1,0,0:0:0:0:
312,352,69909,2,0,L|312:232,1,119.999996337891
136,96,70254,2,0,P|136:216|144:232,1,119.999996337891
216,56,70598,5,0,0:0:0:0:
312,192,70771,1,0,0:0:0:0:
400,56,70943,1,0,0:0:0:0:
488,192,71116,1,0,0:0:0:0:
248,128,71288,2,0,P|368:128|376:136,1,119.999996337891
368,376,71633,2,0,P|248:376|240:368,1,119.999996337891
312,192,71978,6,0,L|312:312,1,119.999996337891
488,192,72322,2,0,L|488:72,1,119.999996337891
208,48,72667,6,0,P|120:136|112:152,1,119.999996337891
384,360,73012,2,0,P|472:272|480:256,1,119.999996337891
416,48,73357,5,0,0:0:0:0:
312,192,73529,1,0,0:0:0:0:
208,48,73702,1,0,0:0:0:0:
288,272,73874,1,0,0:0:0:0:
128,40,74047,1,0,0:0:0:0:
208,288,74219,1,0,0:0:0:0:
424,152,74391,1,0,0:0:0:0:
208,48,74564,1,0,0:0:0:0:
424,240,74736,6,0,P|512:152|512:144,1,119.999996337891
312,120,75081,2,0,P|192:120|184:112,1,119.999996337891
424,16,75426,2,0,P|512:104|512:112,1,119.999996337891
360,304,75771,2,0,P|360:184|368:176,1,119.999996337891
416,128,76116,5,0,0:0:0:0:
256,248,76288,1,0,0:0:0:0:
424,240,76460,1,0,0:0:0:0:
280,64,76633,1,0,0:0:0:0:
200,312,76805,2,0,P|320:312|328:304,1,119.999996337891
120,248,77150,2,0,P|120:368|128:384,1,119.999996337891
311,318,77495,5,0,0:0:0:0:
200,184,77667,1,0,0:0:0:0:
368,88,77840,2,0,L|464:184,1,119.999996337891
320,184,78185,2,0,L|408:272,1,119.999996337891
224,272,78529,1,0,0:0:0:0:
232,96,78702,1,0,0:0:0:0:
312,320,78874,5,0,0:0:0:0:
168,184,79047,1,0,0:0:0:0:
400,272,79219,1,0,0:0:0:0:
112,272,79391,1,0,0:0:0:0:
304,40,79564,2,0,P|304:160|296:168,1,119.999996337891
32,160,79909,2,0,P|32:40|40:32,1,119.999996337891
168,96,80254,5,0,0:0:0:0:
168,272,80426,1,0,0:0:0:0:
240,40,80598,2,0,P|96:40|88:48,1,139.999995727539
104,336,80943,1,0,0:0:0:0:
136,352,81029,1,0,0:0:0:0:
168,360,81116,1,0,0:0:0:0:
200,352,81202,1,0,0:0:0:0:
232,336,81288,2,0,P|232:192|224:184,1,139.999995727539
104,184,81633,5,0,0:0:0:0:
168,360,81805,1,0,0:0:0:0:
336,208,81978,2,0,P|232:104|224:104,1,139.999995727539
232,336,82322,2,0,P|376:336|384:328,1,139.999995727539
504,120,82667,1,0,0:0:0:0:
504,256,82840,1,0,0:0:0:0:
432,88,83012,5,0,0:0:0:0:
432,288,83185,1,0,0:0:0:0:
360,24,83357,2,0,P|504:24|512:32,1,139.999995727539
496,352,83702,1,0,0:0:0:0:
464,368,83788,1,0,0:0:0:0:
432,376,83874,1,0,0:0:0:0:
400,368,83960,1,0,0:0:0:0:
368,352,84047,2,0,P|368:208|376:200,1,139.999995727539
432,192,84391,5,0,0:0:0:0:
256,328,84564,1,0,0:0:0:0:
208,72,84736,1,0,0:0:0:0:
432,280,84909,1,0,0:0:0:0:
160,352,85081,1,0,0:0:0:0:
304,40,85254,1,0,0:0:0:0:
432,360,85426,1,0,0:0:0:0:
120,200,85598,1,0,0:0:0:0:
352,128,85771,5,0,0:0:0:0:
296,272,85943,1,0,0:0:0:0:
240,128,86116,1,0,0:0:0:0:
376,224,86288,1,0,0:0:0:0:
160,184,86460,2,0,P|160:80|168:64,1,100
432,72,86805,2,0,P|432:176|424:192,1,100
296,272,87150,6,0,L|296:168,1,100
296,56,87495,1,0,0:0:0:0:
208,216,87667,1,0,0:0:0:0:
384,216,87840,2,0,P|384:112|376:104,1,100
296,172,88185,1,0,0:0:0:0:
80,72,88529,5,0,0:0:0:0:
48,256,88702,1,0,0:0:0:0:
160,72,88874,1,0,0:0:0:0:
192,256,89047,1,0,0:0:0:0:
240,72,89219,2,0,P|168:0|160:0,1,100
64,160,89564,1,0,0:0:0:0:
112,336,89736,1,0,0:0:0:0:
264,304,89909,6,0,P|264:200|256:192,1,100
120,232,90254,2,0,P|16:232|8:224,1,100
120,32,90598,1,0,0:0:0:0:
296,96,90771,1,0,0:0:0:0:
120,152,90943,1,0,0:0:0:0:
456,96,91288,5,0,0:0:0:0:
376,288,91460,1,0,0:0:0:0:
376,96,91633,1,0,0:0:0:0:
456,288,91805,1,0,0:0:0:0:
320,192,91978,2,0,L|424:192,1,100
504,192,92322,1,0,0:0:0:0:
416,24,92495,1,0,0:0:0:0:
248,144,92667,6,0,P|248:248|256:264,1,100
144,144,93012,6,0,P|144:248|152:264,1,100
48,88,93357,6,0,P|48:288|56:304,1,200
160,344,93874,1,0,0:0:0:0:
240,192,94047,5,0,0:0:0:0:
160,40,94219,1,0,0:0:0:0:
160,192,94391,1,0,0:0:0:0:
240,40,94564,1,0,0:0:0:0:
320,192,94736,2,0,P|240:272|232:272,1,100
200,112,95081,1,0,0:0:0:0:
376,112,95254,1,0,0:0:0:0:
120,64,95426,6,0,P|120:168|128:184,1,100
288,112,95771,2,0,P|208:32|200:32,1,100
232,224,96116,2,0,P|336:224|344:216,1,100
376,112,96460,1,0,0:0:0:0:
200,112,96633,1,0,0:0:0:0:
280,320,96805,5,0,0:0:0:0:
408,192,96978,1,0,0:0:0:0:
168,192,97150,2,0,P|168:296|176:304,1,100
256,40,97495,2,0,P|144:40|136:48,1,100
88,112,97840,1,0,0:0:0:0:
344,296,98185,6,0,P|456:296|464:288,1,100
344,40,98529,2,0,L|344:144,1,100
392,224,98874,2,0,P|472:144|472:136,1,100
472,40,99219,1,0,0:0:0:0:
208,96,99564,6,0,L|104:96,1,100
296,40,99909,2,0,P|296:144|288:152,1,100
24,152,100254,2,0,P|24:48|32:40,1,100
160,16,100598,1,0,0:0:0:0:
232,176,100771,1,0,0:0:0:0:
104,96,100943,5,0,0:0:0:0:
304,40,101116,1,0,0:0:0:0:
280,280,101288,2,0,P|176:280|168:272,1,100
328,120,101633,2,0,P|328:232|320:240,1,100
200,40,101978,1,0,0:0:0:0:
440,176,102322,5,0,0:0:0:0:
264,176,102495,1,0,0:0:0:0:
448,272,102667,1,0,0:0:0:0:
432,80,102840,2,0,P|328:80|320:88,1,100
176,192,103185,1,0,0:0:0:0:
352,192,103357,1,0,0:0:0:0:
112,136,103529,2,0,P|112:248|120:256,1,100
176,352,103874,5,0,0:0:0:0:
240,136,104047,2,0,P|240:248|232:256,1,100
16,192,104391,1,0,0:0:0:0:
176,272,104564,1,0,0:0:0:0:
16,352,104736,1,0,0:0:0:0:
120,152,104909,1,0,0:0:0:0:
216,352,105081,5,0,0:0:0:0:
16,272,105254,1,0,0:0:0:0:
216,192,105426,2,0,P|320:192|328:200,1,100
64,208,105771,2,0,P|64:104|72:96,1,100
176,40,106116,1,0,0:0:0:0:
272,288,106460,5,0,0:0:0:0:
480,288,106633,1,0,0:0:0:0:
200,232,106805,2,0,P|200:344|208:352,1,100
256,144,107150,2,0,P|152:144|144:152,1,100
376,328,107495,2,0,L|376:224,1,100
256,192,107840,12,0,110254,0:0:0:0:
80,208,110598,6,0,P|208:208|224:216,1,119.999996337891
320,296,110943,1,0,0:0:0:0:
144,288,111116,1,0,0:0:0:0:
264,120,111288,2,0,P|16:120|0:128,1,239.999992675781
0,280,111805,1,0,0:0:0:0:
200,224,111978,6,0,P|200:352|192:360,1,119.999996337891
128,152,112322,2,0,P|248:152|264:160,1,119.999996337891
64,80,112667,2,0,P|312:80|328:88,1,239.999992675781
360,184,113185,1,0,0:0:0:0:
496,120,113357,6,0,P|496:248|488:264,1,119.999996337891
304,344,113702,1,0,0:0:0:0:
480,344,113874,1,0,0:0:0:0:
288,240,114047,2,0,P|288:120|296:104,1,119.999996337891
352,40,114391,2,0,P|224:40|208:48,1,119.999996337891
144,104,114736,5,0,0:0:0:0:
120,256,114909,1,0,0:0:0:0:
288,120,115081,1,0,0:0:0:0:
72,24,115254,1,0,0:0:0:0:
208,256,115426,1,0,0:0:0:0:
216,16,115598,1,0,0:0:0:0:
40,176,115771,1,0,0:0:0:0:
288,208,115943,1,0,0:0:0:0:
104,112,116116,6,0,P|-24:112|-32:120,1,119.999996337891
352,272,116460,2,0,P|352:144|344:136,1,119.999996337891
232,336,116805,2,0,P|480:336|496:328,1,239.999992675781
288,208,117322,1,0,0:0:0:0:
496,144,117495,6,0,P|496:272|488:288,1,119.999996337891
168,272,117840,2,0,P|168:144|176:128,1,119.999996337891
376,208,118185,1,0,0:0:0:0:
232,336,118357,1,0,0:0:0:0:
232,80,118529,2,0,P|360:80|376:88,1,119.999996337891
56,328,118874,6,0,P|56:80|64:64,1,239.999992675781
152,208,119391,1,0,0:0:0:0:
256,144,119564,2,0,P|256:264|248:272,1,119.999996337891
152,40,119909,2,0,L|272:40,1,119.999996337891
400,120,120254,5,0,0:0:0:0:
344,320,120426,1,0,0:0:0:0:
184,128,120598,1,0,0:0:0:0:
408,232,120771,1,0,0:0:0:0:
112,192,120943,2,0,P|112:72|120:64,1,119.999996337891
480,176,121288,2,0,P|480:296|472:304,1,119.999996337891
296,184,121633,6,0,L|296:64,1,119.999996337891
232,328,121978,2,0,P|352:328|368:320,1,119.999996337891
400,112,122322,1,0,0:0:0:0:
192,112,122495,1,0,0:0:0:0:
480,176,122667,2,0,P|480:48|472:40,1,119.999996337891
296,64,123012,5,0,0:0:0:0:
296,264,123185,1,0,0:0:0:0:
192,112,123357,1,0,0:0:0:0:
400,112,123529,1,0,0:0:0:0:
216,328,123702,2,0,P|216:208|224:200,1,119.999996337891
376,208,124047,2,0,P|376:328|368:336,1,119.999996337891
208,112,124391,6,0,P|328:112|336:112,1,119.999996337891
216,328,124736,2,0,P|96:328|88:328,1,119.999996337891
328,24,125081,6,0,P|416:112|416:120,1,119.999996337891
112,240,125426,2,0,P|24:152|24:144,1,119.999996337891
112,24,125771,5,0,0:0:0:0:
200,232,125943,1,0,0:0:0:0:
32,80,126116,1,0,0:0:0:0:
112,304,126288,1,0,0:0:0:0:
184,80,126460,1,0,0:0:0:0:
336,296,126633,1,0,0:0:0:0:
24,232,126805,1,0,0:0:0:0:
248,16,126978,1,0,0:0:0:0:
408,240,127150,6,0,P|408:360|400:376,1,119.999996337891
256,296,127495,2,0,P|136:296|120:304,1,119.999996337891
17,356,127840,2,0,P|17:236|25:220,1,119.999996337891
328,240,128185,2,0,P|328:360|320:376,1,119.999996337891
184,152,128529,5,0,0:0:0:0:
368,160,128702,1,0,0:0:0:0:
176,56,128874,1,0,0:0:0:0:
192,280,129047,1,0,0:0:0:0:
440,224,129219,2,0,P|440:96|432:88,1,119.999996337891
112,224,129564,2,0,P|112:344|120:352,1,119.999996337891
368,160,129909,6,0,L|248:160,1,119.999996337891
160,152,130254,1,0,0:0:0:0:
368,40,130426,1,0,0:0:0:0:
240,264,130598,1,0,0:0:0:0:
280,16,130771,1,0,0:0:0:0:
392,224,130943,1,0,0:0:0:0:
216,80,131116,1,0,0:0:0:0:
160,264,131288,6,0,P|160:336|312:248,1,350
240,304,132667,5,0,0:0:0:0:
168,128,132840,2,0,L|312:128,1,139.999995727539
88,56,133185,1,0,0:0:0:0:
384,56,133357,2,0,P|384:200|376:208,1,139.999995727539
240,216,133702,1,0,0:0:0:0:
240,8,133874,1,0,0:0:0:0:
80,192,134047,6,0,P|80:232|104:224,1,69.9999978637696
0,128,134219,1,0,0:0:0:0:
0,328,134391,1,0,0:0:0:0:
240,216,134564,1,0,0:0:0:0:
264,216,134650,1,0,0:0:0:0:
288,216,134736,6,0,B|360:216|400:208|344:280,1,139.999995727539
224,112,135081,1,0,0:0:0:0:
264,96,135167,1,0,0:0:0:0:
304,88,135254,1,0,0:0:0:0:
344,96,135340,1,0,0:0:0:0:
384,112,135426,6,0,P|448:160|456:176,1,69.9999978637696
472,240,135598,2,0,P|464:312|456:328,1,69.9999978637696
384,360,135771,2,0,P|240:360|224:352,1,139.999995727539
104,192,136116,6,0,L|56:192,1,34.9999989318848
88,232,136202,2,0,L|40:232,1,34.9999989318848
80,272,136288,2,0,L|32:272,1,34.9999989318848
88,312,136374,2,0,L|48:312,1,34.9999989318848
104,344,136460,2,0,L|152:344,6,34.9999989318848
256,272,136805,5,0,0:0:0:0:
320,56,136978,1,0,0:0:0:0:
392,288,137150,1,0,0:0:0:0:
200,80,137322,1,0,0:0:0:0:
184,64,137409,1,0,0:0:0:0:
168,48,137495,2,0,P|24:48|16:56,1,139.999995727539
96,192,137840,2,0,B|152:248|96:280|40:248|128:144,1,139.999995727539
256,192,138185,5,0,0:0:0:0:
96,104,138357,1,0,0:0:0:0:
96,328,138529,1,0,0:0:0:0:
216,120,138702,2,0,P|296:120|304:128,1,69.9999978637696
352,192,138874,2,0,P|352:40|344:32,1,139.999995727539
168,192,139219,1,0,0:0:0:0:
432,248,139391,1,0,0:0:0:0:
176,280,139564,6,0,L|192:360,1,69.9999978637696
344,304,139736,2,0,L|328:384,1,69.9999978637696
264,232,139909,2,0,L|264:184,6,34.9999989318848
400,120,140254,2,0,P|120:120|104:128,1,279.999991455078
32,288,140771,1,0,0:0:0:0:
184,248,140943,6,0,L|184:200,1,34.9999989318848
224,240,141029,2,0,L|224:192,1,34.9999989318848
264,232,141116,2,0,L|264:184,1,34.9999989318848
304,240,141202,2,0,L|304:184,1,34.9999989318848
344,248,141288,1,0,0:0:0:0:
264,352,141460,1,0,0:0:0:0:
400,120,141633,5,0,0:0:0:0:
120,120,141805,1,0,0:0:0:0:
384,32,141978,2,0,L|432:32,6,34.9999989318848
256,32,142322,2,0,L|112:32,1,139.999995727539
80,32,142581,1,0,0:0:0:0:
48,48,142667,2,0,P|48:192|56:200,1,139.999995727539
56,208,142926,1,0,0:0:0:0:
72,232,143012,1,0,0:0:0:0:
424,344,143271,5,0,0:0:0:0:
424,40,143529,5,0,0:0:0:0:
256,192,143702,6,0,B|160:192|200:104|256:96|352:104|352:192|344:272|256:296|152:216,1,419.999987182618
160,40,144391,2,0,L|160:88,1,34.9999989318848
208,24,144478,2,0,L|208:72,1,34.9999989318848
256,16,144564,2,0,L|256:64,1,34.9999989318848
304,24,144650,2,0,L|304:72,1,34.9999989318848
352,32,144736,2,0,L|400:32,6,34.9999989318848
392,192,145081,5,0,0:0:0:0:
368,216,145167,1,0,0:0:0:0:
344,240,145254,1,0,0:0:0:0:
216,368,145426,1,0,0:0:0:0:
272,184,145598,1,0,0:0:0:0:
296,160,145685,1,0,0:0:0:0:
320,136,145771,2,0,P|464:136|472:144,1,139.999995727539
272,288,146116,2,0,P|160:176|160:168,1,139.999995727539
200,128,146374,1,0,0:0:0:0:
224,104,146460,5,0,0:0:0:0:
144,48,146633,2,0,L|88:104,1,69.9999978637696
32,160,146805,2,0,L|88:216,1,69.9999978637696
152,264,146978,1,0,0:0:0:0:
288,168,147150,6,0,L|336:152,1,34.9999989318848
304,216,147236,2,0,L|352:208,1,34.9999989318848
312,264,147322,2,0,L|360:264,1,34.9999989318848
304,312,147409,2,0,L|352:320,1,34.9999989318848
288,360,147495,1,0,0:0:0:0:
152,264,147667,1,0,0:0:0:0:
384,192,147840,6,0,P|384:336|376:352,1,139.999995727539
232,264,148185,1,0,0:0:0:0:
80,192,148357,2,0,P|80:336|88:352,1,139.999995727539
312,264,148702,1,0,0:0:0:0:
104,64,148874,2,0,B|32:8|32:176|120:120|120:64,1,139.999995727539
272,104,149219,6,0,B|368:104|328:32|272:16|176:16|192:112|192:184|272:184|392:128,1,419.999987182618
480,72,149909,1,0,0:0:0:0:
432,264,150081,1,0,0:0:0:0:
392,32,150254,1,0,0:0:0:0:
336,240,150426,2,0,L|312:312,1,69.9999978637696
256,120,150598,5,0,0:0:0:0:
128,352,150771,1,0,0:0:0:0:
384,352,150943,1,0,0:0:0:0:
184,232,151116,1,0,0:0:0:0:
152,216,151202,1,0,0:0:0:0:
120,200,151288,1,0,0:0:0:0:
256,40,151460,1,0,0:0:0:0:
392,200,151633,1,0,0:0:0:0:
256,352,151805,1,0,0:0:0:0:
120,200,151978,6,0,P|192:128|200:128,1,85.0000016212464
392,200,152322,2,0,P|336:256|328:256,1,75.0000028610231
256,120,152667,2,0,L|320:120,1,64.9999970245363
256,272,153012,2,0,L|200:272,1,50
256,360,153357,5,0,0:0:0:0:
344,232,153529,1,0,0:0:0:0:
176,192,153702,1,0,0:0:0:0:
344,336,153874,1,0,0:0:0:0:
256,136,154047,1,0,0:0:0:0:
168,336,154219,1,0,0:0:0:0:
104,80,154391,1,0,0:0:0:0:
456,80,154736,6,0,P|456:200|448:216,1,119.999996337891
256,136,155081,2,0,L|376:136,1,119.999996337891
472,312,155426,2,0,P|232:312|216:304,1,239.999992675781
352,240,155943,1,0,0:0:0:0:
168,256,156116,2,0,P|168:376|176:384,1,119.999996337891
256,136,156460,2,0,P|136:136|128:144,1,119.999996337891
352,240,156805,2,0,P|304:16|288:8,1,239.999992675781
144,129,157322,1,0,0:0:0:0:
232,312,157495,5,0,0:0:0:0:
24,280,157667,1,0,0:0:0:0:
80,48,157840,2,0,P|208:48|224:56,1,119.999996337891
208,208,158185,2,0,P|80:208|64:200,1,119.999996337891
144,129,158529,2,0,L|264:129,1,119.999996337891
408,128,158874,5,0,0:0:0:0:
272,248,159047,1,0,0:0:0:0:
336,40,159219,1,0,0:0:0:0:
480,216,159391,1,0,0:0:0:0:
264,128,159564,1,0,0:0:0:0:
488,32,159736,1,0,0:0:0:0:
384,272,159909,1,0,0:0:0:0:
240,40,160081,1,0,0:0:0:0:
480,216,160254,6,0,P|480:336|472:352,1,119.999996337891
288,216,160598,2,0,P|288:336|296:352,1,119.999996337891
408,144,160943,2,0,P|160:144|144:152,1,239.999992675781
286,332,161460,1,0,0:0:0:0:
184,232,161633,5,0,0:0:0:0:
384,232,161805,1,0,0:0:0:0:
104,296,161978,2,0,P|104:168|112:152,1,119.999996337891
464,168,162322,2,0,P|464:296|456:312,1,119.999996337891
248,160,162667,1,0,0:0:0:0:
384,88,162840,1,0,0:0:0:0:
408,344,163012,6,0,P|168:344|152:336,1,239.999992675781
64,192,163529,1,0,0:0:0:0:
232,272,163702,2,0,P|352:272|368:264,1,119.999996337891
352,112,164047,2,0,P|224:112|208:120,1,119.999996337891
288,192,164391,5,0,0:0:0:0:
360,24,164564,1,0,0:0:0:0:
144,72,164736,1,0,0:0:0:0:
232,272,164909,1,0,0:0:0:0:
432,176,165081,2,0,P|432:48|424:40,1,119.999996337891
152,208,165426,2,0,P|152:336|160:344,1,119.999996337891
352,272,165771,6,0,L|232:272,1,119.999996337891
40,272,166116,1,0,0:0:0:0:
136,96,166288,1,0,0:0:0:0:
140,319,166460,1,0,0:0:0:0:
32,160,166633,1,0,0:0:0:0:
248,128,166805,2,0,P|376:128|392:136,1,119.999996337891
456,192,167150,6,0,P|456:64|448:48,1,119.999996337891
384,16,167495,1,0,0:0:0:0:
312,192,167667,1,0,0:0:0:0:
392,360,167840,2,0,P|512:360|528:352,1,119.999996337891
312,192,168185,2,0,P|192:192|176:200,1,119.999996337891
448,280,168529,6,0,P|448:160|448:144,1,119.999996337891
96,160,168874,2,0,P|96:288|96:304,1,119.999996337891
320,56,169219,6,0,P|192:56|184:64,1,119.999996337891
192,328,169564,2,0,P|320:328|328:320,1,119.999996337891
256,112,169909,5,0,0:0:0:0:
256,272,170081,1,0,0:0:0:0:
392,120,170254,1,0,0:0:0:0:
144,104,170426,1,0,0:0:0:0:
336,320,170598,1,0,0:0:0:0:
328,56,170771,1,0,0:0:0:0:
168,288,170943,1,0,0:0:0:0:
456,192,171116,1,0,0:0:0:0:
208,32,171288,6,0,P|80:32|72:40,1,119.999996337891
144,192,171633,1,0,0:0:0:0:
272,144,171805,1,0,0:0:0:0:
72,256,171978,2,0,P|72:128|80:120,1,119.999996337891
344,80,172322,2,0,P|344:208|336:216,1,119.999996337891
272,288,172667,5,0,0:0:0:0:
272,144,172840,1,0,0:0:0:0:
456,144,173012,1,0,0:0:0:0:
456,288,173185,1,0,0:0:0:0:
184,288,173357,2,0,L|64:288,1,119.999996337891
128,88,173702,2,0,P|128:208|120:224,1,119.999996337891
8,32,174047,6,0,P|248:32|264:40,1,239.999992675781
136,216,174564,1,0,0:0:0:0:
320,216,174736,2,0,P|320:344|312:360,1,119.999996337891
232,280,175081,1,0,0:0:0:0:
280,104,175254,1,0,0:0:0:0:
136,216,175426,5,0,0:0:0:0:
360,160,175599,1,0,0:0:0:0:
136,96,175771,1,0,0:0:0:0:
328,280,175943,1,0,0:0:0:0:
200,24,176116,2,0,P|80:24|64:32,1,119.999996337891
72,288,176460,2,0,P|192:288|208:280,1,119.999996337891
376,160,176805,5,0,0:0:0:0:
136,160,176978,1,0,0:0:0:0:
448,224,177150,2,0,P|448:96|440:88,1,139.999995727539
64,96,177495,1,0,0:0:0:0:
48,128,177581,1,0,0:0:0:0:
40,160,177667,1,0,0:0:0:0:
48,192,177754,1,0,0:0:0:0:
64,224,177840,2,0,P|208:224|216:216,1,139.999995727539
256,88,178185,5,0,0:0:0:0:
256,288,178357,1,0,0:0:0:0:
328,32,178529,2,0,P|184:32|176:40,1,139.999995727539
184,344,178874,2,0,P|328:344|336:336,1,139.999995727539
336,144,179219,1,0,0:0:0:0:
176,240,179391,1,0,0:0:0:0:
424,296,179564,5,0,0:0:0:0:
424,96,179736,1,0,0:0:0:0:
488,360,179909,2,0,P|360:360|352:352,1,139.999995727539
360,32,180254,1,0,0:0:0:0:
392,16,180340,1,0,0:0:0:0:
424,8,180426,1,0,0:0:0:0:
456,16,180512,1,0,0:0:0:0:
488,32,180598,2,0,P|488:168|480:176,1,139.999995727539
352,200,180943,5,0,0:0:0:0:
168,48,181116,1,0,0:0:0:0:
424,96,181288,1,0,0:0:0:0:
272,320,181460,1,0,0:0:0:0:
104,112,181633,1,0,0:0:0:0:
360,32,181805,1,0,0:0:0:0:
360,320,181978,1,0,0:0:0:0:
40,176,182150,1,0,0:0:0:0:
416,112,182322,6,0,P|416:240|408:248,1,139.999995727539
128,176,182667,1,0,0:0:0:0:
352,176,182840,1,0,0:0:0:0:
64,112,183012,1,0,0:0:0:0:
48,144,183098,1,0,0:0:0:0:
40,176,183185,1,0,0:0:0:0:
48,208,183271,1,0,0:0:0:0:
64,240,183357,2,0,P|192:240|200:232,1,139.999995727539
240,56,183702,5,0,0:0:0:0:
128,176,183874,1,0,0:0:0:0:
256,304,184047,2,0,P|256:176|248:168,1,139.999995727539
48,208,184391,2,0,P|48:336|56:344,1,139.999995727539
191,239,184736,1,0,0:0:0:0:
32,120,184909,1,0,0:0:0:0:
112,272,185081,5,0,0:0:0:0:
112,96,185254,1,0,0:0:0:0:
48,335,185426,2,0,P|176:335|184:327,1,139.999995727539
176,32,185771,1,0,0:0:0:0:
144,16,185858,1,0,0:0:0:0:
112,8,185944,1,0,0:0:0:0:
80,16,186030,1,0,0:0:0:0:
48,32,186116,2,0,P|48:168|56:176,1,139.999995727539
192,248,186460,5,0,0:0:0:0:
272,80,186633,1,0,0:0:0:0:
352,280,186805,1,0,0:0:0:0:
432,56,186978,1,0,0:0:0:0:
112,96,187150,1,0,0:0:0:0:
272,352,187322,1,0,0:0:0:0:
352,24,187495,1,0,0:0:0:0:
456,352,187667,1,0,0:0:0:0:
256,192,187840,5,0,0:0:0:0:
