osu file format v14

[General]
AudioFilename: audio.mp3
AudioLeadIn: 0
PreviewTime: 49599
Countdown: 0
SampleSet: Normal
StackLeniency: 0.7
Mode: 1
LetterboxInBreaks: 0
WidescreenStoryboard: 1

[Editor]
Bookmarks: 70335,75099
DistanceSpacing: 1.1
BeatDivisor: 8
GridSize: 32
TimelineZoom: 3.099999

[Metadata]
Title:Murder In My Mind (Sped Up Ver.)
TitleUnicode:Murder In My Mind (Sped Up Ver.)
Artist:KORDHELL
ArtistUnicode:KORDHELL
Creator:Invisible O
Version:Oni In My Mind
Source:
Tags:English Phonk Mass Electronic phonkhouse house rap hip-hop hip hop trap lofi lo-fi underground D3kuu Dekuu
BeatmapID:3754115
BeatmapSetID:1829119

[Difficulty]
HPDrainRate:5
CircleSize:5
OverallDifficulty:5.5
ApproachRate:5
SliderMultiplier:1.3
SliderTickRate:1

[Events]
//Background and Video events
0,0,"Murder.jpg",0,0
//Break Periods
//Storyboard Layer 0 (Background)
//Storyboard Layer 1 (Fail)
//Storyboard Layer 2 (Pass)
//Storyboard Layer 3 (Foreground)
//Storyboard Layer 4 (Overlay)
//Storyboard Sound Samples

[TimingPoints]
490,396.87789390131,4,1,0,50,1,0
490,-100,4,1,0,50,0,0
585,-99.7977930267529,4,1,0,50,0,0
684,-99.595994930106,4,1,0,50,0,0
882,-99.193622061177,4,1,0,50,0,0
1081,-98.7908549376158,4,1,0,50,0,0
1180,-98.5910929400015,4,1,0,50,0,0
1279,-98.3917348750762,4,1,0,50,0,0
1478,-97.9922237450824,4,1,0,50,0,0
1676,-97.5963301930504,4,1,0,50,0,0
1775,-97.3989836077668,4,1,0,50,0,0
1875,-97.2000487349769,4,1,0,50,0,0
2073,-96.8073556101482,4,1,0,50,0,0
2074,-96.8053763434914,4,1,0,50,0,0
2172,-96.6116043864884,4,1,0,50,0,0
2271,-96.416248985453,4,1,0,50,0,0
2470,-96.0247591450629,4,1,0,50,0,0
2668,-95.6368142497634,4,1,0,50,0,0
2768,-95.4414785617298,4,1,0,50,0,0
2867,-95.2484892367078,4,1,0,50,0,0
3065,-94.863680511194,4,1,0,50,0,0
3264,-94.478494740819,4,1,0,50,0,0
3462,-94.0967968321065,4,1,0,50,0,0
3561,-93.9065265473098,4,1,0,50,0,0
3661,-93.714724926586,4,1,0,50,0,0
3859,-93.3361126866454,4,1,0,50,0,0
4057,-92.9590300593494,4,1,0,50,0,0
4157,-92.7691636753839,4,1,0,50,0,0
4256,-92.5815779574092,4,1,0,50,0,0
4454,-92.2075436886735,4,1,0,50,0,0
4653,-91.8331429321487,4,1,0,50,0,0
4851,-91.4621323788598,4,1,0,50,0,0
4950,-91.2771895693092,4,1,0,50,0,0
5050,-91.0907583004912,4,1,0,50,0,0
5149,-90.9065664352239,4,1,0,50,0,0
5248,-90.7227470187523,4,1,0,50,0,0
5249,-90.7208921544493,4,1,0,50,0,0
5446,-90.3562225212495,4,1,0,50,0,0
5645,-89.9893388942125,4,1,0,50,0,0
5744,-89.8073741757894,4,1,0,50,0,0
5843,-89.6257774027158,4,1,0,50,0,0
6042,-89.2618596849096,4,1,0,50,0,0
6141,-89.0813659801766,4,1,0,50,0,0
6240,-88.9012372463009,4,1,0,50,0,0
6439,-88.5402614611375,4,1,0,50,0,0
6637,-88.1825543159371,4,1,0,50,0,0
6836,-87.8244966806568,4,1,0,50,0,0
7232,-87.1162993145417,4,1,0,50,0,0
7431,-86.7625711154788,4,1,0,50,0,0
7530,-86.5871311465148,4,1,0,50,0,0
7629,-86.4120459294019,4,1,0,50,0,0
7828,-86.0611772903017,4,1,0,50,0,0
8026,-85.7134857708384,4,1,0,50,0,0
8125,-85.5401671255966,4,1,0,50,0,0
8225,-85.3654535748466,4,1,0,50,0,0
8423,-85.0205728144663,4,1,0,50,0,0
8424,-85.0188345334869,4,1,0,50,0,0
8522,-84.8486552875408,4,1,0,50,0,0
8621,-84.6770853898429,4,1,0,50,0,0
8820,-84.3332614079645,4,1,0,50,0,0
9018,-83.9925507562694,4,1,0,50,0,0
9118,-83.8209981714161,4,1,0,50,0,0
9217,-83.6515062680682,4,1,0,50,0,0
9415,-83.3135499417025,4,1,0,50,0,0
9614,-82.975262477585,4,1,0,50,0,0
9812,-82.6400382104178,4,1,0,50,0,0
10011,-82.3044854824362,4,1,0,50,0,0
10110,-82.1380600734955,4,1,0,50,0,0
10209,-81.971971188337,4,1,0,50,0,0
10407,-81.6408002688441,4,1,0,50,0,0
10606,-81.3093048601046,4,1,0,50,0,0
10705,-81.1448917757786,4,1,0,50,0,0
10804,-80.9808111461742,4,1,0,50,0,0
11003,-80.6519955661877,4,1,0,50,0,0
11201,-80.3261574151297,4,1,0,50,0,0
11300,-80.1637323234948,4,1,0,50,0,0
11401,-80,4,1,0,50,0,0
11598,-81.3008130081301,4,1,0,50,0,0
11599,-81.3008130081301,4,1,0,50,0,0
11797,-83.7357155720902,4,1,0,50,0,0
11896,-84.9803782254694,4,1,0,50,0,0
11995,-86.2435417671509,4,1,0,50,0,0
12193,-88.8264756051292,4,1,0,50,0,0
12392,-91.5004025538135,4,1,0,50,0,0
12491,-92.8604809032944,4,1,0,50,0,0
12590,-94.240775700628,4,1,0,50,0,0
12789,-97.0776883226151,4,1,0,50,0,0
12987,-99.9875067406454,4,1,0,50,0,0
13137,-99.9875067406454,4,1,0,80,0,0
13190,-66.6666666666667,4,1,0,80,0,1
24302,-71.4285714285714,4,1,0,80,0,0
24695,-79.8912920895976,4,1,0,80,0,0
25092,-89.3819288724503,4,1,0,80,0,0
25489,-100,4,1,0,80,0,0
25837,-66.6666666666667,4,1,0,70,0,0
36998,-66.6666666666667,4,1,0,70,0,0
36999,-66.6666666666667,4,1,0,70,0,0
37097,-67.5293969686707,4,1,0,70,0,0
37197,-68.4212436721258,4,1,0,70,0,0
37296,-69.3157737458456,4,1,0,70,0,0
37395,-70.2219987846061,4,1,0,70,0,0
37594,-72.079603820437,4,1,0,70,0,0
37792,-73.9766420518261,4,1,0,70,0,0
37891,-74.9438026516139,4,1,0,70,0,0
37990,-75.9236077781042,4,1,0,70,0,0
38189,-77.9320393036673,4,1,0,70,0,0
38387,-79.9918337177569,4,1,0,70,0,0
38537,-71.4285714285714,4,1,0,70,0,0
38686,-100,4,1,0,70,0,0
39181,-97.5960042454475,4,1,0,70,0,0
39380,-95.2380952380952,4,1,0,70,0,0
39778,-93.0232558139535,4,1,0,70,0,0
40173,-83.3333333333334,4,1,0,70,0,0
40570,-97.2280554388912,4,1,0,70,0,0
40769,-95.8923023817743,4,1,0,70,0,0
40967,-94.5991963495198,4,1,0,70,0,0
41165,-93.3405013103958,4,1,0,70,0,0
41364,-92.1087533156499,4,1,0,70,0,0
41562,-90.9150412357638,4,1,0,70,0,0
41761,-90.9173561232839,4,1,0,70,0,0
41959,-91.5364822374465,4,1,0,70,0,0
42158,-92.1629833990379,4,1,0,70,0,0
42356,-92.7905919461244,4,1,0,70,0,0
42555,-93.4256765836157,4,1,0,70,0,0
42951,-94.7024233968801,4,1,0,70,0,0
43349,-96.0031991391249,4,1,0,70,0,0
43547,-96.6569586649692,4,1,0,70,0,0
43745,-97.3151701415972,4,1,0,70,0,0
43944,-97.9812222515748,4,1,0,70,0,0
44142,-98.64845165617,4,1,0,70,0,0
44341,-99.3236291159228,4,1,0,70,0,0
44539,-100,4,1,0,70,0,0
44937,-71.4285714285714,4,1,0,70,0,0
45037,-100,4,1,0,70,0,0
45532,-97.5960042454475,4,1,0,70,0,0
45731,-95.2380952380952,4,1,0,70,0,0
46128,-93.0232558139535,4,1,0,70,0,0
46524,-83.3333333333334,4,1,0,70,0,0
46921,-97.2280554388912,4,1,0,70,0,0
47120,-95.8923023817743,4,1,0,70,0,0
47318,-94.5991963495198,4,1,0,70,0,0
47516,-93.3405013103958,4,1,0,70,0,0
47715,-92.1087533156499,4,1,0,70,0,0
47913,-90.9150412357638,4,1,0,70,0,0
48111,-90.9173561232839,4,1,0,70,0,0
48309,-91.5364822374465,4,1,0,70,0,0
48508,-92.1629833990379,4,1,0,70,0,0
48706,-92.7905919461244,4,1,0,70,0,0
48905,-93.4256765836157,4,1,0,70,0,0
49301,-94.7024233968801,4,1,0,70,0,0
49698,-95.9999085712531,4,1,0,70,0,0
49897,-96.6569586649692,4,1,0,70,0,0
50095,-97.3151701415972,4,1,0,70,0,0
50294,-97.9812222515748,4,1,0,70,0,0
50492,-98.64845165617,4,1,0,70,0,0
50691,-99.3236291159228,4,1,0,70,0,0
50889,-100,4,1,0,70,0,0
51237,-100,4,1,0,80,0,0
51290,-66.6666666666667,4,1,0,80,0,1
62402,-71.4285714285714,4,1,0,80,0,0
62795,-79.8837816608755,4,1,0,80,0,0
63192,-89.3651031956661,4,1,0,80,0,0
63589,-99.9717527529545,4,1,0,80,0,0
63937,-99.9717527529545,4,1,0,70,0,0
63987,-66.6666666666667,4,1,0,70,0,0
75099,-66.6666666666667,4,1,0,70,0,0
75198,-67.5386427232804,4,1,0,70,0,0
75297,-68.4220239135438,4,1,0,70,0,0
75396,-69.3169594125087,4,1,0,70,0,0
75495,-70.2236003463833,4,1,0,70,0,0
75694,-72.0820738785322,4,1,0,70,0,0
75892,-73.9800207398214,4,1,0,70,0,0
75992,-74.9574911921562,4,1,0,70,0,0
76091,-75.9379082559072,4,1,0,70,0,0
76289,-77.9373806194526,4,1,0,70,0,0
76488,-80,4,1,0,70,0,0
76637,-71.4285714285714,4,1,0,70,0,0
76787,-100,4,1,0,70,0,0
77282,-97.5960042454475,4,1,0,70,0,0
77481,-95.2380952380952,4,1,0,70,0,0
77878,-93.0232558139535,4,1,0,70,0,0
78274,-83.3333333333334,4,1,0,70,0,0
78671,-97.2280554388912,4,1,0,70,0,0
78870,-95.8923023817743,4,1,0,70,0,0
79068,-94.5991963495198,4,1,0,70,0,0
79266,-93.3405013103958,4,1,0,70,0,0
79465,-92.1087533156499,4,1,0,70,0,0
79663,-90.9150412357638,4,1,0,70,0,0
79862,-90.9173561232839,4,1,0,70,0,0
80060,-91.5364822374465,4,1,0,70,0,0
80259,-92.1629833990379,4,1,0,70,0,0
80457,-92.7905919461244,4,1,0,70,0,0
80656,-93.4256765836157,4,1,0,70,0,0
81052,-94.7024233968801,4,1,0,70,0,0
81449,-95.9999085712531,4,1,0,70,0,0
81648,-96.6569586649692,4,1,0,70,0,0
81846,-97.3151701415972,4,1,0,70,0,0
82045,-97.9812222515748,4,1,0,70,0,0
82243,-98.64845165617,4,1,0,70,0,0
82442,-99.3236291159228,4,1,0,70,0,0
82640,-100,4,1,0,70,0,0
83037,-71.4285714285714,4,1,0,70,0,0
83138,-100,4,1,0,70,0,0
83632,-97.5960042454475,4,1,0,70,0,0
83831,-95.2380952380952,4,1,0,70,0,0
84228,-93.0232558139535,4,1,0,70,0,0
84625,-83.3333333333334,4,1,0,70,0,0
85021,-97.2280554388912,4,1,0,70,0,0
85220,-95.8923023817743,4,1,0,70,0,0
85418,-94.5991963495198,4,1,0,70,0,0
85617,-93.3405013103958,4,1,0,70,0,0
85815,-92.1087533156499,4,1,0,70,0,0
86014,-90.9150412357638,4,1,0,70,0,0
86211,-90.9173561232839,4,1,0,70,0,0
86410,-91.4951597727694,4,1,0,70,0,0
86608,-92.0766355160287,4,1,0,70,0,0
86806,-92.6618066901812,4,1,0,70,0,0
87005,-93.2536804516967,4,1,0,70,0,0
87402,-94.445771927378,4,1,0,70,0,0
87799,-95.6531022877823,4,1,0,70,0,0
87997,-96.261002846522,4,1,0,70,0,0
88196,-96.8758663364227,4,1,0,70,0,0
88295,-97.1832145626898,4,1,0,70,0,0
88394,-97.4915378814723,4,1,0,70,0,0
88592,-98.1111221807064,4,1,0,70,0,0
88791,-98.7378032373986,4,1,0,70,0,0
88890,-99.0510586418472,4,1,0,70,0,0
88989,-99.3653078799157,4,1,0,70,0,0
89188,-100,4,1,0,70,0,0
89387,-71.4285714285714,4,1,0,70,0,0
89783,-100,4,1,0,70,0,0
89981,-99.3263932459452,4,1,0,70,0,0
90180,-98.6505545322627,4,1,0,70,0,0
90577,-97.3159802317712,4,1,0,70,0,0
90974,-95.9994604528379,4,1,0,70,0,0
91371,-94.7007509484782,4,1,0,70,0,0
91569,-94.0596131548447,4,1,0,70,0,0
91767,-93.4228159568908,4,1,0,70,0,0
91966,-92.7871464867574,4,1,0,70,0,0
92164,-92.1589640723599,4,1,0,70,0,0
92363,-91.5318941295427,4,1,0,70,0,0
92561,-90.9122099553249,4,1,0,70,0,0
92958,-90.9090909090909,4,1,0,70,0,0
93156,-90.297309299598,4,1,0,70,0,0
93355,-89.6876201678391,4,1,0,70,0,0
93752,-88.495575221239,4,1,0,70,0,0
94149,-90.0900900900901,4,1,0,70,0,0
94347,-91.6667478488635,4,1,0,70,0,0
94546,-93.2791716620186,4,1,0,70,0,0
94744,-94.9116412220536,4,1,0,70,0,0
94942,-96.572680470444,4,1,0,70,0,0
95141,-98.271399944462,4,1,0,70,0,0
95339,-99.9912379980483,4,1,0,70,0,0
95737,-83.3333333333333,4,1,0,70,0,0
96133,-100,4,1,0,70,0,0
96332,-99.2709368191605,4,1,0,70,0,0
96530,-98.5471889695375,4,1,0,70,0,0
96927,-97.1118955797533,4,1,0,70,0,0
97324,-95.6975065621415,4,1,0,70,0,0
97721,-94.3037174543676,4,1,0,70,0,0
97919,-93.6161837722449,4,1,0,70,0,0
98117,-92.9336626450544,4,1,0,70,0,0
98316,-92.2527081505642,4,1,0,70,0,0
98514,-91.5801276221111,4,1,0,70,0,0
98713,-90.9090909090909,4,1,0,70,0,0
98911,-90.9090909090909,4,1,0,70,0,0
99110,-91.5287538229787,4,1,0,70,0,0
99308,-92.1526405402617,4,1,0,70,0,0
99507,-92.7839631145794,4,1,0,70,0,0
99705,-93.4164057049814,4,1,0,70,0,0
100102,-94.6975019237241,4,1,0,70,0,0
100499,-95.9961668715276,4,1,0,70,0,0
100697,-96.6505047808699,4,1,0,70,0,0
100896,-97.3126414828639,4,1,0,70,0,0
101094,-97.9759528676371,4,1,0,70,0,0
101292,-98.6437855765309,4,1,0,70,0,0
101491,-99.3195779172117,4,1,0,70,0,0
101689,-99.9965691668528,4,1,0,70,0,0
102087,-71.4285714285714,4,1,0,70,0,0

[HitObjects]
256,192,490,5,0,0:0:0:0:
256,192,589,1,0,0:0:0:0:
256,192,688,1,8,0:0:0:0:
256,192,886,1,0,0:0:0:0:
256,192,1085,1,8,0:0:0:0:
256,192,1184,1,8,0:0:0:0:
256,192,1283,1,0,0:0:0:0:
256,192,1482,1,8,0:0:0:0:
256,192,1680,1,0,0:0:0:0:
256,192,1779,1,0,0:0:0:0:
256,192,1879,1,8,0:0:0:0:
256,192,2077,1,0,0:0:0:0:
256,192,2176,1,8,0:0:0:0:
256,192,2275,1,0,0:0:0:0:
256,192,2474,1,8,0:0:0:0:
256,192,2672,1,0,0:0:0:0:
256,192,2772,1,8,0:0:0:0:
256,192,2871,1,0,0:0:0:0:
256,192,3069,1,8,0:0:0:0:
256,192,3268,1,0,0:0:0:0:
256,192,3466,1,8,0:0:0:0:
256,192,3565,1,8,0:0:0:0:
256,192,3665,1,0,0:0:0:0:
256,192,3863,1,8,0:0:0:0:
256,192,4061,1,0,0:0:0:0:
256,192,4161,1,8,0:0:0:0:
256,192,4260,1,0,0:0:0:0:
256,192,4458,1,8,0:0:0:0:
256,192,4657,1,0,0:0:0:0:
256,192,4855,1,8,0:0:0:0:
256,192,4954,1,8,0:0:0:0:
256,192,5054,1,0,0:0:0:0:
256,192,5153,1,0,0:0:0:0:
256,192,5252,1,8,0:0:0:0:
256,192,5450,1,8,0:0:0:0:
256,192,5649,1,0,0:0:0:0:
256,192,5748,1,0,0:0:0:0:
256,192,5847,1,8,0:0:0:0:
256,192,6046,1,0,0:0:0:0:
256,192,6145,1,8,0:0:0:0:
256,192,6244,1,0,0:0:0:0:
256,192,6443,1,0,0:0:0:0:
256,192,6641,1,8,0:0:0:0:
256,192,6840,1,4,0:0:0:0:
256,192,7236,1,0,0:0:0:0:
256,192,7435,1,0,0:0:0:0:
256,192,7534,1,8,0:0:0:0:
256,192,7633,1,0,0:0:0:0:
256,192,7832,1,8,0:0:0:0:
256,192,8030,1,8,0:0:0:0:
256,192,8129,1,0,0:0:0:0:
256,192,8229,1,8,0:0:0:0:
256,192,8427,1,0,0:0:0:0:
256,192,8526,1,0,0:0:0:0:
256,192,8625,1,8,0:0:0:0:
256,192,8824,1,0,0:0:0:0:
256,192,9022,1,8,0:0:0:0:
256,192,9122,1,8,0:0:0:0:
256,192,9221,1,0,0:0:0:0:
256,192,9419,1,0,0:0:0:0:
256,192,9618,1,8,0:0:0:0:
256,192,9816,1,0,0:0:0:0:
256,192,10015,1,0,0:0:0:0:
256,192,10114,1,0,0:0:0:0:
256,192,10213,1,8,0:0:0:0:
256,192,10411,1,0,0:0:0:0:
256,192,10610,1,8,0:0:0:0:
256,192,10709,1,8,0:0:0:0:
256,192,10808,1,0,0:0:0:0:
256,192,11007,1,8,0:0:0:0:
256,192,11205,1,0,0:0:0:0:
256,192,11304,1,0,0:0:0:0:
256,192,11404,1,8,0:0:0:0:
256,192,11602,1,0,0:0:0:0:
256,192,11801,1,8,0:0:0:0:
256,192,11900,1,8,0:0:0:0:
256,192,11999,1,0,0:0:0:0:
256,192,12197,1,8,0:0:0:0:
256,192,12396,1,0,0:0:0:0:
256,192,12495,1,0,0:0:0:0:
256,192,12594,1,8,0:0:0:0:
256,192,12793,1,0,0:0:0:0:
256,192,13190,1,0,0:0:0:0:
256,192,13289,1,8,0:0:0:0:
256,192,13388,1,0,0:0:0:0:
256,192,13586,1,8,0:0:0:0:
256,192,13785,1,8,0:0:0:0:
256,192,13884,1,8,0:0:0:0:
256,192,13983,1,0,0:0:0:0:
256,192,14182,1,0,0:0:0:0:
256,192,14380,1,12,0:0:0:0:
256,192,14777,1,0,0:0:0:0:
256,192,14876,1,0,0:0:0:0:
256,192,14976,1,8,0:0:0:0:
256,192,15174,1,8,0:0:0:0:
256,192,15372,1,0,0:0:0:0:
256,192,15472,1,0,0:0:0:0:
256,192,15571,1,0,0:0:0:0:
256,192,15670,1,0,0:0:0:0:
256,192,15769,1,8,0:0:0:0:
256,192,15968,1,8,0:0:0:0:
256,192,16067,1,0,0:0:0:0:
256,192,16166,1,0,0:0:0:0:
256,192,16365,1,8,0:0:0:0:
256,192,16464,1,8,0:0:0:0:
256,192,16563,1,0,0:0:0:0:
256,192,16761,1,8,0:0:0:0:
256,192,16960,1,0,0:0:0:0:
256,192,17059,1,8,0:0:0:0:
256,192,17158,1,0,0:0:0:0:
256,192,17357,1,0,0:0:0:0:
256,192,17555,1,12,0:0:0:0:
256,192,17952,1,0,0:0:0:0:
256,192,18051,1,8,0:0:0:0:
256,192,18151,1,0,0:0:0:0:
256,192,18349,1,8,0:0:0:0:
256,192,18547,1,8,0:0:0:0:
256,192,18647,1,8,0:0:0:0:
256,192,18746,1,0,0:0:0:0:
256,192,18845,1,0,0:0:0:0:
256,192,18944,1,8,0:0:0:0:
256,192,19143,1,8,0:0:0:0:
256,192,19242,1,0,0:0:0:0:
256,192,19341,1,0,0:0:0:0:
256,192,19540,1,0,0:0:0:0:
256,192,19639,1,8,0:0:0:0:
256,192,19738,1,0,0:0:0:0:
256,192,19937,1,8,0:0:0:0:
256,192,20135,1,8,0:0:0:0:
256,192,20234,1,8,0:0:0:0:
256,192,20333,1,0,0:0:0:0:
256,192,20532,1,0,0:0:0:0:
256,192,20730,1,12,0:0:0:0:
256,192,21127,1,0,0:0:0:0:
256,192,21226,1,0,0:0:0:0:
256,192,21326,1,8,0:0:0:0:
256,192,21524,1,8,0:0:0:0:
256,192,21722,1,0,0:0:0:0:
256,192,21822,1,0,0:0:0:0:
256,192,21921,1,0,0:0:0:0:
256,192,22020,1,0,0:0:0:0:
256,192,22119,1,8,0:0:0:0:
256,192,22318,1,8,0:0:0:0:
256,192,22417,1,0,0:0:0:0:
256,192,22516,1,0,0:0:0:0:
256,192,22715,1,8,0:0:0:0:
256,192,22814,1,8,0:0:0:0:
256,192,22913,1,0,0:0:0:0:
256,192,23112,1,8,0:0:0:0:
256,192,23310,1,0,0:0:0:0:
256,192,23409,1,8,0:0:0:0:
256,192,23508,1,0,0:0:0:0:
256,192,23707,1,0,0:0:0:0:
256,192,23905,1,12,0:0:0:0:
256,192,24302,1,8,0:0:0:0:
256,192,24699,1,8,0:0:0:0:
256,192,25096,1,8,0:0:0:0:
256,192,25493,1,8,0:0:0:0:
256,192,25890,1,0,0:0:0:0:
256,192,26088,1,8,0:0:0:0:
256,192,26187,1,0,0:0:0:0:
256,192,26287,1,8,0:0:0:0:
256,192,26485,1,8,0:0:0:0:
256,192,26584,1,8,0:0:0:0:
256,192,26683,1,0,0:0:0:0:
256,192,26882,1,8,0:0:0:0:
256,192,27080,1,8,0:0:0:0:
256,192,27180,1,0,0:0:0:0:
256,192,27279,1,8,0:0:0:0:
256,192,27477,1,0,0:0:0:0:
256,192,27676,1,0,0:0:0:0:
256,192,27775,1,8,0:0:0:0:
256,192,27874,1,0,0:0:0:0:
256,192,28073,1,8,0:0:0:0:
256,192,28172,1,8,0:0:0:0:
256,192,28271,1,0,0:0:0:0:
256,192,28469,1,0,0:0:0:0:
256,192,28668,1,8,0:0:0:0:
256,192,28866,1,8,0:0:0:0:
256,192,28965,1,8,0:0:0:0:
256,192,29065,1,0,0:0:0:0:
256,192,29263,1,0,0:0:0:0:
256,192,29462,1,8,0:0:0:0:
256,192,29561,1,8,0:0:0:0:
256,192,29660,1,0,0:0:0:0:
256,192,29858,1,0,0:0:0:0:
256,192,30057,1,8,0:0:0:0:
256,192,30255,1,8,0:0:0:0:
256,192,30355,1,0,0:0:0:0:
256,192,30454,1,8,0:0:0:0:
256,192,30652,1,0,0:0:0:0:
256,192,30751,1,0,0:0:0:0:
256,192,30851,1,0,0:0:0:0:
256,192,30950,1,0,0:0:0:0:
256,192,31049,1,8,0:0:0:0:
256,192,31248,1,8,0:0:0:0:
256,192,31446,1,0,0:0:0:0:
256,192,31545,1,0,0:0:0:0:
256,192,31644,1,8,0:0:0:0:
256,192,31843,1,8,0:0:0:0:
256,192,32240,1,0,0:0:0:0:
256,192,32438,1,8,0:0:0:0:
256,192,32537,1,0,0:0:0:0:
256,192,32637,1,8,0:0:0:0:
256,192,32835,1,8,0:0:0:0:
256,192,32934,1,8,0:0:0:0:
256,192,33033,1,0,0:0:0:0:
256,192,33232,1,8,0:0:0:0:
256,192,33430,1,8,0:0:0:0:
256,192,33530,1,0,0:0:0:0:
256,192,33629,1,8,0:0:0:0:
256,192,33827,1,0,0:0:0:0:
256,192,34026,1,0,0:0:0:0:
256,192,34125,1,8,0:0:0:0:
256,192,34224,1,0,0:0:0:0:
256,192,34423,1,8,0:0:0:0:
256,192,34522,1,8,0:0:0:0:
256,192,34621,1,0,0:0:0:0:
256,192,34819,1,0,0:0:0:0:
256,192,35018,1,8,0:0:0:0:
256,192,35216,1,8,0:0:0:0:
256,192,35316,1,8,0:0:0:0:
256,192,35415,1,0,0:0:0:0:
256,192,35613,1,0,0:0:0:0:
256,192,35812,1,8,0:0:0:0:
256,192,35911,1,8,0:0:0:0:
256,192,36010,1,0,0:0:0:0:
256,192,36209,1,0,0:0:0:0:
256,192,36407,1,8,0:0:0:0:
256,192,36605,1,8,0:0:0:0:
256,192,36705,1,0,0:0:0:0:
256,192,36804,1,8,0:0:0:0:
256,192,37002,1,0,0:0:0:0:
256,192,37101,1,0,0:0:0:0:
256,192,37201,1,8,0:0:0:0:
256,192,37300,1,8,0:0:0:0:
256,192,37399,1,0,0:0:0:0:
256,192,37598,1,8,0:0:0:0:
256,192,37796,1,0,0:0:0:0:
256,192,37895,1,0,0:0:0:0:
256,192,37994,1,8,0:0:0:0:
256,192,38193,1,8,0:0:0:0:
256,192,38590,5,4,0:0:0:0:
256,192,38987,1,8,0:0:0:0:
256,192,39185,1,0,0:0:0:0:
256,192,39384,1,0,0:0:0:0:
256,192,39780,1,8,0:0:0:0:
256,192,40177,1,0,0:0:0:0:
256,192,40574,1,8,0:0:0:0:
256,192,40773,1,0,0:0:0:0:
256,192,40971,1,0,0:0:0:0:
256,192,41169,1,0,0:0:0:0:
256,192,41368,1,8,0:0:0:0:
256,192,41566,1,8,0:0:0:0:
256,192,41765,1,0,0:0:0:0:
256,192,41963,1,0,0:0:0:0:
256,192,42162,1,8,0:0:0:0:
256,192,42360,1,8,0:0:0:0:
256,192,42559,1,0,0:0:0:0:
256,192,42955,1,8,0:0:0:0:
256,192,43352,1,0,0:0:0:0:
256,192,43551,1,0,0:0:0:0:
256,192,43749,1,8,0:0:0:0:
256,192,43948,1,8,0:0:0:0:
256,192,44146,1,0,0:0:0:0:
256,192,44345,1,0,0:0:0:0:
256,192,44543,1,8,0:0:0:0:
256,192,44940,5,4,0:0:0:0:
256,192,45337,1,8,0:0:0:0:
256,192,45535,1,0,0:0:0:0:
256,192,45734,1,0,0:0:0:0:
256,192,46130,1,8,0:0:0:0:
256,192,46527,1,0,0:0:0:0:
256,192,46924,1,8,0:0:0:0:
256,192,47123,1,0,0:0:0:0:
256,192,47321,1,0,0:0:0:0:
256,192,47520,1,0,0:0:0:0:
256,192,47718,1,8,0:0:0:0:
256,192,47916,1,8,0:0:0:0:
256,192,48115,1,0,0:0:0:0:
256,192,48313,1,0,0:0:0:0:
256,192,48512,1,8,0:0:0:0:
256,192,48710,1,8,0:0:0:0:
256,192,48909,1,0,0:0:0:0:
256,192,49305,1,8,0:0:0:0:
256,192,49702,1,0,0:0:0:0:
256,192,49901,1,8,0:0:0:0:
256,192,50099,1,0,0:0:0:0:
256,192,50298,1,8,0:0:0:0:
256,192,50496,1,0,0:0:0:0:
256,192,50695,1,0,0:0:0:0:
256,192,50893,1,8,0:0:0:0:
256,192,51290,1,0,0:0:0:0:
256,192,51389,1,8,0:0:0:0:
256,192,51488,1,0,0:0:0:0:
256,192,51687,1,8,0:0:0:0:
256,192,51885,1,8,0:0:0:0:
256,192,51984,1,8,0:0:0:0:
256,192,52084,1,0,0:0:0:0:
256,192,52282,1,0,0:0:0:0:
256,192,52481,1,12,0:0:0:0:
256,192,52877,1,0,0:0:0:0:
256,192,52977,1,0,0:0:0:0:
256,192,53076,1,8,0:0:0:0:
256,192,53274,1,8,0:0:0:0:
256,192,53473,1,0,0:0:0:0:
256,192,53572,1,0,0:0:0:0:
256,192,53671,1,0,0:0:0:0:
256,192,53770,1,0,0:0:0:0:
256,192,53870,1,8,0:0:0:0:
256,192,54068,1,8,0:0:0:0:
256,192,54167,1,0,0:0:0:0:
256,192,54266,1,0,0:0:0:0:
256,192,54465,1,8,0:0:0:0:
256,192,54564,1,8,0:0:0:0:
256,192,54663,1,0,0:0:0:0:
256,192,54862,1,8,0:0:0:0:
256,192,55060,1,0,0:0:0:0:
256,192,55159,1,8,0:0:0:0:
256,192,55259,1,0,0:0:0:0:
256,192,55457,1,0,0:0:0:0:
256,192,55656,1,12,0:0:0:0:
256,192,56052,1,0,0:0:0:0:
256,192,56152,1,8,0:0:0:0:
256,192,56251,1,0,0:0:0:0:
256,192,56449,1,8,0:0:0:0:
256,192,56648,1,8,0:0:0:0:
256,192,56747,1,8,0:0:0:0:
256,192,56846,1,0,0:0:0:0:
256,192,56945,1,0,0:0:0:0:
256,192,57045,1,8,0:0:0:0:
256,192,57243,1,8,0:0:0:0:
256,192,57342,1,0,0:0:0:0:
256,192,57441,1,0,0:0:0:0:
256,192,57640,1,0,0:0:0:0:
256,192,57739,1,8,0:0:0:0:
256,192,57838,1,0,0:0:0:0:
256,192,58037,1,8,0:0:0:0:
256,192,58235,1,8,0:0:0:0:
256,192,58334,1,8,0:0:0:0:
256,192,58434,1,0,0:0:0:0:
256,192,58632,1,0,0:0:0:0:
256,192,58831,1,12,0:0:0:0:
256,192,59227,1,0,0:0:0:0:
256,192,59327,1,0,0:0:0:0:
256,192,59426,1,8,0:0:0:0:
256,192,59624,1,8,0:0:0:0:
256,192,59823,1,0,0:0:0:0:
256,192,59922,1,0,0:0:0:0:
256,192,60021,1,0,0:0:0:0:
256,192,60120,1,0,0:0:0:0:
256,192,60220,1,8,0:0:0:0:
256,192,60418,1,8,0:0:0:0:
256,192,60517,1,0,0:0:0:0:
256,192,60617,1,0,0:0:0:0:
256,192,60815,1,8,0:0:0:0:
256,192,60914,1,8,0:0:0:0:
256,192,61013,1,0,0:0:0:0:
256,192,61212,5,8,0:0:0:0:
256,192,61410,1,0,0:0:0:0:
256,192,61509,1,8,0:0:0:0:
256,192,61609,1,0,0:0:0:0:
256,192,61807,1,0,0:0:0:0:
256,192,62006,1,12,0:0:0:0:
256,192,62402,1,8,0:0:0:0:
256,192,62799,1,8,0:0:0:0:
256,192,63196,1,8,0:0:0:0:
256,192,63593,1,8,0:0:0:0:
256,192,63990,1,0,0:0:0:0:
256,192,64188,1,8,0:0:0:0:
256,192,64288,1,0,0:0:0:0:
256,192,64387,1,8,0:0:0:0:
256,192,64585,1,8,0:0:0:0:
256,192,64684,1,8,0:0:0:0:
256,192,64784,1,0,0:0:0:0:
256,192,64982,1,0,0:0:0:0:
256,192,65081,1,0,0:0:0:0:
256,192,65181,1,8,0:0:0:0:
256,192,65379,1,0,0:0:0:0:
256,192,65577,1,0,0:0:0:0:
256,192,65677,1,0,0:0:0:0:
256,192,65776,1,8,0:0:0:0:
256,192,65974,1,8,0:0:0:0:
256,192,66173,1,8,0:0:0:0:
256,192,66272,1,8,0:0:0:0:
256,192,66371,1,0,0:0:0:0:
256,192,66570,1,0,0:0:0:0:
256,192,66768,1,8,0:0:0:0:
256,192,66967,1,0,0:0:0:0:
256,192,67165,1,0,0:0:0:0:
256,192,67264,1,8,0:0:0:0:
256,192,67363,1,0,0:0:0:0:
256,192,67562,1,8,0:0:0:0:
256,192,67760,1,8,0:0:0:0:
256,192,67860,1,0,0:0:0:0:
256,192,67959,1,8,0:0:0:0:
256,192,68157,1,0,0:0:0:0:
256,192,68256,1,0,0:0:0:0:
256,192,68356,1,8,0:0:0:0:
256,192,68554,1,8,0:0:0:0:
256,192,68752,1,0,0:0:0:0:
256,192,68951,1,8,0:0:0:0:
256,192,69050,1,0,0:0:0:0:
256,192,69149,5,8,0:0:0:0:
256,192,69348,1,8,0:0:0:0:
256,192,69546,1,0,0:0:0:0:
256,192,69645,1,0,0:0:0:0:
256,192,69745,1,8,0:0:0:0:
256,192,69943,1,8,0:0:0:0:
256,192,70340,5,0,0:0:0:0:
256,192,70538,1,8,0:0:0:0:
256,192,70638,1,0,0:0:0:0:
256,192,70737,1,8,0:0:0:0:
256,192,70935,1,8,0:0:0:0:
256,192,71035,1,8,0:0:0:0:
256,192,71134,1,0,0:0:0:0:
256,192,71332,1,8,0:0:0:0:
256,192,71531,1,8,0:0:0:0:
256,192,71630,1,0,0:0:0:0:
256,192,71729,1,8,0:0:0:0:
256,192,71928,1,0,0:0:0:0:
256,192,72126,1,0,0:0:0:0:
256,192,72225,1,0,0:0:0:0:
256,192,72324,1,8,0:0:0:0:
256,192,72523,1,8,0:0:0:0:
256,192,72622,1,8,0:0:0:0:
256,192,72721,1,0,0:0:0:0:
256,192,72920,1,0,0:0:0:0:
256,192,73118,1,8,0:0:0:0:
256,192,73317,1,8,0:0:0:0:
256,192,73416,1,8,0:0:0:0:
256,192,73515,1,0,0:0:0:0:
256,192,73713,1,0,0:0:0:0:
256,192,73912,1,8,0:0:0:0:
256,192,74011,1,8,0:0:0:0:
256,192,74110,1,0,0:0:0:0:
256,192,74309,1,0,0:0:0:0:
256,192,74507,1,8,0:0:0:0:
256,192,74706,1,8,0:0:0:0:
256,192,74805,1,0,0:0:0:0:
256,192,74904,1,8,0:0:0:0:
256,192,75103,1,0,0:0:0:0:
256,192,75202,1,0,0:0:0:0:
256,192,75301,1,8,0:0:0:0:
256,192,75400,1,8,0:0:0:0:
256,192,75499,1,0,0:0:0:0:
256,192,75698,1,8,0:0:0:0:
256,192,75896,1,0,0:0:0:0:
256,192,75996,1,0,0:0:0:0:
256,192,76095,1,8,0:0:0:0:
256,192,76293,1,8,0:0:0:0:
256,192,76690,1,4,0:0:0:0:
256,192,77087,1,8,0:0:0:0:
256,192,77285,1,0,0:0:0:0:
256,192,77484,1,0,0:0:0:0:
256,192,77881,1,8,0:0:0:0:
256,192,78278,1,0,0:0:0:0:
256,192,78674,1,8,0:0:0:0:
256,192,78873,1,0,0:0:0:0:
256,192,79071,1,0,0:0:0:0:
256,192,79270,1,0,0:0:0:0:
256,192,79468,1,8,0:0:0:0:
256,192,79667,1,8,0:0:0:0:
256,192,79865,1,0,0:0:0:0:
256,192,80064,1,0,0:0:0:0:
256,192,80262,1,8,0:0:0:0:
256,192,80460,1,8,0:0:0:0:
256,192,80659,1,0,0:0:0:0:
256,192,81056,1,8,0:0:0:0:
256,192,81453,1,0,0:0:0:0:
256,192,81651,1,0,0:0:0:0:
256,192,81849,1,8,0:0:0:0:
256,192,82048,1,8,0:0:0:0:
256,192,82246,1,0,0:0:0:0:
256,192,82445,1,0,0:0:0:0:
256,192,82643,1,8,0:0:0:0:
256,192,83040,5,4,0:0:0:0:
256,192,83437,1,8,0:0:0:0:
256,192,83635,1,0,0:0:0:0:
256,192,83834,1,0,0:0:0:0:
256,192,84231,1,8,0:0:0:0:
256,192,84628,1,0,0:0:0:0:
256,192,85024,1,8,0:0:0:0:
256,192,85223,1,0,0:0:0:0:
256,192,85421,1,0,0:0:0:0:
256,192,85620,1,0,0:0:0:0:
256,192,85818,1,8,0:0:0:0:
256,192,86017,1,8,0:0:0:0:
256,192,86215,1,0,0:0:0:0:
256,192,86414,1,0,0:0:0:0:
256,192,86612,1,8,0:0:0:0:
256,192,86810,1,8,0:0:0:0:
256,192,87009,1,0,0:0:0:0:
256,192,87406,1,8,0:0:0:0:
256,192,87803,1,0,0:0:0:0:
256,192,88001,1,8,0:0:0:0:
256,192,88200,1,8,0:0:0:0:
256,192,88299,1,0,0:0:0:0:
256,192,88398,1,8,0:0:0:0:
256,192,88596,1,0,0:0:0:0:
256,192,88795,1,0,0:0:0:0:
256,192,88894,1,0,0:0:0:0:
256,192,88993,1,8,0:0:0:0:
256,192,89192,1,0,0:0:0:0:
256,192,89390,5,4,0:0:0:0:
256,192,89787,1,8,0:0:0:0:
256,192,89985,1,0,0:0:0:0:
256,192,90184,1,0,0:0:0:0:
256,192,90581,1,8,0:0:0:0:
256,192,90978,1,0,0:0:0:0:
256,192,91375,1,8,0:0:0:0:
256,192,91573,1,0,0:0:0:0:
256,192,91771,1,0,0:0:0:0:
256,192,91970,1,0,0:0:0:0:
256,192,92168,1,8,0:0:0:0:
256,192,92367,1,8,0:0:0:0:
256,192,92565,1,0,0:0:0:0:
256,192,92962,1,8,0:0:0:0:
256,192,93160,1,0,0:0:0:0:
256,192,93359,1,0,0:0:0:0:
256,192,93756,1,8,0:0:0:0:
256,192,94153,1,0,0:0:0:0:
256,192,94351,1,0,0:0:0:0:
256,192,94550,1,8,0:0:0:0:
256,192,94748,1,8,0:0:0:0:
256,192,94946,1,0,0:0:0:0:
256,192,95145,1,0,0:0:0:0:
256,192,95343,1,8,0:0:0:0:
256,192,95740,5,0,0:0:0:0:
256,192,96137,1,8,0:0:0:0:
256,192,96336,1,0,0:0:0:0:
256,192,96534,1,0,0:0:0:0:
256,192,96931,1,8,0:0:0:0:
256,192,97328,1,0,0:0:0:0:
256,192,97725,1,8,0:0:0:0:
256,192,97923,1,0,0:0:0:0:
256,192,98121,1,0,0:0:0:0:
256,192,98320,1,0,0:0:0:0:
256,192,98518,1,8,0:0:0:0:
256,192,98717,1,8,0:0:0:0:
256,192,98915,5,0,0:0:0:0:
256,192,99114,1,0,0:0:0:0:
256,192,99312,1,8,0:0:0:0:
256,192,99511,1,8,0:0:0:0:
256,192,99709,1,0,0:0:0:0:
256,192,100106,1,8,0:0:0:0:
256,192,100503,1,0,0:0:0:0:
256,192,100701,1,8,0:0:0:0:
256,192,100900,1,0,0:0:0:0:
256,192,101098,1,8,0:0:0:0:
256,192,101296,1,0,0:0:0:0:
256,192,101495,1,0,0:0:0:0:
256,192,101693,1,8,0:0:0:0:
256,192,102090,1,4,0:0:0:0:
