osu file format v14

[General]
AudioFilename: audio.mp3
AudioLeadIn: 0
PreviewTime: 49599
Countdown: 0
SampleSet: Normal
StackLeniency: 0.7
Mode: 1
LetterboxInBreaks: 0
WidescreenStoryboard: 1

[Editor]
Bookmarks: 70335,75099
DistanceSpacing: 1.1
BeatDivisor: 4
GridSize: 32
TimelineZoom: 1.8

[Metadata]
Title:Murder In My Mind (Sped Up Ver.)
TitleUnicode:Murder In My Mind (Sped Up Ver.)
Artist:KORDHELL
ArtistUnicode:KORDHELL
Creator:Invisible O
Version:Muzukashii In My Mind
Source:
Tags:English Phonk Mass Electronic phonkhouse house rap hip-hop hip hop trap lofi lo-fi underground D3kuu Dekuu
BeatmapID:3754114
BeatmapSetID:1829119

[Difficulty]
HPDrainRate:6
CircleSize:5
OverallDifficulty:4.5
ApproachRate:5
SliderMultiplier:1.2
SliderTickRate:1

[Events]
//Background and Video events
0,0,"Murder.jpg",0,0
//Break Periods
//Storyboard Layer 0 (Background)
//Storyboard Layer 1 (Fail)
//Storyboard Layer 2 (Pass)
//Storyboard Layer 3 (Foreground)
//Storyboard Layer 4 (Overlay)
//Storyboard Sound Samples

[TimingPoints]
490,396.87789390131,4,1,0,50,1,0
490,-111.111111111111,4,1,0,50,0,0
684,-110.618100184546,4,1,0,50,0,0
882,-110.127276795944,4,1,0,50,0,0
1081,-109.636168843072,4,1,0,50,0,0
1279,-109.149702380394,4,1,0,50,0,0
1478,-108.662953879458,4,1,0,50,0,0
1676,-108.180805667279,4,1,0,50,0,0
2073,-107.220509626637,4,1,0,50,0,0
2074,-107.2181015398,4,1,0,50,0,0
2271,-106.744761681456,4,1,0,50,0,0
2470,-106.268737912283,4,1,0,50,0,0
2668,-105.797213071795,4,1,0,50,0,0
2867,-105.325414855741,4,1,0,50,0,0
3264,-104.390465460225,4,1,0,50,0,0
3462,-103.927274699315,4,1,0,50,0,0
3661,-103.463815394681,4,1,0,50,0,0
3859,-103.004736271237,4,1,0,50,0,0
4057,-102.54769412701,4,1,0,50,0,0
4256,-102.090387003836,4,1,0,50,0,0
4454,-101.637401917225,4,1,0,50,0,0
4851,-100.735190161264,4,1,0,50,0,0
5050,-100.285965823193,4,1,0,50,0,0
5248,-99.8409871308051,4,1,0,50,0,0
5249,-99.8387447821381,4,1,0,50,0,0
5446,-99.3979828526341,4,1,0,50,0,0
5645,-98.9547217342391,4,1,0,50,0,0
5843,-98.5156499027872,4,1,0,50,0,0
6042,-98.0763235110226,4,1,0,50,0,0
6240,-97.641149218868,4,1,0,50,0,0
6439,-97.2057226260739,4,1,0,50,0,0
6836,-93.8967136150235,4,1,0,50,0,0
7232,-95.4897812487641,4,1,0,50,0,0
7431,-95.063948590828,4,1,0,50,0,0
7629,-94.6421405024285,4,1,0,50,0,0
7828,-94.2200878627024,4,1,0,50,0,0
8026,-93.802024067338,4,1,0,50,0,0
8423,-92.9693651519187,4,1,0,50,0,0
8424,-92.9672771343819,4,1,0,50,0,0
8621,-92.556850936217,4,1,0,50,0,0
8820,-92.1440975574897,4,1,0,50,0,0
9018,-91.7352451352606,4,1,0,50,0,0
9217,-91.3261556730007,4,1,0,50,0,0
9614,-90.5154744698157,4,1,0,50,0,0
9812,-90.1138484083839,4,1,0,50,0,0
10011,-89.7119894965426,4,1,0,50,0,0
10209,-89.3139285769512,4,1,0,50,0,0
10407,-88.917633892805,4,1,0,50,0,0
10606,-88.5211094492175,4,1,0,50,0,0
10804,-88.1283325815062,4,1,0,50,0,0
11201,-87.3460377157541,4,1,0,50,0,0
11401,-86.9565217391304,4,1,0,50,0,0
11598,-88.1057268722467,4,1,0,50,0,0
11995,-100,4,1,0,50,0,0
13137,-100,4,1,0,80,0,0
13190,-71.4285714285715,4,1,0,80,0,1
24302,-76.9230769230769,4,1,0,80,0,0
24695,-86.8281012914587,4,1,0,80,0,0
25092,-98.1552329197414,4,1,0,80,0,0
25489,-111.111111111111,4,1,0,80,0,0
25837,-71.4285714285715,4,1,0,70,0,0
37395,-100,4,1,0,70,0,0
38537,-100,4,1,0,70,0,0
38686,-111.111111111111,4,1,0,70,0,0
39181,-108.151121564839,4,1,0,70,0,0
39380,-105.263157894737,4,1,0,70,0,0
39777,-102.564102564103,4,1,0,70,0,0
40174,-93.0232558139535,4,1,0,70,0,0
40570,-107.699464991859,4,1,0,70,0,0
40769,-106.062919975565,4,1,0,70,0,0
40967,-104.48322551527,4,1,0,70,0,0
41364,-101.45350960485,4,1,0,70,0,0
41562,-100.0071999424,4,1,0,70,0,0
41761,-100.0100010001,4,1,0,70,0,0
42158,-101.519305463117,4,1,0,70,0,0
42356,-102.281337828249,4,1,0,70,0,0
42555,-103.05352155965,4,1,0,70,0,0
42951,-104.60916481432,4,1,0,70,0,0
43349,-106.198604959333,4,1,0,70,0,0
43547,-106.999173339645,4,1,0,70,0,0
43745,-107.806364882483,4,1,0,70,0,0
43944,-108.624370876348,4,1,0,70,0,0
44142,-109.445034889472,4,1,0,70,0,0
44341,-110.276712398294,4,1,0,70,0,0
44539,-111.111111111111,4,1,0,70,0,0
44937,-100,4,1,0,70,0,0
45037,-111.111111111111,4,1,0,70,0,0
45532,-108.151121564839,4,1,0,70,0,0
45731,-105.263157894737,4,1,0,70,0,0
46127,-102.564102564103,4,1,0,70,0,0
46524,-93.0232558139535,4,1,0,70,0,0
46921,-107.699464991859,4,1,0,70,0,0
47120,-106.062919975565,4,1,0,70,0,0
47318,-104.48322551527,4,1,0,70,0,0
47715,-101.45350960485,4,1,0,70,0,0
47913,-100.0071999424,4,1,0,70,0,0
48111,-100.0100010001,4,1,0,70,0,0
48508,-101.519305463117,4,1,0,70,0,0
48706,-102.281337828249,4,1,0,70,0,0
48905,-103.05352155965,4,1,0,70,0,0
49301,-104.60916481432,4,1,0,70,0,0
49698,-106.194578387186,4,1,0,70,0,0
49897,-106.999173339645,4,1,0,70,0,0
50095,-107.806364882483,4,1,0,70,0,0
50294,-108.624370876348,4,1,0,70,0,0
50492,-109.445034889472,4,1,0,70,0,0
50691,-110.276712398294,4,1,0,70,0,0
50889,-111.111111111111,4,1,0,70,0,0
51237,-111.111111111111,4,1,0,80,0,0
51290,-71.4285714285715,4,1,0,80,0,1
62402,-76.9230769230769,4,1,0,80,0,0
62795,-86.8192300805994,4,1,0,80,0,0
63192,-98.1349424552833,4,1,0,80,0,0
63589,-111.076239061099,4,1,0,80,0,0
63937,-111.076239061099,4,1,0,70,0,0
63987,-71.4285714285715,4,1,0,70,0,0
75495,-100,4,1,0,70,0,0
76637,-100,4,1,0,70,0,0
76787,-111.111111111111,4,1,0,70,0,0
77282,-108.151121564839,4,1,0,70,0,0
77481,-105.263157894737,4,1,0,70,0,0
77878,-102.564102564103,4,1,0,70,0,0
78274,-93.0232558139535,4,1,0,70,0,0
78671,-107.699464991859,4,1,0,70,0,0
78870,-106.062919975565,4,1,0,70,0,0
79068,-104.48322551527,4,1,0,70,0,0
79465,-101.45350960485,4,1,0,70,0,0
79663,-100.0071999424,4,1,0,70,0,0
79862,-100.0100010001,4,1,0,70,0,0
80259,-101.519305463117,4,1,0,70,0,0
80457,-102.281337828249,4,1,0,70,0,0
80656,-103.05352155965,4,1,0,70,0,0
81052,-104.60916481432,4,1,0,70,0,0
81449,-106.194578387186,4,1,0,70,0,0
81648,-106.999173339645,4,1,0,70,0,0
81846,-107.806364882483,4,1,0,70,0,0
82045,-108.624370876348,4,1,0,70,0,0
82243,-109.445034889472,4,1,0,70,0,0
82442,-110.276712398294,4,1,0,70,0,0
82640,-111.111111111111,4,1,0,70,0,0
83037,-100,4,1,0,70,0,0
83138,-111.111111111111,4,1,0,70,0,0
83632,-108.151121564839,4,1,0,70,0,0
83831,-105.263157894737,4,1,0,70,0,0
84228,-102.564102564103,4,1,0,70,0,0
84625,-93.0232558139535,4,1,0,70,0,0
85021,-107.699464991859,4,1,0,70,0,0
85220,-106.062919975565,4,1,0,70,0,0
85418,-104.48322551527,4,1,0,70,0,0
85815,-101.45350960485,4,1,0,70,0,0
86013,-100.0071999424,4,1,0,70,0,0
86211,-100.0100010001,4,1,0,70,0,0
86608,-101.414545674085,4,1,0,70,0,0
86806,-102.124882842379,4,1,0,70,0,0
87005,-102.84428890558,4,1,0,70,0,0
87402,-104.296097350675,4,1,0,70,0,0
87799,-105.770365917948,4,1,0,70,0,0
87997,-106.514162993648,4,1,0,70,0,0
88196,-107.267498149385,4,1,0,70,0,0
88296,-107.267498149385,4,1,0,70,0,0
88394,-108.022851833015,4,1,0,70,0,0
88592,-108.784047118901,4,1,0,70,0,0
88791,-109.555025820535,4,1,0,70,0,0
88989,-110.328092787555,4,1,0,70,0,0
89188,-111.111111111111,4,1,0,70,0,0
89387,-100,4,1,0,70,0,0
89783,-111.111111111111,4,1,0,70,0,0
89981,-110.280119791573,4,1,0,70,0,0
90180,-109.447623259001,4,1,0,70,0,0
90577,-107.807359054343,4,1,0,70,0,0
90974,-106.194030039989,4,1,0,70,0,0
91371,-104.607124161095,4,1,0,70,0,0
91569,-103.825389088125,4,1,0,70,0,0
91767,-103.050040968656,4,1,0,70,0,0
92164,-101.514428655663,4,1,0,70,0,0
92363,-100.754108524086,4,1,0,70,0,0
92561,-100.003774058892,4,1,0,70,0,0
92958,-100,4,1,0,70,0,0
93156,-99.2602420798337,4,1,0,70,0,0
93355,-98.5240035781731,4,1,0,70,0,0
93752,-97.0873786407768,4,1,0,70,0,0
94149,-99.009900990099,4,1,0,70,0,0
94347,-100.91752958705,4,1,0,70,0,0
94546,-102.875293857536,4,1,0,70,0,0
94744,-104.864503339987,4,1,0,70,0,0
94942,-106.895904499249,4,1,0,70,0,0
95141,-108.981127956249,4,1,0,70,0,0
95339,-111.100293930062,4,1,0,70,0,0
95737,-93.0232558139535,4,1,0,70,0,0
96133,-111.111111111111,4,1,0,70,0,0
96332,-110.211761646276,4,1,0,70,0,0
96530,-109.320407861269,4,1,0,70,0,0
96927,-107.556955401589,4,1,0,70,0,0
97324,-105.824662938096,4,1,0,70,0,0
97721,-104.122893371395,4,1,0,70,0,0
97919,-103.285365532962,4,1,0,70,0,0
98117,-102.455199601006,4,1,0,70,0,0
98514,-100.812554201825,4,1,0,70,0,0
98713,-100,4,1,0,70,0,0
98911,-100,4,1,0,70,0,0
99308,-101.50675615238,4,1,0,70,0,0
99507,-102.273283696701,4,1,0,70,0,0
99705,-103.042241545992,4,1,0,70,0,0
100102,-104.603159855354,4,1,0,70,0,0
100499,-106.189999813734,4,1,0,70,0,0
100697,-106.991264502146,4,1,0,70,0,0
100896,-107.803261632822,4,1,0,70,0,0
101094,-108.617894588414,4,1,0,70,0,0
101292,-109.439291589758,4,1,0,70,0,0
101491,-110.271718449857,4,1,0,70,0,0
101689,-111.106875530779,4,1,0,70,0,0
102087,-100,4,1,0,70,0,0

[HitObjects]
256,192,490,5,0,0:0:0:0:
256,192,688,1,8,0:0:0:0:
256,192,886,1,0,0:0:0:0:
256,192,1085,1,8,0:0:0:0:
256,192,1283,1,0,0:0:0:0:
256,192,1482,1,0,0:0:0:0:
256,192,1680,1,8,0:0:0:0:
256,192,2077,1,0,0:0:0:0:
256,192,2275,1,8,0:0:0:0:
256,192,2474,1,0,0:0:0:0:
256,192,2672,1,8,0:0:0:0:
256,192,2871,1,0,0:0:0:0:
256,192,3268,1,8,0:0:0:0:
256,192,3466,1,0,0:0:0:0:
256,192,3665,1,8,0:0:0:0:
256,192,3863,1,8,0:0:0:0:
256,192,4061,1,0,0:0:0:0:
256,192,4260,1,0,0:0:0:0:
256,192,4458,1,8,0:0:0:0:
256,192,4855,1,0,0:0:0:0:
256,192,5054,1,8,0:0:0:0:
256,192,5252,1,0,0:0:0:0:
256,192,5450,1,8,0:0:0:0:
256,192,5649,1,8,0:0:0:0:
256,192,5847,1,0,0:0:0:0:
256,192,6046,1,0,0:0:0:0:
256,192,6244,1,8,0:0:0:0:
256,192,6443,1,0,0:0:0:0:
256,192,6840,1,4,0:0:0:0:
256,192,7236,1,8,0:0:0:0:
256,192,7435,1,8,0:0:0:0:
256,192,7633,1,0,0:0:0:0:
256,192,7832,1,0,0:0:0:0:
256,192,8030,1,8,0:0:0:0:
256,192,8427,1,0,0:0:0:0:
256,192,8625,1,0,0:0:0:0:
256,192,8824,1,8,0:0:0:0:
256,192,9022,1,0,0:0:0:0:
256,192,9221,1,8,0:0:0:0:
256,192,9618,1,0,0:0:0:0:
256,192,9816,1,0,0:0:0:0:
256,192,10015,1,8,0:0:0:0:
256,192,10213,1,0,0:0:0:0:
256,192,10411,1,0,0:0:0:0:
256,192,10610,1,8,0:0:0:0:
256,192,10808,1,0,0:0:0:0:
256,192,11205,1,0,0:0:0:0:
256,192,11404,1,8,0:0:0:0:
256,192,13190,1,4,0:0:0:0:
256,192,13388,1,0,0:0:0:0:
256,192,13586,1,8,0:0:0:0:
256,192,13785,1,0,0:0:0:0:
256,192,13983,1,0,0:0:0:0:
256,192,14182,1,0,0:0:0:0:
256,192,14380,1,12,0:0:0:0:
256,192,14777,1,0,0:0:0:0:
256,192,14876,1,0,0:0:0:0:
256,192,14976,1,0,0:0:0:0:
256,192,15174,1,8,0:0:0:0:
256,192,15372,1,0,0:0:0:0:
256,192,15472,1,0,0:0:0:0:
256,192,15571,1,0,0:0:0:0:
256,192,15769,1,0,0:0:0:0:
256,192,15968,1,8,0:0:0:0:
256,192,16365,1,0,0:0:0:0:
256,192,16464,1,0,0:0:0:0:
256,192,16563,1,0,0:0:0:0:
256,192,16761,1,8,0:0:0:0:
256,192,16960,1,0,0:0:0:0:
256,192,17158,1,0,0:0:0:0:
256,192,17357,1,0,0:0:0:0:
256,192,17555,1,12,0:0:0:0:
256,192,17952,1,0,0:0:0:0:
256,192,18051,1,0,0:0:0:0:
256,192,18151,1,0,0:0:0:0:
256,192,18349,1,8,0:0:0:0:
256,192,18547,1,0,0:0:0:0:
256,192,18647,1,0,0:0:0:0:
256,192,18746,1,0,0:0:0:0:
256,192,18944,1,0,0:0:0:0:
256,192,19143,1,8,0:0:0:0:
256,192,19540,1,4,0:0:0:0:
256,192,19738,1,0,0:0:0:0:
256,192,19937,1,8,0:0:0:0:
256,192,20135,1,0,0:0:0:0:
256,192,20333,1,0,0:0:0:0:
256,192,20532,1,0,0:0:0:0:
256,192,20730,1,12,0:0:0:0:
256,192,21127,1,0,0:0:0:0:
256,192,21226,1,0,0:0:0:0:
256,192,21326,1,0,0:0:0:0:
256,192,21524,1,8,0:0:0:0:
256,192,21722,1,0,0:0:0:0:
256,192,21822,1,0,0:0:0:0:
256,192,21921,1,0,0:0:0:0:
256,192,22119,1,0,0:0:0:0:
256,192,22318,1,8,0:0:0:0:
256,192,22715,1,0,0:0:0:0:
256,192,22814,1,0,0:0:0:0:
256,192,22913,1,0,0:0:0:0:
256,192,23112,1,8,0:0:0:0:
256,192,23310,1,0,0:0:0:0:
256,192,23508,1,0,0:0:0:0:
256,192,23707,1,0,0:0:0:0:
256,192,23905,1,12,0:0:0:0:
256,192,24302,1,8,0:0:0:0:
256,192,24699,1,8,0:0:0:0:
256,192,25096,1,8,0:0:0:0:
256,192,25890,5,0,0:0:0:0:
256,192,26088,1,8,0:0:0:0:
256,192,26287,1,8,0:0:0:0:
256,192,26485,1,8,0:0:0:0:
256,192,26683,1,0,0:0:0:0:
256,192,26882,1,0,0:0:0:0:
256,192,27080,1,8,0:0:0:0:
256,192,27477,1,0,0:0:0:0:
256,192,27676,1,8,0:0:0:0:
256,192,27874,1,8,0:0:0:0:
256,192,28073,1,8,0:0:0:0:
256,192,28271,1,0,0:0:0:0:
256,192,28668,1,8,0:0:0:0:
256,192,28866,1,0,0:0:0:0:
256,192,29065,1,0,0:0:0:0:
256,192,29263,1,8,0:0:0:0:
256,192,29462,1,8,0:0:0:0:
256,192,29660,1,0,0:0:0:0:
256,192,29858,1,0,0:0:0:0:
256,192,30255,1,8,0:0:0:0:
256,192,30454,1,8,0:0:0:0:
256,192,30652,1,0,0:0:0:0:
256,192,30851,1,8,0:0:0:0:
256,192,31049,1,8,0:0:0:0:
256,192,31248,1,0,0:0:0:0:
256,192,31446,1,0,0:0:0:0:
256,192,31644,1,8,0:0:0:0:
256,192,31843,1,8,0:0:0:0:
256,192,32240,1,0,0:0:0:0:
256,192,32637,1,8,0:0:0:0:
256,192,32835,1,8,0:0:0:0:
256,192,33033,1,0,0:0:0:0:
256,192,33232,1,0,0:0:0:0:
256,192,33430,1,8,0:0:0:0:
256,192,33827,1,0,0:0:0:0:
256,192,34026,1,0,0:0:0:0:
256,192,34224,1,8,0:0:0:0:
256,192,34423,1,0,0:0:0:0:
256,192,34621,1,0,0:0:0:0:
256,192,35018,1,8,0:0:0:0:
256,192,35216,1,0,0:0:0:0:
256,192,35415,1,0,0:0:0:0:
256,192,35613,1,0,0:0:0:0:
256,192,35812,1,8,0:0:0:0:
256,192,36010,1,8,0:0:0:0:
256,192,36209,1,0,0:0:0:0:
256,192,36605,1,8,0:0:0:0:
256,192,36804,1,8,0:0:0:0:
256,192,37002,1,0,0:0:0:0:
256,192,38590,5,4,0:0:0:0:
256,192,39185,1,0,0:0:0:0:
256,192,39384,1,0,0:0:0:0:
256,192,39780,1,8,0:0:0:0:
256,192,40177,1,0,0:0:0:0:
256,192,40773,1,0,0:0:0:0:
256,192,40971,1,0,0:0:0:0:
256,192,41368,1,8,0:0:0:0:
256,192,41566,1,8,0:0:0:0:
256,192,41765,1,0,0:0:0:0:
256,192,42162,1,8,0:0:0:0:
256,192,42360,1,8,0:0:0:0:
256,192,42559,1,0,0:0:0:0:
256,192,42955,1,8,0:0:0:0:
256,192,43352,1,0,0:0:0:0:
256,192,43551,1,0,0:0:0:0:
256,192,43749,1,8,0:0:0:0:
256,192,43948,1,8,0:0:0:0:
256,192,44146,1,0,0:0:0:0:
256,192,44345,1,0,0:0:0:0:
256,192,44543,1,8,0:0:0:0:
256,192,44940,5,4,0:0:0:0:
256,192,45535,1,0,0:0:0:0:
256,192,45734,1,0,0:0:0:0:
256,192,46130,1,8,0:0:0:0:
256,192,46527,1,0,0:0:0:0:
256,192,47123,1,0,0:0:0:0:
256,192,47321,1,0,0:0:0:0:
256,192,47718,1,8,0:0:0:0:
256,192,47916,1,8,0:0:0:0:
256,192,48115,1,0,0:0:0:0:
256,192,48512,1,8,0:0:0:0:
256,192,48710,1,8,0:0:0:0:
256,192,48909,1,0,0:0:0:0:
256,192,49305,1,8,0:0:0:0:
256,192,51290,1,4,0:0:0:0:
256,192,51488,1,0,0:0:0:0:
256,192,51687,1,8,0:0:0:0:
256,192,51885,1,0,0:0:0:0:
256,192,52084,1,0,0:0:0:0:
256,192,52282,1,0,0:0:0:0:
256,192,52481,1,12,0:0:0:0:
256,192,52877,1,0,0:0:0:0:
256,192,52977,1,0,0:0:0:0:
256,192,53076,1,0,0:0:0:0:
256,192,53274,1,8,0:0:0:0:
256,192,53473,1,0,0:0:0:0:
256,192,53572,1,0,0:0:0:0:
256,192,53671,1,0,0:0:0:0:
256,192,53870,1,0,0:0:0:0:
256,192,54068,1,8,0:0:0:0:
256,192,54465,1,0,0:0:0:0:
256,192,54564,1,0,0:0:0:0:
256,192,54663,1,0,0:0:0:0:
256,192,54862,1,8,0:0:0:0:
256,192,55060,1,0,0:0:0:0:
256,192,55259,1,0,0:0:0:0:
256,192,55457,1,0,0:0:0:0:
256,192,55656,1,12,0:0:0:0:
256,192,56052,1,0,0:0:0:0:
256,192,56152,1,0,0:0:0:0:
256,192,56251,1,0,0:0:0:0:
256,192,56449,1,8,0:0:0:0:
256,192,56648,1,0,0:0:0:0:
256,192,56747,1,0,0:0:0:0:
256,192,56846,1,0,0:0:0:0:
256,192,57045,1,0,0:0:0:0:
256,192,57243,1,8,0:0:0:0:
256,192,57640,1,4,0:0:0:0:
256,192,57838,1,0,0:0:0:0:
256,192,58037,1,8,0:0:0:0:
256,192,58235,1,0,0:0:0:0:
256,192,58434,1,0,0:0:0:0:
256,192,58632,1,0,0:0:0:0:
256,192,58831,1,12,0:0:0:0:
256,192,59227,1,0,0:0:0:0:
256,192,59327,1,0,0:0:0:0:
256,192,59426,1,0,0:0:0:0:
256,192,59624,1,8,0:0:0:0:
256,192,59823,1,0,0:0:0:0:
256,192,59922,1,0,0:0:0:0:
256,192,60021,1,0,0:0:0:0:
256,192,60220,1,0,0:0:0:0:
256,192,60418,1,8,0:0:0:0:
256,192,60815,1,0,0:0:0:0:
256,192,60914,1,0,0:0:0:0:
256,192,61013,1,0,0:0:0:0:
256,192,61212,5,8,0:0:0:0:
256,192,61410,1,0,0:0:0:0:
256,192,61609,1,0,0:0:0:0:
256,192,61807,1,0,0:0:0:0:
256,192,62006,1,12,0:0:0:0:
256,192,62402,1,8,0:0:0:0:
256,192,62799,1,8,0:0:0:0:
256,192,63196,1,8,0:0:0:0:
256,192,63990,1,0,0:0:0:0:
256,192,64188,1,0,0:0:0:0:
256,192,64387,1,8,0:0:0:0:
256,192,64585,1,8,0:0:0:0:
256,192,64784,1,0,0:0:0:0:
256,192,64982,1,0,0:0:0:0:
256,192,65181,1,8,0:0:0:0:
256,192,65577,1,0,0:0:0:0:
256,192,65776,1,8,0:0:0:0:
256,192,65974,1,8,0:0:0:0:
256,192,66173,1,0,0:0:0:0:
256,192,66371,1,0,0:0:0:0:
256,192,66570,1,8,0:0:0:0:
256,192,66768,1,8,0:0:0:0:
256,192,67165,1,0,0:0:0:0:
256,192,67363,1,0,0:0:0:0:
256,192,67562,1,8,0:0:0:0:
256,192,67760,1,0,0:0:0:0:
256,192,67959,1,0,0:0:0:0:
256,192,68157,1,0,0:0:0:0:
256,192,68356,1,8,0:0:0:0:
256,192,68752,1,0,0:0:0:0:
256,192,68951,1,0,0:0:0:0:
256,192,69149,1,8,0:0:0:0:
256,192,69348,1,0,0:0:0:0:
256,192,69546,1,0,0:0:0:0:
256,192,69745,1,8,0:0:0:0:
256,192,69943,1,8,0:0:0:0:
256,192,70340,5,0,0:0:0:0:
256,192,70538,1,8,0:0:0:0:
256,192,70737,1,8,0:0:0:0:
256,192,70935,1,8,0:0:0:0:
256,192,71134,1,0,0:0:0:0:
256,192,71332,1,0,0:0:0:0:
256,192,71531,1,8,0:0:0:0:
256,192,71928,1,0,0:0:0:0:
256,192,72126,1,8,0:0:0:0:
256,192,72324,1,8,0:0:0:0:
256,192,72523,1,8,0:0:0:0:
256,192,72721,1,0,0:0:0:0:
256,192,73118,1,8,0:0:0:0:
256,192,73317,1,0,0:0:0:0:
256,192,73515,1,0,0:0:0:0:
256,192,73713,1,8,0:0:0:0:
256,192,73912,1,8,0:0:0:0:
256,192,74110,1,0,0:0:0:0:
256,192,74309,1,0,0:0:0:0:
256,192,74706,1,8,0:0:0:0:
256,192,74904,1,8,0:0:0:0:
256,192,76690,5,4,0:0:0:0:
256,192,77285,1,0,0:0:0:0:
256,192,77484,1,0,0:0:0:0:
256,192,77881,1,8,0:0:0:0:
256,192,78278,1,0,0:0:0:0:
256,192,78873,1,0,0:0:0:0:
256,192,79071,1,0,0:0:0:0:
256,192,79468,1,8,0:0:0:0:
256,192,79667,1,8,0:0:0:0:
256,192,79865,1,0,0:0:0:0:
256,192,80262,1,8,0:0:0:0:
256,192,80460,1,8,0:0:0:0:
256,192,80659,1,0,0:0:0:0:
256,192,81056,1,8,0:0:0:0:
256,192,81453,1,0,0:0:0:0:
256,192,81651,1,0,0:0:0:0:
256,192,81849,1,8,0:0:0:0:
256,192,82048,1,8,0:0:0:0:
256,192,82246,1,0,0:0:0:0:
256,192,82445,1,0,0:0:0:0:
256,192,82643,1,8,0:0:0:0:
256,192,83040,5,4,0:0:0:0:
256,192,83635,1,0,0:0:0:0:
256,192,83834,1,0,0:0:0:0:
256,192,84231,1,8,0:0:0:0:
256,192,84628,1,0,0:0:0:0:
256,192,85223,1,0,0:0:0:0:
256,192,85421,1,0,0:0:0:0:
256,192,85818,1,8,0:0:0:0:
256,192,86017,1,8,0:0:0:0:
256,192,86215,1,0,0:0:0:0:
256,192,86612,1,8,0:0:0:0:
256,192,86810,1,8,0:0:0:0:
256,192,87009,1,0,0:0:0:0:
256,192,87406,1,8,0:0:0:0:
256,192,87803,1,0,0:0:0:0:
256,192,88001,1,0,0:0:0:0:
256,192,88200,1,8,0:0:0:0:
256,192,88299,1,8,0:0:0:0:
256,192,88398,1,8,0:0:0:0:
256,192,88596,1,0,0:0:0:0:
256,192,88795,1,0,0:0:0:0:
256,192,88993,1,8,0:0:0:0:
256,192,89390,5,4,0:0:0:0:
256,192,89985,1,0,0:0:0:0:
256,192,90184,1,0,0:0:0:0:
256,192,90581,1,8,0:0:0:0:
256,192,90978,1,0,0:0:0:0:
256,192,91573,1,0,0:0:0:0:
256,192,91771,1,0,0:0:0:0:
256,192,92168,1,8,0:0:0:0:
256,192,92367,1,8,0:0:0:0:
256,192,92565,1,0,0:0:0:0:
256,192,93160,1,0,0:0:0:0:
256,192,93359,1,0,0:0:0:0:
256,192,93756,1,8,0:0:0:0:
256,192,94153,1,0,0:0:0:0:
256,192,94351,1,0,0:0:0:0:
256,192,94550,1,8,0:0:0:0:
256,192,94748,1,8,0:0:0:0:
256,192,94946,1,0,0:0:0:0:
256,192,95145,1,0,0:0:0:0:
256,192,95343,1,8,0:0:0:0:
64,64,95740,1,0,0:0:0:0:
256,192,96336,1,0,0:0:0:0:
256,192,96534,1,0,0:0:0:0:
256,192,96931,1,8,0:0:0:0:
256,192,97328,1,0,0:0:0:0:
256,192,97923,1,0,0:0:0:0:
256,192,98121,1,0,0:0:0:0:
256,192,98518,1,8,0:0:0:0:
256,192,98717,1,8,0:0:0:0:
256,192,98915,1,0,0:0:0:0:
256,192,99312,1,8,0:0:0:0:
256,192,99511,1,8,0:0:0:0:
256,192,99709,1,0,0:0:0:0:
256,192,100106,1,8,0:0:0:0:
256,192,100503,1,0,0:0:0:0:
256,192,100701,1,8,0:0:0:0:
256,192,100900,1,0,0:0:0:0:
256,192,101098,1,8,0:0:0:0:
256,192,101296,1,0,0:0:0:0:
256,192,101495,1,0,0:0:0:0:
256,192,101693,1,8,0:0:0:0:
256,192,102090,1,4,0:0:0:0:
