osu file format v14

[General]
AudioFilename: audio.mp3
AudioLeadIn: 0
PreviewTime: 49599
Countdown: 0
SampleSet: Normal
StackLeniency: 0.7
Mode: 1
LetterboxInBreaks: 0
WidescreenStoryboard: 1

[Editor]
Bookmarks: 485,6835,70335,75099,89385
DistanceSpacing: 1.1
BeatDivisor: 4
GridSize: 32
TimelineZoom: 0.6999996

[Metadata]
Title:Murder In My Mind (Sped Up Ver.)
TitleUnicode:Murder In My Mind (Sped Up Ver.)
Artist:KORDHELL
ArtistUnicode:KORDHELL
Creator:Invisible O
Version:Kantan In My Mind
Source:
Tags:English Phonk Mass Electronic phonkhouse house rap hip-hop hip hop trap lofi lo-fi underground D3kuu Dekuu
BeatmapID:3754112
BeatmapSetID:1829119

[Difficulty]
HPDrainRate:8
CircleSize:5
OverallDifficulty:2.5
ApproachRate:5
SliderMultiplier:1
SliderTickRate:1

[Events]
//Background and Video events
0,0,"Murder.jpg",0,0
//Break Periods
//Storyboard Layer 0 (Background)
//Storyboard Layer 1 (Fail)
//Storyboard Layer 2 (Pass)
//Storyboard Layer 3 (Foreground)
//Storyboard Layer 4 (Overlay)
//Storyboard Sound Samples

[TimingPoints]
490,396.87789390131,4,1,0,50,1,0
490,-111.111111111111,4,1,0,50,0,0
11995,-111.111111111111,4,1,0,50,0,0
13137,-111.111111111111,4,1,0,80,0,0
13190,-76.9230769230769,4,1,0,80,0,1
24302,-76.9230769230769,4,1,0,80,0,0
25837,-76.9230769230769,4,1,0,70,0,0
37395,-111.111111111111,4,1,0,70,0,0
38537,-111.111111111111,4,1,0,70,0,0
38686,-111.111111111111,4,1,0,70,0,0
45037,-111.111111111111,4,1,0,70,0,0
51237,-111.111111111111,4,1,0,80,0,0
51290,-76.9230769230769,4,1,0,80,0,1
62402,-76.9230769230769,4,1,0,80,0,0
63937,-76.9230769230769,4,1,0,70,0,0
63987,-76.9230769230769,4,1,0,70,0,0
76637,-111.111111111111,4,1,0,70,0,0
76787,-111.111111111111,4,1,0,70,0,0
83138,-111.111111111111,4,1,0,70,0,0
89487,-111.111111111111,4,1,0,70,0,0
102087,-111.111111111111,4,1,0,70,0,0

[HitObjects]
256,192,490,5,0,0:0:0:0:
256,192,1283,1,8,0:0:0:0:
256,192,1680,1,8,0:0:0:0:
256,192,2077,1,0,0:0:0:0:
256,192,2871,1,0,0:0:0:0:
256,192,3665,1,0,0:0:0:0:
256,192,4458,1,0,0:0:0:0:
256,192,4855,1,8,0:0:0:0:
256,192,5252,1,0,0:0:0:0:
256,192,6046,1,0,0:0:0:0:
256,192,6840,1,4,0:0:0:0:
256,192,7633,1,8,0:0:0:0:
256,192,8030,1,8,0:0:0:0:
256,192,8427,1,0,0:0:0:0:
256,192,9221,1,0,0:0:0:0:
256,192,10015,1,0,0:0:0:0:
256,192,10808,1,8,0:0:0:0:
256,192,11205,1,0,0:0:0:0:
256,192,13190,1,4,0:0:0:0:
256,192,13983,1,0,0:0:0:0:
256,192,14380,1,12,0:0:0:0:
256,192,14777,1,0,0:0:0:0:
256,192,15571,1,8,0:0:0:0:
256,192,15968,1,0,0:0:0:0:
256,192,16365,1,0,0:0:0:0:
256,192,17158,1,0,0:0:0:0:
256,192,17555,1,12,0:0:0:0:
256,192,17952,1,0,0:0:0:0:
256,192,18746,1,8,0:0:0:0:
256,192,19143,1,8,0:0:0:0:
256,192,19540,1,4,0:0:0:0:
256,192,20333,1,0,0:0:0:0:
256,192,20730,1,12,0:0:0:0:
256,192,21127,1,0,0:0:0:0:
256,192,21921,1,8,0:0:0:0:
256,192,22318,1,0,0:0:0:0:
256,192,22715,1,0,0:0:0:0:
256,192,23508,1,0,0:0:0:0:
256,192,23905,1,12,0:0:0:0:
256,192,25890,1,0,0:0:0:0:
256,192,27080,1,8,0:0:0:0:
256,192,27477,1,0,0:0:0:0:
256,192,28271,1,8,0:0:0:0:
256,192,28668,1,0,0:0:0:0:
256,192,29065,1,0,0:0:0:0:
256,192,30255,1,0,0:0:0:0:
256,192,30652,1,8,0:0:0:0:
256,192,31446,1,8,0:0:0:0:
256,192,31843,1,8,0:0:0:0:
256,192,32240,1,0,0:0:0:0:
256,192,33430,1,8,0:0:0:0:
256,192,33827,1,0,0:0:0:0:
256,192,34621,1,8,0:0:0:0:
256,192,35018,1,0,0:0:0:0:
256,192,35415,1,0,0:0:0:0:
256,192,36605,1,8,0:0:0:0:
256,192,37002,1,0,0:0:0:0:
256,192,38590,1,4,0:0:0:0:
256,192,40177,1,0,0:0:0:0:
256,192,40971,1,0,0:0:0:0:
256,192,41368,1,0,0:0:0:0:
256,192,41765,1,8,0:0:0:0:
256,192,42559,1,0,0:0:0:0:
256,192,43352,1,0,0:0:0:0:
256,192,43749,1,8,0:0:0:0:
256,192,44146,1,0,0:0:0:0:
256,192,44543,1,8,0:0:0:0:
256,192,44940,1,4,0:0:0:0:
256,192,46527,1,0,0:0:0:0:
256,192,47321,1,0,0:0:0:0:
256,192,47718,1,0,0:0:0:0:
256,192,48115,1,8,0:0:0:0:
256,192,48909,1,0,0:0:0:0:
256,192,49305,1,8,0:0:0:0:
256,192,51290,1,4,0:0:0:0:
256,192,52084,1,0,0:0:0:0:
256,192,52481,1,12,0:0:0:0:
256,192,52877,1,0,0:0:0:0:
256,192,53671,1,8,0:0:0:0:
256,192,54068,1,0,0:0:0:0:
256,192,54465,1,0,0:0:0:0:
256,192,55259,1,0,0:0:0:0:
256,192,55656,1,12,0:0:0:0:
256,192,56052,1,0,0:0:0:0:
256,192,56846,1,8,0:0:0:0:
256,192,57243,1,8,0:0:0:0:
256,192,57640,1,0,0:0:0:0:
256,192,58434,1,0,0:0:0:0:
256,192,58831,1,12,0:0:0:0:
256,192,59227,1,0,0:0:0:0:
256,192,60021,1,8,0:0:0:0:
256,192,60418,1,0,0:0:0:0:
256,192,60815,1,0,0:0:0:0:
256,192,61609,1,0,0:0:0:0:
256,192,62006,1,12,0:0:0:0:
256,192,63990,1,0,0:0:0:0:
256,192,65181,1,8,0:0:0:0:
256,192,65577,1,8,0:0:0:0:
256,192,66371,1,8,0:0:0:0:
256,192,66768,1,8,0:0:0:0:
256,192,67165,1,0,0:0:0:0:
256,192,68356,1,8,0:0:0:0:
256,192,68752,1,0,0:0:0:0:
256,192,69546,1,8,0:0:0:0:
256,192,69943,1,8,0:0:0:0:
256,192,70340,1,0,0:0:0:0:
256,192,71531,1,0,0:0:0:0:
256,192,71928,1,8,0:0:0:0:
256,192,72721,1,8,0:0:0:0:
256,192,73118,1,8,0:0:0:0:
256,192,73515,1,0,0:0:0:0:
256,192,74706,1,8,0:0:0:0:
256,192,76690,1,4,0:0:0:0:
256,192,78278,1,0,0:0:0:0:
256,192,79071,1,0,0:0:0:0:
256,192,79468,1,0,0:0:0:0:
256,192,79865,1,8,0:0:0:0:
256,192,80659,1,0,0:0:0:0:
256,192,81453,1,0,0:0:0:0:
256,192,81849,1,8,0:0:0:0:
256,192,82246,1,0,0:0:0:0:
256,192,82643,1,8,0:0:0:0:
256,192,83040,1,4,0:0:0:0:
256,192,84628,1,0,0:0:0:0:
256,192,85421,1,0,0:0:0:0:
256,192,85818,1,0,0:0:0:0:
256,192,86215,1,8,0:0:0:0:
256,192,87009,1,0,0:0:0:0:
256,192,87803,1,0,0:0:0:0:
256,192,88200,1,8,0:0:0:0:
256,192,88596,1,0,0:0:0:0:
256,192,88993,1,8,0:0:0:0:
256,192,89390,1,4,0:0:0:0:
256,192,90978,1,0,0:0:0:0:
256,192,91771,1,0,0:0:0:0:
256,192,92168,1,8,0:0:0:0:
256,192,92565,1,0,0:0:0:0:
256,192,93359,1,0,0:0:0:0:
256,192,94153,1,0,0:0:0:0:
256,192,94550,1,8,0:0:0:0:
256,192,94946,1,0,0:0:0:0:
256,192,95343,1,8,0:0:0:0:
256,192,95740,1,4,0:0:0:0:
256,192,97328,1,0,0:0:0:0:
256,192,98121,1,8,0:0:0:0:
256,192,98518,1,0,0:0:0:0:
256,192,98915,1,0,0:0:0:0:
256,192,99709,1,0,0:0:0:0:
256,192,100503,1,0,0:0:0:0:
256,192,100900,1,8,0:0:0:0:
256,192,101296,1,0,0:0:0:0:
256,192,101693,1,8,0:0:0:0:
256,192,102090,1,4,0:0:0:0:
