osu file format v14

[General]
AudioFilename: audio.mp3
AudioLeadIn: 0
PreviewTime: 49599
Countdown: 0
SampleSet: Normal
StackLeniency: 0.7
Mode: 1
LetterboxInBreaks: 0
WidescreenStoryboard: 1

[Editor]
Bookmarks: 6835,11498,11597,13185,25885,36898,38585,49300,51285,63985,75098,75099,76635
DistanceSpacing: 1.1
BeatDivisor: 6
GridSize: 32
TimelineZoom: 3.099999

[Metadata]
Title:Murder In My Mind (Sped Up Ver.)
TitleUnicode:Murder In My Mind (Sped Up Ver.)
Artist:KORDHELL
ArtistUnicode:KORDHELL
Creator:Invisible O
Version:D3kuu In My Mind
Source:
Tags:English Phonk Mass Electronic phonkhouse house rap hip-hop hip hop trap lofi lo-fi underground D3kuu Dekuu
BeatmapID:3757799
BeatmapSetID:1829119

[Difficulty]
HPDrainRate:5.5
CircleSize:5
OverallDifficulty:7
ApproachRate:5
SliderMultiplier:1.3
SliderTickRate:1

[Events]
//Background and Video events
0,0,"Murder.jpg",0,0
//Break Periods
//Storyboard Layer 0 (Background)
//Storyboard Layer 1 (Fail)
//Storyboard Layer 2 (Pass)
//Storyboard Layer 3 (Foreground)
//Storyboard Layer 4 (Overlay)
//Storyboard Sound Samples

[TimingPoints]
490,396.87789390131,4,1,0,50,1,0
490,-142.857142857143,4,1,0,50,0,0
583,-142.133537989256,4,1,0,50,0,0
682,-141.417226634087,4,1,0,50,0,0
781,-140.708099073089,4,1,0,50,0,0
880,-140.006047777442,4,1,0,50,0,0
1079,-138.615837533057,4,1,0,50,0,0
1178,-137.934458788481,4,1,0,50,0,0
1277,-137.259746034883,4,1,0,50,0,0
1476,-135.9232801644,4,1,0,50,0,0
1674,-134.619112231053,4,1,0,50,0,0
1773,-133.976368459127,4,1,0,50,0,0
1873,-133.333333333333,4,1,0,50,0,0
2071,-132.078162886892,4,1,0,50,0,0
2170,-131.459398069279,4,1,0,50,0,0
2269,-130.846403843436,4,1,0,50,0,0
2369,-130.232994233744,4,1,0,50,0,0
2468,-129.631357909473,4,1,0,50,0,0
2567,-129.035254772632,4,1,0,50,0,0
2766,-127.853460972018,4,1,0,50,0,0
2865,-127.273560269391,4,1,0,50,0,0
2964,-126.698896287513,4,1,0,50,0,0
3063,-126.129398410897,4,1,0,50,0,0
3262,-125,4,1,0,50,0,0
3460,-123.896173401124,4,1,0,50,0,0
3559,-123.351538564007,4,1,0,50,0,0
3659,-122.806241987534,4,1,0,50,0,0
3758,-122.271126760563,4,1,0,50,0,0
3857,-121.74065471756,4,1,0,50,0,0
4055,-120.693400530043,4,1,0,50,0,0
4155,-120.17130250465,4,1,0,50,0,0
4254,-119.658855961406,4,1,0,50,0,0
4353,-119.15076131246,4,1,0,50,0,0
4452,-118.646963355258,4,1,0,50,0,0
4651,-117.647058823529,4,1,0,50,0,0
4849,-116.668766536475,4,1,0,50,0,0
4948,-116.185696361355,4,1,0,50,0,0
5048,-115.70179092045,4,1,0,50,0,0
5147,-115.226678833631,4,1,0,50,0,0
5246,-114.755452742895,4,1,0,50,0,0
5345,-114.288065166413,4,1,0,50,0,0
5444,-113.824469392772,4,1,0,50,0,0
5544,-113.359993470987,4,1,0,50,0,0
5643,-112.903881324934,4,1,0,50,0,0
5742,-112.451424870466,4,1,0,50,0,0
5841,-112.002580333024,4,1,0,50,0,0
5941,-111.552824960848,4,1,0,50,0,0
6040,-111.111111111111,4,1,0,50,0,0
6139,-110.672881558504,4,1,0,50,0,0
6238,-110.238095238095,4,1,0,50,0,0
6437,-109.3743848183,4,1,0,50,0,0
6536,-108.949721546788,4,1,0,50,0,0
6585,-108.740752338826,4,1,0,50,0,0
6635,-108.528343165215,4,1,0,50,0,0
6834,-94.3396226415094,4,1,0,50,0,0
6900,-96.1538461538461,4,1,0,50,0,0
6966,-98.0392156862745,4,1,0,50,0,0
7032,-100,4,1,0,50,0,0
7098,-102.040816326531,4,1,0,50,0,0
7164,-104.166666666667,4,1,0,50,0,0
7230,-106.062919975565,4,1,0,50,0,0
7429,-105.263157894737,4,1,0,50,0,0
7528,-104.869762174405,4,1,0,50,0,0
7627,-104.479295949453,4,1,0,50,0,0
7826,-103.703150664477,4,1,0,50,0,0
8024,-102.942266360335,4,1,0,50,0,0
8123,-102.565995938711,4,1,0,50,0,0
8223,-102.188707007541,4,1,0,50,0,0
8421,-101.449804623306,4,1,0,50,0,0
8520,-101.084346117459,4,1,0,50,0,0
8619,-100.721511185236,4,1,0,50,0,0
8719,-100.357646038799,4,1,0,50,0,0
8818,-100,4,1,0,50,0,0
8917,-99.6448940062413,4,1,0,50,0,0
9116,-98.9386708455018,4,1,0,50,0,0
9215,-98.5910494374845,4,1,0,50,0,0
9314,-98.2458622153063,4,1,0,50,0,0
9413,-97.9030837004405,4,1,0,50,0,0
9612,-97.2212500874921,4,1,0,50,0,0
9810,-96.5522035312109,4,1,0,50,0,0
9909,-96.2211215406463,4,1,0,50,0,0
10009,-95.8889924407166,4,1,0,50,0,0
10108,-95.562435500516,4,1,0,50,0,0
10207,-95.2380952380952,4,1,0,50,0,0
10405,-94.5959750740627,4,1,0,50,0,0
10505,-94.2749516408185,4,1,0,50,0,0
10604,-93.9592775485355,4,1,0,50,0,0
10703,-93.6457104331704,4,1,0,50,0,0
10802,-93.3342292702594,4,1,0,50,0,0
11001,-92.7143476954911,4,1,0,50,0,0
11199,-95.2380952380952,4,1,0,50,0,0
11298,-95.9982799860249,4,1,0,50,0,0
11398,-96.7785634939987,4,1,0,50,0,0
11497,-97.5636403365017,4,1,0,50,0,0
11596,-98.3615585846069,4,1,0,50,0,0
11695,-99.1726359042701,4,1,0,50,0,0
11794,-99.997200526301,4,1,0,50,0,0
11894,-100.844132012083,4,1,0,50,0,0
11993,-101.696845461792,4,1,0,50,0,0
12092,-102.564102564103,4,1,0,50,0,0
12191,-103.44627859832,4,1,0,50,0,0
12390,-105.266259982907,4,1,0,50,0,0
12489,-106.195742656677,4,1,0,50,0,0
12588,-107.141785896398,4,1,0,50,0,0
12687,-108.104836268991,4,1,0,50,0,0
12787,-109.095351536253,4,1,0,50,0,0
12886,-110.094005239636,4,1,0,50,0,0
12935,-110.595083286891,4,1,0,50,0,0
12985,-111.111111111111,4,1,0,50,0,0
13137,-111.111111111111,4,1,0,80,0,0
13190,-50,4,1,0,80,0,1
13580,-76.9230769230769,4,1,0,80,0,1
13680,-77.6756016435142,4,1,0,80,0,1
13779,-78.4352464684381,4,1,0,80,0,1
13878,-79.2098962490027,4,1,0,80,0,1
13977,-80,4,1,0,80,0,1
14176,-81.6368496812666,4,1,0,80,0,1
14374,-37.037037037037,4,1,0,80,0,1
14771,-76.9230769230769,4,1,0,80,0,1
14870,-77.6680035214715,4,1,0,80,0,1
14970,-78.4352464684381,4,1,0,80,0,1
15069,-79.2098962490027,4,1,0,80,0,1
15168,-80,4,1,0,80,0,1
15366,-71.4285714285714,4,1,0,80,0,1
15466,-72.0769789397242,4,1,0,80,0,1
15565,-72.7306036456901,4,1,0,80,0,1
15763,-74.0740740740741,4,1,0,80,0,1
15863,-74.7716357472457,4,1,0,80,0,1
15962,-75.4752851711026,4,1,0,80,0,1
16061,-76.1923040015356,4,1,0,80,0,1
16160,-76.9230769230769,4,1,0,80,0,1
16359,-74.0740740740741,4,1,0,80,0,1
16458,-74.7651807872334,4,1,0,80,0,1
16557,-75.4693049213599,4,1,0,80,0,1
16656,-76.1868177598517,4,1,0,80,0,1
16755,-76.9181048413157,4,1,0,80,0,1
16954,-78.4313725490196,4,1,0,80,0,1
17053,-79.2066027689032,4,1,0,80,0,1
17152,-79.997311014756,4,1,0,80,0,1
17351,-81.6354531110659,4,1,0,80,0,1
17549,-37.037037037037,4,1,0,80,0,1
17946,-76.9230769230769,4,1,0,80,0,1
18045,-77.6680035214715,4,1,0,80,0,1
18145,-78.4352464684381,4,1,0,80,0,1
18343,-80,4,1,0,80,0,1
18541,-71.4285714285714,4,1,0,80,0,1
18641,-72.0769789397242,4,1,0,80,0,1
18740,-72.7306036456901,4,1,0,80,0,1
18839,-73.396191532631,4,1,0,80,0,1
18938,-74.0740740740741,4,1,0,80,0,1
19038,-74.7716357472457,4,1,0,80,0,1
19137,-75.4752851711026,4,1,0,80,0,1
19236,-76.1923040015356,4,1,0,80,0,1
19335,-76.9230769230769,4,1,0,80,0,1
19534,-83.3333333333333,4,1,0,80,0,1
19633,-81.0847642409376,4,1,0,80,0,1
19732,-78.9543524416136,4,1,0,80,0,1
19831,-76.9330230152573,4,1,0,80,0,1
19930,-75.0126071608674,4,1,0,80,0,1
20030,-73.16773241515,4,1,0,80,0,1
20129,-71.4285714285714,4,1,0,80,0,1
20228,-69.7701688555347,4,1,0,80,0,1
20327,-68.1870272748109,4,1,0,80,0,1
20427,-66.6591978489805,4,1,0,80,0,1
20526,-65.21262604121,4,1,0,80,0,1
20724,-37.037037037037,4,1,0,80,0,1
21124,-76.9230769230769,4,1,0,80,0,1
21223,-77.6680035214715,4,1,0,80,0,1
21323,-78.4352464684381,4,1,0,80,0,1
21422,-79.2098962490027,4,1,0,80,0,1
21521,-80,4,1,0,80,0,1
21719,-71.4285714285714,4,1,0,80,0,1
21819,-72.0769789397242,4,1,0,80,0,1
21918,-72.7306036456901,4,1,0,80,0,1
22116,-74.0740740740741,4,1,0,80,0,1
22216,-74.7716357472457,4,1,0,80,0,1
22315,-75.4752851711026,4,1,0,80,0,1
22414,-76.1923040015356,4,1,0,80,0,1
22513,-76.9230769230769,4,1,0,80,0,1
22712,-74.0740740740741,4,1,0,80,0,1
22811,-74.7651807872334,4,1,0,80,0,1
22910,-75.4693049213599,4,1,0,80,0,1
23009,-76.1868177598517,4,1,0,80,0,1
23108,-76.9181048413157,4,1,0,80,0,1
23307,-71.4285714285714,4,1,0,80,0,1
23403,-69.448333800056,4,1,0,80,0,1
23502,-67.574931880109,4,1,0,80,0,1
23569,-66.3633930960662,4,1,0,80,0,1
23635,-65.2116749934264,4,1,0,80,0,1
23701,-64.0992504523133,4,1,0,80,0,1
23767,-63.0241423125793,4,1,0,80,0,1
23833,-61.9845038740316,4,1,0,80,0,1
23899,-60.9786083107942,4,1,0,80,0,1
23965,-60.0048390999273,4,1,0,80,0,1
24032,-59.0476190476192,4,1,0,80,0,1
24098,-58.1340834505392,4,1,0,80,0,1
24164,-57.2483841181901,4,1,0,80,0,1
24230,-56.3892678490224,4,1,0,80,0,1
24302,-55.5555555555556,4,1,0,80,0,0
24696,-50,4,1,0,80,0,0
25093,-33.3333333333333,4,1,0,80,0,0
25490,-27.7777777777778,4,1,0,80,0,0
25837,-27.7777777777778,4,1,0,70,0,0
25884,-66.6666666666667,4,1,0,70,0,0
25983,-67.4681238615665,4,1,0,70,0,0
26082,-68.2890855457227,4,1,0,70,0,0
26181,-69.130272489735,4,1,0,70,0,0
26280,-69.9924414210129,4,1,0,70,0,0
26380,-70.8854299566216,4,1,0,70,0,0
26479,-71.7922212172115,4,1,0,70,0,0
26578,-72.7225130890052,4,1,0,70,0,0
26677,-73.6772311364541,4,1,0,70,0,0
26777,-74.6673834162075,4,1,0,70,0,0
26876,-75.674203214383,4,1,0,70,0,0
26975,-76.7085461825211,4,1,0,70,0,0
27074,-77.7715565509518,4,1,0,70,0,0
27173,-78.8644428672818,4,1,0,70,0,0
27273,-80,4,1,0,70,0,0
27471,-66.6666666666667,4,1,0,70,0,0
27570,-67.5657267402261,4,1,0,70,0,0
27669,-68.4893675780171,4,1,0,70,0,0
27769,-69.448333800056,4,1,0,70,0,0
27868,-70.4245349992901,4,1,0,70,0,0
27967,-71.4285714285714,4,1,0,70,0,0
28067,-66.6666666666667,4,1,0,70,0,0
28166,-67.4144572852935,4,1,0,70,0,0
28265,-68.1792139337688,4,1,0,70,0,0
28364,-68.9615206305053,4,1,0,70,0,0
28463,-69.7619885097901,4,1,0,70,0,0
28563,-70.5896310357101,4,1,0,70,0,0
28662,-71.4285714285714,4,1,0,70,0,0
28860,-66.6666666666667,4,1,0,70,0,0
28959,-67.5304279544562,4,1,0,70,0,0
29059,-68.4259382044822,4,1,0,70,0,0
29158,-69.336199946251,4,1,0,70,0,0
29257,-70.2710064006537,4,1,0,70,0,0
29356,-71.2313638873551,4,1,0,70,0,0
29455,-72.2183344996501,4,1,0,70,0,0
29555,-73.2434350603265,4,1,0,70,0,0
29654,-74.2873596314426,4,1,0,70,0,0
29753,-75.361472177596,4,1,0,70,0,0
29852,-76.4671013633669,4,1,0,70,0,0
29919,-77.2339470139201,4,1,0,70,0,0
29985,-78.0045351473923,4,1,0,70,0,0
30051,-78.7906550618415,4,1,0,70,0,0
30150,-80,4,1,0,70,0,0
30352,-65.7894736842105,4,1,0,70,0,0
30448,-66.6666666666667,4,1,0,70,0,0
30547,-67.414033895746,4,1,0,70,0,0
30646,-68.1783478393648,4,1,0,70,0,0
30745,-68.9601915131858,4,1,0,70,0,0
30844,-69.7601749863292,4,1,0,70,0,0
30944,-70.5873053513556,4,1,0,70,0,0
31043,-71.4257148570286,4,1,0,70,0,0
31142,-72.2842803950138,4,1,0,70,0,0
31241,-73.163737659252,4,1,0,70,0,0
31341,-74.0740740740741,4,1,0,70,0,0
31440,-66.6666666666667,4,1,0,70,0,0
31539,-67.4144572852935,4,1,0,70,0,0
31638,-68.1792139337688,4,1,0,70,0,0
31738,-68.969514315521,4,1,0,70,0,0
31837,-69.7701688555347,4,1,0,70,0,0
31936,-70.5896310357101,4,1,0,70,0,0
31985,-71.0023866348449,4,1,0,70,0,0
32035,-71.4285714285714,4,1,0,70,0,0
32237,-66.6666666666667,4,1,0,70,0,0
32336,-67.4681238615665,4,1,0,70,0,0
32435,-68.2890855457227,4,1,0,70,0,0
32534,-69.130272489735,4,1,0,70,0,0
32633,-69.9924414210129,4,1,0,70,0,0
32733,-70.8854299566216,4,1,0,70,0,0
32832,-71.7922212172115,4,1,0,70,0,0
32931,-72.7225130890052,4,1,0,70,0,0
33030,-73.6772311364541,4,1,0,70,0,0
33130,-74.6673834162075,4,1,0,70,0,0
33229,-75.674203214383,4,1,0,70,0,0
33328,-76.7085461825211,4,1,0,70,0,0
33427,-77.7715565509518,4,1,0,70,0,0
33526,-78.8644428672818,4,1,0,70,0,0
33626,-80,4,1,0,70,0,0
33824,-66.6666666666667,4,1,0,70,0,0
33923,-67.5657267402261,4,1,0,70,0,0
34022,-68.4893675780171,4,1,0,70,0,0
34122,-69.448333800056,4,1,0,70,0,0
34221,-70.4245349992901,4,1,0,70,0,0
34320,-71.4285714285714,4,1,0,70,0,0
34420,-66.6666666666667,4,1,0,70,0,0
34519,-67.4144572852935,4,1,0,70,0,0
34618,-68.1792139337688,4,1,0,70,0,0
34717,-68.9615206305053,4,1,0,70,0,0
34816,-69.7619885097901,4,1,0,70,0,0
34916,-70.5896310357101,4,1,0,70,0,0
35015,-71.4285714285714,4,1,0,70,0,0
35213,-66.6666666666667,4,1,0,70,0,0
35312,-67.5304279544562,4,1,0,70,0,0
35412,-68.4259382044822,4,1,0,70,0,0
35511,-69.336199946251,4,1,0,70,0,0
35610,-70.2710064006537,4,1,0,70,0,0
35709,-71.2313638873551,4,1,0,70,0,0
35808,-72.2183344996501,4,1,0,70,0,0
35908,-73.2434350603265,4,1,0,70,0,0
36007,-74.2873596314426,4,1,0,70,0,0
36106,-75.361472177596,4,1,0,70,0,0
36205,-76.4671013633669,4,1,0,70,0,0
36272,-77.2339470139201,4,1,0,70,0,0
36338,-78.0045351473923,4,1,0,70,0,0
36404,-78.7906550618415,4,1,0,70,0,0
36500,-80,4,1,0,70,0,0
36698,-81.716700986236,4,1,0,70,0,0
36798,-82.6120302399474,4,1,0,70,0,0
36897,-83.5179441736819,4,1,0,70,0,0
36996,-84.4439466905589,4,1,0,70,0,0
37095,-85.3907134767837,4,1,0,70,0,0
37194,-86.3589508647349,4,1,0,70,0,0
37294,-87.3595180164523,4,1,0,70,0,0
37393,-88.3731833098922,4,1,0,70,0,0
37492,-89.4106486422388,4,1,0,70,0,0
37591,-90.4727621790257,4,1,0,70,0,0
37790,-92.6859250153657,4,1,0,70,0,0
37889,-93.827775012444,4,1,0,70,0,0
37988,-94.9981101171727,4,1,0,70,0,0
38087,-96.1980096963511,4,1,0,70,0,0
38187,-97.4411992762988,4,1,0,70,0,0
38286,-98.7040188506349,4,1,0,70,0,0
38335,-99.3412384716733,4,1,0,70,0,0
38385,-100,4,1,0,70,0,0
38587,-33.3333333333333,4,1,0,70,0,0
38782,-55.5555555555556,4,1,0,70,0,0
38881,-56.6010835471913,4,1,0,70,0,0
38980,-57.6867189770416,4,1,0,70,0,0
39080,-58.8264348513287,4,1,0,70,0,0
39179,-60,4,1,0,70,0,0
39278,-61.221342654467,4,1,0,70,0,0
39377,-62.4934410746143,4,1,0,70,0,0
39477,-63.8332082752707,4,1,0,70,0,0
39576,-65.2173913043478,4,1,0,70,0,0
39675,-66.6629351841487,4,1,0,70,0,0
39774,-68.1740125930166,4,1,0,70,0,0
39874,-69.7715289982425,4,1,0,70,0,0
39973,-71.4285714285714,4,1,0,70,0,0
40171,-55.5555555555556,4,1,0,70,0,0
40270,-56.4496464277005,4,1,0,70,0,0
40370,-57.3824671569033,4,1,0,70,0,0
40469,-58.3368332633347,4,1,0,70,0,0
40568,-59.3234816776288,4,1,0,70,0,0
40667,-60.3440785472237,4,1,0,70,0,0
40766,-61.4004066837593,4,1,0,70,0,0
40866,-62.5056250562506,4,1,0,70,0,0
40965,-63.6396957756802,4,1,0,70,0,0
41064,-64.8156789547365,4,1,0,70,0,0
41163,-66.0359418085007,4,1,0,70,0,0
41263,-67.3160802558881,4,1,0,70,0,0
41362,-68.6332641565373,4,1,0,70,0,0
41461,-70.0030238887211,4,1,0,70,0,0
41560,-71.4285714285715,4,1,0,70,0,0
41759,-125,4,1,0,70,0,0
41858,-122.454018022466,4,1,0,70,0,0
41957,-120.009678199855,4,1,0,70,0,0
42056,-117.661012928478,4,1,0,70,0,0
42155,-115.40251279665,4,1,0,70,0,0
42255,-113.207547169811,4,1,0,70,0,0
42354,-111.115259679648,4,1,0,70,0,0
42453,-109.098907544541,4,1,0,70,0,0
42552,-107.154430562057,4,1,0,70,0,0
42652,-105.259434796449,4,1,0,70,0,0
42751,-103.448275862069,4,1,0,70,0,0
42850,-101.698390458941,4,1,0,70,0,0
42949,-100.00672088178,4,1,0,70,0,0
43049,-98.35415427325,4,1,0,70,0,0
43148,-96.7710467271486,4,1,0,70,0,0
43247,-95.2380952380952,4,1,0,70,0,0
43346,-93.7529534070504,4,1,0,70,0,0
43445,-92.3134189465848,4,1,0,70,0,0
43545,-90.9035371739263,4,1,0,70,0,0
43644,-89.5495441278247,4,1,0,70,0,0
43743,-88.2352941176471,4,1,0,70,0,0
43842,-86.9590626187067,4,1,0,70,0,0
43941,-85.7192234575725,4,1,0,70,0,0
44041,-84.5022431711057,4,1,0,70,0,0
44140,-83.330999915997,4,1,0,70,0,0
44239,-82.1917808219178,4,1,0,70,0,0
44338,-81.083290194262,4,1,0,70,0,0
44438,-79.9935489073462,4,1,0,70,0,0
44537,-78.9431800095496,4,1,0,70,0,0
44636,-77.920037703244,4,1,0,70,0,0
44735,-76.9230769230769,4,1,0,70,0,0
44937,-53.763440860215,4,1,0,70,0,0
45036,-54.6448087431694,4,1,0,70,0,0
45135,-55.5555555555556,4,1,0,70,0,0
45234,-56.6010835471913,4,1,0,70,0,0
45333,-57.6867189770416,4,1,0,70,0,0
45433,-58.8264348513287,4,1,0,70,0,0
45532,-60,4,1,0,70,0,0
45631,-61.221342654467,4,1,0,70,0,0
45730,-62.4934410746143,4,1,0,70,0,0
45830,-63.8332082752707,4,1,0,70,0,0
45929,-65.2173913043478,4,1,0,70,0,0
46028,-66.6629351841487,4,1,0,70,0,0
46127,-68.1740125930166,4,1,0,70,0,0
46227,-69.7715289982425,4,1,0,70,0,0
46326,-71.4285714285714,4,1,0,70,0,0
46524,-55.5555555555556,4,1,0,70,0,0
46623,-56.4496464277006,4,1,0,70,0,0
46723,-57.3824671569032,4,1,0,70,0,0
46822,-58.3368332633347,4,1,0,70,0,0
46921,-59.3234816776288,4,1,0,70,0,0
47020,-60.3440785472239,4,1,0,70,0,0
47119,-61.4004066837592,4,1,0,70,0,0
47219,-62.5056250562506,4,1,0,70,0,0
47318,-63.6396957756804,4,1,0,70,0,0
47417,-64.8156789547364,4,1,0,70,0,0
47516,-66.0359418085005,4,1,0,70,0,0
47616,-67.3160802558883,4,1,0,70,0,0
47715,-68.6332641565372,4,1,0,70,0,0
47814,-70.0030238887209,4,1,0,70,0,0
47913,-71.4285714285714,4,1,0,70,0,0
48112,-125,4,1,0,70,0,0
48211,-122.454018022466,4,1,0,70,0,0
48310,-120.009678199855,4,1,0,70,0,0
48409,-117.661012928478,4,1,0,70,0,0
48508,-115.40251279665,4,1,0,70,0,0
48608,-113.207547169811,4,1,0,70,0,0
48707,-111.115259679648,4,1,0,70,0,0
48806,-109.098907544541,4,1,0,70,0,0
48906,-68.9655172413793,4,1,0,70,0,0
48969,-66.6666666666667,4,1,0,70,0,0
49035,-64.7085002225189,4,1,0,70,0,0
49101,-62.862083873757,4,1,0,70,0,0
49167,-61.1181168558218,4,1,0,70,0,0
49233,-59.4683026584867,4,1,0,70,0,0
49299,-57.905217045002,4,1,0,70,0,0
49365,-56.4221963523477,4,1,0,70,0,0
49432,-54.9924357034796,4,1,0,70,0,0
49498,-53.6531365313653,4,1,0,70,0,0
49564,-52.3775216138329,4,1,0,70,0,0
49630,-51.1611541168191,4,1,0,70,0,0
49696,-50,4,1,0,70,0,0
49895,-51.2853636481075,4,1,0,70,0,0
50093,-52.6315789473684,4,1,0,70,0,0
50292,-54.057734204793,4,1,0,70,0,0
50490,-55.5555555555556,4,1,0,70,0,0
50689,-57.1469699150713,4,1,0,70,0,0
50887,-58.8235294117647,4,1,0,70,0,0
51237,-58.8235294117647,4,1,0,80,0,0
51290,-50,4,1,0,80,0,1
51680,-76.9230769230769,4,1,0,80,0,1
51780,-77.6756016435142,4,1,0,80,0,1
51879,-78.4352464684381,4,1,0,80,0,1
51978,-79.2098962490027,4,1,0,80,0,1
52077,-80,4,1,0,80,0,1
52276,-81.6368496812666,4,1,0,80,0,1
52474,-37.037037037037,4,1,0,80,0,1
52871,-76.9230769230769,4,1,0,80,0,1
52970,-77.6680035214715,4,1,0,80,0,1
53070,-78.4352464684381,4,1,0,80,0,1
53169,-79.2098962490027,4,1,0,80,0,1
53268,-80,4,1,0,80,0,1
53466,-71.4285714285714,4,1,0,80,0,1
53566,-72.0769789397242,4,1,0,80,0,1
53665,-72.7306036456901,4,1,0,80,0,1
53863,-74.0740740740741,4,1,0,80,0,1
53963,-74.7716357472457,4,1,0,80,0,1
54062,-75.4752851711026,4,1,0,80,0,1
54161,-76.1923040015356,4,1,0,80,0,1
54260,-76.9230769230769,4,1,0,80,0,1
54459,-74.0740740740741,4,1,0,80,0,1
54558,-74.7651807872334,4,1,0,80,0,1
54657,-75.4693049213599,4,1,0,80,0,1
54756,-76.1868177598517,4,1,0,80,0,1
54855,-76.9181048413157,4,1,0,80,0,1
55054,-78.4313725490196,4,1,0,80,0,1
55153,-79.2066027689032,4,1,0,80,0,1
55252,-79.997311014756,4,1,0,80,0,1
55451,-81.6354531110659,4,1,0,80,0,1
55649,-37.037037037037,4,1,0,80,0,1
56046,-76.9230769230769,4,1,0,80,0,1
56145,-77.6680035214715,4,1,0,80,0,1
56245,-78.4352464684381,4,1,0,80,0,1
56443,-80,4,1,0,80,0,1
56641,-71.4285714285714,4,1,0,80,0,1
56741,-72.0769789397242,4,1,0,80,0,1
56840,-72.7306036456901,4,1,0,80,0,1
56939,-73.396191532631,4,1,0,80,0,1
57038,-74.0740740740741,4,1,0,80,0,1
57138,-74.7716357472457,4,1,0,80,0,1
57237,-75.4752851711026,4,1,0,80,0,1
57336,-76.1923040015356,4,1,0,80,0,1
57435,-76.9230769230769,4,1,0,80,0,1
57634,-83.3333333333333,4,1,0,80,0,1
57733,-81.0847642409376,4,1,0,80,0,1
57832,-78.9543524416136,4,1,0,80,0,1
57931,-76.9330230152573,4,1,0,80,0,1
58030,-75.0126071608674,4,1,0,80,0,1
58130,-73.16773241515,4,1,0,80,0,1
58229,-71.4285714285714,4,1,0,80,0,1
58328,-69.7701688555347,4,1,0,80,0,1
58427,-68.1870272748109,4,1,0,80,0,1
58527,-66.6591978489805,4,1,0,80,0,1
58626,-65.21262604121,4,1,0,80,0,1
58824,-37.037037037037,4,1,0,80,0,1
59224,-76.9230769230769,4,1,0,80,0,1
59323,-77.6680035214715,4,1,0,80,0,1
59423,-78.4352464684381,4,1,0,80,0,1
59522,-79.2098962490027,4,1,0,80,0,1
59621,-80,4,1,0,80,0,1
59819,-71.4285714285714,4,1,0,80,0,1
59919,-72.0769789397242,4,1,0,80,0,1
60018,-72.7306036456901,4,1,0,80,0,1
60216,-74.0740740740741,4,1,0,80,0,1
60316,-74.7716357472457,4,1,0,80,0,1
60415,-75.4752851711026,4,1,0,80,0,1
60514,-76.1923040015356,4,1,0,80,0,1
60613,-76.9230769230769,4,1,0,80,0,1
60812,-74.0740740740741,4,1,0,80,0,1
60911,-74.7651807872334,4,1,0,80,0,1
61010,-75.4693049213599,4,1,0,80,0,1
61109,-76.1868177598517,4,1,0,80,0,1
61208,-76.9181048413157,4,1,0,80,0,1
61407,-71.4285714285714,4,1,0,80,0,1
61503,-69.448333800056,4,1,0,80,0,1
61602,-67.574931880109,4,1,0,80,0,1
61669,-66.3633930960662,4,1,0,80,0,1
61735,-65.2116749934264,4,1,0,80,0,1
61801,-64.0992504523133,4,1,0,80,0,1
61867,-63.0241423125793,4,1,0,80,0,1
61933,-61.9845038740316,4,1,0,80,0,1
61999,-60.9786083107942,4,1,0,80,0,1
62065,-60.0048390999273,4,1,0,80,0,1
62132,-59.0476190476192,4,1,0,80,0,1
62198,-58.1340834505392,4,1,0,80,0,1
62264,-57.2483841181901,4,1,0,80,0,1
62330,-56.3892678490224,4,1,0,80,0,1
62402,-55.5555555555556,4,1,0,80,0,0
62796,-50,4,1,0,80,0,0
63193,-33.3333333333333,4,1,0,80,0,0
63590,-27.7777777777778,4,1,0,80,0,0
63937,-27.7777777777778,4,1,0,70,0,0
63984,-66.6666666666667,4,1,0,70,0,0
64083,-67.4681238615665,4,1,0,70,0,0
64182,-68.2890855457227,4,1,0,70,0,0
64281,-69.130272489735,4,1,0,70,0,0
64380,-69.9924414210129,4,1,0,70,0,0
64480,-70.8854299566216,4,1,0,70,0,0
64579,-71.7922212172115,4,1,0,70,0,0
64678,-72.7225130890052,4,1,0,70,0,0
64777,-73.6772311364541,4,1,0,70,0,0
64877,-74.6673834162075,4,1,0,70,0,0
64976,-75.674203214383,4,1,0,70,0,0
65075,-76.7085461825211,4,1,0,70,0,0
65174,-77.7715565509518,4,1,0,70,0,0
65273,-78.8644428672818,4,1,0,70,0,0
65373,-80,4,1,0,70,0,0
65571,-66.6666666666667,4,1,0,70,0,0
65670,-67.5657267402261,4,1,0,70,0,0
65769,-68.4893675780171,4,1,0,70,0,0
65869,-69.448333800056,4,1,0,70,0,0
65968,-70.4245349992901,4,1,0,70,0,0
66067,-71.4285714285714,4,1,0,70,0,0
66167,-62.5,4,1,0,70,0,0
66266,-63.1567774121645,4,1,0,70,0,0
66365,-63.8275048272903,4,1,0,70,0,0
66464,-64.512631464816,4,1,0,70,0,0
66563,-65.21262604121,4,1,0,70,0,0
66663,-65.9352836879435,4,1,0,70,0,0
66762,-66.6666666666667,4,1,0,70,0,0
66864,-67.5675675675676,4,1,0,70,0,0
66960,-68.4931506849315,4,1,0,70,0,0
67059,-67.5304279544562,4,1,0,70,0,0
67159,-62.5,4,1,0,70,0,0
67258,-63.0619720868275,4,1,0,70,0,0
67357,-63.6341418708377,4,1,0,70,0,0
67456,-64.2167894688165,4,1,0,70,0,0
67555,-64.8102053515868,4,1,0,70,0,0
67655,-65.4208542713568,4,1,0,70,0,0
67754,-66.0368386012745,4,1,0,70,0,0
67853,-66.6645330602317,4,1,0,70,0,0
67952,-67.3042747746292,4,1,0,70,0,0
68052,-67.9630656791412,4,1,0,70,0,0
68151,-68.6280969952557,4,1,0,70,0,0
68250,-69.3062718349692,4,1,0,70,0,0
68350,-70.0050411695513,4,1,0,70,0,0
68448,-70.7036421031194,4,1,0,70,0,0
68548,-71.4310208840575,4,1,0,70,0,0
68647,-72.1660199556541,4,1,0,70,0,0
68746,-72.9163020268142,4,1,0,70,0,0
68845,-73.682348779625,4,1,0,70,0,0
68944,-74.4646623529832,4,1,0,70,0,0
69044,-75.2719257037546,4,1,0,70,0,0
69143,-76.0885447106955,4,1,0,70,0,0
69242,-76.9230769230769,4,1,0,70,0,0
69341,-77.5193798449612,4,1,0,70,0,0
69441,-78.125,4,1,0,70,0,0
69540,-66.6666666666667,4,1,0,70,0,0
69639,-67.4144572852935,4,1,0,70,0,0
69738,-68.1792139337688,4,1,0,70,0,0
69838,-68.969514315521,4,1,0,70,0,0
69937,-69.7701688555347,4,1,0,70,0,0
70036,-70.5896310357101,4,1,0,70,0,0
70085,-71.0023866348449,4,1,0,70,0,0
70135,-71.4285714285714,4,1,0,70,0,0
70337,-66.6666666666667,4,1,0,70,0,0
70436,-67.4681238615665,4,1,0,70,0,0
70535,-68.2890855457227,4,1,0,70,0,0
70634,-69.130272489735,4,1,0,70,0,0
70733,-69.9924414210129,4,1,0,70,0,0
70833,-70.8854299566216,4,1,0,70,0,0
70932,-71.7922212172115,4,1,0,70,0,0
71031,-72.7225130890052,4,1,0,70,0,0
71130,-73.6772311364541,4,1,0,70,0,0
71230,-74.6673834162075,4,1,0,70,0,0
71329,-75.674203214383,4,1,0,70,0,0
71428,-76.7085461825211,4,1,0,70,0,0
71527,-77.7715565509518,4,1,0,70,0,0
71626,-78.8644428672818,4,1,0,70,0,0
71726,-80,4,1,0,70,0,0
71924,-66.6666666666667,4,1,0,70,0,0
72023,-67.5657267402261,4,1,0,70,0,0
72122,-68.4893675780171,4,1,0,70,0,0
72222,-69.448333800056,4,1,0,70,0,0
72321,-70.4245349992901,4,1,0,70,0,0
72420,-71.4285714285714,4,1,0,70,0,0
72520,-66.6666666666667,4,1,0,70,0,0
72619,-67.4144572852935,4,1,0,70,0,0
72718,-68.1792139337688,4,1,0,70,0,0
72817,-68.9615206305053,4,1,0,70,0,0
72916,-69.7619885097901,4,1,0,70,0,0
73016,-70.5896310357101,4,1,0,70,0,0
73115,-71.4285714285714,4,1,0,70,0,0
73313,-66.6666666666667,4,1,0,70,0,0
73412,-67.5304279544562,4,1,0,70,0,0
73512,-68.4259382044822,4,1,0,70,0,0
73611,-69.336199946251,4,1,0,70,0,0
73710,-70.2710064006537,4,1,0,70,0,0
73809,-71.2313638873551,4,1,0,70,0,0
73908,-72.2183344996501,4,1,0,70,0,0
74008,-73.2434350603265,4,1,0,70,0,0
74107,-74.2873596314426,4,1,0,70,0,0
74206,-75.361472177596,4,1,0,70,0,0
74305,-76.4671013633669,4,1,0,70,0,0
74372,-77.2339470139201,4,1,0,70,0,0
74438,-78.0045351473923,4,1,0,70,0,0
74504,-78.7906550618415,4,1,0,70,0,0
74600,-80,4,1,0,70,0,0
74798,-81.716700986236,4,1,0,70,0,0
74898,-82.6120302399474,4,1,0,70,0,0
74997,-83.5179441736819,4,1,0,70,0,0
75096,-84.4439466905589,4,1,0,70,0,0
75195,-85.3907134767837,4,1,0,70,0,0
75294,-86.3589508647349,4,1,0,70,0,0
75394,-87.3595180164523,4,1,0,70,0,0
75493,-88.3731833098922,4,1,0,70,0,0
75592,-89.4106486422388,4,1,0,70,0,0
75691,-90.4727621790257,4,1,0,70,0,0
75890,-92.6859250153657,4,1,0,70,0,0
75989,-93.827775012444,4,1,0,70,0,0
76088,-94.9981101171727,4,1,0,70,0,0
76187,-96.1980096963511,4,1,0,70,0,0
76287,-97.4411992762988,4,1,0,70,0,0
76386,-98.7040188506349,4,1,0,70,0,0
76435,-99.3412384716733,4,1,0,70,0,0
76485,-100,4,1,0,70,0,0
76687,-33.3333333333333,4,1,0,70,0,0
76882,-55.5555555555556,4,1,0,70,0,0
76981,-56.6010835471913,4,1,0,70,0,0
77080,-57.6867189770416,4,1,0,70,0,0
77180,-58.8264348513287,4,1,0,70,0,0
77279,-60,4,1,0,70,0,0
77378,-61.221342654467,4,1,0,70,0,0
77477,-62.4934410746143,4,1,0,70,0,0
77577,-63.8332082752707,4,1,0,70,0,0
77676,-65.2173913043478,4,1,0,70,0,0
77775,-66.6629351841487,4,1,0,70,0,0
77874,-68.1740125930166,4,1,0,70,0,0
77974,-69.7715289982425,4,1,0,70,0,0
78073,-71.4285714285714,4,1,0,70,0,0
78175,-72.992700729927,4,1,0,70,0,0
78271,-55.5555555555556,4,1,0,70,0,0
78370,-56.4496464277006,4,1,0,70,0,0
78470,-57.3824671569032,4,1,0,70,0,0
78569,-58.3368332633347,4,1,0,70,0,0
78668,-59.3234816776288,4,1,0,70,0,0
78767,-60.3440785472239,4,1,0,70,0,0
78866,-61.4004066837592,4,1,0,70,0,0
78966,-62.5056250562506,4,1,0,70,0,0
79065,-63.6396957756804,4,1,0,70,0,0
79164,-64.8156789547364,4,1,0,70,0,0
79263,-66.0359418085005,4,1,0,70,0,0
79363,-67.3160802558883,4,1,0,70,0,0
79462,-68.6332641565372,4,1,0,70,0,0
79561,-70.0030238887209,4,1,0,70,0,0
79660,-71.4285714285714,4,1,0,70,0,0
79763,-72.992700729927,4,1,0,70,0,0
79859,-125,4,1,0,70,0,0
79958,-122.454018022466,4,1,0,70,0,0
80057,-120.009678199855,4,1,0,70,0,0
80156,-117.661012928478,4,1,0,70,0,0
80255,-115.40251279665,4,1,0,70,0,0
80355,-113.207547169811,4,1,0,70,0,0
80454,-111.115259679648,4,1,0,70,0,0
80553,-109.098907544541,4,1,0,70,0,0
80652,-107.154430562057,4,1,0,70,0,0
80752,-105.259434796449,4,1,0,70,0,0
80851,-103.448275862069,4,1,0,70,0,0
80950,-101.698390458941,4,1,0,70,0,0
81049,-100.00672088178,4,1,0,70,0,0
81149,-98.35415427325,4,1,0,70,0,0
81248,-96.7710467271486,4,1,0,70,0,0
81347,-95.2380952380952,4,1,0,70,0,0
81446,-93.7529534070504,4,1,0,70,0,0
81545,-92.3134189465848,4,1,0,70,0,0
81645,-90.9035371739263,4,1,0,70,0,0
81744,-89.5495441278247,4,1,0,70,0,0
81843,-88.2352941176471,4,1,0,70,0,0
81942,-86.9590626187067,4,1,0,70,0,0
82041,-85.7192234575725,4,1,0,70,0,0
82141,-84.5022431711057,4,1,0,70,0,0
82240,-83.330999915997,4,1,0,70,0,0
82339,-82.1917808219178,4,1,0,70,0,0
82438,-81.083290194262,4,1,0,70,0,0
82538,-79.9935489073462,4,1,0,70,0,0
82637,-78.9431800095496,4,1,0,70,0,0
82736,-77.920037703244,4,1,0,70,0,0
82835,-76.9230769230769,4,1,0,70,0,0
83037,-53.763440860215,4,1,0,70,0,0
83136,-54.6448087431694,4,1,0,70,0,0
83235,-55.5555555555556,4,1,0,70,0,0
83334,-56.6010835471913,4,1,0,70,0,0
83433,-57.6867189770416,4,1,0,70,0,0
83533,-58.8264348513287,4,1,0,70,0,0
83632,-60,4,1,0,70,0,0
83731,-61.221342654467,4,1,0,70,0,0
83830,-62.4934410746143,4,1,0,70,0,0
83930,-63.8332082752707,4,1,0,70,0,0
84029,-65.2173913043478,4,1,0,70,0,0
84128,-66.6629351841487,4,1,0,70,0,0
84227,-68.1740125930166,4,1,0,70,0,0
84327,-69.7715289982425,4,1,0,70,0,0
84426,-71.4285714285714,4,1,0,70,0,0
84525,-72.992700729927,4,1,0,70,0,0
84624,-55.5555555555556,4,1,0,70,0,0
84723,-56.4496464277006,4,1,0,70,0,0
84823,-57.3824671569032,4,1,0,70,0,0
84922,-58.3368332633347,4,1,0,70,0,0
85021,-59.3234816776288,4,1,0,70,0,0
85120,-60.3440785472239,4,1,0,70,0,0
85219,-61.4004066837592,4,1,0,70,0,0
85319,-62.5056250562506,4,1,0,70,0,0
85418,-63.6396957756804,4,1,0,70,0,0
85517,-64.8156789547364,4,1,0,70,0,0
85616,-66.0359418085005,4,1,0,70,0,0
85716,-67.3160802558883,4,1,0,70,0,0
85815,-68.6332641565372,4,1,0,70,0,0
85914,-70.0030238887209,4,1,0,70,0,0
86013,-71.4285714285714,4,1,0,70,0,0
86209,-125,4,1,0,70,0,0
86308,-122.4225312999,4,1,0,70,0,0
86407,-119.949208652669,4,1,0,70,0,0
86506,-117.573844820305,4,1,0,70,0,0
86605,-115.290733153169,4,1,0,70,0,0
86705,-113.072845417237,4,1,0,70,0,0
86804,-110.959622443629,4,1,0,70,0,0
86903,-108.923938557839,4,1,0,70,0,0
87002,-106.961603008674,4,1,0,70,0,0
87102,-105.049943404095,4,1,0,70,0,0
87201,-103.223540430846,4,1,0,70,0,0
87301,-101.442049551277,4,1,0,70,0,0
87400,-99.7379286939799,4,1,0,70,0,0
87499,-98.0901168180975,4,1,0,70,0,0
87598,-96.4958683716094,4,1,0,70,0,0
87796,-50,4,1,0,70,0,0
87995,-51.2820512820513,4,1,0,70,0,0
88193,-52.6315789473684,4,1,0,70,0,0
88392,-54.054054054054,4,1,0,70,0,0
88590,-55.5555555555556,4,1,0,70,0,0
88789,-57.1428571428571,4,1,0,70,0,0
88987,-58.8235294117647,4,1,0,70,0,0
89387,-33.3333333333333,4,1,0,70,0,0
89586,-51.4814814814815,4,1,0,70,0,0
89685,-53.0372405372405,4,1,0,70,0,0
89784,-54.6899590808939,4,1,0,70,0,0
89883,-56.4489928525016,4,1,0,70,0,0
89982,-58.3249412554549,4,1,0,70,0,0
90082,-60.3508162556443,4,1,0,70,0,0
90181,-62.5,4,1,0,70,0,0
90280,-64.8079074972025,4,1,0,70,0,0
90379,-67.292796281952,4,1,0,70,0,0
90479,-70.0040290088638,4,1,0,70,0,0
90578,-72.9122954259337,4,1,0,70,0,0
90677,-76.0726795096322,4,1,0,70,0,0
90776,-79.5194508009153,4,1,0,70,0,0
90875,-83.3333333333333,4,1,0,70,0,0
90975,-48.3091787439614,4,1,0,70,0,0
91070,-50,4,1,0,70,0,0
91170,-51.4814814814815,4,1,0,70,0,0
91269,-53.0372405372405,4,1,0,70,0,0
91368,-54.6899590808939,4,1,0,70,0,0
91467,-56.4489928525016,4,1,0,70,0,0
91566,-58.3249412554549,4,1,0,70,0,0
91666,-60.3508162556443,4,1,0,70,0,0
91765,-62.5,4,1,0,70,0,0
91864,-64.8079074972025,4,1,0,70,0,0
91963,-67.292796281952,4,1,0,70,0,0
92063,-70.0040290088638,4,1,0,70,0,0
92162,-72.9122954259337,4,1,0,70,0,0
92261,-76.0726795096322,4,1,0,70,0,0
92360,-79.5194508009153,4,1,0,70,0,0
92460,-83.3333333333333,4,1,0,70,0,0
92559,-50,4,1,0,70,0,0
92658,-50.9845521447988,4,1,0,70,0,0
92758,-52.0192112561726,4,1,0,70,0,0
92857,-53.0857379538865,4,1,0,70,0,0
92956,-54.1969131016985,4,1,0,70,0,0
93055,-55.3556003455226,4,1,0,70,0,0
93154,-56.5649135711659,4,1,0,70,0,0
93254,-57.8412937194434,4,1,0,70,0,0
93353,-59.1629481458686,4,1,0,70,0,0
93452,-60.5464136682151,4,1,0,70,0,0
93551,-61.9961302805547,4,1,0,70,0,0
93651,-63.5327164573695,4,1,0,70,0,0
93750,-65.1308545777928,4,1,0,70,0,0
93849,-66.8114682884448,4,1,0,70,0,0
93948,-68.5811112102024,4,1,0,70,0,0
94047,-70.447050201539,4,1,0,70,0,0
94147,-72.4378296910324,4,1,0,70,0,0
94246,-74.5227250702587,4,1,0,70,0,0
94345,-76.7311913789663,4,1,0,70,0,0
94444,-79.0745501285347,4,1,0,70,0,0
94544,-81.5915119363395,4,1,0,70,0,0
94643,-84.2462751971954,4,1,0,70,0,0
94742,-87.0796059336429,4,1,0,70,0,0
94841,-90.1101476447153,4,1,0,70,0,0
94940,-93.359232730363,4,1,0,70,0,0
95040,-96.8879929444374,4,1,0,70,0,0
95139,-100.65445026178,4,1,0,70,0,0
95238,-104.725588996323,4,1,0,70,0,0
95337,-109.139937553222,4,1,0,70,0,0
95437,-113.993477616365,4,1,0,70,0,0
95536,-119.243293533881,4,1,0,70,0,0
95635,-125,4,1,0,70,0,0
95737,-48.3091787439614,4,1,0,70,0,0
95836,-50,4,1,0,70,0,0
95936,-51.4814814814815,4,1,0,70,0,0
96035,-53.0372405372405,4,1,0,70,0,0
96134,-54.6899590808939,4,1,0,70,0,0
96233,-56.4489928525016,4,1,0,70,0,0
96332,-58.3249412554549,4,1,0,70,0,0
96432,-60.3508162556443,4,1,0,70,0,0
96531,-62.5,4,1,0,70,0,0
96630,-64.8079074972025,4,1,0,70,0,0
96729,-67.292796281952,4,1,0,70,0,0
96829,-70.0040290088638,4,1,0,70,0,0
96928,-72.9122954259337,4,1,0,70,0,0
97027,-76.0726795096322,4,1,0,70,0,0
97126,-79.5194508009153,4,1,0,70,0,0
97225,-83.3333333333333,4,1,0,70,0,0
97325,-48.3091787439614,4,1,0,70,0,0
97420,-50,4,1,0,70,0,0
97520,-51.4814814814815,4,1,0,70,0,0
97619,-53.0372405372405,4,1,0,70,0,0
97718,-54.6899590808939,4,1,0,70,0,0
97817,-56.4489928525016,4,1,0,70,0,0
97916,-58.3249412554549,4,1,0,70,0,0
98016,-60.3508162556443,4,1,0,70,0,0
98115,-62.5,4,1,0,70,0,0
98214,-64.8079074972025,4,1,0,70,0,0
98313,-67.292796281952,4,1,0,70,0,0
98413,-70.0040290088638,4,1,0,70,0,0
98512,-72.9122954259337,4,1,0,70,0,0
98611,-76.0726795096322,4,1,0,70,0,0
98710,-79.5194508009153,4,1,0,70,0,0
98810,-83.3333333333333,4,1,0,70,0,0
98909,-50,4,1,0,70,0,0
99008,-50.9845521447988,4,1,0,70,0,0
99108,-52.0192112561726,4,1,0,70,0,0
99207,-53.0857379538865,4,1,0,70,0,0
99306,-54.1969131016985,4,1,0,70,0,0
99405,-55.3556003455226,4,1,0,70,0,0
99504,-56.5649135711659,4,1,0,70,0,0
99604,-57.8412937194434,4,1,0,70,0,0
99703,-59.1629481458686,4,1,0,70,0,0
99802,-60.5464136682151,4,1,0,70,0,0
99901,-61.9961302805547,4,1,0,70,0,0
100001,-63.5327164573695,4,1,0,70,0,0
100100,-65.1308545777928,4,1,0,70,0,0
100199,-66.8114682884448,4,1,0,70,0,0
100298,-68.5811112102024,4,1,0,70,0,0
100397,-70.447050201539,4,1,0,70,0,0
100497,-72.4378296910324,4,1,0,70,0,0
100596,-74.5227250702587,4,1,0,70,0,0
100695,-76.7311913789663,4,1,0,70,0,0
100794,-79.0745501285347,4,1,0,70,0,0
100894,-81.5915119363395,4,1,0,70,0,0
100993,-84.2462751971954,4,1,0,70,0,0
101092,-87.0796059336429,4,1,0,70,0,0
101191,-90.1101476447153,4,1,0,70,0,0
101290,-93.359232730363,4,1,0,70,0,0
101390,-96.8879929444374,4,1,0,70,0,0
101489,-100.65445026178,4,1,0,70,0,0
101588,-104.725588996323,4,1,0,70,0,0
101687,-109.139937553222,4,1,0,70,0,0
101787,-113.993477616365,4,1,0,70,0,0
101886,-119.243293533881,4,1,0,70,0,0
101985,-125,4,1,0,70,0,0
102087,-33.3333333333333,4,1,0,70,0,0

[HitObjects]
431,160,490,5,8,0:0:0:0:
454,157,589,1,0,0:0:0:0:
430,146,688,1,8,0:0:0:0:
430,146,787,1,8,0:0:0:0:
373,103,886,1,0,0:0:0:0:
331,137,1085,1,8,0:0:0:0:
331,137,1184,1,8,0:0:0:0:
315,124,1283,1,0,0:0:0:0:
317,126,1482,1,0,0:0:0:0:
404,156,1680,1,8,0:0:0:0:
392,153,1779,1,0,0:0:0:0:
330,128,1879,1,8,0:0:0:0:
339,141,2077,1,0,0:0:0:0:
339,141,2176,1,0,0:0:0:0:
373,161,2275,1,8,0:0:0:0:
373,161,2375,1,8,0:0:0:0:
310,128,2474,1,0,0:0:0:0:
429,158,2573,1,8,0:0:0:0:
381,148,2772,1,0,0:0:0:0:
435,153,2871,1,8,0:0:0:0:
435,153,2970,1,8,0:0:0:0:
385,145,3069,1,0,0:0:0:0:
344,131,3268,1,8,0:0:0:0:
411,131,3466,1,0,0:0:0:0:
422,134,3565,1,8,0:0:0:0:
418,120,3665,1,0,0:0:0:0:
416,120,3764,1,0,0:0:0:0:
371,107,3863,1,8,0:0:0:0:
348,212,4061,1,0,0:0:0:0:
438,153,4161,1,0,0:0:0:0:
401,144,4260,1,8,0:0:0:0:
386,149,4359,1,0,0:0:0:0:
316,115,4458,1,8,0:0:0:0:
311,119,4657,1,0,0:0:0:0:
425,139,4855,1,8,0:0:0:0:
425,138,4954,1,0,0:0:0:0:
421,133,5054,1,0,0:0:0:0:
376,122,5153,1,0,0:0:0:0:
381,134,5252,1,8,0:0:0:0:
386,153,5351,1,0,0:0:0:0:
320,127,5450,1,8,0:0:0:0:
321,124,5550,1,8,0:0:0:0:
320,127,5649,1,0,0:0:0:0:
348,130,5748,1,8,0:0:0:0:
296,108,5847,1,0,0:0:0:0:
179,136,5947,1,8,0:0:0:0:
391,158,6046,1,0,0:0:0:0:
386,157,6145,1,0,0:0:0:0:
217,133,6244,1,8,0:0:0:0:
403,156,6443,1,0,0:0:0:0:
390,146,6542,1,8,0:0:0:0:
390,146,6591,1,8,0:0:0:0:
192,74,6641,1,0,0:0:0:0:
386,133,6840,1,8,0:0:0:0:
386,133,6906,1,8,0:0:0:0:
386,133,6972,1,8,0:0:0:0:
386,133,7038,1,8,0:0:0:0:
386,130,7104,1,8,0:0:0:0:
385,126,7170,1,8,0:0:0:0:
280,35,7236,1,0,0:0:0:0:
331,137,7435,1,8,0:0:0:0:
331,137,7534,1,8,0:0:0:0:
315,124,7633,1,0,0:0:0:0:
317,126,7832,1,0,0:0:0:0:
404,156,8030,1,8,0:0:0:0:
392,153,8129,1,0,0:0:0:0:
330,128,8229,1,8,0:0:0:0:
339,141,8427,1,0,0:0:0:0:
339,141,8526,1,0,0:0:0:0:
373,161,8625,1,8,0:0:0:0:
373,161,8725,1,8,0:0:0:0:
310,128,8824,1,0,0:0:0:0:
429,158,8923,1,8,0:0:0:0:
381,148,9122,1,0,0:0:0:0:
435,153,9221,1,8,0:0:0:0:
435,153,9320,1,8,0:0:0:0:
385,145,9419,1,0,0:0:0:0:
344,131,9618,1,8,0:0:0:0:
411,131,9816,1,0,0:0:0:0:
422,134,9915,1,8,0:0:0:0:
418,120,10015,1,0,0:0:0:0:
416,120,10114,1,0,0:0:0:0:
371,107,10213,1,8,0:0:0:0:
348,212,10411,1,0,0:0:0:0:
438,153,10511,1,0,0:0:0:0:
401,144,10610,1,8,0:0:0:0:
386,149,10709,1,0,0:0:0:0:
316,115,10808,1,8,0:0:0:0:
311,119,11007,1,0,0:0:0:0:
425,139,11205,1,8,0:0:0:0:
425,138,11304,1,0,0:0:0:0:
421,133,11404,1,0,0:0:0:0:
136,165,11503,1,0,0:0:0:0:
381,134,11602,1,8,0:0:0:0:
386,153,11701,1,0,0:0:0:0:
320,127,11801,1,8,0:0:0:0:
321,124,11900,1,8,0:0:0:0:
320,127,11999,1,0,0:0:0:0:
348,130,12098,1,0,0:0:0:0:
296,108,12197,1,8,0:0:0:0:
391,158,12396,1,0,0:0:0:0:
386,157,12495,1,0,0:0:0:0:
217,133,12594,1,8,0:0:0:0:
226,66,12693,1,0,0:0:0:0:
403,156,12793,1,8,0:0:0:0:
390,146,12892,1,0,0:0:0:0:
390,146,12942,1,0,0:0:0:0:
192,74,12991,1,8,0:0:0:0:
316,173,13190,1,4,0:0:0:0:
391,122,13586,1,0,0:0:0:0:
369,151,13686,1,0,0:0:0:0:
265,145,13785,1,8,0:0:0:0:
265,145,13884,1,8,0:0:0:0:
168,147,13983,1,0,0:0:0:0:
341,99,14182,1,0,0:0:0:0:
412,127,14380,1,12,0:0:0:0:
380,121,14777,1,0,0:0:0:0:
380,121,14876,1,8,0:0:0:0:
420,125,14976,1,0,0:0:0:0:
416,133,15075,1,8,0:0:0:0:
434,113,15174,1,0,0:0:0:0:
478,173,15372,1,8,0:0:0:0:
440,150,15472,1,0,0:0:0:0:
361,99,15571,1,0,0:0:0:0:
361,99,15769,1,8,0:0:0:0:
251,114,15869,1,8,0:0:0:0:
239,67,15968,1,0,0:0:0:0:
249,60,16067,1,0,0:0:0:0:
216,62,16166,1,8,0:0:0:0:
451,147,16365,1,0,0:0:0:0:
431,150,16464,1,8,0:0:0:0:
425,153,16563,1,8,0:0:0:0:
424,156,16662,1,8,0:0:0:0:
415,152,16761,1,0,0:0:0:0:
427,139,16960,1,8,0:0:0:0:
401,133,17059,1,0,0:0:0:0:
379,130,17158,1,8,0:0:0:0:
351,117,17357,1,0,0:0:0:0:
309,121,17555,1,12,0:0:0:0:
371,190,17952,1,0,0:0:0:0:
363,158,18051,1,8,0:0:0:0:
394,157,18151,1,8,0:0:0:0:
353,137,18349,1,0,0:0:0:0:
446,158,18547,1,8,0:0:0:0:
455,152,18647,1,0,0:0:0:0:
326,137,18746,1,8,0:0:0:0:
326,134,18845,1,8,0:0:0:0:
387,140,18944,1,0,0:0:0:0:
425,159,19044,1,8,0:0:0:0:
367,142,19143,1,0,0:0:0:0:
367,142,19242,1,0,0:0:0:0:
343,119,19341,1,8,0:0:0:0:
416,138,19540,1,0,0:0:0:0:
416,138,19639,1,0,0:0:0:0:
116,127,19738,1,8,0:0:0:0:
262,112,19837,1,8,0:0:0:0:
391,122,19937,1,0,0:0:0:0:
369,151,20036,1,0,0:0:0:0:
265,145,20135,1,8,0:0:0:0:
265,145,20234,1,8,0:0:0:0:
168,147,20333,1,0,0:0:0:0:
273,107,20433,1,0,0:0:0:0:
341,99,20532,1,8,0:0:0:0:
412,127,20730,1,12,0:0:0:0:
380,121,21127,1,0,0:0:0:0:
380,121,21226,1,8,0:0:0:0:
420,125,21326,1,0,0:0:0:0:
416,133,21425,1,8,0:0:0:0:
434,113,21524,1,0,0:0:0:0:
478,173,21722,1,8,0:0:0:0:
440,150,21822,1,0,0:0:0:0:
361,99,21921,1,0,0:0:0:0:
361,99,22119,1,8,0:0:0:0:
251,114,22219,1,8,0:0:0:0:
239,67,22318,1,0,0:0:0:0:
249,60,22417,1,0,0:0:0:0:
216,62,22516,1,8,0:0:0:0:
451,147,22715,1,0,0:0:0:0:
431,150,22814,1,8,0:0:0:0:
425,153,22913,1,8,0:0:0:0:
424,156,23012,1,8,0:0:0:0:
415,152,23112,1,0,0:0:0:0:
427,139,23310,1,8,0:0:0:0:
401,133,23409,1,0,0:0:0:0:
379,130,23508,1,8,0:0:0:0:
394,116,23575,1,0,0:0:0:0:
394,116,23641,1,0,0:0:0:0:
351,117,23707,1,8,0:0:0:0:
394,116,23773,1,0,0:0:0:0:
394,116,23839,1,0,0:0:0:0:
309,121,23905,1,8,0:0:0:0:
331,62,23971,1,0,0:0:0:0:
331,62,24038,1,0,0:0:0:0:
388,127,24104,1,8,0:0:0:0:
306,91,24170,1,0,0:0:0:0:
306,91,24236,1,0,0:0:0:0:
371,190,24302,1,8,0:0:0:0:
353,137,24699,1,8,0:0:0:0:
326,137,25096,1,8,0:0:0:0:
367,142,25493,1,8,0:0:0:0:
431,160,25890,1,8,0:0:0:0:
454,157,25989,1,0,0:0:0:0:
430,146,26088,1,8,0:0:0:0:
430,146,26187,1,8,0:0:0:0:
373,103,26287,1,0,0:0:0:0:
273,199,26386,1,0,0:0:0:0:
331,137,26485,1,8,0:0:0:0:
331,137,26584,1,8,0:0:0:0:
315,124,26683,1,0,0:0:0:0:
372,156,26783,1,8,0:0:0:0:
317,126,26882,1,0,0:0:0:0:
284,155,26981,1,0,0:0:0:0:
404,156,27080,1,8,0:0:0:0:
392,153,27180,1,0,0:0:0:0:
330,128,27279,1,8,0:0:0:0:
339,141,27477,1,0,0:0:0:0:
339,141,27576,1,0,0:0:0:0:
373,161,27676,1,8,0:0:0:0:
373,161,27775,1,8,0:0:0:0:
310,128,27874,1,0,0:0:0:0:
429,158,27973,1,8,0:0:0:0:
243,111,28073,1,0,0:0:0:0:
381,148,28172,1,0,0:0:0:0:
435,153,28271,1,8,0:0:0:0:
435,153,28370,1,8,0:0:0:0:
385,145,28469,1,0,0:0:0:0:
319,22,28569,1,0,0:0:0:0:
344,131,28668,1,8,0:0:0:0:
411,131,28866,1,0,0:0:0:0:
422,134,28965,1,8,0:0:0:0:
418,120,29065,1,0,0:0:0:0:
416,120,29164,1,0,0:0:0:0:
371,107,29263,1,8,0:0:0:0:
116,81,29362,1,8,0:0:0:0:
348,212,29462,1,0,0:0:0:0:
438,153,29561,1,0,0:0:0:0:
401,144,29660,1,8,0:0:0:0:
386,149,29759,1,0,0:0:0:0:
316,115,29858,1,8,0:0:0:0:
472,153,29925,1,0,0:0:0:0:
472,153,29991,1,0,0:0:0:0:
311,119,30057,1,8,0:0:0:0:
425,139,30156,1,0,0:0:0:0:
425,138,30355,1,8,0:0:0:0:
421,133,30454,1,0,0:0:0:0:
376,122,30553,1,0,0:0:0:0:
381,134,30652,1,8,0:0:0:0:
386,153,30751,1,0,0:0:0:0:
320,127,30851,1,8,0:0:0:0:
321,124,30950,1,8,0:0:0:0:
320,127,31049,1,0,0:0:0:0:
348,130,31148,1,8,0:0:0:0:
296,108,31248,1,0,0:0:0:0:
179,136,31347,1,8,0:0:0:0:
391,158,31446,1,0,0:0:0:0:
386,157,31545,1,0,0:0:0:0:
217,133,31644,1,8,0:0:0:0:
160,128,31744,1,8,0:0:0:0:
403,156,31843,1,0,0:0:0:0:
390,146,31942,1,8,0:0:0:0:
390,146,31992,1,8,0:0:0:0:
192,74,32041,1,0,0:0:0:0:
386,133,32240,1,8,0:0:0:0:
386,133,32339,1,0,0:0:0:0:
386,133,32438,1,8,0:0:0:0:
385,126,32537,1,8,0:0:0:0:
280,35,32637,1,0,0:0:0:0:
96,128,32736,1,0,0:0:0:0:
331,137,32835,1,8,0:0:0:0:
331,137,32934,1,8,0:0:0:0:
315,124,33033,1,0,0:0:0:0:
320,160,33133,1,8,0:0:0:0:
317,126,33232,1,0,0:0:0:0:
288,128,33331,1,0,0:0:0:0:
404,156,33430,1,8,0:0:0:0:
392,153,33530,1,0,0:0:0:0:
330,128,33629,1,8,0:0:0:0:
339,141,33827,1,0,0:0:0:0:
339,141,33926,1,0,0:0:0:0:
373,161,34026,1,8,0:0:0:0:
373,161,34125,1,8,0:0:0:0:
310,128,34224,1,0,0:0:0:0:
429,158,34323,1,8,0:0:0:0:
352,96,34423,1,0,0:0:0:0:
381,148,34522,1,0,0:0:0:0:
435,153,34621,1,8,0:0:0:0:
435,153,34720,1,8,0:0:0:0:
385,145,34819,1,0,0:0:0:0:
288,96,34919,1,0,0:0:0:0:
344,131,35018,1,8,0:0:0:0:
411,131,35216,1,0,0:0:0:0:
422,134,35316,1,8,0:0:0:0:
418,120,35415,1,0,0:0:0:0:
416,120,35514,1,0,0:0:0:0:
371,107,35613,1,8,0:0:0:0:
192,128,35712,1,8,0:0:0:0:
348,212,35812,1,0,0:0:0:0:
438,153,35911,1,0,0:0:0:0:
401,144,36010,1,8,0:0:0:0:
386,149,36109,1,8,0:0:0:0:
416,160,36209,1,0,0:0:0:0:
288,128,36275,1,8,0:0:0:0:
288,128,36341,1,8,0:0:0:0:
192,128,36407,1,0,0:0:0:0:
425,139,36506,1,8,0:0:0:0:
425,138,36705,1,8,0:0:0:0:
421,133,36804,1,0,0:0:0:0:
136,165,36903,1,0,0:0:0:0:
381,134,37002,1,8,0:0:0:0:
386,153,37101,1,0,0:0:0:0:
320,127,37201,1,8,0:0:0:0:
321,124,37300,1,8,0:0:0:0:
320,127,37399,1,0,0:0:0:0:
348,130,37498,1,0,0:0:0:0:
296,108,37598,1,8,0:0:0:0:
391,158,37796,1,0,0:0:0:0:
386,157,37895,1,0,0:0:0:0:
217,133,37994,1,8,0:0:0:0:
226,66,38094,1,0,0:0:0:0:
403,156,38193,1,8,0:0:0:0:
390,146,38292,1,0,0:0:0:0:
390,146,38342,1,0,0:0:0:0:
192,74,38391,1,8,0:0:0:0:
316,173,38590,1,4,0:0:0:0:
116,127,38788,1,8,0:0:0:0:
288,128,38887,1,0,0:0:0:0:
391,122,38987,1,0,0:0:0:0:
369,151,39086,1,0,0:0:0:0:
265,145,39185,1,8,0:0:0:0:
265,145,39284,1,8,0:0:0:0:
168,147,39384,1,0,0:0:0:0:
416,192,39483,1,8,0:0:0:0:
341,99,39582,1,0,0:0:0:0:
320,160,39681,1,0,0:0:0:0:
412,127,39780,1,8,0:0:0:0:
416,192,39880,1,0,0:0:0:0:
160,128,39979,1,8,0:0:0:0:
380,121,40177,1,0,0:0:0:0:
380,121,40277,1,8,0:0:0:0:
420,125,40376,1,0,0:0:0:0:
416,133,40475,1,8,0:0:0:0:
434,113,40574,1,0,0:0:0:0:
288,128,40673,1,0,0:0:0:0:
478,173,40773,1,8,0:0:0:0:
440,150,40872,1,0,0:0:0:0:
361,99,40971,1,0,0:0:0:0:
288,128,41070,1,0,0:0:0:0:
361,99,41169,1,8,0:0:0:0:
251,114,41269,1,8,0:0:0:0:
239,67,41368,1,0,0:0:0:0:
249,60,41467,1,0,0:0:0:0:
216,62,41566,1,8,0:0:0:0:
451,147,41765,1,0,0:0:0:0:
431,150,41864,1,8,0:0:0:0:
425,153,41963,1,8,0:0:0:0:
424,156,42062,1,8,0:0:0:0:
415,152,42162,1,0,0:0:0:0:
192,128,42261,1,0,0:0:0:0:
427,139,42360,1,8,0:0:0:0:
401,133,42459,1,0,0:0:0:0:
379,130,42559,1,8,0:0:0:0:
288,96,42658,1,0,0:0:0:0:
351,117,42757,1,0,0:0:0:0:
288,96,42856,1,0,0:0:0:0:
309,121,42955,1,8,0:0:0:0:
352,128,43055,1,8,0:0:0:0:
416,128,43154,1,0,0:0:0:0:
416,128,43253,1,8,0:0:0:0:
371,190,43352,1,0,0:0:0:0:
363,158,43452,1,8,0:0:0:0:
394,157,43551,1,8,0:0:0:0:
352,96,43650,1,0,0:0:0:0:
353,137,43749,1,0,0:0:0:0:
352,96,43848,1,0,0:0:0:0:
446,158,43948,1,8,0:0:0:0:
455,152,44047,1,0,0:0:0:0:
326,137,44146,1,8,0:0:0:0:
326,134,44245,1,8,0:0:0:0:
387,140,44345,1,0,0:0:0:0:
425,159,44444,1,8,0:0:0:0:
367,142,44543,1,0,0:0:0:0:
367,142,44642,1,0,0:0:0:0:
343,119,44741,1,8,0:0:0:0:
416,138,44940,1,0,0:0:0:0:
416,138,45039,1,0,0:0:0:0:
116,127,45138,1,8,0:0:0:0:
262,112,45237,1,8,0:0:0:0:
391,122,45337,1,0,0:0:0:0:
369,151,45436,1,0,0:0:0:0:
265,145,45535,1,8,0:0:0:0:
265,145,45634,1,8,0:0:0:0:
168,147,45734,1,0,0:0:0:0:
273,107,45833,1,8,0:0:0:0:
341,99,45932,1,0,0:0:0:0:
384,64,46031,1,0,0:0:0:0:
412,127,46130,1,8,0:0:0:0:
416,160,46230,1,0,0:0:0:0:
288,160,46329,1,8,0:0:0:0:
380,121,46527,1,0,0:0:0:0:
380,121,46627,1,8,0:0:0:0:
420,125,46726,1,0,0:0:0:0:
416,133,46825,1,8,0:0:0:0:
434,113,46924,1,0,0:0:0:0:
192,96,47023,1,0,0:0:0:0:
478,173,47123,1,8,0:0:0:0:
440,150,47222,1,0,0:0:0:0:
361,99,47321,1,0,0:0:0:0:
224,96,47420,1,0,0:0:0:0:
361,99,47520,1,8,0:0:0:0:
251,114,47619,1,8,0:0:0:0:
239,67,47718,1,0,0:0:0:0:
249,60,47817,1,0,0:0:0:0:
216,62,47916,1,8,0:0:0:0:
451,147,48115,1,0,0:0:0:0:
431,150,48214,1,8,0:0:0:0:
425,153,48313,1,8,0:0:0:0:
424,156,48413,1,8,0:0:0:0:
415,152,48512,1,0,0:0:0:0:
288,128,48611,1,0,0:0:0:0:
427,139,48710,1,8,0:0:0:0:
401,133,48809,1,0,0:0:0:0:
379,130,48909,1,8,0:0:0:0:
394,116,48975,1,0,0:0:0:0:
394,116,49041,1,0,0:0:0:0:
351,117,49107,1,8,0:0:0:0:
394,116,49173,1,0,0:0:0:0:
394,116,49239,1,0,0:0:0:0:
309,121,49305,1,8,0:0:0:0:
331,62,49372,1,0,0:0:0:0:
331,62,49438,1,0,0:0:0:0:
388,127,49504,1,8,0:0:0:0:
306,91,49570,1,0,0:0:0:0:
306,91,49636,1,0,0:0:0:0:
371,190,49702,1,8,0:0:0:0:
256,192,49901,1,0,0:0:0:0:
256,192,50099,1,0,0:0:0:0:
256,192,50298,1,0,0:0:0:0:
480,160,50496,1,8,0:0:0:0:
416,160,50695,1,0,0:0:0:0:
352,160,50893,1,8,0:0:0:0:
316,173,51290,1,4,0:0:0:0:
391,122,51687,1,0,0:0:0:0:
369,151,51786,1,0,0:0:0:0:
265,145,51885,1,8,0:0:0:0:
265,145,51984,1,8,0:0:0:0:
168,147,52084,1,0,0:0:0:0:
341,99,52282,1,0,0:0:0:0:
412,127,52481,1,12,0:0:0:0:
380,121,52877,1,0,0:0:0:0:
380,121,52977,1,8,0:0:0:0:
420,125,53076,1,0,0:0:0:0:
416,133,53175,1,8,0:0:0:0:
434,113,53274,1,0,0:0:0:0:
478,173,53473,1,8,0:0:0:0:
440,150,53572,1,0,0:0:0:0:
361,99,53671,1,0,0:0:0:0:
361,99,53870,1,8,0:0:0:0:
251,114,53969,1,8,0:0:0:0:
239,67,54068,1,0,0:0:0:0:
249,60,54167,1,0,0:0:0:0:
216,62,54266,1,8,0:0:0:0:
451,147,54465,1,0,0:0:0:0:
431,150,54564,1,8,0:0:0:0:
425,153,54663,1,8,0:0:0:0:
424,156,54763,1,8,0:0:0:0:
415,152,54862,1,0,0:0:0:0:
427,139,55060,1,8,0:0:0:0:
401,133,55159,1,0,0:0:0:0:
379,130,55259,1,8,0:0:0:0:
351,117,55457,1,0,0:0:0:0:
309,121,55656,1,12,0:0:0:0:
371,190,56052,1,0,0:0:0:0:
363,158,56152,1,8,0:0:0:0:
394,157,56251,1,8,0:0:0:0:
353,137,56449,1,0,0:0:0:0:
446,158,56648,1,8,0:0:0:0:
455,152,56747,1,0,0:0:0:0:
326,137,56846,1,8,0:0:0:0:
326,134,56945,1,8,0:0:0:0:
387,140,57045,1,0,0:0:0:0:
425,159,57144,1,8,0:0:0:0:
367,142,57243,1,0,0:0:0:0:
367,142,57342,1,0,0:0:0:0:
343,119,57441,1,8,0:0:0:0:
416,138,57640,1,0,0:0:0:0:
416,138,57739,1,0,0:0:0:0:
116,127,57838,1,8,0:0:0:0:
262,112,57938,1,8,0:0:0:0:
391,122,58037,1,0,0:0:0:0:
369,151,58136,1,0,0:0:0:0:
265,145,58235,1,8,0:0:0:0:
265,145,58334,1,8,0:0:0:0:
168,147,58434,1,0,0:0:0:0:
273,107,58533,1,8,0:0:0:0:
341,99,58632,1,0,0:0:0:0:
412,127,58831,1,12,0:0:0:0:
380,121,59227,1,0,0:0:0:0:
380,121,59327,1,8,0:0:0:0:
420,125,59426,1,0,0:0:0:0:
416,133,59525,1,8,0:0:0:0:
434,113,59624,1,0,0:0:0:0:
478,173,59823,1,8,0:0:0:0:
440,150,59922,1,0,0:0:0:0:
361,99,60021,1,0,0:0:0:0:
361,99,60220,1,8,0:0:0:0:
251,114,60319,1,8,0:0:0:0:
239,67,60418,1,0,0:0:0:0:
249,60,60517,1,0,0:0:0:0:
216,62,60617,1,8,0:0:0:0:
451,147,60815,1,0,0:0:0:0:
431,150,60914,1,8,0:0:0:0:
425,153,61013,1,8,0:0:0:0:
424,156,61113,1,8,0:0:0:0:
415,152,61212,1,0,0:0:0:0:
427,139,61410,1,8,0:0:0:0:
401,133,61509,1,0,0:0:0:0:
379,130,61609,1,8,0:0:0:0:
394,116,61675,1,0,0:0:0:0:
394,116,61741,1,0,0:0:0:0:
351,117,61807,1,8,0:0:0:0:
394,116,61873,1,0,0:0:0:0:
394,116,61939,1,0,0:0:0:0:
309,121,62006,1,8,0:0:0:0:
331,62,62072,1,0,0:0:0:0:
331,62,62138,1,0,0:0:0:0:
388,127,62204,1,8,0:0:0:0:
306,91,62270,1,0,0:0:0:0:
306,91,62336,1,0,0:0:0:0:
371,190,62402,1,8,0:0:0:0:
353,137,62799,1,8,0:0:0:0:
326,137,63196,1,8,0:0:0:0:
367,142,63593,1,8,0:0:0:0:
431,160,63990,1,8,0:0:0:0:
454,157,64089,1,0,0:0:0:0:
430,146,64188,1,8,0:0:0:0:
430,146,64288,1,0,0:0:0:0:
373,103,64387,1,0,0:0:0:0:
273,199,64486,1,0,0:0:0:0:
331,137,64585,1,8,0:0:0:0:
331,137,64684,1,8,0:0:0:0:
315,124,64784,1,0,0:0:0:0:
372,156,64883,1,8,0:0:0:0:
317,126,64982,1,0,0:0:0:0:
284,155,65081,1,0,0:0:0:0:
404,156,65181,1,8,0:0:0:0:
392,153,65280,1,0,0:0:0:0:
330,128,65379,1,8,0:0:0:0:
339,141,65577,1,0,0:0:0:0:
339,141,65677,1,0,0:0:0:0:
373,161,65776,1,8,0:0:0:0:
373,161,65875,1,0,0:0:0:0:
310,128,65974,1,0,0:0:0:0:
429,158,66074,1,0,0:0:0:0:
243,111,66173,1,8,0:0:0:0:
381,148,66272,1,8,0:0:0:0:
435,153,66371,1,0,0:0:0:0:
435,153,66470,1,8,0:0:0:0:
385,145,66570,1,0,0:0:0:0:
319,22,66669,1,0,0:0:0:0:
344,131,66768,1,8,0:0:0:0:
224,96,66867,1,0,0:0:0:0:
411,131,66967,1,8,0:0:0:0:
418,120,67165,1,0,0:0:0:0:
416,120,67264,1,0,0:0:0:0:
371,107,67363,1,8,0:0:0:0:
116,81,67463,1,8,0:0:0:0:
348,212,67562,1,0,0:0:0:0:
438,153,67661,1,0,0:0:0:0:
401,144,67760,1,8,0:0:0:0:
386,149,67860,1,0,0:0:0:0:
316,115,67959,1,8,0:0:0:0:
472,153,68058,1,0,0:0:0:0:
311,119,68157,1,8,0:0:0:0:
425,139,68256,1,0,0:0:0:0:
256,128,68356,1,0,0:0:0:0:
425,138,68455,1,8,0:0:0:0:
421,133,68554,1,0,0:0:0:0:
376,122,68653,1,0,0:0:0:0:
381,134,68752,1,8,0:0:0:0:
386,153,68852,1,0,0:0:0:0:
320,127,68951,1,8,0:0:0:0:
321,124,69050,1,8,0:0:0:0:
320,127,69149,1,0,0:0:0:0:
348,130,69249,1,8,0:0:0:0:
296,108,69348,1,0,0:0:0:0:
179,136,69447,1,8,0:0:0:0:
391,158,69546,1,0,0:0:0:0:
386,157,69645,1,0,0:0:0:0:
217,133,69745,1,8,0:0:0:0:
160,128,69844,1,8,0:0:0:0:
403,156,69943,1,0,0:0:0:0:
390,146,70042,1,8,0:0:0:0:
192,74,70142,1,0,0:0:0:0:
386,133,70340,1,8,0:0:0:0:
386,133,70439,1,0,0:0:0:0:
386,133,70538,1,8,0:0:0:0:
385,126,70638,1,8,0:0:0:0:
280,35,70737,1,0,0:0:0:0:
96,128,70836,1,0,0:0:0:0:
331,137,70935,1,8,0:0:0:0:
331,137,71035,1,8,0:0:0:0:
315,124,71134,1,0,0:0:0:0:
320,160,71233,1,8,0:0:0:0:
317,126,71332,1,0,0:0:0:0:
288,128,71431,1,0,0:0:0:0:
404,156,71531,1,8,0:0:0:0:
392,153,71630,1,0,0:0:0:0:
330,128,71729,1,8,0:0:0:0:
339,141,71928,1,0,0:0:0:0:
339,141,72027,1,0,0:0:0:0:
373,161,72126,1,8,0:0:0:0:
373,161,72225,1,8,0:0:0:0:
310,128,72324,1,0,0:0:0:0:
429,158,72424,1,8,0:0:0:0:
352,96,72523,1,0,0:0:0:0:
381,148,72622,1,0,0:0:0:0:
435,153,72721,1,8,0:0:0:0:
435,153,72820,1,8,0:0:0:0:
385,145,72920,1,0,0:0:0:0:
288,96,73019,1,0,0:0:0:0:
344,131,73118,1,8,0:0:0:0:
411,131,73317,1,0,0:0:0:0:
422,134,73416,1,8,0:0:0:0:
418,120,73515,1,0,0:0:0:0:
416,120,73614,1,0,0:0:0:0:
371,107,73713,1,8,0:0:0:0:
192,128,73813,1,8,0:0:0:0:
348,212,73912,1,0,0:0:0:0:
438,153,74011,1,0,0:0:0:0:
401,144,74110,1,8,0:0:0:0:
386,149,74210,1,8,0:0:0:0:
416,160,74309,1,0,0:0:0:0:
288,128,74375,1,8,0:0:0:0:
288,128,74441,1,8,0:0:0:0:
192,128,74507,1,0,0:0:0:0:
425,139,74606,1,8,0:0:0:0:
425,138,74805,1,8,0:0:0:0:
421,133,74904,1,0,0:0:0:0:
136,165,75003,1,0,0:0:0:0:
381,134,75103,1,8,0:0:0:0:
386,153,75202,1,0,0:0:0:0:
320,127,75301,1,8,0:0:0:0:
321,124,75400,1,8,0:0:0:0:
320,127,75499,1,0,0:0:0:0:
348,130,75599,1,0,0:0:0:0:
296,108,75698,1,8,0:0:0:0:
391,158,75896,1,0,0:0:0:0:
386,157,75996,1,0,0:0:0:0:
217,133,76095,1,8,0:0:0:0:
226,66,76194,1,0,0:0:0:0:
403,156,76293,1,8,0:0:0:0:
390,146,76392,1,0,0:0:0:0:
390,146,76442,1,0,0:0:0:0:
192,74,76492,1,8,0:0:0:0:
316,173,76690,1,4,0:0:0:0:
116,127,76888,1,8,0:0:0:0:
288,128,76988,1,0,0:0:0:0:
391,122,77087,1,0,0:0:0:0:
369,151,77186,1,0,0:0:0:0:
265,145,77285,1,8,0:0:0:0:
265,145,77385,1,8,0:0:0:0:
168,147,77484,1,0,0:0:0:0:
416,192,77583,1,8,0:0:0:0:
341,99,77682,1,0,0:0:0:0:
320,160,77781,1,0,0:0:0:0:
412,127,77881,1,8,0:0:0:0:
416,192,77980,1,0,0:0:0:0:
160,128,78079,1,8,0:0:0:0:
192,192,78178,1,8,0:0:0:0:
380,121,78278,1,0,0:0:0:0:
380,121,78377,1,8,0:0:0:0:
420,125,78476,1,0,0:0:0:0:
416,133,78575,1,8,0:0:0:0:
434,113,78674,1,0,0:0:0:0:
288,128,78774,1,0,0:0:0:0:
478,173,78873,1,8,0:0:0:0:
440,150,78972,1,0,0:0:0:0:
361,99,79071,1,0,0:0:0:0:
288,128,79171,1,0,0:0:0:0:
361,99,79270,1,8,0:0:0:0:
251,114,79369,1,8,0:0:0:0:
239,67,79468,1,0,0:0:0:0:
249,60,79567,1,0,0:0:0:0:
216,62,79667,1,8,0:0:0:0:
451,147,79865,1,0,0:0:0:0:
431,150,79964,1,8,0:0:0:0:
425,153,80064,1,8,0:0:0:0:
424,156,80163,1,8,0:0:0:0:
415,152,80262,1,0,0:0:0:0:
192,128,80361,1,0,0:0:0:0:
427,139,80460,1,8,0:0:0:0:
401,133,80560,1,0,0:0:0:0:
379,130,80659,1,8,0:0:0:0:
288,96,80758,1,0,0:0:0:0:
351,117,80857,1,0,0:0:0:0:
288,96,80956,1,0,0:0:0:0:
309,121,81056,1,8,0:0:0:0:
352,128,81155,1,8,0:0:0:0:
416,128,81254,1,0,0:0:0:0:
416,128,81353,1,8,0:0:0:0:
371,190,81453,1,0,0:0:0:0:
363,158,81552,1,8,0:0:0:0:
394,157,81651,1,8,0:0:0:0:
352,96,81750,1,0,0:0:0:0:
353,137,81849,1,0,0:0:0:0:
352,96,81949,1,0,0:0:0:0:
446,158,82048,1,8,0:0:0:0:
455,152,82147,1,0,0:0:0:0:
326,137,82246,1,8,0:0:0:0:
326,134,82346,1,8,0:0:0:0:
387,140,82445,1,0,0:0:0:0:
425,159,82544,1,8,0:0:0:0:
367,142,82643,1,0,0:0:0:0:
367,142,82742,1,0,0:0:0:0:
343,119,82842,1,8,0:0:0:0:
416,138,83040,1,0,0:0:0:0:
416,138,83139,1,0,0:0:0:0:
116,127,83239,1,8,0:0:0:0:
262,112,83338,1,8,0:0:0:0:
391,122,83437,1,0,0:0:0:0:
369,151,83536,1,0,0:0:0:0:
265,145,83635,1,8,0:0:0:0:
265,145,83735,1,8,0:0:0:0:
168,147,83834,1,0,0:0:0:0:
273,107,83933,1,8,0:0:0:0:
341,99,84032,1,0,0:0:0:0:
384,64,84132,1,0,0:0:0:0:
412,127,84231,1,8,0:0:0:0:
416,160,84330,1,0,0:0:0:0:
288,160,84429,1,8,0:0:0:0:
320,192,84528,1,8,0:0:0:0:
380,121,84628,1,0,0:0:0:0:
380,121,84727,1,8,0:0:0:0:
420,125,84826,1,0,0:0:0:0:
416,133,84925,1,8,0:0:0:0:
434,113,85024,1,0,0:0:0:0:
192,96,85124,1,0,0:0:0:0:
478,173,85223,1,8,0:0:0:0:
440,150,85322,1,0,0:0:0:0:
361,99,85421,1,0,0:0:0:0:
224,96,85521,1,0,0:0:0:0:
361,99,85620,1,8,0:0:0:0:
251,114,85719,1,8,0:0:0:0:
239,67,85818,1,0,0:0:0:0:
249,60,85917,1,0,0:0:0:0:
216,62,86017,1,8,0:0:0:0:
451,147,86215,1,0,0:0:0:0:
431,150,86314,1,8,0:0:0:0:
425,153,86414,1,8,0:0:0:0:
424,156,86513,1,8,0:0:0:0:
415,152,86612,1,0,0:0:0:0:
288,128,86711,1,0,0:0:0:0:
427,139,86810,1,8,0:0:0:0:
401,133,86910,1,0,0:0:0:0:
379,130,87009,1,8,0:0:0:0:
394,116,87108,1,0,0:0:0:0:
394,116,87207,1,0,0:0:0:0:
394,116,87307,1,0,0:0:0:0:
331,62,87406,1,8,0:0:0:0:
331,62,87505,1,8,0:0:0:0:
388,127,87604,1,0,0:0:0:0:
371,190,87803,1,8,0:0:0:0:
256,192,88001,1,0,0:0:0:0:
256,192,88200,1,0,0:0:0:0:
256,192,88398,1,0,0:0:0:0:
480,160,88596,1,8,0:0:0:0:
416,160,88795,1,0,0:0:0:0:
352,160,88993,1,8,0:0:0:0:
316,173,89390,1,4,0:0:0:0:
116,127,89589,1,8,0:0:0:0:
288,128,89688,1,0,0:0:0:0:
391,122,89787,1,0,0:0:0:0:
369,151,89886,1,0,0:0:0:0:
265,145,89985,1,8,0:0:0:0:
265,145,90085,1,8,0:0:0:0:
168,147,90184,1,0,0:0:0:0:
416,192,90283,1,8,0:0:0:0:
341,99,90382,1,0,0:0:0:0:
320,160,90482,1,0,0:0:0:0:
412,127,90581,1,8,0:0:0:0:
416,192,90680,1,0,0:0:0:0:
160,128,90779,1,8,0:0:0:0:
192,192,90878,1,8,0:0:0:0:
380,121,90978,1,0,0:0:0:0:
380,121,91077,1,8,0:0:0:0:
420,125,91176,1,0,0:0:0:0:
416,133,91275,1,8,0:0:0:0:
434,113,91375,1,0,0:0:0:0:
288,128,91474,1,0,0:0:0:0:
478,173,91573,1,8,0:0:0:0:
440,150,91672,1,0,0:0:0:0:
361,99,91771,1,0,0:0:0:0:
288,128,91871,1,0,0:0:0:0:
361,99,91970,1,8,0:0:0:0:
251,114,92069,1,8,0:0:0:0:
239,67,92168,1,0,0:0:0:0:
249,60,92268,1,0,0:0:0:0:
216,62,92367,1,8,0:0:0:0:
320,96,92466,1,8,0:0:0:0:
451,147,92565,1,0,0:0:0:0:
431,150,92664,1,8,0:0:0:0:
425,153,92764,1,8,0:0:0:0:
424,156,92863,1,8,0:0:0:0:
415,152,92962,1,0,0:0:0:0:
192,128,93061,1,0,0:0:0:0:
427,139,93160,1,8,0:0:0:0:
401,133,93260,1,0,0:0:0:0:
379,130,93359,1,8,0:0:0:0:
288,96,93458,1,0,0:0:0:0:
351,117,93557,1,0,0:0:0:0:
288,96,93657,1,0,0:0:0:0:
309,121,93756,1,8,0:0:0:0:
352,128,93855,1,8,0:0:0:0:
416,128,93954,1,0,0:0:0:0:
416,128,94053,1,8,0:0:0:0:
371,190,94153,1,0,0:0:0:0:
363,158,94252,1,8,0:0:0:0:
394,157,94351,1,8,0:0:0:0:
352,96,94450,1,0,0:0:0:0:
353,137,94550,1,0,0:0:0:0:
352,96,94649,1,0,0:0:0:0:
446,158,94748,1,8,0:0:0:0:
455,152,94847,1,0,0:0:0:0:
326,137,94946,1,8,0:0:0:0:
326,134,95046,1,8,0:0:0:0:
387,140,95145,1,0,0:0:0:0:
425,159,95244,1,8,0:0:0:0:
367,142,95343,1,0,0:0:0:0:
367,142,95443,1,0,0:0:0:0:
343,119,95542,1,8,0:0:0:0:
320,160,95641,1,8,0:0:0:0:
416,138,95740,1,0,0:0:0:0:
416,138,95839,1,0,0:0:0:0:
116,127,95939,1,8,0:0:0:0:
262,112,96038,1,8,0:0:0:0:
391,122,96137,1,0,0:0:0:0:
369,151,96236,1,0,0:0:0:0:
265,145,96336,1,8,0:0:0:0:
265,145,96435,1,8,0:0:0:0:
168,147,96534,1,0,0:0:0:0:
273,107,96633,1,8,0:0:0:0:
341,99,96732,1,0,0:0:0:0:
384,64,96832,1,0,0:0:0:0:
412,127,96931,1,8,0:0:0:0:
416,160,97030,1,0,0:0:0:0:
288,160,97129,1,8,0:0:0:0:
320,192,97228,1,8,0:0:0:0:
380,121,97328,1,0,0:0:0:0:
380,121,97427,1,8,0:0:0:0:
420,125,97526,1,0,0:0:0:0:
416,133,97625,1,8,0:0:0:0:
434,113,97725,1,0,0:0:0:0:
192,96,97824,1,0,0:0:0:0:
478,173,97923,1,8,0:0:0:0:
440,150,98022,1,0,0:0:0:0:
361,99,98121,1,0,0:0:0:0:
224,96,98221,1,0,0:0:0:0:
361,99,98320,1,8,0:0:0:0:
251,114,98419,1,8,0:0:0:0:
239,67,98518,1,0,0:0:0:0:
249,60,98618,1,0,0:0:0:0:
216,62,98717,1,8,0:0:0:0:
320,224,98816,1,8,0:0:0:0:
451,147,98915,1,0,0:0:0:0:
431,150,99014,1,8,0:0:0:0:
425,153,99114,1,8,0:0:0:0:
424,156,99213,1,8,0:0:0:0:
415,152,99312,1,0,0:0:0:0:
288,128,99411,1,0,0:0:0:0:
427,139,99511,1,8,0:0:0:0:
401,133,99610,1,0,0:0:0:0:
379,130,99709,1,8,0:0:0:0:
394,116,99808,1,0,0:0:0:0:
394,116,99907,1,0,0:0:0:0:
394,116,100007,1,8,0:0:0:0:
331,62,100106,1,0,0:0:0:0:
331,62,100205,1,0,0:0:0:0:
388,127,100304,1,8,0:0:0:0:
306,91,100404,1,0,0:0:0:0:
371,190,100503,1,8,0:0:0:0:
256,192,100701,1,0,0:0:0:0:
256,192,100900,1,0,0:0:0:0:
256,192,101098,1,0,0:0:0:0:
480,160,101296,1,8,0:0:0:0:
416,160,101495,1,0,0:0:0:0:
352,160,101693,1,8,0:0:0:0:
448,96,102090,1,4,0:0:0:0:
