osu file format v14

[General]
AudioFilename: audio.mp3
AudioLeadIn: 0
PreviewTime: -1
Countdown: 0
SampleSet: None
StackLeniency: 0.7
Mode: 0
LetterboxInBreaks: 0
WidescreenStoryboard: 0

[Editor]
DistanceSpacing: 0.9
BeatDivisor: 4
GridSize: 8
TimelineZoom: 2

[Metadata]
Title:
TitleUnicode:繁殖期
Artist:Koraii
ArtistUnicode:Koraii
Creator:Akamru13
Version:Insane
Source:
Tags:
BeatmapID:4537642
BeatmapSetID:2153549

[Difficulty]
HPDrainRate:5
CircleSize:4
OverallDifficulty:5
ApproachRate:9
SliderMultiplier:1.4
SliderTickRate:1

[Events]
//Background and Video events
//Break Periods
//Storyboard Layer 0 (Background)
//Storyboard Layer 1 (Fail)
//Storyboard Layer 2 (Pass)
//Storyboard Layer 3 (Foreground)
//Storyboard Layer 4 (Overlay)
//Storyboard Sound Samples

[TimingPoints]
2957.96726346952,377.358490566038,4,2,0,100,1,0
9247,-50,4,2,0,100,0,0
9750,-66.6666666666667,4,2,0,100,0,0
10505,-50,4,2,0,100,0,0
11259,-66.6666666666667,4,2,0,100,0,0
12014,-50,4,2,0,100,0,0
12769,-33.3333333333333,4,2,0,100,0,0
13524,-133.333333333333,4,2,0,100,0,0
16542,-33.3333333333333,4,2,0,100,0,0
16920,-133.333333333333,4,2,0,60,0,0
17297,-33.3333333333333,4,2,0,100,0,0
17674,-133.333333333333,4,2,0,60,0,0
18052,-33.3333333333333,4,2,0,100,0,0
23193,-133.333333333333,4,2,0,100,0,0
23901,-33.3333333333333,4,2,0,100,0,0
24844,-133.333333333333,4,2,0,60,0,0
25505,-40,4,2,0,75,0,0
29184,-33.3333333333333,4,2,0,75,0,0
30788,-66.6666666666667,4,2,0,60,0,0
31542,-40,4,2,0,60,0,0
32203,-16.6666666666667,4,2,0,100,0,0
34656,-33.3333333333333,4,2,0,80,0,0
40410,-33.3333333333333,4,2,0,100,0,1
42580,-1000,4,2,0,100,0,1
43240,-33.3333333333333,4,2,0,100,0,1
45222,-1000,4,2,0,100,0,1
46165,-33.3333333333333,4,2,0,100,0,0
47156,-1000,4,2,0,100,0,0
47486,-33.3333333333333,4,2,0,100,0,0
52014,-33.3333333333333,4,2,0,90,0,1
53948,-1000,4,2,0,100,0,1
54278,-33.3333333333333,4,2,0,100,0,1
55410,-33.3333333333333,4,2,0,100,0,1
62863,-33.3333333333333,4,2,0,100,0,0
66873,-25,4,2,0,100,0,0
67061,-20,4,2,0,100,0,0
67061,-20,4,2,0,100,0,0
68165,-25,4,2,0,100,0,0
68240,-1000,4,2,0,100,0,0
76165,-25,4,2,0,100,0,0
83524,-66.6666666666667,4,2,0,100,0,0

[HitObjects]
102,220,2957,5,0,0:0:0:0:
103,190,3052,1,0,0:0:0:0:
104,168,3146,1,0,0:0:0:0:
105,144,3240,1,0,0:0:0:0:
253,166,3335,5,0,0:0:0:0:
391,143,3712,5,0,0:0:0:0:
391,162,3807,5,0,0:0:0:0:
390,183,3901,1,0,0:0:0:0:
391,202,3995,1,0,0:0:0:0:
253,166,4090,5,0,0:0:0:0:
251,275,4278,5,0,0:0:0:0:
258,213,4467,6,0,L|263:171,1,35
267,136,4750,2,0,L|247:108,1,35
87,66,5033,5,0,0:0:0:0:
122,96,5127,1,0,0:0:0:0:
181,96,5222,1,0,0:0:0:0:
228,59,5316,1,0,0:0:0:0:
367,75,5505,1,0,0:0:0:0:
338,170,5976,6,0,B|364:162|364:162|399:154,2,35
149,217,6354,1,0,0:0:0:0:
215,317,6731,2,0,L|276:316,3,35
369,266,7297,5,0,0:0:0:0:
338,169,7486,2,0,L|273:170,1,35
178,179,7675,2,0,L|126:176,1,35
48,132,8052,1,0,0:0:0:0:
143,50,8241,1,0,0:0:0:0:
153,85,8335,1,0,0:0:0:0:
180,112,8429,1,0,0:0:0:0:
201,121,8524,1,0,0:0:0:0:
310,190,8995,6,0,L|345:214,2,23.3333333333333
281,298,9247,2,0,L|186:303,1,70
138,303,9498,2,0,L|51:302,1,70
53,106,9750,2,0,L|134:110,1,52.5000020027161
194,106,10001,2,0,L|267:104,1,52.5000020027161
355,117,10316,2,0,L|353:42,3,52.5000020027161
244,121,10693,2,0,L|238:214,1,70
241,268,10882,1,0,0:0:0:0:
415,293,11071,6,0,B|334:294|334:294|338:214,2,140
241,268,11637,1,0,0:0:0:0:
99,262,12014,1,0,0:0:0:0:
134,233,12108,1,0,0:0:0:0:
144,189,12203,1,0,0:0:0:0:
129,138,12297,1,0,0:0:0:0:
251,104,12769,2,0,L|427:98,1,105.000004005432
387,131,12957,5,0,0:0:0:0:
386,167,13052,1,0,0:0:0:0:
385,209,13146,1,0,0:0:0:0:
332,308,13335,2,0,L|214:307,1,105.000004005432
265,158,13524,2,0,B|201:229|112:209|115:121|163:87|265:69|330:127|330:127|324:234|254:293|195:100|124:288|79:267|70:265|70:265|84:249|95:249|116:228|106:229|131:229|136:222|133:213|136:224|147:213|158:194,1,787.500030040742
276,318,16542,6,0,L|271:160,2,140.000005340576
91,219,17046,2,0,L|84:204,1,13.125000500679
52,108,17203,2,0,B|71:120|128:167|80:132,1,78.7500030040742
308,211,18052,2,0,P|333:218|236:255,1,315.000012016297
222,149,18807,6,0,L|218:292,1,105.000004005432
219,330,19090,1,0,0:0:0:0:
88,295,19467,6,0,L|96:162,1,105.000004005432
96,134,19750,1,0,0:0:0:0:
147,187,20222,2,0,B|200:186|200:186|226:131|226:131|265:241|265:241|309:190|309:190|401:186,1,315.000012016297
147,187,21071,2,0,B|200:186|200:186|226:131|226:131|265:241|265:241|309:190|309:190|401:186,1,315.000012016297
279,254,21825,6,0,B|141:258|141:258|164:185|164:185|66:155|94:60|147:12|224:19|293:42|335:82|341:159|311:177|262:184|262:184|277:267,1,735.000028038026
336,298,22674,2,0,L|484:297,1,105.000004005432
272,242,23193,2,0,B|253:213|253:213|258:185|258:185|256:161,1,78.7500030040742
181,153,23901,5,0,0:0:0:0:
161,217,23995,1,0,0:0:0:0:
125,257,24090,2,0,P|14:177|130:191,1,315.000012016297
103,109,24844,2,0,L|132:110,1,26.2500010013581
274,107,25096,1,0,0:0:0:0:
160,294,25505,2,0,P|200:212|120:279,1,233.333333333333
299,249,26165,6,0,L|213:145,1,105.000004005432
161,98,26448,1,0,0:0:0:0:
193,204,27108,2,0,B|319:158|319:158|164:219,1,210.000008010865
147,111,27769,1,0,0:0:0:0:
141,123,27863,1,0,0:0:0:0:
134,232,28052,2,0,B|270:144|268:144|29:308,1,315.000012016297
205,304,28524,6,0,P|301:189|241:106,1,210.000008010865
296,76,28854,2,0,P|277:92|316:170,1,105.000004005432
391,157,29184,2,0,P|367:147|286:177,2,105.000004005432
371,216,29467,1,0,0:0:0:0:
328,250,29561,1,0,0:0:0:0:
252,299,29703,1,0,0:0:0:0:
183,260,29844,2,0,P|122:158|164:148,1,210.000008010865
208,157,30127,5,0,0:0:0:0:
244,184,30316,1,0,0:0:0:0:
280,207,30410,1,0,0:0:0:0:
293,295,30788,2,0,B|251:321|251:321|161:303,1,105.000004005432
111,255,31071,5,0,0:0:0:0:
104,203,31165,1,0,0:0:0:0:
164,33,31542,2,0,L|174:193,1,105.000004005432
174,245,31825,1,0,0:0:0:0:
229,187,32203,2,0,B|313:184|313:184|335:109|335:109|382:272|382:272|393:181|393:181|449:179|449:179|395:183|395:183|384:274|384:274|393:182|393:182|448:179|448:179|395:182|395:182|448:178|448:178|394:182|394:182|383:272|383:272|393:184|393:184|441:182|441:182|392:181|392:181|383:273|383:273|383:273|392:181|392:182|392:182|448:179|395:184|404:183|404:183|451:179|450:179|449:179|425:178|420:181|410:182|425:185|425:185|424:177|428:180|433:182|437:181|440:180|440:179|425:179|415:181|415:181|415:181|416:181|437:182|441:180|450:180|450:180|450:180|421:182|417:182|417:182|442:179|444:180|450:182|433:179|424:179|417:178|416:178|416:178|440:179|447:179|447:180|443:181,1,1575.00006008148
480,224,33209,1,0,0:0:0:0:
501,231,33335,1,0,0:0:0:0:
418,276,33838,2,0,B|365:278|365:278|336:228|336:228|322:331|322:331|306:281|306:281|235:280,1,315.000012016297
256,251,34656,5,0,0:0:0:0:
290,234,34750,1,0,0:0:0:0:
306,186,34844,2,0,P|282:291|196:285,1,210.000008010865
210,159,35316,5,0,0:0:0:0:
178,119,35411,1,0,0:0:0:0:
151,116,35599,2,0,B|125:158|125:158|119:154|119:154|45:246,1,105.000004005432
49,257,35976,2,0,P|149:260|149:224,1,105.000004005432
171,232,36165,2,0,B|208:219|208:219|292:273,1,105.000004005432
352,250,36448,1,0,0:0:0:0:
361,213,36542,1,0,0:0:0:0:
362,175,36637,1,0,0:0:0:0:
253,133,36825,6,0,L|384:124,1,105.000004005432
165,137,37108,2,0,L|329:128,1,105.000004005432
97,159,37486,5,0,0:0:0:0:
135,107,37580,1,0,0:0:0:0:
209,98,37675,1,0,0:0:0:0:
288,123,37769,1,0,0:0:0:0:
331,215,38240,5,0,0:0:0:0:
278,196,38335,1,0,0:0:0:0:
214,196,38429,1,0,0:0:0:0:
173,224,38524,1,0,0:0:0:0:
100,260,38995,5,0,0:0:0:0:
68,246,39090,1,0,0:0:0:0:
39,170,39278,1,0,0:0:0:0:
50,74,39435,1,0,0:0:0:0:
61,77,39751,5,0,0:0:0:0:
121,82,39845,1,0,0:0:0:0:
151,110,39939,1,0,0:0:0:0:
177,136,40033,1,0,0:0:0:0:
196,172,40127,1,0,0:0:0:0:
201,215,40222,2,0,L|195:277,1,52.5000020027161
128,224,40410,6,0,L|244:192,1,70.0000026702882
338,197,40599,2,0,L|266:162,1,70.0000026702882
148,128,40788,2,0,L|225:86,1,70.0000026702882
342,87,40977,2,0,L|236:35,1,70.0000026702882
160,128,41165,2,0,L|245:141,1,70.0000026702882
319,192,41354,2,0,L|234:225,1,70.0000026702882
128,256,41543,2,0,L|226:273,1,70.0000026702882
319,320,41731,2,0,L|159:320,1,105.000004005432
160,320,41920,5,0,0:0:0:0:
96,320,42014,1,0,0:0:0:0:
32,320,42108,1,0,0:0:0:0:
32,256,42203,1,0,0:0:0:0:
32,192,42297,2,0,P|106:111|89:252,1,315.000012016297
23,232,42722,2,0,L|22:231,1,1.75
165,146,42957,2,0,L|165:147,1,1.75
150,267,43240,2,0,B|102:292|102:292|106:242|106:242|85:186,1,157.500006008148
103,131,43524,5,0,0:0:0:0:
149,80,43618,1,0,0:0:0:0:
209,65,43712,1,0,0:0:0:0:
263,61,43807,1,0,0:0:0:0:
320,90,43901,2,0,B|347:32|347:32|268:225,1,210.000008010865
257,252,44278,2,0,L|129:223,1,105.000004005432
257,252,44404,2,0,L|294:392,1,105.000004005432
257,252,44530,2,0,L|334:159,1,105.000004005432
335,118,44781,5,0,0:0:0:0:
352,95,44907,1,0,0:0:0:0:
380,53,45033,2,0,L|296:41,1,70.0000026702882
235,60,45222,6,0,L|233:62,1,3.5
191,121,45410,2,0,L|191:120,1,2
202,203,45599,2,0,L|202:202,1,1.75
266,221,45788,1,0,0:0:0:0:
308,229,45882,1,0,0:0:0:0:
310,244,45976,1,0,0:0:0:0:
256,288,46165,6,0,L|128:288,2,105.000004005432
96,288,46354,2,0,L|-32:288,1,105.000004005432
32,288,46542,2,0,L|32:160,1,105.000004005432
32,160,46825,2,0,L|256:160,1,210.000008010865
308,155,47156,2,0,L|309:155,1,1.75
186,144,47344,2,0,L|186:145,1,1.75
256,64,47486,2,0,L|480:64,1,210.000008010865
480,64,47863,2,0,L|352:64,3,105.000004005432
375,64,48335,5,0,0:0:0:0:
375,64,48429,1,0,0:0:0:0:
320,64,48524,1,0,0:0:0:0:
288,64,48618,1,0,0:0:0:0:
256,64,48712,2,0,L|128:64,1,105.000004005432
96,64,48995,2,0,L|-32:64,1,105.000004005432
0,222,49373,6,0,B|106:217|106:217|132:72|132:72|201:339|201:339|225:216|225:216|368:214,1,735.000028038026
0,222,50253,2,0,B|108:222|108:222|131:72|131:72|201:338|201:338|229:216|229:216|306:213|306:213|312:208|312:208|302:212|302:212|307:213|307:213|309:211|309:211|310:211|310:211|310:210|310:210|310:210|310:210|309:210|311:212|311:212|309:214|309:214|307:213|307:213|310:210|310:210|303:210|305:210|305:210|309:210|311:211|311:211|305:211|305:211|310:211|310:211|307:211|306:211|306:211|308:211|308:211|304:212|304:212|311:210|311:210|304:210|304:210|310:212|301:213|301:213|301:212|309:210|308:208|308:208|310:211|303:210|302:210|302:210|310:211|311:212|311:212|310:212|310:212|310:212|302:213|308:212|308:212|358:73|358:73|436:313|436:313|464:207|464:207|670:204|670:204,1,1540.00005874634
113,126,52014,5,0,0:0:0:0:
173,161,52108,1,0,0:0:0:0:
212,154,52203,1,0,0:0:0:0:
250,213,52297,1,0,0:0:0:0:
295,212,52391,1,0,0:0:0:0:
342,237,52486,2,0,B|422:88|415:92|297:331,1,315.000012016297
203,86,53146,5,0,0:0:0:0:
203,116,53240,1,0,0:0:0:0:
206,149,53335,1,0,0:0:0:0:
250,231,53429,5,0,0:0:0:0:
248,206,53523,1,0,0:0:0:0:
242,176,53618,2,0,P|208:59|187:61,2,105.000004005432
66,173,53948,1,0,0:0:0:0:
150,169,54042,2,0,L|153:172,1,3.5
193,248,54278,2,0,P|116:328|103:310,1,105.000004005432
230,192,54561,2,0,P|330:246|320:281,1,105.000004005432
197,149,54844,2,0,P|282:68|302:78,1,105.000004005432
141,212,55174,2,0,P|124:103|151:104,1,105.000004005432
96,88,55410,5,0,0:0:0:0:
85,145,55505,1,0,0:0:0:0:
100,201,55599,1,0,0:0:0:0:
146,238,55693,1,0,0:0:0:0:
211,244,55788,1,0,0:0:0:0:
266,219,55882,2,0,L|385:174,1,105.000004005432
322,60,56259,6,0,B|357:162|357:162|331:88|331:88|369:203,1,210.000008010865
226,159,56637,1,0,0:0:0:0:
146,219,56731,2,0,L|212:312,1,105.000004005432
236,343,56920,2,0,L|375:334,1,105.000004005432
415,236,57108,2,0,L|434:120,1,105.000004005432
410,88,57297,5,0,0:0:0:0:
360,73,57391,1,0,0:0:0:0:
313,88,57486,1,0,0:0:0:0:
251,171,57674,2,0,L|92:163,1,105.000004005432
18,189,57957,1,0,0:0:0:0:
32,139,58052,1,0,0:0:0:0:
32,89,58146,1,0,0:0:0:0:
104,67,58240,2,0,L|206:46,4,105.000004005432
177,130,58759,1,0,0:0:0:0:
206,119,58901,2,0,L|266:116,1,52.5000020027161
343,210,59090,1,0,0:0:0:0:
325,217,59184,2,0,L|158:250,1,157.500006008148
92,258,59467,1,0,0:0:0:0:
92,258,59561,1,0,0:0:0:0:
74,112,59844,1,0,0:0:0:0:
58,110,59939,1,0,0:0:0:0:
69,106,60033,1,0,0:0:0:0:
82,256,60222,2,0,B|180:257|154:272|164:203|164:203|195:198,1,105.000004005432
187,123,60505,6,0,L|389:123,1,105.000004005432
329,190,60788,2,0,B|405:189|405:189|404:280,1,105.000004005432
403,320,61071,1,0,0:0:0:0:
242,289,61259,5,0,0:0:0:0:
205,290,61353,1,0,0:0:0:0:
168,291,61447,1,0,0:0:0:0:
131,292,61542,1,0,0:0:0:0:
95,293,61636,1,0,0:0:0:0:
97,267,61730,1,0,0:0:0:0:
102,240,61825,2,0,L|106:128,1,105.000004005432
161,94,62014,5,0,0:0:0:0:
210,89,62108,1,0,0:0:0:0:
256,101,62203,1,0,0:0:0:0:
282,130,62297,1,0,0:0:0:0:
320,258,62391,1,0,0:0:0:0:
311,236,62486,1,0,0:0:0:0:
303,208,62580,2,0,L|126:222,1,105.000004005432
66,201,62863,5,0,0:0:0:0:
66,201,62957,1,0,0:0:0:0:
179,195,63146,2,0,L|345:190,1,105.000004005432
179,195,63335,2,0,L|361:187,1,105.000004005432
179,195,63524,2,0,L|374:188,1,105.000004005432
179,195,63712,2,0,L|374:195,1,105.000004005432
179,195,63901,6,0,L|177:407,1,210.000008010865
307,273,64467,2,0,P|247:153|245:125,1,105.000004005432
231,143,64656,2,0,P|289:237|290:261,1,105.000004005432
73,122,65222,2,0,P|146:203|146:213,1,105.000004005432
178,242,65410,2,0,P|112:152|112:142,1,105.000004005432
130,243,65976,2,0,L|294:241,3,105.000004005432
236,249,66354,2,0,P|162:123|280:82,1,262.500010013581
361,85,66731,2,0,P|294:155|233:139,1,140
173,205,67014,2,0,P|210:108|297:123,1,175
235,283,67486,2,0,P|379:111|360:77,1,175
376,196,67769,2,0,P|161:203|157:181,1,175
176,263,68240,1,0,0:0:0:0:
126,204,68335,1,0,0:0:0:0:
147,132,68429,1,0,0:0:0:0:
137,67,68524,1,0,0:0:0:0:
203,16,68618,2,0,L|197:28,1,14
319,80,69184,1,0,0:0:0:0:
137,146,69373,1,0,0:0:0:0:
305,257,69561,1,0,0:0:0:0:
300,100,69750,1,0,0:0:0:0:
104,147,69939,1,0,0:0:0:0:
126,147,70033,2,0,L|252:145,1,126
280,127,74656,5,0,0:0:0:0:
316,142,74750,1,0,0:0:0:0:
343,182,74844,1,0,0:0:0:0:
318,221,74939,1,0,0:0:0:0:
269,224,75033,1,0,0:0:0:0:
234,194,75127,1,0,0:0:0:0:
254,150,75222,1,0,0:0:0:0:
297,142,75316,1,0,0:0:0:0:
324,175,75410,5,0,0:0:0:0:
292,208,75505,1,0,0:0:0:0:
251,197,75599,1,0,0:0:0:0:
259,157,75693,1,0,0:0:0:0:
290,156,75788,1,0,0:0:0:0:
299,188,75882,1,0,0:0:0:0:
270,208,75976,1,0,0:0:0:0:
249,193,76071,1,0,0:0:0:0:
210,121,76165,1,0,0:0:0:0:
290,56,76259,1,0,0:0:0:0:
385,81,76354,1,0,0:0:0:0:
389,184,76448,1,0,0:0:0:0:
323,254,76542,2,0,B|498:306|497:306|136:191|136:191|150:195|150:195|58:169|58:169|72:172|72:172|53:162,1,560
185,115,77171,2,0,B|94:160|94:160|169:155|167:155|135:179|135:179|173:176|172:176|158:204|158:204|182:186|182:186|175:223|174:224|188:193|188:193|198:234|198:233|201:201|201:201|220:232|220:232|214:203|214:203|240:233|240:233|238:206|238:206|265:227|265:227|255:200|255:200|284:221|284:221|279:196|279:196|306:208|306:208|294:184|294:184|310:195|370:234|303:174|317:184|343:176|343:176|283:121|283:121|413:180|413:180,1,980
427,155,77989,2,0,B|434:193|434:193|476:262|476:262|410:241|410:241|370:241|370:241|354:265|354:265|412:272|412:272|393:283|393:283|356:283|356:283|349:301|349:301|427:294|406:303|360:312|360:312|359:320|359:320|402:318|402:318|362:327|362:327|363:341|363:341|433:339|433:339|456:339|456:339,1,665
249,350,78712,6,0,B|178:224|244:346|244:346|260:342|260:343|251:348|251:348|262:348|262:348|251:355|251:355|264:349|264:349|248:364|250:363|264:355|264:355|247:366|247:366|261:358|261:358|239:357|239:357|256:350|256:350|236:353|236:353|252:344|252:344|240:356|240:356|255:355|255:355|241:363|240:363|231:352|231:352|252:356|252:356|263:354|262:358|258:361|256:364|267:359|267:355|262:345|253:341|253:341|255:341|262:340|268:350|259:360|246:361|239:350|239:348|239:348|235:344|233:343|230:347|231:345|247:335|252:335|261:338|246:336|241:338|241:338|249:333|251:334|235:339|257:335|262:338|262:343,2,560
89,307,79561,5,0,0:0:0:0:
65,229,79656,1,0,0:0:0:0:
63,150,79750,1,0,0:0:0:0:
130,98,79844,1,0,0:0:0:0:
213,115,79939,1,0,0:0:0:0:
240,222,80033,2,0,B|296:209|296:209|338:127,1,140
375,66,80222,1,0,0:0:0:0:
306,6,80316,2,0,B|251:26|251:26|220:100,1,140
399,245,80505,1,0,0:0:0:0:
322,309,80693,2,0,B|234:244|234:244|216:176,1,140
78,178,80882,1,0,0:0:0:0:
161,158,80976,1,0,0:0:0:0:
146,54,81071,2,0,B|198:74|198:74|220:49|220:49|187:41|187:41|231:82|255:108|264:113|297:93|289:62|312:32|367:56|335:126,1,280
388,192,81354,5,0,0:0:0:0:
315,254,81448,1,0,0:0:0:0:
225,328,81542,1,0,0:0:0:0:
161,280,81637,1,0,0:0:0:0:
84,289,81731,2,0,B|-41:227|26:152|103:141|176:153|204:237|81:346|88:425|88:425,1,420
257,342,82203,2,0,B|253:325|253:325|267:328|267:328|262:351|262:351|239:345|240:345|252:324|252:324|268:328|268:328|261:356|261:355|239:349|239:349|242:347,2,140
278,238,82486,6,0,L|375:117,1,140
303,55,82674,2,0,L|201:177,1,140
286,185,82862,6,0,L|323:44,1,140
203,43,83051,2,0,L|194:220,1,140
252,202,83240,1,0,0:0:0:0:
273,233,83335,1,0,0:0:0:0:
269,275,83429,1,0,0:0:0:0:
178,297,83524,2,0,B|133:334|114:287|143:251|189:301,1,105.000004005432
