osu file format v14

[General]
AudioFilename: audio.mp3
AudioLeadIn: 0
PreviewTime: 143946
Countdown: 0
SampleSet: Soft
StackLeniency: 0
Mode: 2
LetterboxInBreaks: 0
WidescreenStoryboard: 0

[Editor]
Bookmarks: 63978,95978,110228,127978,143978,153353,175978,207978,239978,271978,303978,335978
DistanceSpacing: 1
BeatDivisor: 8
GridSize: 8
TimelineZoom: 4.599998

[Metadata]
Title:Starfall
TitleUnicode:Starfall
Artist:Kopophobia & Ajataa
ArtistUnicode:Kopophobia & Ajataa
Creator:Kyptoric
Version:Interstellar Voyage
Source:
Tags:electronic instrumental hitech psytrance psychedelic trance marathon
BeatmapID:3682500
BeatmapSetID:1796476

[Difficulty]
HPDrainRate:3
CircleSize:4
OverallDifficulty:10
ApproachRate:10
SliderMultiplier:1.9
SliderTickRate:2

[Events]
//Background and Video events
0,0,"bg.jpg",0,0
//Break Periods
//Storyboard Layer 0 (Background)
//Storyboard Layer 1 (Fail)
//Storyboard Layer 2 (Pass)
//Storyboard Layer 3 (Foreground)
//Storyboard Layer 4 (Overlay)
//Storyboard Sound Samples

[TimingPoints]
63978,250,4,2,1,70,1,0
73978,-50,4,2,1,70,0,0
74228,-100,4,2,1,70,0,0
75978,-83.3333333333333,4,2,1,70,0,0
76228,-100,4,2,1,70,0,0
77978,-38.4615384615385,4,2,1,70,0,0
78228,-100,4,2,1,70,0,0
78478,-83.3333333333333,4,2,1,70,0,0
78728,-45.4545454545455,4,2,1,70,0,0
78978,-100,4,2,1,70,0,0
79978,-100,4,2,1,75,0,0
81478,-38.4615384615385,4,2,1,75,0,0
81728,-100,4,2,1,75,0,0
82228,-38.4615384615385,4,2,1,75,0,0
82478,-83.3333333333333,4,2,1,75,0,0
82728,-100,4,2,1,75,0,0
83978,-100,4,2,1,75,0,0
84728,-100,4,2,1,75,0,0
86228,-100,4,2,1,80,0,0
86728,-100,4,2,1,85,0,0
86853,-100,4,2,1,75,0,0
86978,-100,4,2,1,60,0,0
87103,-83.3333333333333,4,2,1,60,0,0
87478,-100,4,2,1,70,0,0
91978,-100,4,2,1,60,0,0
93478,-100,4,2,1,65,0,0
93728,-100,4,2,1,70,0,0
93978,-100,4,2,1,55,0,0
95978,-100,4,2,1,80,0,1
97228,-33.3333333333333,4,2,1,80,0,1
97478,-100,4,2,1,80,0,1
97978,-100,4,2,1,80,0,1
98978,-33.3333333333333,4,2,1,80,0,1
99478,-100,4,2,1,80,0,1
103478,-66.6666666666667,4,2,1,80,0,1
103978,-100,4,2,1,80,0,1
106978,-33.3333333333333,4,2,1,80,0,1
107228,-100,4,2,1,80,0,1
107478,-33.3333333333333,4,2,1,80,0,1
107978,-100,4,2,1,80,0,1
113228,-35.7142857142857,4,2,1,80,0,1
113478,-100,4,2,1,80,0,1
114978,-40,4,2,1,80,0,1
115728,-100,4,2,1,80,0,1
117228,-38.4615384615385,4,2,1,80,0,1
117478,-100,4,2,1,80,0,1
119978,-38.4615384615385,4,2,1,80,0,1
120728,-35.7142857142857,4,2,1,80,0,1
120978,-100,4,2,1,80,0,1
121978,-40,4,2,1,80,0,1
122478,-100,4,2,1,80,0,1
122728,-83.3333333333333,4,2,1,80,0,1
122978,-100,4,2,1,80,0,1
123978,-38.4615384615385,4,2,1,85,0,1
126978,-100,4,2,1,50,0,0
127478,-100,4,2,1,60,0,0
127978,500,4,2,1,60,1,0
127978,-50,4,2,1,60,0,0
133978,1000,4,2,1,60,1,0
135978,500,4,2,1,60,1,0
135978,-50,4,2,1,60,0,0
143978,250,4,2,1,80,1,0
143978,-100,4,2,1,80,0,1
144978,-33.3333333333333,4,2,1,80,0,1
145478,-100,4,2,1,80,0,1
145978,-38.4615384615385,4,2,1,80,0,1
146353,-100,4,2,1,80,0,1
146478,-38.4615384615385,4,2,1,80,0,1
146978,-100,4,2,1,80,0,1
147978,-33.3333333333333,4,2,1,80,0,1
148478,-100,4,2,1,80,0,1
159978,-37.037037037037,4,2,1,80,0,1
160478,-100,4,2,1,80,0,1
160978,-40,4,2,1,80,0,1
161228,-100,4,2,1,80,0,1
161478,-33.3333333333333,4,2,1,80,0,1
161728,-100,4,2,1,80,0,1
161978,-37.037037037037,4,2,1,80,0,1
162478,-100,4,2,1,80,0,1
162978,-40,4,2,1,80,0,1
163478,-100,4,2,1,80,0,1
171978,-100,4,2,1,70,0,0
172103,-100,4,2,1,50,0,0
173978,-100,4,2,1,55,0,0
174978,-100,4,2,1,60,0,0
175978,-100,4,2,1,85,0,1
178978,-45.4545454545455,4,2,1,85,0,1
179478,-100,4,2,1,85,0,1
190978,-100,4,2,1,55,0,1
191728,-100,4,2,1,65,0,1
191978,-100,4,2,1,85,0,1
193478,-37.037037037037,4,2,1,85,0,1
193978,-45.4545454545455,4,2,1,85,0,1
194228,-90.9090909090909,4,2,1,85,0,1
194478,-38.4615384615385,4,2,1,85,0,1
194728,-90.9090909090909,4,2,1,85,0,1
194978,-37.037037037037,4,2,1,85,0,1
195228,-100,4,2,1,85,0,1
195478,-37.037037037037,4,2,1,85,0,1
195728,-100,4,2,1,85,0,1
199728,-83.3333333333333,4,2,1,85,0,1
199978,-100,4,2,1,85,0,1
201228,-37.037037037037,4,2,1,85,0,1
201478,-100,4,2,1,85,0,1
201978,-50,4,2,1,85,0,1
202478,-100,4,2,1,85,0,1
202978,-50,4,2,1,85,0,1
203478,-100,4,2,1,85,0,1
203978,-40,4,2,1,85,0,1
204228,-100,4,2,1,85,0,1
205728,-100,4,2,1,75,0,1
205978,-100,4,2,1,50,0,0
207978,-100,4,2,1,60,0,0
211978,-100,4,2,1,65,0,0
215978,-100,4,2,1,60,0,0
218978,-100,4,2,1,70,0,0
220978,-100,4,2,1,75,0,0
223478,-100,4,2,1,70,0,0
223978,-100,4,2,1,80,0,1
227978,-33.3333333333333,4,2,1,80,0,1
228478,-100,4,2,1,80,0,1
233978,-66.6666666666667,4,2,1,80,0,1
234478,-76.9230769230769,4,2,1,80,0,1
235978,-83.3333333333333,4,2,1,60,0,0
237103,-83.3333333333333,4,2,1,70,0,0
239978,-100,4,2,1,70,0,0
247978,-66.6666666666667,4,2,1,50,0,0
255978,-125,4,2,1,60,0,0
256728,-166.666666666667,4,2,1,60,0,0
261978,-125,4,2,1,65,0,0
262478,-100,4,2,1,65,0,0
262978,-166.666666666667,4,2,1,65,0,0
263978,-166.666666666667,4,2,1,55,0,0
267978,-166.666666666667,4,2,1,45,0,0
271978,-200,4,2,1,40,0,0
285978,-285.714285714286,4,2,1,40,0,0
287478,-200,4,2,1,40,0,0
287978,-200,4,2,1,45,0,0
291978,-200,4,2,1,50,0,0
295978,-200,4,2,1,55,0,0
299978,-200,4,2,1,60,0,0
301978,-200,4,2,1,65,0,0
303978,-100,4,2,1,80,0,1
307978,-33.3333333333333,4,2,1,80,0,1
308228,-40,4,2,1,80,0,1
308478,-100,4,2,1,80,0,1
310978,-40,4,2,1,80,0,1
311228,-43.4782608695652,4,2,1,80,0,1
311478,-28.5714285714286,4,2,1,80,0,1
311728,-76.9230769230769,4,2,1,80,0,1
311978,-100,4,2,1,80,0,1
316478,-33.3333333333333,4,2,1,80,0,1
316728,-100,4,2,1,80,0,1
316978,-33.3333333333333,4,2,1,80,0,1
317478,-100,4,2,1,80,0,1
319103,-100,4,2,1,70,0,0
319978,-100,4,2,1,80,0,1
326978,-37.037037037037,4,2,1,80,0,1
327478,-100,4,2,1,80,0,1
329978,-40,4,2,1,80,0,1
330228,-100,4,2,1,80,0,1
334978,-100,4,2,1,70,0,0
335728,-100,4,2,1,70,0,0
335978,-45.4545454545455,4,2,1,85,0,1
336478,-100,4,2,1,85,0,1
337228,-83.3333333333333,4,2,1,85,0,1
337478,-100,4,2,1,85,0,1
341228,-83.3333333333333,4,2,1,85,0,1
341478,-100,4,2,1,85,0,1
343978,-83.3333333333333,4,2,1,85,0,1
344228,-100,4,2,1,85,0,1
350978,-66.6666666666667,4,2,1,85,0,1
351978,-41.6666666666667,4,2,1,85,0,1
352978,-35.7142857142857,4,2,1,85,0,1
353478,-100,4,2,1,85,0,1
354978,-45.4545454545455,4,2,1,85,0,1
355978,-100,4,2,1,85,0,1
360728,-83.3333333333333,4,2,1,85,0,1
360978,-100,4,2,1,85,0,1
362478,-33.3333333333333,4,2,1,85,0,1
362728,-100,4,2,1,85,0,1
367728,-83.3333333333333,4,2,1,85,0,1
367978,-100,4,2,1,90,0,0
368103,-100,4,2,1,80,0,0
371978,-100,4,2,1,70,0,0
373978,-100,4,2,1,60,0,0
375978,-100,4,2,1,50,0,0

[Colours]
Combo1 : 217,187,117
Combo2 : 20,105,195
Combo3 : 15,75,142
Combo4 : 195,20,20
Combo5 : 150,16,16
Combo6 : 106,53,94
Combo7 : 94,66,87

[HitObjects]
160,128,63978,6,0,L|304:128,1,142.5,6|0,0:1|0:0,0:0:0:0:
72,144,64228,5,10,0:0:0:0:
40,151,64259,1,0,0:0:0:0:
25,171,64290,1,0,0:0:0:0:
25,196,64321,1,0,0:0:0:0:
48,216,64353,1,0,0:0:0:0:
88,224,64384,1,0,0:0:0:0:
176,224,64415,1,0,0:0:0:0:
352,200,64478,6,0,L|400:200,1,47.5,2|0,0:0|0:0,0:0:0:0:
224,256,64603,2,0,L|168:256,1,47.5
376,264,64728,6,0,L|384:328,1,47.5,2|0,0:0|0:0,0:0:0:0:
464,280,64853,2,0,L|456:344,1,47.5
208,352,64978,5,2,0:0:0:0:
168,352,65009,1,0,0:0:0:0:
136,352,65040,1,0,0:0:0:0:
112,345,65071,1,0,0:0:0:0:
89,334,65103,1,0,0:0:0:0:
69,319,65134,1,0,0:0:0:0:
56,304,65165,1,0,0:0:0:0:
304,352,65228,5,2,0:0:0:0:
344,352,65259,1,0,0:0:0:0:
376,352,65290,1,0,0:0:0:0:
400,345,65321,1,0,0:0:0:0:
423,334,65353,1,0,0:0:0:0:
443,319,65384,1,0,0:0:0:0:
456,304,65415,1,0,0:0:0:0:
160,312,65478,5,2,0:0:0:0:
120,304,65509,1,0,0:0:0:0:
97,284,65540,1,0,0:0:0:0:
88,256,65571,1,0,0:0:0:0:
96,224,65603,1,0,0:0:0:0:
128,216,65634,1,0,0:0:0:0:
168,216,65665,1,0,0:0:0:0:
352,312,65728,5,2,0:0:0:0:
392,304,65759,1,0,0:0:0:0:
415,284,65790,1,0,0:0:0:0:
424,256,65821,1,0,0:0:0:0:
416,224,65853,1,0,0:0:0:0:
384,216,65884,1,0,0:0:0:0:
344,216,65915,1,0,0:0:0:0:
128,168,65978,5,2,0:1:0:0:
93,131,66040,1,0,0:0:0:0:
59,94,66103,1,0,0:0:0:0:
25,58,66165,1,0,0:0:0:0:
88,56,66228,5,2,0:0:0:0:
152,56,66290,1,0,0:0:0:0:
216,56,66353,1,0,0:0:0:0:
280,56,66415,1,0,0:0:0:0:
344,56,66478,5,2,0:0:0:0:
309,93,66540,1,0,0:0:0:0:
275,130,66603,1,0,0:0:0:0:
241,166,66665,1,0,0:0:0:0:
320,184,66728,6,0,L|320:240,1,47.5,2|0,0:0|0:0,0:0:0:0:
400,240,66853,2,0,L|400:288,1,47.5
216,336,66978,6,0,L|160:336,1,47.5,2|0,0:0|0:0,0:0:0:0:
400,344,67103,2,0,L|464:344,1,47.5
216,304,67228,5,2,0:0:0:0:
184,264,67290,1,0,0:0:0:0:
208,216,67353,1,0,0:0:0:0:
280,208,67415,1,0,0:0:0:0:
456,224,67478,5,10,0:0:0:0:
480,168,67540,1,0,0:0:0:0:
448,120,67603,1,0,0:0:0:0:
376,112,67665,1,0,0:0:0:0:
144,64,67728,6,0,L|200:64,1,47.5,10|0,0:0|0:0,0:0:0:0:
328,56,67853,2,0,L|392:56,1,47.5,10|0,0:0|0:0,0:0:0:0:
72,152,67978,6,0,L|16:152,1,47.5,2|0,0:0|0:0,0:0:0:0:
216,160,68103,2,0,L|224:224,1,47.5,2|0,0:0|0:0,0:0:0:0:
152,216,68228,2,0,L|160:280,1,47.5,2|0,0:0|0:0,0:0:0:0:
296,264,68353,2,0,L|288:320,1,47.5
216,312,68478,2,0,L|208:368,1,47.5,2|0,0:0|0:0,0:0:0:0:
392,360,68603,2,0,L|448:360,1,47.5
256,192,68728,5,2,0:0:0:0:
136,192,68790,1,0,0:0:0:0:
16,192,68853,1,0,0:0:0:0:
256,192,68978,5,2,0:0:0:0:
376,192,69040,1,0,0:0:0:0:
496,192,69103,1,0,0:0:0:0:
216,88,69228,6,0,L|224:144,1,47.5,2|0,0:0|0:0,0:0:0:0:
296,136,69353,2,0,L|304:192,1,47.5
128,200,69478,2,0,L|160:240,1,47.5,2|0,0:0|0:0,0:0:0:0:
216,240,69603,2,0,L|248:280,1,47.5
40,352,69728,6,0,L|32:296,1,47.5,10|0,0:0|0:0,0:0:0:0:
232,352,69853,2,0,L|240:296,1,47.5,8|0,0:0|0:0,0:0:0:0:
496,240,69978,6,0,L|344:240,1,142.5,6|0,0:0|0:0,0:0:0:0:
112,160,70228,2,0,L|264:160,1,142.5,2|0,0:0|0:0,0:0:0:0:
400,200,70478,2,0,L|248:200,1,142.5,2|0,0:0|0:0,0:0:0:0:
88,200,70728,2,0,L|-8:200,2,63.3333333333333,10|0|0,0:0|0:0|0:0,0:0:0:0:
264,360,70978,6,0,L|264:320,6,23.75,2|0|0|0|0|0|0,0:0|0:0|0:0|0:0|0:0|0:0|0:0,0:0:0:0:
456,328,71228,5,2,0:0:0:0:
434,328,71259,1,0,0:0:0:0:
412,328,71290,1,0,0:0:0:0:
390,328,71321,1,0,0:0:0:0:
368,328,71353,1,0,0:0:0:0:
346,328,71384,1,0,0:0:0:0:
324,328,71415,1,0,0:0:0:0:
496,240,71478,6,0,L|496:200,6,23.75,2|0|0|0|0|0|0,0:0|0:0|0:0|0:0|0:0|0:0|0:0,0:0:0:0:
312,80,71728,5,0,0:0:0:0:
283,76,71759,1,0,0:0:0:0:
255,87,71790,1,0,0:0:0:0:
237,109,71821,1,0,0:0:0:0:
232,138,71853,1,0,0:0:0:0:
352,144,71884,1,0,0:0:0:0:
472,144,71915,1,0,0:0:0:0:
272,184,71978,6,0,L|240:336,1,142.5,6|0,0:1|0:0,0:0:0:0:
24,184,72228,2,0,L|56:336,1,142.5,2|0,0:0|0:0,0:0:0:0:
296,184,72478,2,0,P|224:160|184:96,1,142.5,10|0,0:0|0:0,0:0:0:0:
376,88,72728,2,0,P|456:88|504:32,1,142.5,2|0,0:0|0:0,0:0:0:0:
216,192,72978,6,0,L|176:192,1,23.75,2|0,0:0|0:0,0:0:0:0:
64,192,73103,2,0,L|56:160,1,23.75
296,192,73228,2,0,L|336:192,1,23.75,2|0,0:0|0:0,0:0:0:0:
448,192,73353,2,0,L|456:160,1,23.75
189,123,73478,5,0,0:0:0:0:
160,131,73509,1,0,0:0:0:0:
141,151,73540,1,0,0:0:0:0:
132,178,73571,1,0,0:0:0:0:
136,207,73603,1,0,0:0:0:0:
154,230,73634,1,0,0:0:0:0:
179,243,73665,1,0,0:0:0:0:
216,242,73696,1,0,0:0:0:0:
256,240,73728,6,0,L|184:240,1,47.5,2|0,0:0|0:0,0:0:0:0:
56,240,73853,2,0,L|-16:240,1,47.5
288,328,73978,6,0,B|488:328|488:328|424:256,1,285,10|0,0:1|0:0,0:0:0:0:
216,336,74228,2,0,P|264:280|280:200,1,142.5,2|0,0:0|0:0,0:0:0:0:
152,184,74478,5,2,0:0:0:0:
32,176,74540,1,0,0:0:0:0:
152,168,74603,1,0,0:0:0:0:
280,160,74665,1,0,0:0:0:0:
224,144,74728,6,0,L|232:96,3,47.5,2|0|0|0,0:0|0:0|0:0|0:0,0:0:0:0:
312,96,74978,6,0,L|304:48,3,47.5,2|0|0|0,0:0|0:0|0:0|0:0,0:0:0:0:
128,40,75228,6,0,L|120:96,1,47.5,2|0,0:0|0:0,0:0:0:0:
192,88,75353,2,0,L|200:144,1,47.5
48,224,75478,6,0,L|64:176,1,47.5,2|0,0:0|0:0,0:0:0:0:
232,264,75603,2,0,L|216:216,1,47.5
16,320,75728,5,10,0:0:0:0:
256,336,75853,1,8,0:0:0:0:
464,344,75978,6,0,P|496:272|424:248,1,170.999994781494,2|0,0:0|0:0,0:0:0:0:
240,192,76228,5,2,0:1:0:0:
267,190,76259,1,0,0:0:0:0:
293,182,76290,1,0,0:0:0:0:
317,169,76321,1,0,0:0:0:0:
336,149,76353,1,0,0:0:0:0:
350,127,76384,1,0,0:0:0:0:
359,101,76415,1,0,0:0:0:0:
146,98,76478,5,2,0:0:0:0:
95,124,76540,1,0,0:0:0:0:
78,183,76603,1,0,0:0:0:0:
112,225,76665,1,0,0:0:0:0:
188,242,76728,1,2,0:0:0:0:
312,240,76790,1,0,0:0:0:0:
488,176,76853,1,0,0:0:0:0:
368,176,76915,1,0,0:0:0:0:
240,360,76978,6,0,L|240:216,1,142.5,10|0,0:0|0:0,0:0:0:0:
72,360,77228,5,2,0:1:0:0:
32,360,77259,1,0,0:0:0:0:
14,337,77290,1,0,0:0:0:0:
9,313,77321,1,0,0:0:0:0:
19,291,77353,1,0,0:0:0:0:
48,280,77384,1,0,0:0:0:0:
80,280,77415,1,0,0:0:0:0:
256,160,77478,6,0,P|173:160|120:136,1,142.5,2|0,0:0|0:0,0:0:0:0:
280,240,77728,5,10,0:0:0:0:
296,240,77790,1,0,0:0:0:0:
280,200,77853,1,0,0:0:0:0:
296,200,77915,1,0,0:0:0:0:
80,104,77978,6,0,L|472:104,1,370.499983039857,2|0,0:0|0:0,0:0:0:0:
256,264,78228,2,0,P|185:264|112:248,1,142.5,2|0,0:0|0:0,0:0:0:0:
320,264,78478,6,0,L|496:264,1,170.999994781494,10|0,0:0|0:0,0:0:0:0:
320,304,78728,2,0,B|96:304|96:304|16:232,1,313.500009567261,10|0,0:0|0:0,0:0:0:0:
288,24,78978,5,2,0:0:0:0:
328,32,79009,1,0,0:0:0:0:
362,50,79040,1,0,0:0:0:0:
378,68,79071,1,0,0:0:0:0:
391,90,79103,1,0,0:0:0:0:
400,113,79134,1,0,0:0:0:0:
404,138,79165,1,0,0:0:0:0:
404,163,79196,1,0,0:0:0:0:
398,187,79228,1,2,0:0:0:0:
389,210,79259,1,0,0:0:0:0:
375,231,79290,1,0,0:0:0:0:
358,249,79321,1,0,0:0:0:0:
337,263,79353,1,0,0:0:0:0:
314,273,79384,1,0,0:0:0:0:
280,280,79415,1,0,0:0:0:0:
248,280,79446,1,0,0:0:0:0:
208,168,79478,5,2,0:0:0:0:
248,168,79509,1,0,0:0:0:0:
280,168,79540,1,0,0:0:0:0:
312,168,79571,1,0,0:0:0:0:
337,169,79603,1,0,0:0:0:0:
368,176,79634,1,0,0:0:0:0:
391,185,79665,1,0,0:0:0:0:
432,214,79696,1,0,0:0:0:0:
416,224,79728,1,2,0:0:0:0:
464,232,79759,1,0,0:0:0:0:
448,256,79790,1,0,0:0:0:0:
488,272,79821,1,0,0:0:0:0:
472,304,79853,1,0,0:0:0:0:
496,328,79884,1,0,0:0:0:0:
480,352,79915,1,0,0:0:0:0:
200,352,79978,6,0,P|152:352|88:264,1,142.5,6|0,0:0|0:0,0:0:0:0:
312,352,80228,2,0,P|360:352|424:264,1,142.5,6|0,0:0|0:0,0:0:0:0:
168,304,80478,6,0,P|120:272|104:184,1,142.5,10|0,0:0|0:0,0:0:0:0:
344,304,80728,2,0,P|392:272|408:184,1,142.5,2|0,0:0|0:0,0:0:0:0:
152,80,80978,6,0,L|160:128,1,47.5,2|0,0:0|0:0,0:0:0:0:
304,128,81103,2,0,L|312:176,1,47.5
104,200,81228,6,0,L|64:160,1,47.5,2|0,0:0|0:0,0:0:0:0:
232,232,81353,2,0,L|232:280,1,47.5
392,352,81478,6,0,B|440:208|408:104|408:104|272:104,1,370.499983039857,10|0,0:0|0:0,0:0:0:0:
104,72,81728,5,2,0:0:0:0:
160,64,81790,1,0,0:0:0:0:
216,80,81853,1,0,0:0:0:0:
256,120,81915,1,0,0:0:0:0:
64,24,81978,6,0,L|24:64,1,47.5,2|0,0:0|0:0,0:0:0:0:
224,48,82103,2,0,L|264:72,1,47.5
32,64,82228,2,0,B|-16:208|24:304|24:304|160:304,1,370.499983039857,2|0,0:0|0:0,0:0:0:0:
376,304,82478,6,0,B|440:304|440:304|464:288|496:200,1,170.999994781494,10|0,0:0|0:0,0:0:0:0:
288,288,82728,2,0,P|312:240|320:152,1,142.5,2|0,0:0|0:0,0:0:0:0:
152,56,82978,5,0,0:0:0:0:
120,59,83009,1,0,0:0:0:0:
91,70,83040,1,0,0:0:0:0:
64,87,83071,1,0,0:0:0:0:
42,109,83103,1,0,0:0:0:0:
26,136,83134,1,0,0:0:0:0:
16,166,83165,1,0,0:0:0:0:
216,176,83228,6,0,L|232:216,6,23.75,2|0|0|0|0|0|0,0:0|0:0|0:0|0:0|0:0|0:0|0:0,0:0:0:0:
352,296,83478,6,0,L|352:240,1,47.5,2|0,0:0|0:0,0:0:0:0:
480,248,83603,2,0,L|496:192,1,47.5
320,120,83728,2,0,L|272:96,1,47.5,10|0,0:0|0:0,0:0:0:0:
433,96,83853,2,0,L|488:96,1,47.5,8|0,0:0|0:0,0:0:0:0:
216,48,83978,5,10,0:0:0:0:
128,48,84009,1,0,0:0:0:0:
40,48,84040,1,0,0:0:0:0:
296,48,84228,1,2,0:0:0:0:
384,48,84259,1,0,0:0:0:0:
472,48,84290,1,0,0:0:0:0:
120,128,84478,1,10,0:0:0:0:
16,128,84509,1,0,0:0:0:0:
336,192,84728,5,10,0:0:0:0:
440,192,84759,1,0,0:0:0:0:
288,240,84853,1,0,0:0:0:0:
184,240,84884,1,0,0:0:0:0:
16,328,84978,5,2,0:0:0:0:
56,328,85009,1,0,0:0:0:0:
232,328,85103,1,0,0:0:0:0:
272,328,85134,1,0,0:0:0:0:
456,288,85228,5,2,0:0:0:0:
416,288,85259,1,0,0:0:0:0:
272,288,85353,1,0,0:0:0:0:
232,288,85384,1,0,0:0:0:0:
64,272,85478,5,2,0:0:0:0:
16,272,85540,1,0,0:0:0:0:
16,224,85603,1,0,0:0:0:0:
72,224,85665,1,0,0:0:0:0:
219,237,85728,5,2,0:0:0:0:
246,187,85790,1,0,0:0:0:0:
211,140,85853,1,0,0:0:0:0:
152,129,85915,1,0,0:0:0:0:
173,95,85978,5,2,0:0:0:0:
221,87,86040,1,0,0:0:0:0:
283,87,86103,1,0,0:0:0:0:
362,89,86165,1,0,0:0:0:0:
488,152,86228,5,2,0:0:0:0:
448,152,86290,1,0,0:0:0:0:
376,152,86353,1,0,0:0:0:0:
256,152,86415,1,0,0:0:0:0:
88,280,86478,5,2,0:0:0:0:
220,286,86540,1,0,0:0:0:0:
293,261,86603,1,0,0:0:0:0:
342,200,86665,1,0,0:0:0:0:
64,64,86728,5,2,0:0:0:0:
24,104,86790,1,0,0:0:0:0:
64,152,86853,1,0,0:0:0:0:
208,160,86915,1,0,0:0:0:0:
384,160,86978,6,0,L|352:208,1,47.5,2|0,0:0|0:0,0:0:0:0:
144,176,87103,2,0,P|96:232|176:272,1,170.999994781494,2|0,0:0|0:0,0:0:0:0:
224,280,87353,1,0,0:0:0:0:
120,328,87478,1,2,0:0:0:0:
72,328,87540,2,0,P|151:328|211:277,1,142.5,0|2,0:0|0:0,0:0:0:0:
200,292,87790,1,0,0:0:0:0:
136,296,87853,1,0,0:0:0:0:
136,296,87915,1,0,0:0:0:0:
496,176,87978,6,0,L|496:200,6,23.75,6|0|0|0|0|0|0,0:1|0:0|0:0|0:0|0:0|0:0|0:0,0:0:0:0:
336,200,88228,6,0,L|320:232,6,23.75,6|0|0|0|0|0|0,0:0|0:0|0:0|0:0|0:0|0:0|0:0,0:0:0:0:
176,240,88478,6,0,L|176:272,6,23.75,2|0|0|0|0|0|0,0:0|0:0|0:0|0:0|0:0|0:0|0:0,0:0:0:0:
16,248,88728,6,0,L|0:280,6,23.75,2|0|0|0|0|0|0,0:1|0:0|0:0|0:0|0:0|0:0|0:0,0:0:0:0:
272,336,88978,6,0,L|336:336,1,47.5,2|0,0:0|0:0,0:0:0:0:
448,328,89103,2,0,L|504:328,1,47.5
224,336,89228,5,10,0:0:0:0:
200,296,89290,1,0,0:0:0:0:
224,256,89353,1,0,0:0:0:0:
280,256,89415,1,0,0:0:0:0:
344,224,89478,5,2,0:0:0:0:
288,224,89540,1,0,0:0:0:0:
232,224,89603,1,0,0:0:0:0:
176,224,89665,1,0,0:0:0:0:
328,152,89728,6,0,L|368:128,1,47.5,10|0,0:0|0:0,0:0:0:0:
192,80,89853,2,0,L|200:136,1,47.5
24,176,89978,6,0,L|24:200,6,23.75,2|0|0|0|0|0|0,0:1|0:0|0:0|0:0|0:0|0:0|0:0,0:0:0:0:
256,272,90228,6,0,L|256:296,6,23.75,2|0|0|0|0|0|0,0:0|0:0|0:0|0:0|0:0|0:0|0:0,0:0:0:0:
176,304,90478,6,0,L|176:328,6,23.75,2|0|0|0|0|0|0,0:0|0:0|0:0|0:0|0:0|0:0|0:0,0:0:0:0:
408,320,90728,6,0,L|408:344,6,23.75,2|0|0|0|0|0|0,0:1|0:0|0:0|0:0|0:0|0:0|0:0,0:0:0:0:
216,352,90978,6,0,L|160:352,1,47.5,2|0,0:0|0:0,0:0:0:0:
328,288,91103,2,0,L|376:288,1,47.5
120,304,91228,6,0,L|80:264,1,47.5,10|0,0:0|0:0,0:0:0:0:
264,256,91353,2,0,L|312:208,1,47.5
56,216,91478,6,0,L|40:160,1,47.5,2|0,0:0|0:0,0:0:0:0:
208,200,91603,2,0,L|216:152,1,47.5
144,144,91728,6,2,L|136:208,1,47.5,10|2,0:0|0:0,0:0:0:0:
344,72,91853,2,2,L|400:72,1,47.5,10|2,0:0|0:0,0:0:0:0:
144,32,91978,6,0,L|32:32,1,95,2|0,0:0|0:0,0:0:0:0:
328,144,92228,2,0,L|440:144,1,95,2|0,0:0|0:0,0:0:0:0:
192,184,92478,2,0,L|160:296,1,95,2|0,0:0|0:0,0:0:0:0:
304,248,92728,2,0,L|320:352,1,95,2|0,0:0|0:0,0:0:0:0:
208,360,92978,6,0,P|184:328|152:232,1,142.5,2|0,0:0|0:0,0:0:0:0:
280,216,93228,2,0,P|328:176|360:88,1,142.5,2|0,0:0|0:0,0:0:0:0:
192,96,93478,2,0,P|144:80|80:16,1,142.5,2|0,0:0|0:0,0:0:0:0:
344,16,93728,5,2,0:0:0:0:
376,8,93759,1,0,0:0:0:0:
407,14,93790,1,0,0:0:0:0:
430,20,93821,1,0,0:0:0:0:
451,30,93853,1,0,0:0:0:0:
470,44,93884,1,0,0:0:0:0:
486,62,93915,1,0,0:0:0:0:
256,192,94040,12,0,95728,0:0:0:0:
208,48,95978,5,6,0:0:0:0:
177,48,96009,1,0,0:0:0:0:
148,56,96040,1,0,0:0:0:0:
122,72,96071,1,0,0:0:0:0:
101,93,96103,1,0,0:0:0:0:
85,118,96134,1,0,0:0:0:0:
77,147,96165,1,0,0:0:0:0:
344,56,96228,5,10,0:0:0:0:
375,59,96259,1,0,0:0:0:0:
398,79,96290,1,0,0:0:0:0:
406,108,96321,1,0,0:0:0:0:
396,136,96353,1,0,0:0:0:0:
372,155,96384,1,0,0:0:0:0:
341,157,96415,1,0,0:0:0:0:
144,152,96478,6,0,L|88:152,1,47.5,2|0,0:0|0:0,0:0:0:0:
248,184,96603,2,0,L|296:184,1,47.5
66,158,96728,5,10,0:0:0:0:
32,176,96759,1,0,0:0:0:0:
16,202,96790,1,0,0:0:0:0:
13,232,96821,1,0,0:0:0:0:
19,261,96853,1,0,0:0:0:0:
41,285,96884,1,0,0:0:0:0:
83,302,96915,1,0,0:0:0:0:
208,288,96946,1,0,0:0:0:0:
336,224,96978,6,0,L|328:288,1,47.5,2|0,0:0|0:0,0:0:0:0:
256,288,97103,2,0,L|248:352,1,47.5
440,360,97228,6,0,B|512:200|496:80|496:80|312:72,1,427.500016307831,10|0,0:0|0:0,0:0:0:0:
152,48,97478,2,0,P|112:80|184:104,1,142.5,2|0,0:0|0:0,0:0:0:0:
368,128,97728,6,0,L|472:128,1,95,10|0,0:0|0:0,0:0:0:0:
318,192,97915,1,0,0:0:0:0:
176,192,97978,2,0,P|251:192|304:152,1,142.5,2|0,0:0|0:0,0:0:0:0:
88,320,98228,5,2,0:0:0:0:
40,304,98290,1,0,0:0:0:0:
20,263,98353,1,0,0:0:0:0:
32,216,98415,1,0,0:0:0:0:
80,192,98478,1,2,0:0:0:0:
152,192,98540,1,0,0:0:0:0:
280,192,98603,1,0,0:0:0:0:
408,152,98665,6,0,L|464:184,1,47.5,0|2,0:0|0:0,0:0:0:0:
208,128,98790,2,0,L|181:88,1,47.5
352,80,98915,1,0,0:0:0:0:
496,288,98978,6,0,B|208:288|208:288|136:128,1,427.500016307831,2|0,0:1|0:0,0:0:0:0:
16,288,99228,2,0,B|304:288|304:288|376:128,1,427.500016307831,6|0,0:0|0:0,0:0:0:0:
144,80,99478,5,2,0:0:0:0:
80,80,99540,1,0,0:0:0:0:
80,80,99603,1,0,0:0:0:0:
336,160,99728,1,10,0:0:0:0:
16,224,99853,1,10,0:0:0:0:
296,224,99978,6,0,L|296:264,2,23.75,2|0|0,0:0|0:0|0:0,0:0:0:0:
256,248,100071,1,0,0:0:0:0:
216,256,100103,2,0,L|216:296,2,23.75
360,232,100196,1,0,0:0:0:0:
456,232,100228,5,10,0:0:0:0:
480,216,100259,1,0,0:0:0:0:
495,192,100290,1,0,0:0:0:0:
495,168,100321,1,0,0:0:0:0:
488,144,100353,1,0,0:0:0:0:
464,120,100384,1,0,0:0:0:0:
416,104,100415,1,0,0:0:0:0:
312,96,100446,1,0,0:0:0:0:
192,96,100478,6,0,L|185:143,3,47.5,2|0|0|0,0:0|0:0|0:0|0:0,0:0:0:0:
16,144,100728,6,0,L|24:200,3,47.5,2|0|0|0,0:0|0:0|0:0|0:0,0:0:0:0:
224,224,100978,6,0,L|216:272,1,47.5,2|0,0:0|0:0,0:0:0:0:
144,272,101103,2,0,L|136:320,1,47.5
352,350,101228,5,2,0:0:0:0:
393,321,101290,1,0,0:0:0:0:
386,273,101353,1,0,0:0:0:0:
335,253,101415,1,0,0:0:0:0:
159,33,101478,5,2,0:0:0:0:
117,61,101540,1,0,0:0:0:0:
124,109,101603,1,0,0:0:0:0:
176,130,101665,1,0,0:0:0:0:
336,128,101728,6,0,L|376:176,1,47.5,10|0,0:0|0:0,0:0:0:0:
176,128,101853,2,0,L|136:176,1,47.5
336,128,101978,2,0,L|400:128,1,47.5,2|0,0:0|0:0,0:0:0:0:
176,128,102103,2,0,L|120:128,1,47.5
320,96,102228,6,0,L|328:152,3,47.5,10|0|0|0,0:0|0:0|0:0|0:0,0:0:0:0:
496,144,102478,6,0,L|488:200,3,47.5,2|0|0|0,0:0|0:0|0:0|0:0,0:0:0:0:
272,48,102728,5,2,0:0:0:0:
245,84,102790,1,0,0:0:0:0:
267,123,102853,1,0,0:0:0:0:
336,128,102915,1,0,0:0:0:0:
488,240,102978,5,2,0:0:0:0:
336,240,103040,1,0,0:0:0:0:
184,240,103103,1,8,0:0:0:0:
32,240,103165,1,0,0:0:0:0:
176,144,103228,5,2,0:0:0:0:
232,144,103290,1,0,0:0:0:0:
176,144,103353,1,0,0:0:0:0:
232,144,103415,1,0,0:0:0:0:
376,144,103478,6,0,P|440:184|344:224,1,213.750008153916,2|0,0:0|0:0,0:0:0:0:
232,240,103728,2,0,P|168:280|264:320,1,213.750008153916,2|0,0:0|0:0,0:0:0:0:
480,320,103978,6,0,L|488:280,1,23.75,6|0,0:0|0:0,0:0:0:0:
288,200,104103,2,0,L|296:160,1,23.75
352,176,104228,2,0,L|360:144,1,23.75,2|0,0:0|0:0,0:0:0:0:
152,104,104353,2,0,L|160:136,1,23.75
328,24,104478,5,2,0:0:0:0:
208,24,104509,1,0,0:0:0:0:
110,40,104540,1,0,0:0:0:0:
67,61,104571,1,0,0:0:0:0:
38,97,104603,1,0,0:0:0:0:
21,133,104634,1,0,0:0:0:0:
13,176,104665,1,0,0:0:0:0:
256,352,104728,5,2,0:0:0:0:
360,312,104759,1,0,0:0:0:0:
391,280,104790,1,0,0:0:0:0:
397,236,104821,1,0,0:0:0:0:
375,198,104852,1,0,0:0:0:0:
332,184,104884,1,0,0:0:0:0:
206,178,104915,1,0,0:0:0:0:
32,352,104978,6,0,L|16:320,6,23.75,2|0|0|0|0|0|0,0:0|0:0|0:0|0:0|0:0|0:0|0:0,0:0:0:0:
284,135,105228,1,6,0:0:0:0:
322,160,105259,1,0,0:0:0:0:
335,204,105290,1,0,0:0:0:0:
317,247,105321,1,0,0:0:0:0:
276,269,105353,1,0,0:0:0:0:
168,271,105384,1,0,0:0:0:0:
32,272,105415,1,0,0:0:0:0:
240,48,105478,5,10,0:0:0:0:
248,72,105509,1,0,0:0:0:0:
240,80,105540,1,0,0:0:0:0:
248,104,105571,1,0,0:0:0:0:
376,112,105603,1,0,0:0:0:0:
496,112,105634,1,0,0:0:0:0:
496,112,105665,1,0,0:0:0:0:
224,56,105728,5,14,0:0:0:0:
124,76,105759,1,0,0:0:0:0:
95,112,105790,1,0,0:0:0:0:
94,158,105821,1,0,0:0:0:0:
120,194,105852,1,0,0:0:0:0:
166,204,105884,1,0,0:0:0:0:
277,206,105915,1,0,0:0:0:0:
400,120,105978,6,0,L|424:184,1,47.5,2|0,0:0|0:0,0:0:0:0:
192,192,106103,2,0,L|168:256,1,47.5
240,232,106228,2,0,L|264:296,1,47.5,2|0,0:0|0:0,0:0:0:0:
40,304,106353,2,0,L|16:368,1,47.5
248,336,106478,6,0,L|304:336,1,47.5,10|0,0:0|0:0,0:0:0:0:
168,248,106603,2,0,L|112:248,1,47.5
360,232,106728,2,0,L|416:232,1,47.5,10|0,0:0|0:0,0:0:0:0:
280,128,106853,2,0,L|224:128,1,47.5
480,64,106978,6,0,B|480:352|480:352|328:352,1,427.500016307831,10|0,0:0|0:0,0:0:0:0:
153,336,107228,2,0,L|297:336,1,142.5,2|0,0:0|0:0,0:0:0:0:
72,64,107478,6,0,B|8:344|8:344|288:296,1,570.000021743775,6|2,0:1|0:0,0:0:0:0:
432,344,107790,1,0,0:0:0:0:
496,344,107853,1,2,0:0:0:0:
216,144,107978,6,0,L|224:208,1,47.5,2|0,0:0|0:0,0:0:0:0:
296,144,108103,2,0,L|288:208,1,47.5
216,144,108228,2,0,L|224:208,1,47.5,2|0,0:0|0:0,0:0:0:0:
296,144,108353,2,0,L|288:208,1,47.5
40,144,108478,6,0,L|24:200,1,47.5,2|0,0:0|0:0,0:0:0:0:
176,224,108603,2,0,L|168:272,1,47.5
336,224,108728,2,0,L|344:272,1,47.5,2|0,0:0|0:0,0:0:0:0:
472,144,108853,2,0,L|488:200,1,47.5
200,72,108978,6,0,L|184:104,6,23.75,2|0|0|0|0|0|0,0:0|0:0|0:0|0:0|0:0|0:0|0:0,0:0:0:0:
360,32,109228,5,2,0:0:0:0:
456,80,109259,1,0,0:0:0:0:
487,112,109290,1,0,0:0:0:0:
493,156,109321,1,0,0:0:0:0:
471,194,109352,1,0,0:0:0:0:
428,208,109384,1,0,0:0:0:0:
312,256,109415,1,0,0:0:0:0:
145,123,109478,5,2,0:0:0:0:
116,148,109509,1,0,0:0:0:0:
104,183,109540,1,0,0:0:0:0:
111,227,109571,1,0,0:0:0:0:
134,253,109603,1,0,0:0:0:0:
170,267,109634,1,0,0:0:0:0:
214,268,109665,1,0,0:0:0:0:
384,344,109728,5,10,0:0:0:0:
384,344,109759,1,0,0:0:0:0:
352,344,109790,1,0,0:0:0:0:
320,344,109821,1,0,0:0:0:0:
288,344,109853,1,0,0:0:0:0:
256,344,109884,1,0,0:0:0:0:
224,344,109915,1,0,0:0:0:0:
51,353,109978,5,2,0:0:0:0:
24,318,110009,1,0,0:0:0:0:
18,271,110040,1,0,0:0:0:0:
31,223,110071,1,0,0:0:0:0:
65,191,110103,1,0,0:0:0:0:
114,181,110134,1,0,0:0:0:0:
215,180,110165,1,0,0:0:0:0:
396,121,110228,5,10,0:0:0:0:
396,121,110259,1,0,0:0:0:0:
361,121,110290,1,0,0:0:0:0:
326,121,110321,1,0,0:0:0:0:
291,121,110353,1,0,0:0:0:0:
256,121,110384,1,0,0:0:0:0:
256,121,110415,1,0,0:0:0:0:
488,184,110478,6,0,L|504:240,3,47.5,2|0|0|0,0:0|0:0|0:0|0:0,0:0:0:0:
336,208,110728,2,0,L|344:272,3,47.5,2|0|0|0,0:0|0:0|0:0|0:0,0:0:0:0:
168,304,110978,6,0,L|128:256,2,47.5,2|2|0,0:0|0:0|0:0,0:0:0:0:
240,304,111165,2,0,L|280:256,2,47.5,2|2|0,0:0|0:0|0:0,0:0:0:0:
168,304,111353,2,0,L|128:256,2,47.5,2|2|2,0:0|0:0|0:0,0:0:0:0:
304,128,111540,6,0,L|344:80,2,47.5,2|0|2,0:0|0:0|0:0,0:0:0:0:
248,160,111728,1,8,0:0:0:0:
280,160,111790,1,0,0:0:0:0:
336,160,111853,1,10,0:0:0:0:
480,160,111915,1,2,0:0:0:0:
184,24,111978,5,6,0:0:0:0:
112,24,112009,1,0,0:0:0:0:
121,24,112040,1,0,0:0:0:0:
56,24,112071,1,0,0:0:0:0:
65,24,112102,1,0,0:0:0:0:
16,24,112134,1,0,0:0:0:0:
25,24,112165,1,0,0:0:0:0:
328,24,112228,5,10,0:0:0:0:
400,24,112259,1,0,0:0:0:0:
391,24,112290,1,0,0:0:0:0:
456,24,112321,1,0,0:0:0:0:
447,24,112352,1,0,0:0:0:0:
496,24,112384,1,0,0:0:0:0:
487,24,112415,1,0,0:0:0:0:
200,80,112478,5,2,0:0:0:0:
184,80,112509,1,0,0:0:0:0:
136,80,112540,1,0,0:0:0:0:
120,80,112571,1,0,0:0:0:0:
72,80,112603,1,0,0:0:0:0:
56,80,112634,1,0,0:0:0:0:
8,80,112665,1,0,0:0:0:0:
312,80,112728,5,10,0:0:0:0:
328,80,112759,1,0,0:0:0:0:
376,80,112790,1,0,0:0:0:0:
392,80,112821,1,0,0:0:0:0:
440,80,112853,1,0,0:0:0:0:
456,80,112884,1,0,0:0:0:0:
504,80,112915,1,0,0:0:0:0:
176,176,112978,6,0,L|168:153,1,23.75,2|0,0:0|0:0,0:0:0:0:
336,176,113103,2,0,L|344:153,1,23.75
16,288,113228,6,0,L|304:288,2,265.999991882324,2|0|2,0:1|0:0|0:0,0:0:0:0:
16,288,113540,1,0,0:0:0:0:
160,264,113603,1,0,0:0:0:0:
160,264,113665,1,0,0:0:0:0:
304,224,113728,6,0,L|256:224,1,47.5,2|0,0:0|0:0,0:0:0:0:
136,224,113853,1,0,0:0:0:0:
16,224,113915,1,0,0:0:0:0:
192,96,113978,6,0,L|216:144,3,47.5,2|0|0|0,0:0|0:0|0:0|0:0,0:0:0:0:
288,136,114228,6,0,L|264:184,3,47.5,2|0|0|0,0:0|0:0|0:0|0:0,0:0:0:0:
192,96,114478,6,0,L|216:144,3,47.5,2|0|0|0,0:0|0:0|0:0|0:0,0:0:0:0:
384,80,114728,6,0,L|432:80,1,47.5,2|0,0:0|0:0,0:0:0:0:
496,80,114853,2,0,L|440:80,1,47.5
240,352,114978,6,0,B|48:24|48:24|16:112|16:112|496:112|496:112|472:24|472:24|312:248,1,1306.25,14|0,0:0|0:0,0:0:0:0:
120,248,115728,6,0,L|64:248,1,47.5,10|0,0:0|0:0,0:0:0:0:
240,192,115853,2,0,L|296:192,1,47.5,10|0,0:0|0:0,0:0:0:0:
16,120,115978,6,0,L|16:224,1,95,2|0,0:0|0:0,0:0:0:0:
288,88,116228,2,0,P|224:80|152:128,1,142.5,2|0,0:0|0:0,0:0:0:0:
448,160,116478,6,0,L|504:160,1,47.5,2|0,0:0|0:0,0:0:0:0:
288,168,116603,2,0,L|288:232,1,47.5
344,216,116728,2,0,L|400:216,1,47.5,2|0,0:0|0:0,0:0:0:0:
192,304,116853,2,0,L|192:256,1,47.5
248,256,116978,6,0,L|304:256,1,47.5,2|0,0:0|0:0,0:0:0:0:
144,160,117103,1,8,0:0:0:0:
16,160,117165,1,0,0:0:0:0:
264,24,117228,6,0,B|504:80|504:80|352:80,1,370.499983039857,6|0,0:0|0:0,0:0:0:0:
184,112,117478,6,0,L|128:112,1,47.5,2|0,0:0|0:0,0:0:0:0:
328,112,117603,2,0,L|384:112,1,47.5
160,24,117728,5,2,0:0:0:0:
104,24,117790,1,0,0:0:0:0:
104,72,117853,1,0,0:0:0:0:
256,72,117915,1,0,0:0:0:0:
448,192,117978,5,10,0:1:0:0:
320,192,118040,1,0,0:0:0:0:
192,192,118103,1,0,0:0:0:0:
64,192,118165,1,0,0:0:0:0:
344,160,118228,6,0,L|352:224,1,47.5,6|0,0:0|0:0,0:0:0:0:
224,160,118353,2,0,L|232:224,1,47.5
64,192,118478,5,10,0:1:0:0:
192,192,118540,1,0,0:0:0:0:
320,192,118603,1,0,0:0:0:0:
448,192,118665,1,0,0:0:0:0:
160,104,118728,6,0,L|104:104,1,47.5,6|0,0:0|0:0,0:0:0:0:
352,104,118853,2,0,L|408:104,1,47.5
24,48,118978,6,0,L|32:80,6,23.75,2|0|0|0|0|0|0,0:0|0:0|0:0|0:0|0:0|0:0|0:0,0:0:0:0:
232,32,119228,5,10,0:0:0:0:
232,64,119259,1,0,0:0:0:0:
200,64,119290,1,0,0:0:0:0:
168,64,119321,1,0,0:0:0:0:
128,64,119353,1,0,0:0:0:0:
96,64,119384,1,0,0:0:0:0:
96,96,119415,1,0,0:0:0:0:
368,56,119478,5,2,0:0:0:0:
410,81,119509,1,0,0:0:0:0:
421,128,119540,1,0,0:0:0:0:
408,175,119571,1,0,0:0:0:0:
370,200,119603,1,0,0:0:0:0:
272,232,119634,1,0,0:0:0:0:
168,216,119665,1,0,0:0:0:0:
141,176,119696,1,0,0:0:0:0:
139,127,119728,1,2,0:0:0:0:
157,96,119759,1,0,0:0:0:0:
208,96,119790,1,0,0:0:0:0:
328,104,119821,1,0,0:0:0:0:
328,104,119853,1,0,0:0:0:0:
328,32,119978,6,0,B|80:32|80:32|24:160,1,370.499983039857,14|0,0:1|0:0,0:0:0:0:
184,32,120228,2,0,B|432:32|432:32|488:160,1,370.499983039857,10|0,0:0|0:0,0:0:0:0:
232,104,120478,6,0,B|152:216|216:336|216:336|352:336,1,370.499983039857,2|0,0:0|0:0,0:0:0:0:
480,272,120728,2,0,L|40:272,1,398.999987823487,2|0,0:1|0:0,0:0:0:0:
24,272,120978,5,2,0:0:0:0:
24,272,121040,1,0,0:0:0:0:
192,232,121103,2,0,L|192:176,1,47.5
376,160,121228,2,0,L|328:160,1,47.5,2|0,0:0|0:0,0:0:0:0:
280,144,121353,2,0,L|328:144,1,47.5
496,80,121478,6,2,L|496:120,4,23.75,10|2|2|2|2,0:0|0:0|0:0|0:0|0:0,0:0:0:0:
200,32,121728,5,10,0:0:0:0:
256,32,121790,1,0,0:0:0:0:
200,32,121853,1,0,0:0:0:0:
256,32,121915,1,0,0:0:0:0:
496,192,121978,6,2,L|8:192,2,475,6|2|2,0:1|0:0|0:0,0:0:0:0:
256,96,122603,6,0,L|264:160,1,47.5,8|0,0:0|0:0,0:0:0:0:
72,120,122728,2,0,P|24:144|96:200,1,170.999994781494,2|0,0:0|0:0,0:0:0:0:
288,208,122978,6,0,L|288:272,1,47.5,2|0,0:0|0:0,0:0:0:0:
208,264,123103,2,0,L|208:328,1,47.5
352,336,123228,2,0,L|352:272,1,47.5,2|0,0:0|0:0,0:0:0:0:
496,280,123353,2,0,L|496:216,1,47.5
256,288,123478,6,0,L|96:288,1,142.5,2|0,0:0|0:0,0:0:0:0:
384,200,123728,2,0,L|440:200,1,47.5,10|0,0:0|0:0,0:0:0:0:
80,200,123853,2,0,L|24:200,1,47.5,10|0,0:0|0:0,0:0:0:0:
264,224,123978,6,0,B|512:224|512:224|384:224,1,370.499983039857,6|0,0:0|0:0,0:0:0:0:
264,224,124228,2,0,B|512:224|512:224|384:224,1,370.499983039857,2|0,0:0|0:0,0:0:0:0:
248,224,124478,2,0,B|0:224|0:224|128:224,1,370.499983039857,6|0,0:0|0:0,0:0:0:0:
264,224,124728,2,0,B|512:224|512:224|384:224,1,370.499983039857,2|0,0:0|0:0,0:0:0:0:
248,224,124978,6,0,B|0:224|0:224|128:224,1,370.499983039857,6|0,0:0|0:0,0:0:0:0:
248,224,125228,2,0,B|0:224|0:224|128:224,1,370.499983039857,2|0,0:0|0:0,0:0:0:0:
264,224,125478,2,0,B|512:224|512:224|384:224,1,370.499983039857,6|0,0:0|0:0,0:0:0:0:
248,224,125728,2,0,B|0:224|0:224|128:224,1,370.499983039857,2|0,0:0|0:0,0:0:0:0:
264,176,125978,6,0,B|512:176|512:176|384:176,1,370.499983039857,6|0,0:0|0:0,0:0:0:0:
200,232,126228,2,0,B|448:232|448:232|320:232,1,370.499983039857,2|0,0:0|0:0,0:0:0:0:
136,288,126478,2,0,B|384:288|384:288|256:288,1,370.499983039857,6|0,0:0|0:0,0:0:0:0:
72,344,126728,2,0,B|320:344|320:344|192:344,1,370.499983039857,2|0,0:0|0:0,0:0:0:0:
27,362,126978,5,0,0:0:0:0:
16,328,127009,1,0,0:0:0:0:
13,302,127040,1,0,0:0:0:0:
13,275,127071,1,0,0:0:0:0:
21,246,127103,1,0,0:0:0:0:
28,221,127134,1,0,0:0:0:0:
44,196,127165,1,0,0:0:0:0:
67,171,127196,1,0,0:0:0:0:
96,144,127228,1,0,0:0:0:0:
128,120,127259,1,0,0:0:0:0:
168,104,127290,1,0,0:0:0:0:
216,96,127321,1,0,0:0:0:0:
308,94,127353,1,0,0:0:0:0:
397,96,127384,1,0,0:0:0:0:
448,120,127415,5,0,0:0:0:0:
480,160,127446,1,0,0:0:0:0:
496,208,127478,1,0,0:0:0:0:
499,256,127509,1,0,0:0:0:0:
488,296,127540,1,0,0:0:0:0:
466,331,127571,1,0,0:0:0:0:
419,365,127603,1,0,0:0:0:0:
363,372,127634,1,0,0:0:0:0:
265,381,127665,1,0,0:0:0:0:
162,368,127696,1,0,0:0:0:0:
147,349,127728,5,0,0:0:0:0:
159,316,127759,1,0,0:0:0:0:
212,304,127790,1,0,0:0:0:0:
322,294,127821,1,0,0:0:0:0:
449,294,127853,1,0,0:0:0:0:
128,192,127978,5,6,0:0:0:0:
128,192,128103,1,0,0:0:0:0:
128,192,128228,1,0,0:0:0:0:
128,192,128353,1,0,0:0:0:0:
256,192,128478,5,2,0:0:0:0:
168,192,128603,1,0,0:0:0:0:
168,192,128728,1,0,0:0:0:0:
168,192,128853,1,0,0:0:0:0:
296,192,128978,5,2,0:0:0:0:
192,192,129103,1,0,0:0:0:0:
328,192,129228,1,0,0:0:0:0:
328,192,129353,1,0,0:0:0:0:
448,192,129478,5,2,0:0:0:0:
448,192,129603,1,0,0:0:0:0:
496,192,129728,1,0,0:0:0:0:
496,192,129853,1,0,0:0:0:0:
408,160,129978,5,2,0:0:0:0:
456,160,130103,1,0,0:0:0:0:
328,128,130228,1,0,0:0:0:0:
376,128,130353,1,0,0:0:0:0:
232,96,130478,5,2,0:0:0:0:
280,96,130603,1,0,0:0:0:0:
168,96,130728,1,0,0:0:0:0:
56,96,130853,1,0,0:0:0:0:
168,128,130978,5,2,0:0:0:0:
168,128,131103,1,0,0:0:0:0:
224,128,131228,1,0,0:0:0:0:
224,128,131353,1,0,0:0:0:0:
96,160,131478,5,2,0:0:0:0:
96,160,131603,1,0,0:0:0:0:
40,160,131728,1,0,0:0:0:0:
40,160,131853,1,0,0:0:0:0:
312,360,131978,6,0,B|328:296|328:296|312:216,1,142.5,6|0,0:0|0:0,0:0:0:0:
232,216,132228,2,0,L|232:64,1,142.5
392,336,132478,6,0,B|408:264|408:264|392:192,1,142.5,6|0,0:0|0:0,0:0:0:0:
312,192,132728,2,0,L|312:40,1,142.5
400,48,132978,5,2,0:0:0:0:
488,96,133103,1,0,0:0:0:0:
488,184,133228,1,0,0:0:0:0:
400,224,133353,1,0,0:0:0:0:
264,288,133478,5,2,0:0:0:0:
344,288,133603,1,0,0:0:0:0:
344,288,133728,1,0,0:0:0:0:
424,288,133853,1,0,0:0:0:0:
256,192,133978,12,0,135728,0:0:0:0:
224,320,135978,6,0,L|224:176,1,142.5,6|0,0:0|0:0,0:0:0:0:
88,176,136228,1,0,0:0:0:0:
272,144,136478,1,10,0:0:0:0:
88,144,136728,1,0,0:0:0:0:
288,320,136978,6,0,L|288:176,1,142.5,2|0,0:0|0:0,0:0:0:0:
424,176,137228,1,0,0:0:0:0:
224,144,137478,2,0,L|376:64,1,142.5,10|0,0:0|0:0,0:0:0:0:
424,112,137728,2,0,L|272:40,1,142.5
168,112,137978,6,0,L|168:272,1,142.5,2|0,0:0|0:0,0:0:0:0:
344,112,138228,1,0,0:0:0:0:
160,336,138478,1,10,0:0:0:0:
352,336,138728,1,0,0:0:0:0:
136,304,138978,6,0,L|16:136,1,190,2|0,0:0|0:0,0:0:0:0:
216,168,139478,2,0,L|96:0,1,190,10|0,0:0|0:0,0:0:0:0:
496,88,139978,6,0,L|496:312,1,190,6|0,0:0|0:0,0:0:0:0:
200,72,140415,1,0,0:0:0:0:
128,72,140478,2,0,L|128:296,1,190,2|0,0:0|0:0,0:0:0:0:
424,72,140915,5,0,0:0:0:0:
352,72,140978,2,0,L|352:248,1,142.5,2|0,0:0|0:0,0:0:0:0:
272,216,141228,2,0,L|272:392,1,142.5
192,360,141478,2,0,L|320:256,1,142.5,10|0,0:0|0:0,0:0:0:0:
128,360,141728,6,0,L|128:296,3,47.5
208,312,141978,6,0,P|256:272|184:256,1,142.5,2|0,0:0|0:0,0:0:0:0:
24,240,142228,2,0,L|24:88,1,142.5
96,96,142478,1,10,0:0:0:0:
264,96,142665,5,0,0:0:0:0:
192,96,142728,2,0,L|192:248,1,142.5
312,160,142978,2,0,P|368:208|368:296,1,142.5,2|0,0:0|0:0,0:0:0:0:
168,264,143228,2,0,P|112:312|112:400,1,142.5
296,216,143478,2,0,P|360:200|416:88,1,190,10|0,0:0|0:0,0:0:0:0:
312,64,143853,1,0,0:0:0:0:
32,40,143978,5,6,0:0:0:0:
164,32,144040,1,0,0:0:0:0:
229,51,144103,1,0,0:0:0:0:
264,104,144165,1,0,0:0:0:0:
104,144,144228,6,0,L|104:208,1,47.5,10|0,0:0|0:0,0:0:0:0:
312,192,144353,2,0,L|368:192,1,47.5
128,216,144478,5,2,0:0:0:0:
96,272,144540,1,0,0:0:0:0:
144,312,144603,1,0,0:0:0:0:
272,312,144665,1,0,0:0:0:0:
400,272,144728,6,0,L|400:224,1,47.5,10|0,0:0|0:0,0:0:0:0:
224,216,144853,2,0,L|168:216,1,47.5
496,24,144978,6,0,B|512:160|512:160|496:312|496:312|208:312,2,570.000021743775,2|10|2,0:1|0:0|0:0,0:0:0:0:
312,32,145540,5,0,0:0:0:0:
250,50,145603,1,0,0:0:0:0:
216,104,145665,1,0,0:0:0:0:
432,136,145728,2,0,L|424:192,1,47.5,10|0,0:0|0:0,0:0:0:0:
144,192,145853,2,0,L|88:192,1,47.5
328,88,145978,6,0,B|400:168|352:344|352:344|96:344,1,493.999977386476,2|10,0:0|0:0,0:0:0:0:
128,320,146290,1,0,0:0:0:0:
368,192,146353,2,0,L|424:192,1,47.5
176,88,146478,6,0,B|104:168|152:344|152:344|408:344,1,493.999977386476,2|10,0:0|0:0,0:0:0:0:
432,344,146790,1,0,0:0:0:0:
432,344,146853,1,0,0:0:0:0:
112,256,146978,5,2,0:0:0:0:
16,256,147103,1,0,0:0:0:0:
240,184,147228,2,0,P|176:184|144:112,1,142.5,10|0,0:0|0:0,0:0:0:0:
360,32,147478,2,0,P|400:88|336:104,1,142.5,2|0,0:0|0:0,0:0:0:0:
128,112,147728,6,0,L|128:48,1,47.5,10|0,0:0|0:0,0:0:0:0:
296,48,147853,2,0,L|232:48,1,47.5
24,320,147978,6,0,B|312:320|312:320|344:176,1,427.500016307831,2|0,0:1|0:0,0:0:0:0:
344,120,148228,2,0,B|56:120|56:120|24:264,1,427.500016307831,10|0,0:0|0:0,0:0:0:0:
296,168,148478,6,0,L|360:168,1,47.5,2|0,0:0|0:0,0:0:0:0:
168,192,148603,2,0,L|168:256,1,47.5
96,256,148728,2,0,L|96:312,1,47.5,10|0,0:0|0:0,0:0:0:0:
304,224,148853,2,0,L|304:288,1,47.5
376,280,148978,2,0,L|376:336,1,47.5,2|0,0:0|0:0,0:0:0:0:
248,328,149103,1,0,0:0:0:0:
122,327,149165,1,0,0:0:0:0:
427,208,149228,5,10,0:0:0:0:
468,208,149259,1,0,0:0:0:0:
489,190,149290,1,0,0:0:0:0:
495,167,149321,1,0,0:0:0:0:
488,145,149353,1,0,0:0:0:0:
463,129,149384,1,0,0:0:0:0:
420,127,149415,1,0,0:0:0:0:
272,80,149478,6,0,L|328:80,1,47.5,2|0,0:0|0:0,0:0:0:0:
368,80,149603,2,0,L|312:80,1,47.5
272,80,149728,2,0,L|328:80,1,47.5,10|0,0:0|0:0,0:0:0:0:
368,80,149853,1,0,0:0:0:0:
232,80,149915,1,0,0:0:0:0:
72,128,149978,6,0,L|64:152,1,23.75,2|0,0:0|0:0,0:0:0:0:
248,144,150103,2,0,L|256:168,1,23.75
184,192,150228,2,0,L|176:216,1,23.75,10|0,0:0|0:0,0:0:0:0:
440,128,150353,2,0,L|448:152,1,23.75
263,144,150478,6,0,L|255:168,1,23.75,2|0,0:0|0:0,0:0:0:0:
328,192,150603,2,0,L|336:216,1,23.75
168,256,150728,2,0,L|144:272,1,23.75,10|0,0:0|0:0,0:0:0:0:
456,296,150853,2,0,L|488:296,1,23.75
144,352,150978,5,2,0:0:0:0:
104,352,151010,1,0,0:0:0:0:
73,350,151041,1,0,0:0:0:0:
51,341,151072,1,0,0:0:0:0:
32,326,151104,1,0,0:0:0:0:
21,306,151135,1,0,0:0:0:0:
15,279,151166,1,0,0:0:0:0:
201,296,151228,5,10,0:0:0:0:
240,296,151259,1,0,0:0:0:0:
268,285,151290,1,0,0:0:0:0:
282,266,151321,1,0,0:0:0:0:
287,243,151353,1,0,0:0:0:0:
280,220,151384,1,0,0:0:0:0:
264,202,151415,1,0,0:0:0:0:
235,194,151446,1,0,0:0:0:0:
192,196,151478,5,2,0:0:0:0:
320,192,151540,1,0,0:0:0:0:
449,184,151603,1,0,0:0:0:0:
353,128,151728,1,10,0:0:0:0:
48,128,151853,1,8,0:0:0:0:
440,48,151978,5,4,0:0:0:0:
496,49,152040,1,0,0:0:0:0:
496,96,152103,1,0,0:0:0:0:
440,96,152165,1,0,0:0:0:0:
240,48,152228,5,10,0:0:0:0:
288,48,152290,1,0,0:0:0:0:
336,48,152353,1,0,0:0:0:0:
384,48,152415,1,0,0:0:0:0:
184,96,152478,6,0,L|176:144,1,47.5,2|0,0:0|0:0,0:0:0:0:
240,144,152603,2,0,L|248:192,1,47.5
56,200,152728,5,10,0:0:0:0:
13,247,152790,1,0,0:0:0:0:
56,288,152853,1,0,0:0:0:0:
184,288,152915,1,0,0:0:0:0:
352,240,152978,5,2,0:1:0:0:
376,240,153009,1,0,0:0:0:0:
352,240,153040,1,0,0:0:0:0:
256,240,153071,1,0,0:0:0:0:
216,240,153103,1,0,0:0:0:0:
176,232,153134,1,0,0:0:0:0:
148,223,153165,1,0,0:0:0:0:
119,208,153196,1,0,0:0:0:0:
93,179,153228,1,10,0:0:0:0:
74,152,153259,1,0,0:0:0:0:
64,120,153290,1,0,0:0:0:0:
360,200,153353,2,0,L|416:200,1,47.5
208,176,153478,5,2,0:0:0:0:
184,176,153509,1,0,0:0:0:0:
208,176,153540,1,0,0:0:0:0:
304,160,153571,1,0,0:0:0:0:
344,160,153603,1,0,0:0:0:0:
384,152,153634,1,0,0:0:0:0:
412,143,153665,1,0,0:0:0:0:
441,128,153696,1,0,0:0:0:0:
467,99,153728,1,10,0:0:0:0:
486,72,153759,1,0,0:0:0:0:
496,40,153790,1,0,0:0:0:0:
240,88,153853,2,0,L|192:88,1,47.5
432,40,153978,5,2,0:0:0:0:
467,80,154040,1,0,0:0:0:0:
448,122,154103,1,0,0:0:0:0:
374,126,154165,1,0,0:0:0:0:
192,200,154228,2,0,L|192:256,1,47.5,10|0,0:0|0:0,0:0:0:0:
336,248,154353,2,0,L|384:248,1,47.5
152,352,154478,5,2,0:0:0:0:
112,352,154509,1,0,0:0:0:0:
81,346,154540,1,0,0:0:0:0:
59,338,154571,1,0,0:0:0:0:
40,323,154603,1,0,0:0:0:0:
26,304,154634,1,0,0:0:0:0:
17,282,154665,1,0,0:0:0:0:
208,176,154728,5,10,0:0:0:0:
232,160,154759,1,0,0:0:0:0:
242,132,154790,1,0,0:0:0:0:
240,100,154821,1,0,0:0:0:0:
224,73,154853,1,0,0:0:0:0:
199,57,154884,1,0,0:0:0:0:
156,57,154915,1,0,0:0:0:0:
384,224,154978,6,0,L|416:176,1,47.5,2|0,0:0|0:0,0:0:0:0:
208,224,155103,2,0,L|176:176,1,47.5
336,232,155228,2,0,L|352:176,1,47.5,10|0,0:0|0:0,0:0:0:0:
288,232,155353,2,0,L|272:176,1,47.5
400,168,155478,6,0,L|432:120,1,47.5,2|0,0:0|0:0,0:0:0:0:
232,168,155603,2,0,L|192:120,1,47.5
424,64,155728,2,0,L|480:64,1,47.5,10|0,0:0|0:0,0:0:0:0:
328,64,155853,1,0,0:0:0:0:
184,64,155915,1,0,0:0:0:0:
448,144,155978,5,2,0:0:0:0:
496,142,156040,1,0,0:0:0:0:
496,184,156103,1,0,0:0:0:0:
360,192,156165,1,0,0:0:0:0:
224,192,156228,5,10,0:0:0:0:
196,234,156290,1,0,0:0:0:0:
210,280,156353,1,0,0:0:0:0:
272,304,156415,1,0,0:0:0:0:
392,312,156478,5,2,0:0:0:0:
176,312,156540,1,0,0:0:0:0:
32,280,156603,1,0,0:0:0:0:
24,200,156665,1,0,0:0:0:0:
160,128,156728,5,10,0:0:0:0:
304,128,156790,1,0,0:0:0:0:
344,168,156853,1,0,0:0:0:0:
304,200,156915,1,0,0:0:0:0:
160,248,156978,6,0,L|152:192,3,47.5,2|0|0|0,0:0|0:0|0:0|0:0,0:0:0:0:
304,272,157228,2,0,L|304:328,1,47.5,10|0,0:0|0:0,0:0:0:0:
432,312,157353,2,0,L|496:312,1,47.5
256,264,157478,5,2,0:0:0:0:
200,264,157540,1,0,0:0:0:0:
200,264,157603,1,0,0:0:0:0:
256,264,157665,1,0,0:0:0:0:
96,208,157728,6,0,L|32:208,1,47.5,10|0,0:0|0:0,0:0:0:0:
304,176,157853,2,0,L|368:176,1,47.5
136,48,157978,6,0,L|120:104,1,47.5,2|0,0:0|0:0,0:0:0:0:
192,96,158103,2,0,L|200:160,1,47.5
136,152,158228,2,0,L|128:216,1,47.5,10|0,0:0|0:0,0:0:0:0:
264,216,158353,2,0,L|288:264,1,47.5
112,288,158478,6,0,L|104:352,1,47.5,2|0,0:0|0:0,0:0:0:0:
360,336,158603,2,0,L|408:296,1,47.5
104,248,158728,2,0,L|96:312,1,47.5,10|0,0:0|0:0,0:0:0:0:
440,192,158853,2,0,L|488:192,1,47.5
163,159,158978,5,6,0:0:0:0:
131,171,159009,1,0,0:0:0:0:
114,194,159040,1,0,0:0:0:0:
114,218,159071,1,0,0:0:0:0:
124,240,159103,1,0,0:0:0:0:
147,254,159134,1,0,0:0:0:0:
186,260,159165,1,0,0:0:0:0:
344,223,159228,5,6,0:0:0:0:
380,212,159259,1,0,0:0:0:0:
397,189,159290,1,0,0:0:0:0:
397,165,159321,1,0,0:0:0:0:
387,143,159353,1,0,0:0:0:0:
362,129,159384,1,0,0:0:0:0:
325,124,159415,1,0,0:0:0:0:
40,136,159478,6,0,L|32:176,6,23.75,6|0|0|0|0|0|0,0:0|0:0|0:0|0:0|0:0|0:0|0:0,0:0:0:0:
104,136,159728,2,0,B|104:64|104:64|24:40,1,142.5
256,56,159978,6,0,B|496:144|496:144|344:144,1,384.750001467705,6|0,0:1|0:0,0:0:0:0:
152,56,160228,2,0,B|152:312|152:312|296:312,1,384.750001467705,10|0,0:0|0:0,0:0:0:0:
424,312,160478,5,2,0:0:0:0:
472,312,160540,1,0,0:0:0:0:
280,184,160603,2,0,L|280:240,1,47.5
344,232,160728,2,0,L|280:232,1,47.5,10|0,0:0|0:0,0:0:0:0:
96,232,160853,2,0,L|32:232,1,47.5
256,112,160978,6,0,L|504:112,2,237.5,6|0|14,0:0|0:0|0:0,0:0:0:0:
136,112,161353,1,0,0:0:0:0:
136,112,161415,1,0,0:0:0:0:
136,112,161478,6,0,B|280:128|400:208|400:208|352:360,1,427.500016307831,2|0,0:0|0:0,0:0:0:0:
160,256,161728,2,0,L|176:304,1,47.5,10|0,0:0|0:0,0:0:0:0:
240,296,161853,2,0,L|224:344,1,47.5
40,352,161978,6,0,B|-8:240|40:104|40:104|216:104,1,384.750001467705,6|0,0:1|0:0,0:0:0:0:
384,16,162228,2,0,B|432:128|384:264|384:264|208:264,1,384.750001467705,10|0,0:0|0:0,0:0:0:0:
72,264,162478,6,0,L|16:264,1,47.5,2|0,0:0|0:0,0:0:0:0:
240,264,162603,2,0,L|240:216,1,47.5
104,264,162728,2,0,L|88:216,1,47.5,10|0,0:0|0:0,0:0:0:0:
272,304,162853,2,0,L|272:352,1,47.5
216,352,162978,6,0,B|456:352|456:352|496:232,1,356.25,6|0,0:1|0:0,0:0:0:0:
296,352,163228,2,0,B|56:352|56:352|16:232,1,356.25,10|0,0:0|0:0,0:0:0:0:
256,288,163478,6,0,L|312:288,1,47.5,2|0,0:0|0:0,0:0:0:0:
168,232,163603,2,0,L|104:232,1,47.5
336,160,163728,2,0,L|336:104,1,47.5,10|0,0:0|0:0,0:0:0:0:
272,112,163853,2,0,L|264:48,1,47.5
440,160,163978,6,0,L|488:160,3,47.5
326,55,164228,5,10,0:0:0:0:
274,82,164290,1,0,0:0:0:0:
268,137,164353,1,0,0:0:0:0:
311,173,164415,1,0,0:0:0:0:
368,160,164478,5,2,0:0:0:0:
312,160,164540,1,0,0:0:0:0:
256,160,164603,1,0,0:0:0:0:
200,160,164665,1,0,0:0:0:0:
376,208,164728,5,10,0:0:0:0:
407,252,164790,1,0,0:0:0:0:
386,303,164853,1,0,0:0:0:0:
328,312,164915,1,0,0:0:0:0:
144,160,164978,5,2,0:0:0:0:
200,160,165040,1,0,0:0:0:0:
256,160,165103,1,0,0:0:0:0:
312,160,165165,1,0,0:0:0:0:
136,208,165228,5,10,0:0:0:0:
105,252,165290,1,0,0:0:0:0:
126,303,165353,1,0,0:0:0:0:
184,312,165415,1,0,0:0:0:0:
344,352,165478,5,2,0:0:0:0:
288,352,165540,1,0,0:0:0:0:
232,352,165603,1,0,0:0:0:0:
176,352,165665,1,0,0:0:0:0:
376,160,165728,5,10,0:0:0:0:
408,96,165790,1,0,0:0:0:0:
372,38,165853,1,0,0:0:0:0:
224,32,165915,1,0,0:0:0:0:
72,160,165978,5,2,0:0:0:0:
48,160,166009,1,0,0:0:0:0:
72,160,166040,1,0,0:0:0:0:
248,208,166103,1,2,0:0:0:0:
272,208,166134,1,0,0:0:0:0:
248,208,166165,1,0,0:0:0:0:
48,208,166228,5,10,0:0:0:0:
17,252,166290,1,0,0:0:0:0:
38,303,166353,1,0,0:0:0:0:
96,312,166415,1,0,0:0:0:0:
264,272,166478,6,0,L|264:336,1,47.5,10|0,0:0|0:0,0:0:0:0:
192,320,166603,2,0,L|192:384,1,47.5
368,208,166728,5,10,0:0:0:0:
399,252,166790,1,0,0:0:0:0:
378,303,166853,1,0,0:0:0:0:
320,312,166915,1,0,0:0:0:0:
160,136,166978,5,2,0:0:0:0:
107,136,167040,1,0,0:0:0:0:
160,136,167103,1,0,0:0:0:0:
212,136,167165,1,0,0:0:0:0:
160,136,167228,5,10,0:0:0:0:
107,136,167290,1,0,0:0:0:0:
160,136,167353,1,0,0:0:0:0:
212,136,167415,1,0,0:0:0:0:
160,136,167478,5,2,0:0:0:0:
107,136,167540,1,0,0:0:0:0:
160,136,167603,1,0,0:0:0:0:
212,136,167665,1,0,0:0:0:0:
56,184,167728,5,0,0:0:0:0:
27,205,167759,1,0,0:0:0:0:
21,242,167790,1,0,0:0:0:0:
42,274,167821,1,0,0:0:0:0:
83,281,167853,1,0,0:0:0:0:
248,296,167915,1,0,0:0:0:0:
488,168,167978,6,0,L|488:224,3,47.5,6|0|0|0,0:0|0:0|0:0|0:0,0:0:0:0:
168,72,168228,6,0,L|168:128,3,47.5,10|0|0|0,0:0|0:0|0:0|0:0,0:0:0:0:
432,168,168478,6,0,L|432:224,3,47.5,2|0|0|0,0:0|0:0|0:0|0:0,0:0:0:0:
112,80,168728,5,10,0:0:0:0:
59,87,168790,1,0,0:0:0:0:
29,123,168853,1,0,0:0:0:0:
22,169,168915,1,0,0:0:0:0:
272,88,168978,6,0,L|272:152,1,47.5,2|0,0:0|0:0,0:0:0:0:
128,184,169103,2,0,L|128:248,1,47.5
296,88,169228,2,0,L|296:152,1,47.5,10|0,0:0|0:0,0:0:0:0:
152,184,169353,2,0,L|152:248,1,47.5
344,160,169478,6,0,L|344:224,1,47.5,2|0,0:0|0:0,0:0:0:0:
488,256,169603,2,0,L|488:320,1,47.5
296,160,169728,2,0,L|312:208,1,47.5,10|0,0:0|0:0,0:0:0:0:
440,256,169853,2,0,L|384:256,1,47.5
168,328,169978,5,6,0:0:0:0:
214,323,170040,1,0,0:0:0:0:
255,299,170103,1,0,0:0:0:0:
283,261,170165,1,0,0:0:0:0:
24,168,170228,6,0,L|24:224,3,47.5,10|0|0|0,0:0|0:0|0:0|0:0,0:0:0:0:
344,72,170478,6,0,L|344:128,3,47.5,2|0|0|0,0:0|0:0|0:0|0:0,0:0:0:0:
80,168,170728,6,0,L|80:224,3,47.5,10|0|0|0,0:0|0:0|0:0|0:0,0:0:0:0:
392,168,170978,5,2,0:0:0:0:
422,183,171009,1,0,0:0:0:0:
434,207,171040,1,0,0:0:0:0:
430,230,171071,1,0,0:0:0:0:
415,248,171103,1,0,0:0:0:0:
386,257,171134,1,0,0:0:0:0:
345,256,171165,1,0,0:0:0:0:
256,256,171196,1,0,0:0:0:0:
160,256,171228,5,10,0:0:0:0:
130,271,171259,1,0,0:0:0:0:
118,295,171290,1,0,0:0:0:0:
122,318,171321,1,0,0:0:0:0:
137,336,171353,1,0,0:0:0:0:
166,345,171384,1,0,0:0:0:0:
207,344,171415,1,0,0:0:0:0:
296,344,171446,1,0,0:0:0:0:
392,104,171478,5,2,0:0:0:0:
392,104,171509,1,0,0:0:0:0:
366,104,171540,1,0,0:0:0:0:
338,104,171571,1,0,0:0:0:0:
312,104,171603,1,0,0:0:0:0:
284,104,171634,1,0,0:0:0:0:
258,104,171665,1,0,0:0:0:0:
230,104,171696,1,0,0:0:0:0:
203,104,171728,1,10,0:0:0:0:
176,104,171759,1,0,0:0:0:0:
149,104,171790,1,0,0:0:0:0:
122,104,171821,1,0,0:0:0:0:
122,104,171853,1,0,0:0:0:0:
272,72,171915,5,0,0:0:0:0:
424,72,171978,1,0,0:0:0:0:
256,192,172103,12,0,175728,0:0:0:0:
248,24,175978,5,6,0:0:0:0:
152,24,176009,1,0,0:0:0:0:
64,48,176040,1,0,0:0:0:0:
27,96,176071,1,0,0:0:0:0:
19,151,176103,1,0,0:0:0:0:
40,192,176134,1,0,0:0:0:0:
88,208,176165,1,0,0:0:0:0:
176,208,176196,1,0,0:0:0:0:
272,192,176228,6,0,L|272:240,1,47.5,10|0,0:0|0:0,0:0:0:0:
120,256,176353,2,0,L|120:304,1,47.5
376,224,176478,5,2,0:0:0:0:
432,224,176540,1,0,0:0:0:0:
488,224,176603,1,0,0:0:0:0:
432,224,176665,1,0,0:0:0:0:
184,56,176728,5,10,0:0:0:0:
152,96,176790,1,0,0:0:0:0:
165,138,176853,1,0,0:0:0:0:
230,144,176915,1,0,0:0:0:0:
392,128,176978,5,2,0:0:0:0:
448,128,177040,1,0,0:0:0:0:
392,128,177103,1,0,0:0:0:0:
448,128,177165,1,0,0:0:0:0:
216,288,177228,5,10,0:0:0:0:
152,288,177290,1,0,0:0:0:0:
103,280,177353,1,0,0:0:0:0:
67,256,177415,1,0,0:0:0:0:
296,288,177478,5,2,0:0:0:0:
360,288,177540,1,0,0:0:0:0:
409,280,177603,1,0,0:0:0:0:
445,256,177665,1,0,0:0:0:0:
224,360,177728,5,10,0:0:0:0:
160,360,177790,1,0,0:0:0:0:
88,360,177853,1,0,0:0:0:0:
17,360,177915,1,0,0:0:0:0:
351,364,177978,5,2,0:0:0:0:
376,343,178009,1,0,0:0:0:0:
384,317,178040,1,0,0:0:0:0:
377,294,178071,1,0,0:0:0:0:
361,277,178103,1,0,0:0:0:0:
339,268,178134,1,0,0:0:0:0:
295,267,178165,1,0,0:0:0:0:
136,224,178228,5,10,0:0:0:0:
80,224,178290,1,0,0:0:0:0:
136,224,178353,1,0,0:0:0:0:
80,224,178415,1,0,0:0:0:0:
296,80,178478,6,0,L|304:128,1,47.5,2|0,0:0|0:0,0:0:0:0:
240,128,178603,2,0,L|232:176,1,47.5
368,192,178728,5,10,0:0:0:0:
496,192,178790,1,0,0:0:0:0:
496,192,178853,1,0,0:0:0:0:
440,192,178915,1,0,0:0:0:0:
224,352,178978,6,0,B|16:352|16:352|16:208,1,313.500009567261,2|0,0:0|0:0,0:0:0:0:
352,32,179228,2,0,B|352:240|352:240|120:240,1,418.000012756348,10|2,0:0|0:0,0:0:0:0:
141,240,179540,5,0,0:0:0:0:
208,240,179603,1,0,0:0:0:0:
440,240,179728,1,10,0:0:0:0:
496,240,179790,1,0,0:0:0:0:
440,240,179853,1,0,0:0:0:0:
496,240,179915,1,0,0:0:0:0:
256,160,179978,5,2,0:0:0:0:
188,160,180040,1,0,0:0:0:0:
139,152,180103,1,0,0:0:0:0:
103,128,180165,1,0,0:0:0:0:
328,16,180228,5,10,0:0:0:0:
360,55,180290,1,0,0:0:0:0:
343,97,180353,1,0,0:0:0:0:
288,104,180415,1,0,0:0:0:0:
112,80,180478,5,2,0:0:0:0:
56,80,180540,1,0,0:0:0:0:
112,80,180603,1,0,0:0:0:0:
56,80,180665,1,0,0:0:0:0:
224,192,180728,5,10,0:0:0:0:
280,192,180790,1,0,0:0:0:0:
224,192,180853,1,0,0:0:0:0:
280,192,180915,1,0,0:0:0:0:
32,192,180978,6,0,L|24:240,3,47.5,2|0|0|0,0:0|0:0|0:0|0:0,0:0:0:0:
200,256,181228,2,0,L|192:304,3,47.5,10|0|0|0,0:0|0:0|0:0|0:0,0:0:0:0:
376,208,181478,5,2,0:0:0:0:
416,208,181540,1,0,0:0:0:0:
376,208,181603,1,0,0:0:0:0:
256,320,181665,1,0,0:0:0:0:
136,208,181728,5,10,0:0:0:0:
96,208,181790,1,0,0:0:0:0:
136,208,181853,1,0,0:0:0:0:
280,328,181915,1,0,0:0:0:0:
448,152,181978,6,0,L|496:152,1,47.5,2|0,0:0|0:0,0:0:0:0:
248,64,182103,2,0,L|256:120,1,47.5
432,72,182228,2,0,L|424:128,1,47.5,10|0,0:0|0:0,0:0:0:0:
256,160,182353,5,0,0:0:0:0:
136,160,182415,1,0,0:0:0:0:
16,160,182478,1,2,0:0:0:0:
280,216,182603,2,0,L|232:216,2,47.5,0|0|10,0:0|0:0|0:0,0:0:0:0:
496,296,182853,5,0,0:0:0:0:
376,296,182915,1,0,0:0:0:0:
256,296,182978,2,0,L|320:296,1,47.5,2|0,0:0|0:0,0:0:0:0:
352,328,183103,2,0,L|288:328,1,47.5
144,304,183228,2,0,L|208:304,1,47.5,10|0,0:0|0:0,0:0:0:0:
240,336,183353,2,0,L|176:336,1,47.5
16,240,183478,5,2,0:0:0:0:
136,240,183540,1,0,0:0:0:0:
256,240,183603,2,0,L|192:240,1,47.5
160,208,183728,2,0,L|224:208,1,47.5,10|0,0:0|0:0,0:0:0:0:
344,192,183853,1,0,0:0:0:0:
480,192,183915,1,0,0:0:0:0:
248,24,183978,5,6,0:0:0:0:
152,24,184009,1,0,0:0:0:0:
64,48,184040,1,0,0:0:0:0:
27,96,184071,1,0,0:0:0:0:
19,151,184103,1,0,0:0:0:0:
40,192,184134,1,0,0:0:0:0:
88,208,184165,1,0,0:0:0:0:
184,208,184196,1,0,0:0:0:0:
280,192,184228,5,10,0:0:0:0:
312,232,184290,1,0,0:0:0:0:
296,272,184353,1,0,0:0:0:0:
232,280,184415,1,0,0:0:0:0:
72,272,184478,5,2,0:0:0:0:
40,312,184540,1,0,0:0:0:0:
56,352,184603,1,0,0:0:0:0:
120,360,184665,1,0,0:0:0:0:
304,360,184728,5,10,0:0:0:0:
360,360,184790,1,0,0:0:0:0:
304,360,184853,1,0,0:0:0:0:
360,360,184915,1,0,0:0:0:0:
176,104,184978,5,2,0:0:0:0:
112,104,185040,1,0,0:0:0:0:
64,96,185103,1,0,0:0:0:0:
31,72,185165,1,0,0:0:0:0:
296,104,185228,5,10,0:0:0:0:
360,104,185290,1,0,0:0:0:0:
408,96,185353,1,0,0:0:0:0:
441,72,185415,1,0,0:0:0:0:
128,72,185478,6,0,L|120:49,6,23.75,2|0|0|0|0|0|0,0:0|0:0|0:0|0:0|0:0|0:0|0:0,0:0:0:0:
288,128,185728,2,0,P|248:136|168:72,1,142.5,10|0,0:0|0:0,0:0:0:0:
448,160,185978,5,6,0:0:0:0:
477,171,186009,1,0,0:0:0:0:
488,192,186040,1,0,0:0:0:0:
488,215,186071,1,0,0:0:0:0:
477,236,186103,1,0,0:0:0:0:
449,248,186134,1,0,0:0:0:0:
417,248,186165,1,0,0:0:0:0:
208,280,186228,5,10,0:0:0:0:
241,277,186259,1,0,0:0:0:0:
269,270,186290,1,0,0:0:0:0:
295,259,186321,1,0,0:0:0:0:
314,242,186353,1,0,0:0:0:0:
328,220,186384,1,0,0:0:0:0:
334,190,186415,1,0,0:0:0:0:
144,216,186478,5,2,0:0:0:0:
88,216,186540,1,0,0:0:0:0:
144,216,186603,1,0,0:0:0:0:
88,216,186665,1,0,0:0:0:0:
328,72,186728,5,10,0:0:0:0:
383,72,186790,1,0,0:0:0:0:
440,72,186853,1,0,0:0:0:0:
496,72,186915,1,0,0:0:0:0:
240,24,186978,6,0,L|248:72,1,47.5
328,72,187103,2,0,L|336:120,1,47.5
184,144,187228,6,0,L|128:144,1,47.5,10|0,0:0|0:0,0:0:0:0:
376,160,187353,2,0,L|424:160,1,47.5
120,192,187478,5,2,0:0:0:0:
90,205,187509,1,0,0:0:0:0:
77,233,187540,1,0,0:0:0:0:
81,256,187571,1,0,0:0:0:0:
97,274,187603,1,0,0:0:0:0:
129,283,187634,1,0,0:0:0:0:
170,283,187665,1,0,0:0:0:0:
368,296,187728,5,10,0:0:0:0:
400,296,187759,1,0,0:0:0:0:
431,288,187790,1,0,0:0:0:0:
453,279,187821,1,0,0:0:0:0:
472,264,187853,1,0,0:0:0:0:
486,245,187884,1,0,0:0:0:0:
495,223,187915,1,0,0:0:0:0:
176,112,187978,6,0,L|168:144,6,23.75,2|0|0|0|0|0|0,0:0|0:0|0:0|0:0|0:0|0:0|0:0,0:0:0:0:
368,56,188228,5,10,0:0:0:0:
396,69,188259,1,0,0:0:0:0:
414,96,188290,1,0,0:0:0:0:
417,128,188321,1,0,0:0:0:0:
403,157,188353,1,0,0:0:0:0:
377,175,188384,1,0,0:0:0:0:
344,179,188415,1,0,0:0:0:0:
160,40,188478,5,2,0:0:0:0:
104,40,188540,1,0,0:0:0:0:
160,40,188603,1,0,0:0:0:0:
104,40,188665,1,0,0:0:0:0:
344,40,188728,5,10,0:0:0:0:
408,40,188790,1,0,0:0:0:0:
457,48,188853,1,0,0:0:0:0:
493,72,188915,1,0,0:0:0:0:
256,160,188978,5,2,0:0:0:0:
256,160,189040,1,0,0:0:0:0:
408,200,189103,1,0,0:0:0:0:
408,200,189165,1,0,0:0:0:0:
168,344,189228,5,10,0:0:0:0:
104,344,189290,1,0,0:0:0:0:
55,336,189353,1,0,0:0:0:0:
19,312,189415,1,0,0:0:0:0:
256,344,189478,6,0,L|256:288,1,47.5,2|0,0:0|0:0,0:0:0:0:
408,280,189603,2,0,L|448:240,1,47.5
256,344,189728,6,0,L|257:288,1,47.5,10|0,0:0|0:0,0:0:0:0:
104,280,189853,2,0,L|64:240,1,47.5
352,104,189978,6,0,L|360:136,6,23.75,2|0|0|0|0|0|0,0:0|0:0|0:0|0:0|0:0|0:0|0:0,0:0:0:0:
160,104,190228,6,0,L|152:136,6,23.75,10|0|0|0|0|0|0,0:0|0:0|0:0|0:0|0:0|0:0|0:0,0:0:0:0:
400,336,190478,6,0,L|456:336,1,47.5,2|0,0:0|0:0,0:0:0:0:
495,336,190603,2,0,L|439:336,1,47.5
208,336,190728,5,10,0:0:0:0:
176,303,190790,1,0,0:0:0:0:
187,259,190853,1,0,0:0:0:0:
240,248,190915,1,0,0:0:0:0:
432,80,190978,6,0,L|432:128,1,47.5,2|0,0:0|0:0,0:0:0:0:
360,80,191103,2,0,L|360:144,1,47.5,2|0,0:0|0:0,0:0:0:0:
432,152,191228,5,2,0:0:0:0:
405,152,191259,1,2,0:0:0:0:
379,152,191290,1,2,0:0:0:0:
353,152,191321,1,2,0:0:0:0:
327,152,191353,1,2,0:0:0:0:
301,152,191384,1,2,0:0:0:0:
275,152,191415,1,2,0:0:0:0:
249,152,191446,1,2,0:0:0:0:
224,184,191478,5,2,0:0:0:0:
224,208,191540,1,0,0:0:0:0:
296,208,191603,1,0,0:0:0:0:
296,184,191665,1,0,0:0:0:0:
94,236,191728,5,2,0:0:0:0:
50,249,191759,1,2,0:0:0:0:
29,280,191790,1,2,0:0:0:0:
26,319,191821,1,2,0:0:0:0:
37,352,191853,1,2,0:0:0:0:
68,362,191884,1,2,0:0:0:0:
123,361,191915,1,2,0:0:0:0:
296,352,191946,1,2,0:0:0:0:
488,240,191978,6,0,L|496:192,3,47.5,6|0|0|0,0:1|0:0|0:0|0:0,0:0:0:0:
256,160,192228,2,0,L|256:112,3,47.5,10|0|0|0,0:0|0:0|0:0|0:0,0:0:0:0:
24,240,192478,6,0,L|16:192,3,47.5,2|0|0|0,0:0|0:0|0:0|0:0,0:0:0:0:
256,160,192728,2,0,L|256:112,3,47.5,10|0|0|0,0:0|0:0|0:0|0:0,0:0:0:0:
488,168,192978,6,0,L|496:120,1,47.5,2|0,0:0|0:0,0:0:0:0:
303,160,193103,2,0,L|239:160,1,47.5
488,168,193228,2,0,L|496:120,1,47.5,10|0,0:0|0:0,0:0:0:0:
320,40,193353,1,0,0:0:0:0:
192,40,193415,1,0,0:0:0:0:
40,40,193478,6,0,B|-8:128|40:288|40:288|256:288,1,448.875001712322,2|0,0:0|0:0,0:0:0:0:
296,288,193728,2,0,B|248:200|296:40|296:40|512:40,1,448.875001712322,10|0,0:0|0:0,0:0:0:0:
488,72,193978,6,0,L|120:72,1,365.750011161805,6|0,0:1|0:0,0:0:0:0:
80,72,194228,2,0,L|248:72,1,156.750004783631,10|0,0:0|0:0,0:0:0:0:
384,120,194478,2,0,L|8:120,1,370.499983039857,2|0,0:0|0:0,0:0:0:0:
176,184,194728,2,0,L|336:184,1,156.750004783631,10|0,0:0|0:0,0:0:0:0:
104,336,194978,6,0,B|56:248|104:88|104:88|304:88,1,448.875001712322,2|0,0:0|0:0,0:0:0:0:
344,128,195228,2,0,L|184:128,1,142.5,10|0,0:0|0:0,0:0:0:0:
424,328,195478,2,0,B|488:240|496:88|496:88|320:88,1,384.750001467705,2|0,0:0|0:0,0:0:0:0:
144,64,195728,6,0,L|88:64,1,47.5,10|0,0:0|0:0,0:0:0:0:
256,40,195853,2,0,L|304:40,1,47.5
48,128,195978,5,2,0:0:0:0:
19,170,196040,1,0,0:0:0:0:
36,208,196103,1,0,0:0:0:0:
93,216,196165,1,0,0:0:0:0:
280,160,196228,5,10,0:0:0:0:
312,200,196290,1,0,0:0:0:0:
296,240,196353,1,0,0:0:0:0:
240,248,196415,1,0,0:0:0:0:
176,296,196478,5,2,0:0:0:0:
232,296,196540,1,0,0:0:0:0:
288,296,196603,1,0,0:0:0:0:
344,296,196665,1,0,0:0:0:0:
120,288,196728,5,10,0:0:0:0:
88,248,196790,1,0,0:0:0:0:
104,208,196853,1,0,0:0:0:0:
168,200,196915,1,0,0:0:0:0:
344,176,196978,5,2,0:0:0:0:
288,176,197040,1,0,0:0:0:0:
344,176,197103,1,0,0:0:0:0:
288,176,197165,1,0,0:0:0:0:
464,80,197228,5,10,0:0:0:0:
496,120,197290,1,0,0:0:0:0:
480,160,197353,1,0,0:0:0:0:
432,168,197415,1,0,0:0:0:0:
232,144,197478,5,2,0:0:0:0:
176,144,197540,1,0,0:0:0:0:
120,144,197603,1,0,0:0:0:0:
176,144,197665,1,0,0:0:0:0:
384,216,197728,5,10,0:0:0:0:
440,216,197790,1,0,0:0:0:0:
384,216,197853,1,0,0:0:0:0:
440,216,197915,1,0,0:0:0:0:
192,344,197978,5,2,0:0:0:0:
136,344,198040,1,0,0:0:0:0:
80,344,198103,1,0,0:0:0:0:
24,344,198165,1,0,0:0:0:0:
256,264,198228,6,0,L|256:208,3,47.5,10|0|0|0,0:0|0:0|0:0|0:0,0:0:0:0:
488,240,198478,6,0,L|496:192,3,47.5,2|0|0|0,0:0|0:0|0:0|0:0,0:0:0:0:
280,264,198728,6,0,L|280:208,3,47.5,10|0|0|0,0:0|0:0|0:0|0:0,0:0:0:0:
71,76,198978,5,2,0:0:0:0:
41,94,199009,1,0,0:0:0:0:
25,123,199040,1,0,0:0:0:0:
19,146,199071,1,0,0:0:0:0:
19,170,199103,1,0,0:0:0:0:
25,193,199134,1,0,0:0:0:0:
38,213,199165,1,0,0:0:0:0:
56,226,199196,1,0,0:0:0:0:
89,242,199228,1,2,0:0:0:0:
124,248,199259,1,0,0:0:0:0:
169,248,199290,1,0,0:0:0:0:
312,248,199353,1,0,0:0:0:0:
472,248,199415,1,0,0:0:0:0:
224,104,199478,5,2,0:0:0:0:
224,104,199509,1,0,0:0:0:0:
252,104,199540,1,0,0:0:0:0:
281,104,199571,1,0,0:0:0:0:
310,104,199603,1,0,0:0:0:0:
339,104,199634,1,0,0:0:0:0:
339,104,199665,1,0,0:0:0:0:
128,328,199728,6,0,B|16:328|16:328|80:296,1,170.999994781494,10|0,0:0|0:0,0:0:0:0:
360,48,199978,5,6,0:0:0:0:
391,64,200009,1,0,0:0:0:0:
398,88,200040,1,0,0:0:0:0:
394,114,200071,1,0,0:0:0:0:
373,127,200103,1,0,0:0:0:0:
312,136,200165,1,0,0:0:0:0:
192,136,200228,5,10,0:0:0:0:
104,136,200259,1,0,0:0:0:0:
16,136,200290,2,0,L|16:168,1,23.75
320,136,200478,5,2,0:0:0:0:
408,136,200509,1,0,0:0:0:0:
496,136,200540,2,0,L|496:168,1,23.75
256,208,200728,6,0,L|280:216,1,23.75,10|0,0:0|0:0,0:0:0:0:
360,256,200853,2,0,L|336:264,1,23.75
176,304,200978,2,0,L|153:304,1,23.75,2|0,0:0|0:0,0:0:0:0:
416,336,201103,2,0,L|448:336,1,23.75
104,336,201228,6,0,B|40:248|88:88|88:88|272:88,1,384.750001467705,10|0,0:0|0:0,0:0:0:0:
360,88,201478,6,0,L|312:104,1,47.5,2|0,0:0|0:0,0:0:0:0:
168,144,201603,2,0,L|168:192,1,47.5
16,240,201728,2,0,L|64:256,1,47.5,10|0,0:0|0:0,0:0:0:0:
208,296,201853,2,0,L|208:344,1,47.5
392,144,201978,6,0,L|8:144,1,380,2|10,0:0|0:0,0:0:0:0:
136,144,202290,1,0,0:0:0:0:
256,144,202353,1,0,0:0:0:0:
496,224,202478,6,0,L|448:240,1,47.5,2|0,0:0|0:0,0:0:0:0:
328,176,202603,2,0,L|328:224,1,47.5
160,144,202728,2,0,L|208:160,1,47.5,10|0,0:0|0:0,0:0:0:0:
328,96,202853,2,0,L|328:144,1,47.5
120,144,202978,6,0,L|504:144,1,380,2|10,0:0|0:0,0:0:0:0:
376,144,203290,1,0,0:0:0:0:
256,144,203353,1,0,0:0:0:0:
16,216,203478,6,0,L|64:216,1,47.5,2|0,0:0|0:0,0:0:0:0:
272,288,203603,2,0,L|224:288,1,47.5
177,288,203728,2,0,L|225:288,1,47.5,10|0,0:0|0:0,0:0:0:0:
432,360,203853,2,0,L|384:360,1,47.5
216,352,203978,6,0,B|32:352|32:352|8:304|8:304|32:256|32:256|224:256,1,475,2|10,0:1|0:0,0:0:0:0:
496,248,204353,1,0,0:0:0:0:
304,96,204478,2,0,L|304:192,1,95,2|0,0:0|0:0,0:0:0:0:
112,192,204728,2,0,L|8:192,1,95,10|0,0:0|0:0,0:0:0:0:
328,288,204978,6,0,L|328:336,3,47.5,2|0|0|0,0:0|0:0|0:0|0:0,0:0:0:0:
112,336,205228,2,0,L|8:336,1,95,10|0,0:0|0:0,0:0:0:0:
368,336,205478,6,0,P|440:328|496:232,1,190,2|10,0:0|0:0,0:0:0:0:
200,64,205853,1,0,0:0:0:0:
312,64,205978,1,0,0:0:0:0:
256,192,206228,12,0,207728,0:0:0:0:
304,184,207978,6,0,L|304:240,3,47.5,6|0|0|0,0:0|0:0|0:0|0:0,0:0:0:0:
216,224,208228,6,0,L|200:280,3,47.5,2|0|0|0,0:0|0:0|0:0|0:0,0:0:0:0:
288,232,208478,6,0,L|304:288,3,47.5,2|0|0|0,0:0|0:0|0:0|0:0,0:0:0:0:
216,184,208728,6,0,L|216:240,3,47.5,2|0|0|0,0:0|0:0|0:0|0:0,0:0:0:0:
312,192,208978,6,0,L|312:144,3,47.5,2|0|0|0,0:0|0:0|0:0|0:0,0:0:0:0:
368,144,209228,6,0,L|368:96,3,47.5,2|0|0|0,0:0|0:0|0:0|0:0,0:0:0:0:
424,96,209478,6,0,L|424:48,3,47.5,2|0|0|0,0:0|0:0|0:0|0:0,0:0:0:0:
480,48,209728,6,0,L|480:0,3,47.5,2|0|0|0,0:0|0:0|0:0|0:0,0:0:0:0:
376,48,209978,6,0,L|400:8,3,47.5,2|0|0|0,0:0|0:0|0:0|0:0,0:0:0:0:
304,88,210228,5,2,0:0:0:0:
320,88,210290,1,0,0:0:0:0:
336,88,210353,1,0,0:0:0:0:
352,88,210415,1,0,0:0:0:0:
296,144,210478,5,2,0:0:0:0:
249,135,210540,1,0,0:0:0:0:
206,153,210603,1,0,0:0:0:0:
180,192,210665,1,0,0:0:0:0:
179,239,210728,1,2,0:0:0:0:
204,279,210790,1,0,0:0:0:0:
247,298,210853,1,0,0:0:0:0:
296,304,210915,1,0,0:0:0:0:
376,288,210978,6,0,L|392:240,3,47.5,2|0|0|0,0:0|0:0|0:0|0:0,0:0:0:0:
320,240,211228,6,0,L|336:192,3,47.5,2|0|0|0,0:0|0:0|0:0|0:0,0:0:0:0:
248,192,211478,6,0,L|232:144,3,47.5,2|0|0|0,0:0|0:0|0:0|0:0,0:0:0:0:
304,144,211728,6,0,L|288:96,3,47.5,2|0|0|0,0:0|0:0|0:0|0:0,0:0:0:0:
104,80,211978,6,0,L|16:208,1,142.5,6|0,0:0|0:0,0:0:0:0:
104,208,212228,2,0,P|152:248|176:336,1,142.5,2|0,0:0|0:0,0:0:0:0:
256,328,212478,2,0,L|256:160,1,142.5,2|0,0:0|0:0,0:0:0:0:
376,184,212728,2,0,P|376:120|320:56,1,142.5,2|0,0:0|0:0,0:0:0:0:
408,48,212978,6,0,P|472:96|496:160,1,142.5,2|0,0:0|0:0,0:0:0:0:
352,240,213228,2,0,B|296:184|272:112,1,142.5,2|0,0:0|0:0,0:0:0:0:
144,112,213478,2,0,P|96:128|48:208,1,142.5,2|0,0:0|0:0,0:0:0:0:
288,176,213728,5,2,0:0:0:0:
304,200,213759,1,0,0:0:0:0:
304,224,213790,1,0,0:0:0:0:
296,240,213821,1,0,0:0:0:0:
280,256,213853,1,0,0:0:0:0:
256,264,213884,1,0,0:0:0:0:
216,264,213915,1,0,0:0:0:0:
96,264,213978,6,0,L|96:112,1,142.5,2|0,0:0|0:0,0:0:0:0:
256,160,214228,2,0,P|304:120|328:32,1,142.5,2|0,0:0|0:0,0:0:0:0:
408,184,214478,2,0,P|440:112|408:64,1,142.5,2|0,0:0|0:0,0:0:0:0:
280,184,214728,2,0,P|264:248|312:312,1,142.5,2|0,0:0|0:0,0:0:0:0:
176,304,214978,6,0,P|120:272|104:192,1,142.5,2|0,0:0|0:0,0:0:0:0:
424,136,215228,1,2,0:0:0:0:
488,136,215311,1,0,0:0:0:0:
344,120,215394,1,0,0:0:0:0:
200,120,215478,2,0,L|200:328,1,190
360,48,215978,5,6,0:0:0:0:
304,48,216040,1,0,0:0:0:0:
248,48,216103,1,0,0:0:0:0:
192,48,216165,1,0,0:0:0:0:
192,80,216228,5,2,0:0:0:0:
136,80,216290,1,0,0:0:0:0:
80,80,216353,1,0,0:0:0:0:
24,80,216415,1,0,0:0:0:0:
24,128,216478,5,2,0:0:0:0:
80,128,216540,1,0,0:0:0:0:
136,128,216603,1,0,0:0:0:0:
192,128,216665,1,0,0:0:0:0:
192,160,216728,5,2,0:0:0:0:
248,160,216790,1,0,0:0:0:0:
304,160,216853,1,0,0:0:0:0:
360,160,216915,1,0,0:0:0:0:
360,192,216978,6,0,L|280:192,1,47.5,2|0,0:0|0:0,0:0:0:0:
184,232,217103,2,0,L|136:232,1,47.5
400,224,217228,2,0,L|320:224,1,47.5,2|0,0:0|0:0,0:0:0:0:
224,264,217353,2,0,L|176:264,1,47.5
352,296,217478,5,2,0:0:0:0:
352,296,217540,1,0,0:0:0:0:
424,296,217603,1,0,0:0:0:0:
424,296,217665,1,0,0:0:0:0:
224,360,217728,6,0,L|176:360,1,47.5,2|0,0:0|0:0,0:0:0:0:
320,360,217853,2,0,L|368:360,1,47.5
488,360,217978,6,0,L|488:296,3,47.5,2|0|0|0,0:0|0:0|0:0|0:0,0:0:0:0:
408,256,218228,5,2,0:0:0:0:
352,256,218290,1,0,0:0:0:0:
312,231,218353,1,0,0:0:0:0:
296,184,218415,1,0,0:0:0:0:
224,168,218478,5,2,0:0:0:0:
280,168,218540,1,0,0:0:0:0:
320,143,218603,1,0,0:0:0:0:
336,96,218665,1,0,0:0:0:0:
256,96,218728,6,0,L|256:40,3,47.5,2|0|0|0,0:0|0:0|0:0|0:0,0:0:0:0:
88,48,218978,6,0,L|16:48,1,47.5,2|0,0:0|0:0,0:0:0:0:
304,120,219103,2,0,L|304:176,1,47.5
136,120,219228,2,0,L|64:120,1,47.5,2|0,0:0|0:0,0:0:0:0:
376,120,219353,2,0,L|448:120,1,47.5
208,120,219478,6,0,L|208:56,1,47.5,2|0,0:0|0:0,0:0:0:0:
424,48,219603,2,0,L|496:48,1,47.5
136,192,219728,2,0,L|184:192,1,47.5,2|0,0:0|0:0,0:0:0:0:
328,192,219853,2,0,L|376:192,1,47.5
56,48,219978,6,0,P|16:96|80:112,1,142.5,6|0,0:0|0:0,0:0:0:0:
312,128,220228,2,0,P|224:128|152:96,1,142.5,2|0,0:0|0:0,0:0:0:0:
392,64,220478,6,0,L|496:64,1,95,2|0,0:0|0:0,0:0:0:0:
200,32,220728,2,0,L|104:32,1,95,2|0,0:0|0:0,0:0:0:0:
432,160,220978,5,2,0:0:0:0:
192,192,221103,1,0,0:0:0:0:
400,248,221228,2,0,L|400:144,1,95,2|0,0:0|0:0,0:0:0:0:
160,120,221478,5,2,0:0:0:0:
256,120,221603,1,0,0:0:0:0:
24,192,221728,1,2,0:0:0:0:
328,208,221853,1,0,0:0:0:0:
112,304,221978,6,0,L|112:200,1,95,2|0,0:0|0:0,0:0:0:0:
400,304,222228,2,0,L|400:200,1,95,2|0,0:0|0:0,0:0:0:0:
160,144,222478,5,2,0:0:0:0:
256,144,222603,1,0,0:0:0:0:
32,232,222728,1,2,0:0:0:0:
304,312,222853,1,0,0:0:0:0:
208,304,222978,5,2,0:0:0:0:
440,256,223103,1,0,0:0:0:0:
144,208,223228,1,2,0:0:0:0:
472,152,223353,1,0,0:0:0:0:
224,352,223478,5,0,0:0:0:0:
264,352,223509,1,0,0:0:0:0:
296,344,223540,1,0,0:0:0:0:
327,338,223571,1,0,0:0:0:0:
348,328,223603,1,0,0:0:0:0:
367,313,223634,1,0,0:0:0:0:
382,295,223665,1,0,0:0:0:0:
408,224,223696,1,0,0:0:0:0:
388,196,223728,1,0,0:0:0:0:
408,224,223759,1,0,0:0:0:0:
388,196,223790,1,0,0:0:0:0:
408,224,223821,1,0,0:0:0:0:
388,196,223853,1,0,0:0:0:0:
488,120,223978,5,6,0:0:0:0:
288,120,224040,1,0,0:0:0:0:
88,120,224103,1,0,0:0:0:0:
24,120,224165,1,0,0:0:0:0:
192,48,224228,5,10,0:0:0:0:
256,48,224290,1,0,0:0:0:0:
320,48,224353,1,0,0:0:0:0:
488,48,224415,1,0,0:0:0:0:
232,128,224478,5,2,0:1:0:0:
200,160,224540,1,0,0:0:0:0:
216,200,224603,1,0,0:0:0:0:
272,208,224665,1,0,0:0:0:0:
352,248,224728,5,10,0:0:0:0:
288,248,224790,1,0,0:0:0:0:
160,288,224853,1,0,0:0:0:0:
224,288,224915,1,0,0:0:0:0:
488,296,224978,6,0,L|488:240,1,47.5,2|0,0:0|0:0,0:0:0:0:
320,208,225103,2,0,L|320:152,1,47.5
128,104,225228,5,10,0:0:0:0:
64,104,225290,1,0,0:0:0:0:
208,104,225353,1,0,0:0:0:0:
352,104,225415,1,0,0:0:0:0:
288,104,225478,1,14,0:0:0:0:
160,104,225540,1,0,0:0:0:0:
24,136,225603,1,0,0:0:0:0:
88,136,225665,1,0,0:0:0:0:
288,328,225728,5,10,0:0:0:0:
328,328,225759,1,0,0:0:0:0:
360,320,225790,1,0,0:0:0:0:
392,304,225821,1,0,0:0:0:0:
413,291,225853,1,0,0:0:0:0:
435,275,225884,1,0,0:0:0:0:
451,251,225915,1,0,0:0:0:0:
184,40,225978,5,2,0:1:0:0:
360,40,226040,1,0,0:0:0:0:
424,40,226103,1,0,0:0:0:0:
488,40,226165,1,0,0:0:0:0:
328,40,226228,5,10,0:0:0:0:
152,40,226290,1,0,0:0:0:0:
88,40,226353,1,0,0:0:0:0:
24,40,226415,1,0,0:0:0:0:
184,72,226478,5,2,0:0:0:0:
248,72,226540,1,0,0:0:0:0:
184,112,226603,1,0,0:0:0:0:
120,112,226665,1,0,0:0:0:0:
296,120,226728,5,10,0:0:0:0:
360,120,226790,1,0,0:0:0:0:
424,120,226853,1,0,0:0:0:0:
488,120,226915,1,0,0:0:0:0:
256,200,226978,6,0,L|256:264,1,47.5,2|0,0:0|0:0,0:0:0:0:
328,248,227103,1,0,0:0:0:0:
264,248,227165,1,0,0:0:0:0:
88,248,227228,5,10,0:0:0:0:
24,248,227290,1,0,0:0:0:0:
88,248,227353,1,0,0:0:0:0:
152,248,227415,1,0,0:0:0:0:
328,312,227478,5,2,0:1:0:0:
392,312,227540,1,0,0:0:0:0:
184,312,227603,1,0,0:0:0:0:
120,312,227665,1,0,0:0:0:0:
360,144,227728,5,10,0:1:0:0:
424,144,227790,1,0,0:0:0:0:
152,144,227853,1,8,0:0:0:0:
88,144,227915,1,0,0:0:0:0:
496,56,227978,6,0,L|56:56,1,427.500016307831,6|0,0:0|0:0,0:0:0:0:
16,56,228228,2,0,L|456:56,1,427.500016307831,2|0,0:0|0:0,0:0:0:0:
496,56,228478,2,0,L|496:128,1,47.5,2|0,0:0|0:0,0:0:0:0:
288,128,228603,5,0,0:0:0:0:
224,128,228665,1,0,0:0:0:0:
368,160,228728,1,10,0:0:0:0:
432,160,228790,1,0,0:0:0:0:
144,216,228853,1,0,0:0:0:0:
80,216,228915,1,0,0:0:0:0:
16,216,228978,5,2,0:1:0:0:
80,216,229040,1,0,0:0:0:0:
248,160,229103,2,0,L|248:96,1,47.5
432,72,229228,5,10,0:0:0:0:
472,72,229259,1,0,0:0:0:0:
489,87,229290,1,0,0:0:0:0:
496,109,229321,1,0,0:0:0:0:
488,131,229353,1,0,0:0:0:0:
456,144,229384,1,0,0:0:0:0:
368,144,229415,1,0,0:0:0:0:
232,272,229478,5,2,0:0:0:0:
80,272,229540,1,0,0:0:0:0:
80,328,229603,1,0,0:0:0:0:
144,328,229665,1,0,0:0:0:0:
320,328,229728,1,10,0:0:0:0:
256,328,229791,1,0,0:0:0:0:
80,136,229853,1,0,0:0:0:0:
16,136,229915,1,0,0:0:0:0:
224,32,229978,5,6,0:0:0:0:
256,32,230009,1,0,0:0:0:0:
289,32,230040,1,0,0:0:0:0:
322,32,230071,1,0,0:0:0:0:
355,32,230103,1,0,0:0:0:0:
387,32,230134,1,0,0:0:0:0:
504,40,230165,1,0,0:0:0:0:
288,72,230228,5,10,0:0:0:0:
256,72,230259,1,0,0:0:0:0:
223,72,230290,1,0,0:0:0:0:
190,72,230321,1,0,0:0:0:0:
157,72,230353,1,0,0:0:0:0:
125,72,230384,1,0,0:0:0:0:
8,72,230415,1,0,0:0:0:0:
256,264,230478,5,2,0:0:0:0:
296,264,230509,1,0,0:0:0:0:
324,254,230540,1,0,0:0:0:0:
355,235,230571,1,0,0:0:0:0:
368,216,230603,1,0,0:0:0:0:
376,192,230634,1,0,0:0:0:0:
272,192,230665,1,0,0:0:0:0:
104,184,230728,6,0,L|104:216,6,23.75,10|0|0|0|0|0|0,0:1|0:0|0:0|0:0|0:0|0:0|0:0,0:0:0:0:
320,336,230978,5,2,0:0:0:0:
392,336,231040,1,0,0:0:0:0:
448,328,231103,1,2,0:0:0:0:
496,296,231165,1,0,0:0:0:0:
280,280,231228,5,2,0:0:0:0:
277,231,231290,1,0,0:0:0:0:
312,205,231353,1,2,0:0:0:0:
377,204,231415,1,0,0:0:0:0:
160,192,231478,6,0,L|192:136,1,47.5,2|0,0:0|0:0,0:0:0:0:
312,144,231603,1,2,0:0:0:0:
360,144,231665,1,2,0:0:0:0:
74,60,231728,5,2,0:0:0:0:
48,96,231759,1,2,0:0:0:0:
40,144,231790,1,2,0:0:0:0:
48,184,231821,1,2,0:0:0:0:
72,208,231853,1,2,0:0:0:0:
120,216,231884,1,2,0:0:0:0:
216,224,231915,1,2,0:0:0:0:
352,208,231946,1,2,0:0:0:0:
488,96,231978,5,6,0:0:0:0:
120,280,232103,1,0,0:0:0:0:
352,336,232228,2,0,L|352:232,1,95,10|0,0:0|0:0,0:0:0:0:
112,352,232478,5,2,0:0:0:0:
440,232,232603,1,0,0:0:0:0:
32,160,232728,1,10,0:0:0:0:
352,200,232853,1,0,0:0:0:0:
352,200,232915,1,0,0:0:0:0:
184,160,232978,6,0,P|256:152|323:97,1,142.5,2|0,0:0|0:0,0:0:0:0:
112,96,233228,6,0,L|8:96,1,95,10|0,0:0|0:0,0:0:0:0:
288,64,233478,2,0,L|192:64,1,95,2|0,0:0|0:0,0:0:0:0:
424,136,233728,1,10,0:0:0:0:
128,216,233853,1,0,0:0:0:0:
464,200,233978,6,0,P|504:248|400:304,1,213.750008153916,2|0,0:0|0:0,0:0:0:0:
48,200,234228,2,0,P|8:248|112:304,1,213.750008153916,10|0,0:0|0:0,0:0:0:0:
328,160,234478,5,2,0:0:0:0:
392,160,234540,1,0,0:0:0:0:
216,256,234603,1,0,0:0:0:0:
152,256,234665,1,0,0:0:0:0:
360,272,234728,5,10,0:0:0:0:
424,272,234790,1,0,0:0:0:0:
488,272,234853,1,0,0:0:0:0:
344,240,234915,1,0,0:0:0:0:
200,192,234978,5,2,0:0:0:0:
264,192,235040,1,0,0:0:0:0:
328,160,235103,1,0,0:0:0:0:
264,160,235165,1,0,0:0:0:0:
144,160,235228,5,10,0:0:0:0:
24,160,235290,1,0,0:0:0:0:
216,96,235353,1,0,0:0:0:0:
280,96,235415,1,0,0:0:0:0:
48,208,235478,5,2,0:0:0:0:
24,256,235540,1,0,0:0:0:0:
40,304,235603,1,0,0:0:0:0:
112,320,235665,1,0,0:0:0:0:
256,336,235728,5,10,0:0:0:0:
440,256,235790,1,0,0:0:0:0:
376,256,235853,1,0,0:0:0:0:
120,256,235915,1,0,0:0:0:0:
256,352,235978,6,0,B|360:384|512:336|520:104|512:24|504:8|504:8|496:120|448:160|456:264|248:272,1,911.99997216797,4|0,0:0|0:0,0:0:0:0:
256,192,237103,12,0,239728,0:0:0:0:
320,104,239978,6,0,P|368:104|400:200,1,142.5,6|0,0:0|0:0,0:0:0:0:
192,280,240228,2,0,P|144:280|112:184,1,142.5,2|0,0:0|0:0,0:0:0:0:
384,136,240478,2,0,P|424:176|368:240,1,142.5,2|0,0:0|0:0,0:0:0:0:
128,248,240728,2,0,P|88:208|144:144,1,142.5,2|0,0:0|0:0,0:0:0:0:
336,64,240978,6,0,L|392:56,1,47.5,2|0,0:0|0:0,0:0:0:0:
168,64,241103,2,0,L|112:56,1,47.5
368,352,241228,2,0,P|448:352|496:296,1,142.5,10|0,0:0|0:0,0:0:0:0:
312,312,241478,2,0,P|272:272|336:232,1,142.5,2|0,0:0|0:0,0:0:0:0:
480,224,241728,1,2,0:0:0:0:
56,32,241978,6,0,L|32:192,1,142.5,2|0,0:0|0:0,0:0:0:0:
216,80,242228,2,0,L|224:144,1,47.5,2|0,0:0|0:0,0:0:0:0:
144,128,242353,2,0,L|136:192,1,47.5,8|0,0:0|0:0,0:0:0:0:
304,184,242478,2,0,L|328:344,1,142.5,2|0,0:0|0:0,0:0:0:0:
128,288,242728,2,0,P|80:320|144:336,1,142.5,10|0,0:0|0:0,0:0:0:0:
304,272,242978,6,0,P|386:270|448:248,1,142.5,2|0,0:0|0:0,0:0:0:0:
208,272,243228,2,0,P|126:270|64:248,1,142.5,2|0,0:0|0:0,0:0:0:0:
360,256,243478,2,0,P|416:224|424:136,1,142.5,2|0,0:0|0:0,0:0:0:0:
152,256,243728,2,0,P|96:224|88:136,1,142.5,2|0,0:0|0:0,0:0:0:0:
304,32,243978,6,0,P|352:64|288:80,1,142.5,2|0,0:0|0:0,0:0:0:0:
216,96,244228,2,0,L|216:144,1,47.5,2|0,0:0|0:0,0:0:0:0:
296,144,244353,2,0,L|296:192,1,47.5,8|0,0:0|0:0,0:0:0:0:
104,240,244478,1,2,0:0:0:0:
71,240,244509,1,0,0:0:0:0:
49,248,244540,1,0,0:0:0:0:
32,264,244571,1,0,0:0:0:0:
22,290,244603,1,0,0:0:0:0:
272,352,244728,6,0,P|328:344|368:264,1,142.5,10|0,0:0|0:0,0:0:0:0:
184,272,244978,2,0,P|136:232|160:152,1,142.5,2|0,0:0|0:0,0:0:0:0:
280,80,245228,2,0,P|328:96|368:176,1,142.5,2|0,0:0|0:0,0:0:0:0:
496,272,245478,6,0,L|488:336,7,47.5,2|0|0|0|0|0|0|0,0:0|0:0|0:0|0:0|0:0|0:0|0:0|0:0,0:0:0:0:
232,352,245978,6,0,P|192:344|128:256,1,142.5,2|0,0:0|0:0,0:0:0:0:
344,128,246228,2,0,L|400:120,1,47.5,2|0,0:0|0:0,0:0:0:0:
168,256,246353,2,0,L|112:264,1,47.5,8|0,0:0|0:0,0:0:0:0:
352,296,246478,2,0,P|384:264|320:200,1,142.5,10|0,0:0|0:0,0:0:0:0:
160,296,246728,2,0,P|128:264|192:200,1,142.5,2|0,0:0|0:0,0:0:0:0:
256,152,246978,5,0,0:0:0:0:
440,160,247978,6,0,L|472:144,6,35.625001358986,6|0|0|0|0|0|0,0:0|0:0|0:0|0:0|0:0|0:0|0:0,0:0:0:0:
392,160,248196,1,0,0:0:0:0:
344,192,248228,6,0,L|376:208,6,35.625001358986,2|0|0|0|0|0|0,0:0|0:0|0:0|0:0|0:0|0:0|0:0,0:0:0:0:
296,192,248446,1,0,0:0:0:0:
248,224,248478,6,0,L|280:208,6,35.625001358986,2|0|0|0|0|0|0,0:0|0:0|0:0|0:0|0:0|0:0|0:0,0:0:0:0:
200,224,248696,1,0,0:0:0:0:
152,256,248728,6,0,L|184:272,6,35.625001358986,2|0|0|0|0|0|0,0:0|0:0|0:0|0:0|0:0|0:0|0:0,0:0:0:0:
104,256,248946,1,0,0:0:0:0:
56,256,248978,5,2,0:0:0:0:
29,232,249009,1,0,0:0:0:0:
14,200,249040,1,0,0:0:0:0:
11,165,249071,1,0,0:0:0:0:
22,131,249103,1,0,0:0:0:0:
45,104,249134,1,0,0:0:0:0:
77,88,249165,1,0,0:0:0:0:
112,85,249196,1,0,0:0:0:0:
160,80,249228,5,2,0:0:0:0:
126,90,249259,1,0,0:0:0:0:
101,115,249290,1,0,0:0:0:0:
91,149,249321,1,0,0:0:0:0:
98,184,249353,1,0,0:0:0:0:
121,211,249384,1,0,0:0:0:0:
154,224,249415,1,0,0:0:0:0:
189,220,249446,1,0,0:0:0:0:
240,296,249478,5,2,0:0:0:0:
216,296,249509,1,0,0:0:0:0:
192,296,249540,1,0,0:0:0:0:
168,296,249571,1,0,0:0:0:0:
144,296,249603,1,0,0:0:0:0:
120,296,249634,1,0,0:0:0:0:
96,296,249665,1,0,0:0:0:0:
144,344,249696,1,0,0:0:0:0:
192,344,249728,6,0,L|232:320,7,35.625001358986,2|0|0|0|0|0|0|0,0:0|0:0|0:0|0:0|0:0|0:0|0:0|0:0,0:0:0:0:
368,344,249978,5,2,0:0:0:0:
403,344,250009,1,0,0:0:0:0:
437,333,250040,1,0,0:0:0:0:
465,311,250071,1,0,0:0:0:0:
484,281,250103,1,0,0:0:0:0:
492,247,250134,1,0,0:0:0:0:
489,212,250165,1,0,0:0:0:0:
440,208,250196,1,0,0:0:0:0:
392,208,250228,6,0,L|432:192,6,35.625001358986,2|0|0|0|0|0|0,0:0|0:0|0:0|0:0|0:0|0:0|0:0,0:0:0:0:
352,208,250446,1,0,0:0:0:0:
240,72,250478,5,2,0:0:0:0:
206,83,250509,1,0,0:0:0:0:
182,109,250540,1,0,0:0:0:0:
173,143,250571,1,0,0:0:0:0:
182,177,250603,1,0,0:0:0:0:
205,203,250634,1,0,0:0:0:0:
238,215,250665,1,0,0:0:0:0:
273,210,250696,1,0,0:0:0:0:
128,72,250728,5,2,0:0:0:0:
94,83,250759,1,0,0:0:0:0:
70,109,250790,1,0,0:0:0:0:
61,143,250821,1,0,0:0:0:0:
70,177,250853,1,0,0:0:0:0:
93,203,250884,1,0,0:0:0:0:
126,215,250915,1,0,0:0:0:0:
161,210,250946,1,0,0:0:0:0:
208,224,250978,6,0,L|176:208,7,35.625001358986,2|0|0|0|0|0|0|0,0:0|0:0|0:0|0:0|0:0|0:0|0:0|0:0,0:0:0:0:
128,272,251228,5,2,0:0:0:0:
152,272,251259,1,0,0:0:0:0:
176,272,251290,1,0,0:0:0:0:
200,272,251321,1,0,0:0:0:0:
224,272,251353,1,0,0:0:0:0:
248,272,251384,1,0,0:0:0:0:
272,272,251415,1,0,0:0:0:0:
288,272,251446,1,0,0:0:0:0:
328,328,251478,5,2,0:0:0:0:
304,328,251509,1,0,0:0:0:0:
280,328,251540,1,0,0:0:0:0:
256,328,251571,1,0,0:0:0:0:
232,328,251603,1,0,0:0:0:0:
208,328,251634,1,0,0:0:0:0:
184,328,251665,1,0,0:0:0:0:
232,360,251696,1,0,0:0:0:0:
280,360,251728,6,0,L|240:344,6,35.625001358986,2|0|0|0|0|0|0,0:0|0:0|0:0|0:0|0:0|0:0|0:0,0:0:0:0:
320,360,251946,1,0,0:0:0:0:
416,256,251978,5,2,0:0:0:0:
443,232,252009,1,0,0:0:0:0:
458,200,252040,1,0,0:0:0:0:
461,165,252071,1,0,0:0:0:0:
450,131,252103,1,0,0:0:0:0:
427,104,252134,1,0,0:0:0:0:
395,88,252165,1,0,0:0:0:0:
360,85,252196,1,0,0:0:0:0:
312,80,252228,5,2,0:0:0:0:
346,90,252259,1,0,0:0:0:0:
371,115,252290,1,0,0:0:0:0:
381,149,252321,1,0,0:0:0:0:
374,184,252353,1,0,0:0:0:0:
351,211,252384,1,0,0:0:0:0:
318,224,252415,1,0,0:0:0:0:
283,220,252446,1,0,0:0:0:0:
232,224,252478,5,2,0:0:0:0:
256,224,252509,1,0,0:0:0:0:
280,224,252540,1,0,0:0:0:0:
304,224,252571,1,0,0:0:0:0:
328,224,252603,1,0,0:0:0:0:
352,224,252634,1,0,0:0:0:0:
376,224,252665,1,0,0:0:0:0:
392,224,252696,1,0,0:0:0:0:
432,272,252728,5,2,0:0:0:0:
408,272,252759,1,0,0:0:0:0:
384,272,252790,1,0,0:0:0:0:
360,272,252821,1,0,0:0:0:0:
336,272,252853,1,0,0:0:0:0:
312,272,252884,1,0,0:0:0:0:
288,272,252915,1,0,0:0:0:0:
264,272,252946,1,0,0:0:0:0:
224,320,252978,5,2,0:0:0:0:
248,320,253009,1,0,0:0:0:0:
272,320,253040,1,0,0:0:0:0:
296,320,253071,1,0,0:0:0:0:
344,344,253103,5,0,0:0:0:0:
320,344,253134,1,0,0:0:0:0:
296,344,253165,1,0,0:0:0:0:
272,344,253196,1,0,0:0:0:0:
224,352,253228,6,0,L|259:352,6,35.625001358986,2|0|0|0|0|0|0,0:0|0:0|0:0|0:0|0:0|0:0|0:0,0:0:0:0:
184,352,253446,1,0,0:0:0:0:
152,352,253478,5,2,0:0:0:0:
116,349,253509,1,0,0:0:0:0:
87,330,253540,1,0,0:0:0:0:
71,298,253571,1,0,0:0:0:0:
74,263,253603,1,0,0:0:0:0:
93,234,253634,1,0,0:0:0:0:
124,218,253665,1,0,0:0:0:0:
160,220,253696,1,0,0:0:0:0:
360,32,253728,5,2,0:0:0:0:
396,35,253759,1,0,0:0:0:0:
425,54,253790,1,0,0:0:0:0:
441,86,253821,1,0,0:0:0:0:
438,121,253853,1,0,0:0:0:0:
419,150,253884,1,0,0:0:0:0:
388,166,253915,1,0,0:0:0:0:
352,164,253946,1,0,0:0:0:0:
208,96,253978,5,2,0:0:0:0:
184,96,254009,1,0,0:0:0:0:
160,96,254040,1,0,0:0:0:0:
136,96,254071,1,0,0:0:0:0:
112,96,254103,1,0,0:0:0:0:
88,96,254134,1,0,0:0:0:0:
64,96,254165,1,0,0:0:0:0:
40,96,254196,1,0,0:0:0:0:
8,160,254228,5,0,0:0:0:0:
40,160,254259,1,0,0:0:0:0:
72,160,254290,1,0,0:0:0:0:
104,160,254321,1,0,0:0:0:0:
136,160,254353,1,0,0:0:0:0:
168,160,254384,1,0,0:0:0:0:
200,160,254415,1,0,0:0:0:0:
232,160,254446,1,0,0:0:0:0:
264,160,254478,1,0,0:0:0:0:
296,160,254509,1,0,0:0:0:0:
328,160,254540,1,0,0:0:0:0:
504,192,254571,1,0,0:0:0:0:
504,192,254603,1,0,0:0:0:0:
504,192,254634,1,0,0:0:0:0:
504,192,254665,1,0,0:0:0:0:
504,192,254696,1,0,0:0:0:0:
472,192,254728,5,0,0:0:0:0:
440,192,254759,1,0,0:0:0:0:
408,192,254790,1,0,0:0:0:0:
376,192,254821,1,0,0:0:0:0:
344,192,254853,1,0,0:0:0:0:
312,192,254884,1,0,0:0:0:0:
280,192,254915,1,0,0:0:0:0:
248,192,254946,1,0,0:0:0:0:
32,184,254978,5,0,0:0:0:0:
32,184,255009,1,0,0:0:0:0:
32,184,255040,1,0,0:0:0:0:
32,184,255071,1,0,0:0:0:0:
64,184,255103,1,0,0:0:0:0:
96,184,255134,1,0,0:0:0:0:
128,184,255165,1,0,0:0:0:0:
160,184,255196,1,0,0:0:0:0:
320,240,255228,5,0,0:0:0:0:
352,240,255259,1,0,0:0:0:0:
384,240,255290,1,0,0:0:0:0:
416,240,255321,1,0,0:0:0:0:
456,240,255353,1,0,0:0:0:0:
416,240,255384,1,0,0:0:0:0:
384,240,255415,1,0,0:0:0:0:
352,240,255446,1,0,0:0:0:0:
192,240,255478,5,0,0:0:0:0:
160,240,255509,1,0,0:0:0:0:
128,240,255540,1,0,0:0:0:0:
96,240,255571,1,0,0:0:0:0:
56,240,255603,1,0,0:0:0:0:
96,240,255634,1,0,0:0:0:0:
128,240,255665,1,0,0:0:0:0:
160,240,255696,1,0,0:0:0:0:
272,296,255728,5,0,0:0:0:0:
304,296,255759,1,0,0:0:0:0:
336,296,255790,1,0,0:0:0:0:
368,296,255821,1,0,0:0:0:0:
408,296,255853,1,0,0:0:0:0:
440,296,255884,1,0,0:0:0:0:
472,296,255915,1,0,0:0:0:0:
504,296,255946,1,0,0:0:0:0:
304,32,255978,6,0,P|241:33|184:104,2,152,6|0|0,0:0|0:0|0:0,0:0:0:0:
160,88,256728,2,0,L|40:88,2,113.999996520996
336,88,257478,1,0,0:0:0:0:
160,136,257728,1,0,0:0:0:0:
160,136,257853,1,0,0:0:0:0:
384,168,257978,6,2,L|512:168,1,113.999996520996
304,208,258478,2,0,L|432:208,1,113.999996520996
216,320,258978,2,0,P|168:288|224:152,1,227.999993041992
408,136,259728,1,0,0:0:0:0:
80,24,259978,6,0,L|16:264,2,227.999993041992,6|6|0,0:0|0:0|0:0,0:0:0:0:
168,24,261103,5,0,0:0:0:0:
256,24,261228,2,0,L|256:96,1,56.9999982604981
352,80,261478,2,0,L|352:152,1,56.9999982604981
232,136,261728,2,0,P|176:128|152:88,1,85.4999973907472
352,40,261978,6,2,P|392:96|320:112,1,152
216,120,262353,1,0,0:0:0:0:
448,112,262478,2,2,P|504:168|424:192,1,190
296,192,262853,1,0,0:0:0:0:
72,240,262978,6,0,L|0:240,1,56.9999982604981,2|0,0:0|0:0,0:0:0:0:
232,80,263228,2,0,L|240:160,1,56.9999982604981,2|0,0:0|0:0,0:0:0:0:
136,136,263478,2,0,L|128:216,1,56.9999982604981,2|0,0:0|0:0,0:0:0:0:
384,208,263728,2,0,L|456:208,1,56.9999982604981,2|0,0:0|0:0,0:0:0:0:
112,352,263978,6,0,P|48:280|248:360,1,797.999975646973,6|0,0:0|0:0,0:0:0:0:
56,352,265978,6,0,P|144:360|400:128,1,455.999986083985,2|0,0:0|0:0,0:0:0:0:
400,128,267478,1,0,0:0:0:0:
256,192,267978,12,0,271728,0:0:0:0:
312,360,271978,6,0,L|312:72,1,285
464,360,272978,2,0,L|480:72,1,285
328,72,273978,6,0,P|272:176|248:344,1,285
400,336,274978,2,0,P|424:296|328:224,1,190
24,216,275728,1,0,0:0:0:0:
248,352,275978,6,0,P|256:320|152:96,1,285
312,80,276978,2,0,P|368:88|480:272,1,285
160,352,277978,6,0,P|104:264|344:296,1,570
136,280,279728,1,0,0:0:0:0:
472,360,279978,6,0,L|488:72,1,285,4|0,0:0|0:0,0:0:0:0:
336,72,280978,2,0,P|272:80|336:216,1,285
176,72,281978,5,0,0:0:0:0:
260,99,282228,1,0,0:0:0:0:
260,188,282478,1,0,0:0:0:0:
176,216,282728,1,0,0:0:0:0:
24,184,282978,2,0,L|24:376,1,190
384,144,283728,1,0,0:0:0:0:
168,64,283978,6,0,P|120:80|176:248,1,285
344,64,284978,2,0,P|376:80|320:184,1,190
120,192,285728,1,0,0:0:0:0:
432,360,285978,6,0,P|472:312|392:16,1,398.999987823487
64,64,287728,1,0,0:0:0:0:
288,80,287978,6,0,L|232:160,3,95,4|0|0|0,0:0|0:0|0:0|0:0,0:0:0:0:
392,168,288978,2,0,L|448:248,1,95
288,256,289478,2,0,L|232:336,1,95
80,200,289978,6,0,L|136:280,3,95
256,360,290978,2,0,P|192:368|120:272,1,190
432,152,291728,1,0,0:0:0:0:
224,136,291978,5,0,0:0:0:0:
288,176,292228,1,0,0:0:0:0:
224,136,292478,1,0,0:0:0:0:
288,176,292728,1,0,0:0:0:0:
136,288,292978,2,0,P|104:288|24:168,1,190
176,152,293728,1,0,0:0:0:0:
488,352,293978,6,0,P|424:192|168:360,1,570
376,352,295728,1,0,0:0:0:0:
24,200,295978,5,6,0:0:0:0:
176,168,296228,1,2,0:0:0:0:
64,152,296478,1,2,0:0:0:0:
256,120,296728,1,2,0:0:0:0:
144,112,296978,1,2,0:0:0:0:
360,80,297228,1,2,0:0:0:0:
232,64,297478,1,2,0:0:0:0:
456,32,297728,1,2,0:0:0:0:
104,112,297978,5,2,0:0:0:0:
256,168,298228,1,2,0:0:0:0:
56,224,298478,1,2,0:0:0:0:
296,264,298728,1,2,0:0:0:0:
104,328,298978,1,2,0:0:0:0:
256,296,299228,1,2,0:0:0:0:
32,304,299478,6,2,L|32:208,1,95
376,112,299978,5,2,0:0:0:0:
224,152,300228,1,2,0:0:0:0:
432,152,300478,1,2,0:0:0:0:
280,192,300728,1,2,0:0:0:0:
488,192,300978,1,2,0:0:0:0:
336,232,301228,1,2,0:0:0:0:
24,160,301478,1,2,0:0:0:0:
224,160,301728,1,2,0:0:0:0:
256,192,301978,12,0,303478,0:0:0:0:
216,240,303978,5,6,0:0:0:0:
144,240,304040,1,0,0:0:0:0:
93,232,304103,1,0,0:0:0:0:
64,208,304165,1,0,0:0:0:0:
296,240,304228,5,2,0:0:0:0:
368,240,304290,1,0,0:0:0:0:
419,232,304353,1,0,0:0:0:0:
448,208,304415,1,0,0:0:0:0:
224,96,304478,6,0,L|216:152,1,47.5,2|0,0:0|0:0,0:0:0:0:
288,136,304603,2,0,L|296:192,1,47.5
128,96,304728,2,0,L|144:144,1,47.5,2|0,0:0|0:0,0:0:0:0:
217,143,304853,2,0,L|200:192,1,47.5
32,240,304978,5,2,0:0:0:0:
16,288,305040,1,0,0:0:0:0:
40,336,305103,1,0,0:0:0:0:
112,344,305165,1,0,0:0:0:0:
328,344,305228,6,0,L|320:288,1,47.5,2|0,0:0|0:0,0:0:0:0:
192,288,305353,2,0,L|144:288,1,47.5
376,192,305478,5,2,0:0:0:0:
432,192,305540,1,0,0:0:0:0:
432,192,305603,1,0,0:0:0:0:
376,192,305665,1,0,0:0:0:0:
168,64,305728,5,2,0:0:0:0:
224,64,305790,1,0,0:0:0:0:
280,64,305853,1,0,0:0:0:0:
336,64,305915,1,0,0:0:0:0:
120,96,305978,5,2,0:0:0:0:
64,96,306040,1,0,0:0:0:0:
64,96,306103,1,0,0:0:0:0:
120,96,306165,1,0,0:0:0:0:
336,352,306228,5,2,0:0:0:0:
408,336,306290,1,0,0:0:0:0:
448,288,306353,1,0,0:0:0:0:
456,224,306415,1,0,0:0:0:0:
432,168,306478,1,2,0:0:0:0:
376,144,306540,1,0,0:0:0:0:
304,144,306603,1,0,0:0:0:0:
168,160,306665,1,0,0:0:0:0:
376,280,306728,5,2,0:0:0:0:
448,264,306790,1,0,0:0:0:0:
488,216,306853,1,0,0:0:0:0:
496,152,306915,1,0,0:0:0:0:
472,96,306978,1,2,0:0:0:0:
416,72,307040,1,0,0:0:0:0:
344,72,307103,1,0,0:0:0:0:
200,88,307165,1,0,0:0:0:0:
272,120,307228,6,0,L|272:56,3,47.5,2|0|0|0,0:0|0:0|0:0|0:0,0:0:0:0:
104,56,307478,5,2,0:0:0:0:
64,96,307540,1,0,0:0:0:0:
72,152,307603,1,0,0:0:0:0:
128,176,307665,1,0,0:0:0:0:
248,216,307728,5,2,0:0:0:0:
368,216,307790,1,0,0:0:0:0:
368,216,307853,1,0,0:0:0:0:
224,160,307915,1,0,0:0:0:0:
72,40,307978,6,0,B|40:176|40:176|64:320|64:320|128:176,1,427.500016307831,10|0,0:0|0:0,0:0:0:0:
400,304,308228,6,0,B|192:192|192:192|160:48,1,356.25,2|0,0:0|0:0,0:0:0:0:
384,152,308478,6,0,L|448:152,1,47.5,2|0,0:0|0:0,0:0:0:0:
224,152,308603,2,0,L|160:152,1,47.5
304,152,308728,1,2,0:0:0:0:
431,152,308790,1,0,0:0:0:0:
224,152,308853,2,0,L|160:152,1,47.5
472,224,308978,6,0,L|488:288,1,47.5,10|0,0:0|0:0,0:0:0:0:
336,248,309103,2,0,L|336:304,1,47.5
176,232,309228,2,0,P|256:232|296:184,1,142.5,2|0,0:0|0:0,0:0:0:0:
64,176,309478,5,2,0:0:0:0:
32,160,309509,1,0,0:0:0:0:
21,134,309540,1,0,0:0:0:0:
32,104,309571,1,0,0:0:0:0:
64,88,309603,1,0,0:0:0:0:
104,88,309634,1,0,0:0:0:0:
216,88,309665,1,0,0:0:0:0:
464,128,309728,6,0,L|416:128,1,47.5,10|0,0:0|0:0,0:0:0:0:
232,160,309853,2,0,L|280:160,1,47.5
488,192,309978,6,0,L|488:296,1,95,2|0,0:0|0:0,0:0:0:0:
208,256,310228,2,0,L|312:256,1,95,2|0,0:0|0:0,0:0:0:0:
24,192,310478,2,0,L|24:296,1,95,2|0,0:0|0:0,0:0:0:0:
304,256,310728,2,0,L|200:256,1,95,2|0,0:0|0:0,0:0:0:0:
488,120,310978,6,0,B|248:120|248:120|216:240,1,356.25,2|0,0:0|0:0,0:0:0:0:
200,264,311228,2,0,B|416:264|416:264|440:392,1,327.750006251335,2|0,0:0|0:0,0:0:0:0:
448,328,311478,2,0,B|112:328|112:328|96:152,1,498.750004756451,2|0,0:0|0:0,0:0:0:0:
288,160,311728,2,0,P|384:152|440:80,1,185.249991519928,2|0,0:0|0:0,0:0:0:0:
168,56,311978,5,6,0:0:0:0:
112,56,312040,1,0,0:0:0:0:
168,56,312103,1,0,0:0:0:0:
224,56,312165,1,0,0:0:0:0:
72,160,312228,1,2,0:0:0:0:
16,160,312290,1,0,0:0:0:0:
248,224,312353,5,0,0:0:0:0:
312,224,312415,1,0,0:0:0:0:
376,224,312478,1,2,0:0:0:0:
496,224,312540,1,0,0:0:0:0:
376,264,312603,1,0,0:0:0:0:
312,264,312665,1,0,0:0:0:0:
192,312,312728,5,2,0:0:0:0:
128,312,312790,1,0,0:0:0:0:
320,312,312853,2,0,L|320:240,1,47.5
200,280,312978,2,0,L|200:208,1,47.5,2|0,0:0|0:0,0:0:0:0:
80,232,313103,1,0,0:0:0:0:
32,232,313165,1,0,0:0:0:0:
304,160,313228,5,2,0:0:0:0:
360,160,313290,1,0,0:0:0:0:
416,160,313353,1,0,0:0:0:0:
288,128,313415,1,0,0:0:0:0:
160,88,313478,5,2,0:0:0:0:
216,88,313540,1,0,0:0:0:0:
272,88,313603,1,0,0:0:0:0:
152,64,313665,1,0,0:0:0:0:
16,360,313728,5,10,0:0:0:0:
16,360,313790,1,0,0:0:0:0:
144,328,313853,2,0,L|144:280,1,47.5
264,248,313978,5,2,0:0:0:0:
384,248,314040,1,0,0:0:0:0:
208,160,314103,1,0,0:0:0:0:
144,160,314165,1,0,0:0:0:0:
312,160,314228,5,10,0:0:0:0:
480,160,314290,1,0,0:0:0:0:
424,160,314353,1,0,0:0:0:0:
296,160,314415,1,0,0:0:0:0:
176,224,314478,5,2,0:0:0:0:
232,224,314540,1,0,0:0:0:0:
288,224,314603,1,0,0:0:0:0:
160,256,314665,1,0,0:0:0:0:
32,256,314728,6,0,L|24:208,3,47.5,2|0|0|0,0:0|0:0|0:0|0:0,0:0:0:0:
227,265,314978,5,2,0:0:0:0:
259,258,315009,1,0,0:0:0:0:
286,236,315040,1,0,0:0:0:0:
300,204,315071,1,0,0:0:0:0:
295,169,315103,1,0,0:0:0:0:
277,141,315134,1,0,0:0:0:0:
243,127,315165,1,0,0:0:0:0:
209,128,315196,1,0,0:0:0:0:
168,96,315228,5,2,0:0:0:0:
200,96,315259,1,0,0:0:0:0:
232,96,315290,1,0,0:0:0:0:
264,96,315321,1,0,0:0:0:0:
296,96,315353,1,0,0:0:0:0:
328,96,315384,1,0,0:0:0:0:
360,96,315415,1,0,0:0:0:0:
392,96,315446,1,0,0:0:0:0:
424,96,315478,5,2,0:0:0:0:
389,105,315509,1,0,0:0:0:0:
360,120,315540,1,0,0:0:0:0:
351,143,315571,1,0,0:0:0:0:
354,167,315603,1,0,0:0:0:0:
365,188,315634,1,0,0:0:0:0:
393,210,315665,1,0,0:0:0:0:
430,217,315696,1,0,0:0:0:0:
480,216,315728,6,0,L|488:264,3,47.5,2|0|0|0,0:0|0:0|0:0|0:0,0:0:0:0:
224,352,315978,6,0,L|216:288,1,47.5,2|0,0:0|0:0,0:0:0:0:
288,352,316103,2,0,L|296:288,1,47.5
112,248,316228,6,0,L|104:184,1,47.5,2|0,0:0|0:0,0:0:0:0:
400,248,316353,2,0,L|408:184,1,47.5
24,24,316478,6,0,B|24:312|24:312|328:312,1,570.000021743775,10|2,0:0|0:0,0:0:0:0:
306,312,316790,1,0,0:0:0:0:
136,304,316853,2,0,L|112:248,1,47.5
296,192,316978,6,0,B|504:0|504:0|360:96,1,427.500016307831,2|0,0:0|0:0,0:0:0:0:
168,192,317228,2,0,B|376:0|376:0|232:96,1,427.500016307831,2|0,0:0|0:0,0:0:0:0:
32,24,317478,6,0,L|24:80,1,47.5,10|0,0:0|0:0,0:0:0:0:
232,128,317603,2,0,L|240:184,1,47.5
168,168,317728,2,0,L|160:224,1,47.5,2|0,0:0|0:0,0:0:0:0:
400,224,317853,2,0,L|408:280,1,47.5
247,344,317978,6,0,L|200:344,1,47.5,10|0,0:0|0:0,0:0:0:0:
440,344,318103,2,0,L|488:344,1,47.5
128,296,318228,5,2,0:0:0:0:
97,277,318259,1,0,0:0:0:0:
83,244,318290,1,0,0:0:0:0:
91,210,318321,1,0,0:0:0:0:
119,188,318353,1,0,0:0:0:0:
153,186,318384,1,0,0:0:0:0:
256,192,318415,1,0,0:0:0:0:
408,200,318478,6,0,L|464:200,1,47.5,10|0,0:0|0:0,0:0:0:0:
136,176,318603,2,0,L|80:176,1,47.5
328,144,318728,2,0,L|384:144,1,47.5,2|0,0:0|0:0,0:0:0:0:
240,112,318853,2,0,L|176:112,1,47.5
256,192,318978,5,2,0:0:0:0:
256,192,319103,1,2,0:0:0:0:
296,240,319978,5,14,0:0:0:0:
368,240,320040,1,0,0:0:0:0:
419,232,320103,1,0,0:0:0:0:
448,208,320165,1,0,0:0:0:0:
216,240,320228,5,2,0:0:0:0:
144,240,320290,1,0,0:0:0:0:
93,232,320353,1,0,0:0:0:0:
64,208,320415,1,0,0:0:0:0:
336,168,320478,6,0,L|392:168,1,47.5,10|0,0:0|0:0,0:0:0:0:
232,120,320603,2,0,L|216:72,1,47.5
466,147,320728,5,2,0:0:0:0:
488,96,320790,1,0,0:0:0:0:
456,48,320853,1,0,0:0:0:0:
384,40,320915,1,0,0:0:0:0:
192,32,320978,6,0,L|176:80,1,47.5,2|0,0:0|0:0,0:0:0:0:
256,96,321103,2,0,L|272:144,1,47.5
192,136,321228,6,0,L|176:184,1,47.5,2|0,0:0|0:0,0:0:0:0:
336,176,321353,2,0,L|384:176,1,47.5
128,208,321478,6,0,L|72:208,1,47.5,2|0,0:0|0:0,0:0:0:0:
328,240,321603,2,0,L|328:288,1,47.5
168,280,321728,6,0,L|184:328,1,47.5,2|0,0:0|0:0,0:0:0:0:
256,304,321853,2,0,L|240:352,1,47.5
46,147,321978,5,2,0:0:0:0:
24,96,322040,1,0,0:0:0:0:
56,48,322103,1,0,0:0:0:0:
128,40,322165,1,0,0:0:0:0:
328,32,322228,5,2,0:0:0:0:
272,32,322290,1,0,0:0:0:0:
232,56,322353,1,0,0:0:0:0:
216,96,322415,1,0,0:0:0:0:
488,56,322478,6,0,L|488:120,1,47.5,2|0,0:0|0:0,0:0:0:0:
344,152,322603,2,0,L|344:216,1,47.5
424,200,322728,2,0,L|424:264,1,47.5,2|0,0:0|0:0,0:0:0:0:
344,152,322853,2,0,L|344:216,1,47.5
264,200,322978,6,0,L|264:264,1,47.5,2|0,0:0|0:0,0:0:0:0:
344,152,323103,2,0,L|344:216,1,47.5
424,200,323228,2,0,L|424:264,1,47.5,2|0,0:0|0:0,0:0:0:0:
240,256,323353,2,0,L|240:312,1,47.5
56,312,323478,5,2,0:0:0:0:
16,256,323540,1,0,0:0:0:0:
56,200,323603,1,0,0:0:0:0:
128,200,323665,1,0,0:0:0:0:
320,168,323728,5,2,0:0:0:0:
360,112,323790,1,0,0:0:0:0:
320,56,323853,1,0,0:0:0:0:
248,56,323915,1,0,0:0:0:0:
24,48,323978,6,0,L|16:96,1,47.5,2|0,0:0|0:0,0:0:0:0:
216,112,324103,2,0,L|224:160,1,47.5
160,152,324228,6,0,L|152:200,1,47.5,2|0,0:0|0:0,0:0:0:0:
344,216,324353,2,0,L|352:264,1,47.5
160,152,324478,6,0,L|152:200,1,47.5,2|0,0:0|0:0,0:0:0:0:
216,112,324603,2,0,L|224:160,1,47.5
24,48,324728,6,0,L|16:96,1,47.5,2|0,0:0|0:0,0:0:0:0:
216,40,324853,2,0,L|216:88,1,47.5
392,120,324978,5,2,0:0:0:0:
448,120,325040,1,0,0:0:0:0:
392,160,325103,1,0,0:0:0:0:
336,160,325165,1,0,0:0:0:0:
400,192,325228,5,2,0:0:0:0:
464,224,325290,1,0,0:0:0:0:
408,224,325353,1,0,0:0:0:0:
352,224,325415,1,0,0:0:0:0:
416,256,325478,5,2,0:0:0:0:
480,288,325540,1,0,0:0:0:0:
424,288,325603,1,0,0:0:0:0:
368,288,325665,1,0,0:0:0:0:
424,320,325728,5,2,0:0:0:0:
480,320,325790,1,0,0:0:0:0:
240,336,325853,2,0,L|176:336,1,47.5
432,72,325978,5,2,0:0:0:0:
435,119,326040,1,0,0:0:0:0:
439,166,326103,1,0,0:0:0:0:
120,64,326228,6,0,L|64:64,1,47.5,2|0,0:0|0:0,0:0:0:0:
232,128,326353,2,0,L|232:184,1,47.5
376,184,326478,2,0,L|376:240,1,47.5,10|0,0:0|0:0,0:0:0:0:
200,264,326603,5,0,0:0:0:0:
231,264,326665,1,0,0:0:0:0:
264,264,326728,1,2,0:0:0:0:
144,264,326790,1,0,0:0:0:0:
16,264,326853,1,0,0:0:0:0:
64,264,326915,1,0,0:0:0:0:
280,40,326978,6,0,B|496:176|496:176|352:176,1,384.750001467705,2|0,0:0|0:0,0:0:0:0:
232,40,327228,2,0,B|16:176|16:176|160:176,1,384.750001467705,2|0,0:0|0:0,0:0:0:0:
384,160,327478,5,10,0:0:0:0:
256,160,327540,1,0,0:0:0:0:
128,160,327603,1,2,0:0:0:0:
216,104,327728,1,2,0:0:0:0:
496,224,327853,2,0,L|496:248,2,23.75,2|0|0,0:0|0:0|0:0,0:0:0:0:
152,336,327978,6,0,L|120:336,1,23.75,6|0,0:0|0:0,0:0:0:0:
32,336,328103,2,0,L|16:304,1,23.75
232,256,328228,2,0,L|240:216,1,23.75,2|0,0:0|0:0,0:0:0:0:
32,208,328353,2,0,L|24:168,1,23.75
336,192,328478,6,0,L|360:160,1,23.75,2|0,0:0|0:0,0:0:0:0:
96,104,328603,2,0,L|112:64,1,23.75
480,176,328728,2,0,L|496:136,1,23.75,2|0,0:0|0:0,0:0:0:0:
224,48,328853,2,0,L|264:48,1,23.75
320,48,328978,6,0,L|280:48,1,23.75,2|0,0:0|0:0,0:0:0:0:
40,144,329103,2,0,L|16:144,1,23.75
314,190,329228,5,2,0:0:0:0:
344,236,329290,1,0,0:0:0:0:
318,291,329353,1,0,0:0:0:0:
254,299,329415,1,0,0:0:0:0:
92,208,329478,5,2,0:0:0:0:
142,208,329540,1,0,0:0:0:0:
193,208,329603,1,0,0:0:0:0:
243,208,329665,1,0,0:0:0:0:
46,237,329728,5,2,0:0:0:0:
24,288,329790,1,0,0:0:0:0:
56,336,329853,1,0,0:0:0:0:
128,344,329915,1,0,0:0:0:0:
248,312,329978,6,0,B|488:312|488:312|488:192,1,356.25,10|0,0:0|0:0,0:0:0:0:
296,96,330228,2,0,P|264:144|336:184,1,142.5,2|0,0:0|0:0,0:0:0:0:
128,64,330478,5,2,0:0:0:0:
72,64,330540,1,0,0:0:0:0:
208,64,330603,1,0,0:0:0:0:
344,64,330665,1,0,0:0:0:0:
200,96,330728,6,0,L|200:144,1,47.5,2|0,0:0|0:0,0:0:0:0:
64,144,330853,2,0,L|16:144,1,47.5
344,328,330978,5,10,0:0:0:0:
376,317,331009,1,0,0:0:0:0:
397,290,331040,1,0,0:0:0:0:
401,257,331071,1,0,0:0:0:0:
386,227,331103,1,0,0:0:0:0:
357,209,331134,1,0,0:0:0:0:
323,210,331165,1,0,0:0:0:0:
168,328,331228,5,2,0:0:0:0:
136,317,331259,1,0,0:0:0:0:
115,290,331290,1,0,0:0:0:0:
111,257,331321,1,0,0:0:0:0:
126,227,331353,1,0,0:0:0:0:
155,209,331384,1,0,0:0:0:0:
189,210,331415,1,0,0:0:0:0:
344,96,331478,6,0,L|344:144,1,47.5,2|0,0:0|0:0,0:0:0:0:
488,144,331603,2,0,L|488:200,1,47.5
224,144,331728,2,0,L|176:144,1,47.5,10|0,0:0|0:0,0:0:0:0:
448,224,331853,2,0,L|496:224,1,47.5,8|0,0:0|0:0,0:0:0:0:
184,352,331978,5,6,0:0:0:0:
96,352,332040,1,0,0:0:0:0:
40,296,332103,1,0,0:0:0:0:
16,224,332165,1,0,0:0:0:0:
40,152,332228,1,2,0:0:0:0:
104,104,332290,1,0,0:0:0:0:
224,104,332353,1,0,0:0:0:0:
367,136,332415,1,0,0:0:0:0:
455,144,332478,5,10,0:0:0:0:
496,120,332540,1,0,0:0:0:0:
504,72,332603,1,0,0:0:0:0:
478,40,332665,1,0,0:0:0:0:
433,27,332728,1,2,0:0:0:0:
360,27,332790,1,0,0:0:0:0:
205,41,332853,1,0,0:0:0:0:
16,128,332915,1,0,0:0:0:0:
296,328,332978,5,10,0:0:0:0:
336,320,333009,1,0,0:0:0:0:
351,295,333040,1,0,0:0:0:0:
352,272,333071,1,0,0:0:0:0:
341,251,333103,1,0,0:0:0:0:
312,240,333134,1,0,0:0:0:0:
272,240,333165,1,0,0:0:0:0:
112,288,333228,5,2,0:0:0:0:
72,280,333259,1,0,0:0:0:0:
57,255,333290,1,0,0:0:0:0:
56,232,333321,1,0,0:0:0:0:
67,211,333353,1,0,0:0:0:0:
96,200,333384,1,0,0:0:0:0:
136,200,333415,1,0,0:0:0:0:
376,224,333478,5,10,0:0:0:0:
416,216,333509,1,0,0:0:0:0:
431,191,333540,1,0,0:0:0:0:
432,168,333571,1,0,0:0:0:0:
421,147,333603,1,0,0:0:0:0:
392,136,333634,1,0,0:0:0:0:
352,136,333665,1,0,0:0:0:0:
192,184,333728,5,2,0:0:0:0:
152,176,333759,1,0,0:0:0:0:
137,151,333790,1,0,0:0:0:0:
136,128,333821,1,0,0:0:0:0:
147,107,333853,1,0,0:0:0:0:
176,96,333884,1,0,0:0:0:0:
216,96,333915,1,0,0:0:0:0:
488,88,333978,6,0,L|488:144,3,47.5,10|0|0|0,0:0|0:0|0:0|0:0,0:0:0:0:
248,240,334228,6,0,L|248:296,3,47.5,2|0|0|0,0:0|0:0|0:0|0:0,0:0:0:0:
424,296,334478,6,0,L|424:352,3,47.5,10|0|0|0,0:0|0:0|0:0|0:0,0:0:0:0:
344,248,334728,6,0,L|344:304,3,47.5,2|0|0|0,0:0|0:0|0:0|0:0,0:0:0:0:
424,232,334978,5,0,0:0:0:0:
256,192,335165,1,2,0:0:0:0:
320,120,335353,1,2,0:0:0:0:
152,96,335540,1,2,0:0:0:0:
296,216,335978,6,0,B|504:216|504:216|448:104,1,313.500009567261,6|0,0:0|0:0,0:0:0:0:
216,216,336228,2,0,B|8:216|8:216|64:104,1,313.500009567261,10|0,0:0|0:0,0:0:0:0:
312,32,336478,5,2,0:0:0:0:
343,67,336540,1,0,0:0:0:0:
319,112,336603,1,0,0:0:0:0:
258,118,336665,1,0,0:0:0:0:
80,128,336728,6,0,L|80:192,1,47.5,10|0,0:0|0:0,0:0:0:0:
216,200,336853,2,0,L|216:272,1,47.5
400,208,336978,2,0,L|464:208,1,47.5,2|0,0:0|0:0,0:0:0:0:
264,312,337103,2,0,L|216:312,1,47.5
464,312,337228,6,0,P|504:264|392:200,1,227.999993041992,10|2,0:0|0:0,0:0:0:0:
328,192,337540,5,0,0:0:0:0:
136,168,337603,2,0,L|72:168,1,47.5
224,224,337728,2,0,L|288:224,1,47.5,10|0,0:0|0:0,0:0:0:0:
64,248,337853,2,0,L|0:248,1,47.5
320,352,337978,5,2,0:0:0:0:
320,328,338009,1,0,0:0:0:0:
320,304,338040,1,0,0:0:0:0:
400,304,338103,1,0,0:0:0:0:
400,280,338134,1,0,0:0:0:0:
400,256,338165,1,0,0:0:0:0:
232,328,338228,5,10,0:0:0:0:
144,328,338259,1,0,0:0:0:0:
106,313,338290,1,0,0:0:0:0:
91,290,338321,1,0,0:0:0:0:
92,267,338353,1,0,0:0:0:0:
112,248,338384,1,0,0:0:0:0:
152,233,338415,1,0,0:0:0:0:
256,232,338446,1,0,0:0:0:0:
368,184,338478,6,0,L|368:128,1,47.5,2|0,0:0|0:0,0:0:0:0:
176,104,338603,2,0,L|129:104,1,47.5
360,56,338728,5,10,0:0:0:0:
390,96,338790,1,0,0:0:0:0:
372,141,338853,1,0,0:0:0:0:
307,141,338915,1,0,0:0:0:0:
168,144,338978,1,2,0:0:0:0:
16,144,339040,1,0,0:0:0:0:
200,184,339103,6,0,L|200:248,1,47.5
128,240,339228,2,0,L|128:304,1,47.5,10|0,0:0|0:0,0:0:0:0:
376,240,339353,6,0,L|432:240,1,47.5
232,304,339478,2,0,L|168:304,1,47.5,2|0,0:0|0:0,0:0:0:0:
434,47,339603,5,0,0:0:0:0:
486,78,339665,1,0,0:0:0:0:
497,123,339728,1,10,0:0:0:0:
470,168,339790,1,0,0:0:0:0:
406,184,339853,1,0,0:0:0:0:
224,192,339915,1,0,0:0:0:0:
32,184,339978,6,0,L|32:240,1,47.5,2|0,0:0|0:0,0:0:0:0:
216,232,340103,2,0,L|152:232,1,47.5
112,232,340228,2,0,L|112:304,3,47.5,10|0|0|0,0:0|0:0|0:0|0:0,0:0:0:0:
320,80,340478,6,0,L|320:136,1,47.5,2|0,0:0|0:0,0:0:0:0:
136,128,340603,2,0,L|200:128,1,47.5
240,128,340728,2,0,L|240:200,3,47.5,10|0|0|0,0:0|0:0|0:0|0:0,0:0:0:0:
400,32,340978,6,0,L|504:32,1,95,2|0,0:0|0:0,0:0:0:0:
160,336,341228,2,0,B|80:352|16:240,1,170.999994781494,10|0,0:0|0:0,0:0:0:0:
288,240,341478,6,0,L|288:160,1,47.5,2|0,0:0|0:0,0:0:0:0:
216,192,341603,2,0,L|144:192,1,47.5
96,240,341728,2,0,L|96:176,1,47.5,10|0,0:0|0:0,0:0:0:0:
168,168,341853,2,0,L|168:112,1,47.5
368,104,341978,6,0,P|288:80|256:32,1,142.5,2|0,0:0|0:0,0:0:0:0:
456,120,342228,5,10,0:0:0:0:
488,128,342259,1,0,0:0:0:0:
502,153,342290,1,0,0:0:0:0:
502,176,342321,1,0,0:0:0:0:
489,196,342353,1,0,0:0:0:0:
456,208,342384,1,0,0:0:0:0:
416,208,342415,1,0,0:0:0:0:
256,240,342478,6,0,L|328:240,1,47.5,2|0,0:0|0:0,0:0:0:0:
368,208,342603,2,0,L|312:208,1,47.5
184,200,342728,5,10,0:0:0:0:
128,200,342790,1,0,0:0:0:0:
72,200,342853,1,0,0:0:0:0:
16,200,342915,1,0,0:0:0:0:
208,80,342978,6,0,L|264:80,1,47.5,2|0,0:0|0:0,0:0:0:0:
128,80,343103,2,0,L|128:160,1,47.5
304,128,343228,5,10,0:0:0:0:
368,128,343290,1,0,0:0:0:0:
432,128,343353,1,0,0:0:0:0:
496,128,343415,1,0,0:0:0:0:
280,152,343478,6,0,L|272:200,1,47.5,2|0,0:0|0:0,0:0:0:0:
424,200,343603,2,0,L|488:200,1,47.5
232,200,343728,5,10,0:0:0:0:
160,200,343790,1,0,0:0:0:0:
88,200,343853,1,0,0:0:0:0:
16,200,343915,1,0,0:0:0:0:
288,352,343978,6,0,P|352:352|488:320,1,170.999994781494,6|0,0:0|0:0,0:0:0:0:
264,352,344228,2,0,P|224:312|296:280,1,142.5,10|0,0:0|0:0,0:0:0:0:
90,272,344478,5,2,0:0:0:0:
27,242,344540,1,0,0:0:0:0:
8,178,344603,1,0,0:0:0:0:
34,113,344665,1,0,0:0:0:0:
112,93,344728,1,10,0:0:0:0:
280,120,344790,1,0,0:0:0:0:
424,56,344853,5,0,0:0:0:0:
472,104,344915,1,0,0:0:0:0:
480,168,344978,1,2,0:0:0:0:
456,232,345040,1,0,0:0:0:0:
390,264,345103,1,0,0:0:0:0:
256,264,345165,1,0,0:0:0:0:
480,232,345228,5,10,0:0:0:0:
504,280,345290,1,0,0:0:0:0:
480,328,345353,1,0,0:0:0:0:
411,328,345415,1,0,0:0:0:0:
224,200,345478,5,2,0:0:0:0:
192,248,345540,1,0,0:0:0:0:
221,304,345603,1,0,0:0:0:0:
288,328,345665,1,0,0:0:0:0:
344,288,345728,5,10,0:0:0:0:
357,224,345790,1,0,0:0:0:0:
300,196,345853,1,0,0:0:0:0:
168,184,345915,1,0,0:0:0:0:
8,176,345978,5,2,0:0:0:0:
136,168,346040,1,0,0:0:0:0:
208,144,346103,1,0,0:0:0:0:
256,96,346165,1,0,0:0:0:0:
448,128,346228,5,10,0:0:0:0:
320,120,346290,1,0,0:0:0:0:
248,96,346353,1,0,0:0:0:0:
200,48,346415,1,0,0:0:0:0:
64,272,346478,5,2,0:0:0:0:
192,264,346540,1,0,0:0:0:0:
264,240,346603,1,0,0:0:0:0:
312,192,346665,1,0,0:0:0:0:
504,224,346728,5,10,0:0:0:0:
376,216,346790,1,0,0:0:0:0:
304,192,346853,1,0,0:0:0:0:
256,144,346915,1,0,0:0:0:0:
401,65,346978,5,2,0:0:0:0:
465,111,347040,1,0,0:0:0:0:
500,181,347103,1,0,0:0:0:0:
500,257,347165,1,0,0:0:0:0:
465,314,347228,1,10,0:0:0:0:
400,344,347290,1,0,0:0:0:0:
316,353,347353,1,0,0:0:0:0:
168,352,347415,1,0,0:0:0:0:
32,312,347478,5,2,0:0:0:0:
160,312,347540,1,0,0:0:0:0:
280,288,347603,1,0,0:0:0:0:
332,231,347665,1,0,0:0:0:0:
342,160,347728,1,10,0:0:0:0:
314,96,347790,1,0,0:0:0:0:
256,64,347853,1,0,0:0:0:0:
136,56,347915,1,0,0:0:0:0:
16,56,347978,6,0,L|8:120,3,47.5,2|0|0|0,0:0|0:0|0:0|0:0,0:0:0:0:
208,120,348228,2,0,L|216:176,1,47.5,10|0,0:0|0:0,0:0:0:0:
144,160,348353,2,0,L|136:216,1,47.5
304,264,348478,5,2,0:0:0:0:
424,248,348540,1,0,0:0:0:0:
464,208,348603,1,0,0:0:0:0:
480,152,348665,1,0,0:0:0:0:
296,88,348728,6,0,L|280:144,1,47.5,10|0,0:0|0:0,0:0:0:0:
336,136,348853,2,0,L|408:136,1,47.5
168,288,348978,6,0,P|64:280|0:224,1,190,2|10,0:0|0:0,0:0:0:0:
416,64,349353,1,0,0:0:0:0:
152,40,349478,2,0,L|152:160,1,95,2|0,0:0|0:0,0:0:0:0:
40,168,349728,1,10,0:0:0:0:
416,200,349853,1,0,0:0:0:0:
152,256,349978,6,0,L|144:304,3,47.5,2|0|0|0,0:0|0:0|0:0|0:0,0:0:0:0:
312,232,350228,6,0,L|304:280,3,47.5,10|0|0|0,0:0|0:0|0:0|0:0,0:0:0:0:
472,200,350478,6,0,L|464:248,3,47.5,2|0|0|0,0:0|0:0|0:0|0:0,0:0:0:0:
320,96,350728,6,0,L|304:144,1,47.5,10|0,0:0|0:0,0:0:0:0:
368,144,350853,2,0,L|384:200,1,47.5
240,32,350978,6,0,B|120:112|56:160|32:328|32:328|24:352|16:376|16:376|16:336|16:336|8:296|16:152|88:112|88:112|184:24|368:8,1,997.500038051607
347,10,351978,6,8,B|115:10|115:10|67:130,3,341.999989562989,14|10|10|10,0:0|0:0|0:0|0:0,0:0:0:0:
216,160,352728,5,0,0:0:0:0:
208,192,352759,1,0,0:0:0:0:
144,224,352853,1,0,0:0:0:0:
128,256,352884,1,0,0:0:0:0:
416,120,352978,6,0,B|496:224|440:376|440:376|384:240,1,398.999987823487,2|0,0:0|0:0,0:0:0:0:
136,336,353228,6,0,B|368:208|368:208|408:80,1,398.999987823487,10|0,0:0|0:0,0:0:0:0:
144,72,353478,6,0,L|144:120,1,47.5,2|0,0:0|0:0,0:0:0:0:
264,72,353603,2,0,L|264:128,1,47.5
88,168,353728,6,0,L|104:216,1,47.5,10|0,0:0|0:0,0:0:0:0:
304,184,353853,2,0,L|288:232,1,47.5
32,312,353978,6,0,L|72:282,1,47.5,2|0,0:0|0:0,0:0:0:0:
344,320,354103,2,0,L|299:283,1,47.5
80,64,354228,5,10,0:0:0:0:
24,64,354290,1,0,0:0:0:0:
80,64,354353,1,0,0:0:0:0:
232,64,354415,1,0,0:0:0:0:
384,136,354478,6,0,L|392:216,3,47.5,2|0|0|0,0:0|0:0|0:0|0:0,0:0:0:0:
328,184,354728,1,10,0:0:0:0:
272,184,354790,1,0,0:0:0:0:
448,256,354853,2,0,L|504:256,1,47.5
256,352,354978,6,0,B|48:352|48:352|8:224,1,313.500009567261,2|0,0:0|0:0,0:0:0:0:
200,352,355228,6,0,P|240:224|160:48,1,313.500009567261,10|0,0:0|0:0,0:0:0:0:
256,32,355478,6,0,B|464:32|464:32|504:160,1,313.500009567261,2|0,0:0|0:0,0:0:0:0:
504,184,355728,1,10,0:0:0:0:
128,272,355853,1,0,0:0:0:0:
360,240,355978,5,2,0:0:0:0:
360,280,356040,1,0,0:0:0:0:
360,320,356103,1,0,0:0:0:0:
472,320,356228,1,10,0:0:0:0:
128,224,356353,1,0,0:0:0:0:
384,144,356478,1,2,0:0:0:0:
152,144,356603,1,0,0:0:0:0:
248,128,356728,1,10,0:0:0:0:
16,72,356853,1,0,0:0:0:0:
360,48,356978,5,2,0:0:0:0:
112,80,357103,1,0,0:0:0:0:
376,112,357228,1,10,0:0:0:0:
280,120,357353,1,0,0:0:0:0:
488,200,357478,1,2,0:0:0:0:
192,264,357603,1,0,0:0:0:0:
288,256,357728,1,10,0:0:0:0:
24,192,357853,1,0,0:0:0:0:
384,160,357978,5,2,0:0:0:0:
288,168,358103,1,0,0:0:0:0:
384,160,358228,1,10,0:0:0:0:
128,160,358353,1,0,0:0:0:0:
224,168,358478,1,2,0:0:0:0:
128,160,358603,1,0,0:0:0:0:
408,224,358728,1,10,0:0:0:0:
96,224,358853,1,0,0:0:0:0:
400,336,358978,5,2,0:0:0:0:
496,336,359103,1,0,0:0:0:0:
224,304,359228,5,10,0:0:0:0:
456,304,359353,1,0,0:0:0:0:
208,272,359478,5,2,0:0:0:0:
304,272,359603,1,0,0:0:0:0:
48,240,359728,5,10,0:0:0:0:
264,240,359853,1,0,0:0:0:0:
24,184,359978,6,0,P|16:112|80:64,1,142.5,4|0,0:0|0:0,0:0:0:0:
136,184,360228,2,0,P|128:112|192:64,1,142.5
248,184,360478,2,0,P|240:112|304:64,1,142.5
368,88,360728,2,0,P|296:88|216:32,1,170.999994781494
472,48,360978,6,0,L|504:96,3,47.5,2|0|0|0,0:0|0:0|0:0|0:0,0:0:0:0:
296,160,361228,5,10,0:0:0:0:
240,160,361290,1,0,0:0:0:0:
184,160,361353,1,0,0:0:0:0:
128,160,361415,1,0,0:0:0:0:
344,232,361478,5,2,0:0:0:0:
374,265,361540,1,0,0:0:0:0:
360,312,361603,1,0,0:0:0:0:
304,320,361665,1,0,0:0:0:0:
120,248,361728,5,10,0:0:0:0:
90,215,361790,1,0,0:0:0:0:
104,168,361853,1,0,0:0:0:0:
152,160,361915,1,0,0:0:0:0:
224,160,361978,5,2,0:0:0:0:
360,160,362040,1,0,0:0:0:0:
496,160,362103,1,0,0:0:0:0:
440,160,362165,1,0,0:0:0:0:
296,160,362228,6,0,L|296:80,1,47.5,10|0,0:0|0:0,0:0:0:0:
159,72,362353,2,0,L|112:72,1,47.5
352,24,362478,6,0,B|424:120|352:296|352:296|64:344,1,570.000021743775,2|10,0:0|0:0,0:0:0:0:
24,344,362790,1,0,0:0:0:0:
272,256,362853,2,0,L|320:256,1,47.5
120,288,362978,5,2,0:0:0:0:
133,268,363009,1,0,0:0:0:0:
146,248,363040,1,0,0:0:0:0:
159,228,363071,1,0,0:0:0:0:
172,208,363103,1,0,0:0:0:0:
185,188,363134,1,0,0:0:0:0:
198,168,363165,1,0,0:0:0:0:
211,149,363196,1,0,0:0:0:0:
224,129,363228,1,2,0:0:0:0:
237,109,363259,1,0,0:0:0:0:
250,89,363290,1,0,0:0:0:0:
263,69,363321,1,0,0:0:0:0:
276,49,363353,1,0,0:0:0:0:
224,48,363415,1,0,0:0:0:0:
176,48,363478,5,2,0:0:0:0:
224,48,363540,1,0,0:0:0:0:
352,88,363603,2,0,L|416:88,1,47.5
225,161,363728,1,2,0:0:0:0:
104,160,363790,1,0,0:0:0:0:
328,200,363853,1,0,0:0:0:0:
448,200,363915,1,0,0:0:0:0:
144,352,363978,6,0,L|48:352,1,95,2|0,0:0|0:0,0:0:0:0:
224,320,364165,5,0,0:0:0:0:
258,304,364196,1,0,0:0:0:0:
272,282,364228,1,10,0:0:0:0:
270,260,364258,1,0,0:0:0:0:
256,240,364290,1,0,0:0:0:0:
230,226,364321,1,0,0:0:0:0:
186,224,364352,1,0,0:0:0:0:
16,224,364415,5,0,0:0:0:0:
16,224,364478,1,2,0:0:0:0:
232,136,364603,1,0,0:0:0:0:
232,136,364665,1,2,0:0:0:0:
456,152,364790,1,0,0:0:0:0:
480,152,364821,1,0,0:0:0:0:
504,151,364853,1,0,0:0:0:0:
304,240,364978,6,0,L|392:184,1,95,2|0,0:0|0:0,0:0:0:0:
200,240,365165,2,0,L|200:176,1,47.5,2|0,0:0|0:0,0:0:0:0:
8,160,365353,1,2,0:0:0:0:
8,183,365384,1,0,0:0:0:0:
8,207,365415,1,0,0:0:0:0:
248,160,365541,1,2,0:0:0:0:
296,160,365603,1,0,0:0:0:0:
160,88,365728,5,8,0:0:0:0:
112,88,365790,1,0,0:0:0:0:
240,88,365853,1,8,0:0:0:0:
368,88,365915,1,0,0:0:0:0:
496,88,365978,6,0,L|384:88,1,95
224,224,366165,2,0,L|224:280,1,47.5,0|2,0:0|0:0,0:0:0:0:
8,272,366352,2,0,L|64:232,1,47.5,0|2,0:0|0:0,0:0:0:0:
288,224,366540,2,0,L|288:280,1,47.5,0|2,0:0|0:0,0:0:0:0:
504,272,366728,1,0,0:0:0:0:
448,272,366790,1,2,0:0:0:0:
392,272,366853,1,0,0:0:0:0:
207,353,366978,5,2,0:0:0:0:
243,354,367009,1,0,0:0:0:0:
277,343,367040,1,0,0:0:0:0:
300,332,367071,1,0,0:0:0:0:
321,311,367103,1,0,0:0:0:0:
334,288,367134,1,0,0:0:0:0:
341,256,367165,1,0,0:0:0:0:
119,115,367228,5,10,0:0:0:0:
89,165,367290,1,0,0:0:0:0:
113,210,367353,1,0,0:0:0:0:
178,211,367415,1,0,0:0:0:0:
328,224,367478,5,2,0:0:0:0:
504,224,367540,1,0,0:0:0:0:
312,224,367603,1,0,0:0:0:0:
152,224,367665,1,0,0:0:0:0:
32,224,367728,2,0,P|72:112|120:112,1,170.999994781494,10|0,0:0|0:0,0:0:0:0:
408,96,367978,5,8,0:3:0:0:
504,96,368009,1,0,0:0:0:0:
256,192,368103,12,0,375978,0:0:0:0:
